Welcome Guest ( Log In | Register )

История благодарностей участнику greyhound ::: Спасибо сказали: 948 раз(а)
Дата поста: В теме: За сообщение: Спасибо сказали:
Feb 25 2024, 14:08:45 Dimmu Bongir - Hvis Pipen Tar Oss (2023)
Cannabis Corpse от мира black metal.
(1) Genuine Thrashiac,
Feb 23 2024, 17:16:40 Borknagar - Fall (2024)
От прослушивания превью накатила приятная такая сонливость. Видимо, не суждено мне всё-таки проникнуться творчеством Borknagar, за исключением первых двух альбомов.
(1) Bzth,
Feb 19 2024, 13:05:17 Ihsahn - Ihsahn (2024)
По первому прослушиванию, узнаваемая, с фирменным почерком, но какая-то претенциозная и пустая по сути работа с ощущением, что товарищ Твейтан настолько увлёкся студийными возможностями со всеми этими оркестровками и мелочами в прогрессивном звучании, что совершенно забыл посмотреть в итоге на собственное творение со стороны и увидеть в ней цельное музыкальное полотно, будь оно мелодичным и насыщенно-атмосферным как After с Arktis, любопытным и неожиданным вроде экспериментального Das Seelenbrechen или въедливо-запоминающимся как композиции с Telemark / Pharos. Местами очень хорошо, но не покидает мысль, что музыкант придумал удачные ходы, но впечатлившись проделанной работой и своим гением, состыковал их друг с другом уже абы как, забыв вообще расставить какие-то акценты. Покамест лучшей композицией и единственной хоть как-то отложившейся в памяти отметил A Taste of the Ambrosia. Но все предыдущие альбомы нравятся, этот тоже буду расслушивать.
(2) Froze, Infidel,
Jan 14 2024, 09:44:05 Рдяндалир - Рдяндалир (2023)
ЦИТАТА(darkside @ Jan 14 2024, 09:10:53) *
Автор-то сдох, к чему такой бомбаж smile1.gif

При жизни культом стать так-то это надо талант иметь, а вот после релокации в деревянный макинтош шансы уже заметно возрастают.
Но и тут у BBH идею подсмотрел, разве что не по пьяни зарезался 1488.gif
Впрочем, пилил себе джжжж на разный лад человек, релизами менялся с друзьями, издавался там мизерными тиражами где-то... Да чё там, да и похyй.
(1) darkside,
Jan 6 2024, 15:57:12 Лучшие метал альбомы 2023 // Best 2023 Metal Releases
То, что запомнилось и осталось в плейлисте по итогам года:
Enslaved Heimdal
Suffocation Hymns From The Apocrypha
Devangelic Xul
Parasitario Everything Belongs To Death
Ahab The Coral Tombs
(1) metaljosue,
Jan 5 2024, 12:28:21 Игорь Куприянов - Северный Ветер (2023)
Поразительное неумение российского хэви метала в нормальное оформление своих альбомов и работу со шрифтами с обязательной стилизацией логотипа под Iron Maiden.
(3) abob, cesar, yuratroll,
Jan 5 2024, 12:24:03 Top of the pops 2023 (Black metal)
Судя по ностальгии Abigor к бумажным фензинам и кассетно-подвальным временам, они вполне не против были бы и интервью давать только печатным изданиям, игнорируя digital-контент в принципе.
(1) Daale,
Jan 5 2024, 11:10:35 Burzum - Filosofem (1996)
Вот когда зарежет своего издателя, тогда и уважение будет 1488.gif
(2) Chasm, ent404,
Dec 25 2023, 15:33:05 Новости Death Metal направления
Deicide дропнули сингл Bury the Cross... with Your Christ. Полноформатный альбом Banished By Sin выйдет в следующем году на Reigning Phoenix Music.

[youtube]9Pj67ZU89i4[/youtube]



С Рождеством!
(3) Emm Human, Nerevar, Occultas,
Dec 18 2023, 19:27:14 Natura Est - The Folly Of Mars (2023)


*Artist: Natura Est
*Album: The Folly Of Mars
*Year: 2023
*Genre: Dark Ambient
*Country: International
*Format: mp3@CBR320kbps
*Size: 83MB

Tracklist:
1. Extinction Concept 05:07
2. With One Eye On The Heavens 06:41
3. The Folly Of Mars 04:40
4. We Will End Time 05:23
5. The Fallen Empire Of Man 07:26
6. Sum Et Pulvis 05:23
******************************
Total playing time: 34:40



[more=Extended info]With The Folly of Mars, their fourth full album (and second for Cyclic Law), Tony Young and Andreas Davids explore man’s desire to conquer outer space at all cost; regardless of the more pressing issues that should be first resolved on their home planet. Billions of dollars have funded the urge of mans desire to populate the red planet and further explore its neighbouring satellites, whilst millions of people starve on their home soil. Climate change is ravaging the Earth in what is now our sixth mass extinction event; and whilst the quest for knowledge should be applauded, it has become a banner of ego for the small percentage of people who hoard the largest wealth. Over the course of six tracks, Natura Est ask the listener to contemplate the swathes of species that are dying out as our planet screams for urgent assistance; whilst the privileged few squander their riches, displaying a set of questionable morals that promote nothing but self-interest. Nature is all, all is nature; but who really is the beast?
Cyclic Law[/more]

[more=Technical info]
Input File: 01 - Natura Est - Extinction Concept.mp3
Channels : 2
Sample Rate : 44100
Precision : 16-bit
Duration : 00:05:07.05 = 13540817 samples = 23028.6 CDDA sectors
File Size : 12.9M
Bit Rate : 336k
Sample Encoding: MPEG audio (layer I, II or III)
Comments :
Title=Extinction Concept
Artist=Natura Est
Album=The Folly Of Mars
Tracknumber=01/06
Year=2023
Genre=Dark Ambient

[/more]

Register
(9) Chasm, gena, Grev, Hell_Is_Here, iuiubambam, Mist13Signifier, nemx, Niknne, vlad74,
Dec 18 2023, 17:31:17 Stars Without Light - Beneath And Before (2023)


*Artist: Stars Without Light
*Album: Beneath And Before
*Year: 2023
*Genre: Dark Ambient/Noise
*Country: Canada
*Format: mp3@CBR320kbps
*Size: 84MB

Tracklist:
1. Emerge and Decay 06:17
2. Sunken Ends 04:54
3. Ceaseless Ebullition 05:37
4. Hueless Dreams 02:00
5. Static Veil 05:07
6. Spectral Walls 02:57
7. Between The Columns 02:59
8. Echoed Reflection 04:41
9. Riddles of Delirium 01:15
******************************
Total playing time: 35:47



[more=Extended info]The inaugural offering from composer and dark ambient veteran Harlow MacFarlane (Funerary Call, Sistrenatus, Havan...)’s mysterious, unheard of Stars Without Light provides the score to a yet-to-be discovered, disintegrating film reel of the unknowable. With masterful curation of sound and catharsis, this shadowy entity coaxes the aural observer into a spectral Otherscape. Over the course of the disquieting Beneath And Before, we attempt to follow this captivating sonic narrative through an ever-shifting apocalyptic landscape, waiting, hiding behind a thin veil of synthetic scrapings, rhythmic grinding, and hissing surface noise, lest we are discovered by what dwells beyond.

The churn of electronic howls, twitching clatter, and all-out scrap metal assault submerges beneath contrapuntal found sounds and manipulated past echoes, selectively relieved by an occasional eerie calm. An unexplainable agoraphobia begins to take hold within this ebb and flow. With just enough analog textures, decaying tape loops, and perceptible instrumentation to fleetingly ground the listener back to tangible reality, we are cruelly reset for the next bout of formless fear. Unexpected thundering percussion and suffocating sub-abyssal rumblings provide momentary stabs of angular rhythm that tear through the apparitional atmosphere. But, only to hold your attention long enough so as to not lose you completely in the tension swarm.

We cannot help but follow the pull of this entrancing and expertly wrought collage of cacophony. MacFarlane has orchestrated a viscerally affecting hauntology reminiscent of no real place and no real time. As breathtakingly dynamic as it is surreally cinematic, we are left with the soundtrack to a film that should not be.
Cyclic Law[/more]

[more=Technical info]
Input File: 01 - Emerge And Decay.mp3
Channels : 2
Sample Rate : 44100
Precision : 16-bit
Duration : 00:06:17.00 = 16625700 samples = 28275 CDDA sectors
File Size : 15.3M
Bit Rate : 324k
Sample Encoding: MPEG audio (layer I, II or III)
Comments :
Title=Emerge And Decay
Artist=Stars Without Light
Album=Beneath And Before
Tracknumber=1
Year=2023-12-15
Genre=Электронная музыка
Discnumber=1

[/more]

Register
(5) ent404, Grev, Mist13Signifier, vlad74, zoog,
Dec 15 2023, 16:55:48 Ulver
Да чего отдельную тему ради сингла заводить, будет альбом - будет тема и обсуждение.
Песня отличная, на волне их последних студийных работ, ремикс от Autechre вышел на удивление спокойным и не мозговыворачивающим. Вообще люблю ремиксовые вещи от британцев, иногда очень любопытные вариации попадаются.
(1) Daale,
Dec 14 2023, 20:34:42 Grunt - Vieraat Aivot [live] (2023)


*Artist: Grunt
*Album: Vieraat Aivot [live]
*Year: 2023
*Genre: Power Electronics/Noise
*Country: Finland
*Format: mp3@CBR320kbps
*Size: 96MB

Tracklist:
1. Koneen Sisällä 3:15
2. Jokainen Teoria On Kahle 3:07
3. Human Taxidermy 2:26
4. Conquistador Memory Erasure 2:59
5. Cold Cleans Up 3:47
6. Vieraat Aivot 1:39
7. Euroopaan Hautajaiset 4:28
8. Linkolan Perintö 4:13
9. Jokainen Järjestelmä On Erehdys 6:55
10. Vieraat Huulet 4:20
11. Tuhat Kuolemaa Sekunnissa 3:57
******************************
Total playing time: 41:06



[more=Extended info]Celebrating the 30 years anniversary, Grunt performed live shows scheduled for exact month of projects formation. Shows consisted new material not heard on former albums or tapes. Studio quality recording of two shows presents Grunt works from many angles. From aggressive industrial noise / power electronics assaults to screeching scrap metal loops, from aggressive violent vocals to narrative spoken, recited pieces leaning to eerie and ritualistic atmospheres. Material of the CD was performed for private audience during late summer 2023 and two sets combined create Grunt album that has many of the known elements, but also pushing sound to formerly unheard directions.
Freak Animal Records[/more]

[more=Technical info]
Input File: 01 - Grunt - Konen Sisällä.mp3
Channels : 2
Sample Rate : 44100
Precision : 16-bit
Duration : 00:03:15.03 = 8600955 samples = 14627.5 CDDA sectors
File Size : 8.15M
Bit Rate : 334k
Sample Encoding: MPEG audio (layer I, II or III)
Comments :
Title=Konen Sisällä
Artist=Grunt
Album=Vieraat Aivot
Tracknumber=01
Year=2023
Genre=Power Electronics/Noise

[/more]

Register
(8) acerbus, Boozer, crackhead, Grev, Hell_Is_Here, mayhemehyam, NorthernResistance, POMAHOB,
Dec 13 2023, 16:58:45 Новости Death Metal направления
Morta Skuld Creation Undone
23/02/2024 Peaceville Records

(3) Emm Human, HelenVaughan, obscenity,
Dec 9 2023, 17:58:00 Новости Black-направления
Funeral Winds 333 (Osmose Productions)

(4) Antichrist, Bzth, rimfrost, thenecromancer,
Dec 9 2023, 14:21:22 Troll - Trolldom (2023)
ЦИТАТА(Daale @ Dec 9 2023, 14:30:27) *
Топ-5 в melodic/sympho black metal, без иронии. Где-то рядом с ранним Limbonic Art, первым Arcturus и т.д.

Возможно, но даже при условии, что именно NP первым и услышал у Covenant, синдром утёнка у меня не сработал. Тот же ранний Dimmu Borgir всегда нравился больше.

ЦИТАТА(Old Vyaine @ Dec 9 2023, 14:46:08) *
Да куда ещё-то, тут уже к земле надо привыкать потихоньку, о б-ге думать...

Как говорится: определять время по стрелкам легко. Если вы помните группу Стрелки - ваше время подходит к концу 1488.gif

ЦИТАТА(vosmidesijatye @ Dec 9 2023, 15:28:31) *
пифка лучше откройте

Дело! Невзирая на холод за окном, дерзко и уверенно сходил в магазин и взял три банки RIS на вечер. Радостно.
(1) Hexenmeister,
Dec 9 2023, 10:04:41 Troll - Trolldom (2023)
ЦИТАТА(Daale @ Dec 9 2023, 12:29:41) *
Плеваться от крутейшего альбома, ну ты конечно...

Люблю творчество The K/C ovenant, пластинки вон на полке стоят и даже периодически с удовольствием переслушиваются. Но мнение по поводу величия Nexus Polaris не разделяю - что двадцать лет назад он ничем меня не цеплял, что сейчас. Симфа и симфа, хз чего в нём такого.
(2) ent404, Sorc,
Dec 7 2023, 11:18:37 Sadistic Demise - …and Pathologist Wept (2023)
Ничем не примечательный и в меру брутальный death metal, неплохо записанный и стильно оформленный по канону, чтоб с кадаврами и кровищей. Предсказуемо же и осевший в ростере собирателя всея брутола Coyote Records: "будет нормально" - как говорил Корбен Даллас в Пятом Элементе. Осталось научиться сочинять и прогонять телеги, которые было бы интересно слушать более двух-трёх раз и безо всяких оглядок с кредитом доверия исключительно по месту обитания. С таким заданием, думается мне, куда удачнее в этом году справляются те же 7H.Target или Paroxysm Unit. А Sadistic Demise подвинуть в рейтинге прослушивания тех же Vomit The Soul покамест не удаётся, но зато есть возможность замещать такого же, как и они сами, среднего уровня группы, коих на планете и без того расплодилось - хyева гора.
(1) Chasm,
Dec 6 2023, 17:09:04 Troll - Trolldom (2023)
Поехавшая музыка. Словно потерявшееся звено во время трансформации из In Times Before The Light в Animatronic.

ЦИТАТА(Maximvs @ Dec 6 2023, 19:52:39) *
И где тут блэк?

(7) avather, ent404, Genuine Thrashiac, Occultas, stub888, ThornyAlex, yuratroll,
Dec 4 2023, 17:52:39 Sick Seed - Power Play (2017)
ЦИТАТА(Izverg @ Dec 4 2023, 18:45:38) *
Therion про него песни писал

Я Therion последний раз двадцать лет назад слушал и никогда не задумывался о чём они свои песни пишут.
(1) Hexenmeister,
Dec 1 2023, 18:26:07 Paradise Lost - Icon (1993)
ЦИТАТА(Old Vyaine @ Dec 1 2023, 01:21:23) *
У них не было прав на оригинальную Икону

ЦИТАТА(Aresson @ Dec 1 2023, 12:28:29) *
а как они перезаписали, если прав нету?

Better call Saul, anyway 1488.gif
(1) Фо,
Nov 29 2023, 20:00:49 Новости Black-направления
Финский Diaboli выпустил новую "семёрку" Ancient Worship на Darker Than Black. Говорят, даже послушать это дело можно.

(5) Occultas, rimfrost, thenecromancer, vovenom, Zahrim,
Nov 18 2023, 19:11:15 Insomnium - Anno 1696 (2023)
Я честно прослушал внимательно этот альбом от начала и до конца раза четыре, но кроме кроме композиции "The Rapids" он мне совершенно ничем не запомнился. Всё тот же melodic metal, но сыгранный совершенно без энтузиазма и хуковости или хотя бы атмосферности, присущей предыдущим записям. Единственный альбом Insomnium, к которому я определённо не буду возвращаться.
P.S. Кому нужен двойной винил этой балалайки + CD в комплекте - пишите письма в ЛС или на авито, например.
(1) CTPEMLEHIE,
Nov 18 2023, 18:57:26 Katatonia - Sky Void Of Stars (2023)
Добрался наконец и... лучше бы этот релиз вовсе прошёл мимо. Навеяло ассоциации со сборником отбракованных би-сайдов и прочего неликвида, оставшегося в студии после сессий предыдущих альбомов. На фоне того же City Burials, затянуто-унылая в плохом смысле, неинтересная и совершенно вымученная пластинка - полная хyитa, так сказать. Пойду лучше TGCD послушаю.
(1) plfan93,
Nov 16 2023, 12:51:24 Новости Experimental/Progressive Metal
Norwegian multi-instrumentalist and vocalist Ihsahn will be releasing a self-titled concept album in 2024 consisting of two intertwined releases, one of which being an orchestral version. Listen to the lead single, 'Pilgrimage To Oblivion', below.

[youtube]1WDCrgpKXaE[/youtube]

Ihsahn is set to be released on February 16th, 2024 via Candlelight
(1) Chasm,

10 Pages V   1 2 3 > » 
- Lo-Fi Version Support form
Copyrights and abuse reports form
Time is now: 16th April 2024 - 03:13:09