Welcome Guest ( Log In | Register )

Объявления

* gmail.com упорно продолжает считать почту с нас "unsolicited" и отбивает в том числе и письма активации, поэтому просьба использовать альтернативные почтовые ящики.
------------
* gmail.com continues reject all mail from us as "unsolicited" (activation mails too) therefore please use alternate mail servers.
История благодарностей участнику greyhound ::: Спасибо сказали: 953 раз(а)
Дата поста: В теме: За сообщение: Спасибо сказали:
Aug 6 2023, 07:24:35 Various Artists - Terässinfonia (vol.6) [compilation] (2023)


*Artist: Various Artists
*Album: Terässinfonia (vol.6) [compilation]
*Year: 2023
*Genre: Industrial/Noise/Power Electronics
*Country: Finland
*Format: mp3@CBR320kbps
*Size: 95MB

Tracklist:
1. Commando 15 - Lumijoki Death Cult 05:57
2. Axyrxiom - Harharetki 05:03
3. Old Intestines - Drunk On Weltschmerz 04:37
4. Isä Kosminen - Agneyastra 04:22
5. Kaarna - Sähkön Synty 03:42
6. Grunt - Mastot Taivaisiin 05:56
7. Näsiä - Plays The Beetles 04:10
8. Yksi - Decoded Mind Control 06:18
******************************
Total playing time: 40:05

[more=Extended info]Terässinfonia – Steel Symphony: Sound of Finnish experimental noise.

For 25 years Freak Animal Records has published countless releases by Finnish artists. Activities of label has played part in shaping perception how many people see the Finnish noise and experimental underground. Despite vast amount of releases, label has never given full view that would reveal diversity of expression found among Finnish scene.

After quarter of century of work, Freak Animal aimed to take a task of compilation series under title Terässinfonia. To present Finnish noisy and abstract experimental sound in wider scale. Assumption is, that there would be at least three volumes, if not more. All volumes include many projects unknown for vast majority of people. Series will illuminate that Finland is at this moment experiencing surge of creativity on this field, even if it may happen widely unnoticed.
2023. Freak Animal Records[/more]

[more=Technical info]
Input File: 06 - Grunt - Mastot Taivaisiin.mp3
Channels : 2
Sample Rate : 44100
Precision : 16-bit
Duration : 00:05:55.64 = 15683592 samples = 26672.8 CDDA sectors
File Size : 14.9M
Bit Rate : 335k
Sample Encoding: MPEG audio (layer I, II or III)
Comments :
Title=Mastot Taivaisiin
Artist=Grunt
Album=Terässinfonia (volume 6)
Tracknumber=06/08
Year=2023
Genre=39

[/more]

Register
(6) ent404, FUDEDOR, Grev, Hell_Is_Here, mayhemehyam, POMAHOB,
Aug 5 2023, 20:13:37 Kylmäkovamaa - Fuckdoll (2023)


*Artist: Kylmäkovamaa
*Album: Fuckdoll
*Year: 2023
*Genre: Noise
*Country: Finland
*Format: mp3@CBR320kbps
*Size: 68MB

Tracklist:
1. Untitled I 07:33
2. Untitled II 07:18
3. Untitled III 06:31
4. Untitled IV 07:38
******************************
Total playing time: 29:00



[more=Extended info]One of the best kept secrets of Finnish noise scene. Barely presence anywhere, only producing self made tapes. Appeared on Terässinfonia compilation series and this new full length CD is huge leap. Bleak and dark industrial-noise, that reeks of spirit you could imagine coming from 80’s tape scene, yet not being retro or copying former decades. It is result of pure analogue production artists is doing. These days very rare to receive analogue tape master for album. Recordings that didn’t touch computers before digitizing it for CD. To preserve the spirit of material, nothing has been compressed or cleaned up.
2023. Freak Animal Records[/more]

[more=Technical info]
Input File: 01 - Kylmäkovamaa - Untitled I.mp3
Channels : 2
Sample Rate : 44100
Precision : 16-bit
Duration : 00:07:32.03 = 19934523 samples = 33902.2 CDDA sectors
File Size : 18.6M
Bit Rate : 329k
Sample Encoding: MPEG audio (layer I, II or III)
Comments :
Title=Untitled I
Artist=Kylmäkovamaa
Album=Fuckdoll
Tracknumber=01/04
Year=2023
Genre=Noise

[/more]

Register
(6) bka, ent404, FUDEDOR, Grev, Hell_Is_Here, mayhemehyam,
Aug 5 2023, 14:58:25 Flagellatio Orgasmus - West Siberian Crime Electronics (2022)


*Artist: Flagellatio Orgasmus
*Album: West Siberian Crime Electronics
*Year: 2022
*Genre: Power Electronics/Noise
*Country: Russian Federation
*Format: mp3@CBR320kbps
*Size: 137MB

Tracklist:
1. West Siberian Crime Electronics 07:05
2. Silikatny Rape Division 06:16
3. Jailbait 04:47
4. White Cream 04:07
5. Ten Years Old Bitch 05:07
6. Obsessed By Hole (Of Teen Transexual Whore) 04:20
7. I Want Your Blood 05:17
8. Shit Life 03:57
9. Cry Of Forthcoming Death, Part 1 04:45
10. Cry Of Forthcoming Death, Part 2 04:12
11. Motor Saw Vasectomy 12:19
******************************
Total playing time: 1:02:12



[more=Technical info]
Input File: 01 - Flagellatio Orgasmus - West Siberian Crime Electronics.mp3
Channels : 2
Sample Rate : 44100
Precision : 16-bit
Duration : 00:07:04.03 = 18699547 samples = 31802 CDDA sectors
File Size : 17.1M
Bit Rate : 323k
Sample Encoding: MPEG audio (layer I, II or III)
Comments :
Title=West Siberian Crime Electronics
Artist=Flagellatio Orgasmus
Album=West Siberian Crime Electronics
Tracknumber=01
Year=2022
Genre=Power Electronics/Industrial/Noise

[/more]

Register
(9) Boozer, ent404, FUDEDOR, goatkvlt, Grev, Hell_Is_Here, mayhemehyam, POMAHOB, Raw1488,
Aug 5 2023, 14:50:07 Womb11 - (-) (2021)


*Artist: Womb11
*Album: (-)
*Year: 2021
*Genre: Death Industrial
*Country: Russian Federation
*Format: mp3@CBR320kbps
*Size: 97MB

Tracklist:
1. Nachzehrer (Driven By The Devil's Thirst) 01:39
2. Hearken From Ancient Female Skull 12:50
3. Hex (Part 2) 03:18
4. Metamorphosis Of Elements (The Collapse Of Seraphims) 06:33
5. R'Lyeh Libations (The Lovecraft's Prophecy) 05:43
6. (-) 12:34
******************************
Total playing time: 42:37



[more=Extended info]Womb11 is rancid and decomposed Nekro Industrial unleashing its debut album on Dunkelheit Produktionen. This man hails from the bleak and desolate wastelands of Russia and in many ways the sounds reflect this hostile environment. Slow and churning dark throbs, clatters and sound waves form a cobweb of deathlust and dark magick.

One thing that is especially striking is the analogue nature of the music. Classic Industrial weaponry like the MS10 live up to their long-lasting legacy and the deep and full waves interact with percussion created with real bones and human remains. There is a feeling of minimalism and trancelike repetition that is mastered skillfully, reminding the listener of absolute classics like Zero Kama, Halo Manash and Korpses Katatonik.

There is no doubt that Womb11 revels in death worship and anything sinister and macabre. The tracks find a very unique space located somewhere between Ritual and Death Industrial while maintaining a lot of character and refreshingly unmodern approaches. Experience Womb11 and be dragged down into fields of death and the stench of opened graves...
2021. Dunkelheit Prods.[/more]

[more=Technical info]
Input File: 1 - Nachzehrer (Driven By The Devil\'s Thirst).mp3
Channels : 2
Sample Rate : 44100
Precision : 16-bit
Duration : 00:01:39.06 = 4368722 samples = 7429.8 CDDA sectors
File Size : 4.02M
Bit Rate : 324k
Sample Encoding: MPEG audio (layer I, II or III)
Comments :
Title=Nachzehrer (Driven By The Devil's Thirst)
Artist=Womb11
Album=(-)
Tracknumber=1
Year=2021
Genre=Death Industrial

[/more]

Register
(7) ent404, goatkvlt, Grev, gwar, Hell_Is_Here, mayhemehyam, Occultas,
Aug 5 2023, 14:45:33 Apex Parasite - Erosion Of The Will (2023)


*Artist: Apex Parasite
*Album: Erosion Of The Will
*Year: 2023
*Genre: Power Electronics
*Country: Germany
*Format: mp3@CBR320kbps
*Size: 106MB

Tracklist:
1. Spit 07:48
2. The Streets Belong To Us 05:55
3. Clan Mentality 04:44
4. Erosion I 04:12
5. KTR 02:22
6. Strength In Numbers 05:01
7. The Weakened Flesh 04:30
8. STHLM Skins 02:38
9. Not Cured 02:50
10. Erosion II 04:20
11. Eternal Glory 01:38
******************************
Total playing time: 45:58



[more=Extended info]Fans of radical Power Electronics beware- Apex Parasite is on the rise! Presenting their debut, Apex Parasite are here to show that they mean business.

The sound is clearly situated on the harsher side of the spectrum, offering aggressive crackles and throbbing basslines in perfect interaction. Commanding upfront vocals spew absolute contempt and under all of this, there is a certain sickness and darkness that has made Northern Europe the homeland of fierce Post Mortem sounds.

Apex Parasite offers refreshing balls to the wall brutality which could be compared to the past Highlights by Green Army Fraction or the leading figures of the German Heavy Electronics tradition. Highly recommended to those Who are still able to grasp the essence of Cultural Terrorist Power Electronics and celebrate its long gone happiness.
2023. Dunkelheit Prods.[/more]

[more=Technical info]
Input File: 01 Spit.mp3
Channels : 2
Sample Rate : 44100
Precision : 16-bit
Duration : 00:07:48.61 = 20665833 samples = 35146 CDDA sectors
File Size : 18.9M
Bit Rate : 322k
Sample Encoding: MPEG audio (layer I, II or III)
Comments :
Title=Spit
Artist=Apex Parasite
Album=Erosion Of The Will
Tracknumber=01
Year=2023
Genre=Power Electronics

[/more]

Register
(6) ent404, FUDEDOR, Grev, Hell_Is_Here, mayhemehyam, POMAHOB,
Aug 5 2023, 11:11:31 Clandestine Blaze - Resacralize The Unknown (2023)
ЦИТАТА(Vidyadharov @ Aug 5 2023, 02:43:33) *
Микко музыку пишет от души, а лирику уже так, как требует "партия" (читай: ранее созданный брутальный сценический образ).

"Ты втираешь мне какую-то дичь" ©
(1) 6666666,
Aug 4 2023, 20:30:25 Clandestine Blaze - Resacralize The Unknown (2023)
В общем и целом, за неимением другого, покамест Resacralize The Unknown - альбом года в BM, в самом традиционном его воплощении без всякой хyйни, ужимок, цензурной блевотины и прочего... Грубый и отточенный в своём мастерстве BM as is.
Нет ни единой причины хоть как-то сомневаться в творческий всплесках и искренности товарища Аспы - по моему, это вообще просто глупо.
(2) Infidel, lopuh21,
Aug 4 2023, 18:54:19 Coal Chamber - Dark Days (2002)
Годы идут – восьмидесятый не меняется. Цыганский табор Ektomorf лучше Coal Chamber это как Slayer лучше… ну, хотя бы Paradise Lost. Гетара что-то жужжит, боробан стучит, певец кричит – метал? Ну, вроде да, чего ещё надо-то? 1488.gif

Coal Chamber всегда были несколько необычной группой на сцене, начиная от совершенно отталкивающе-мразотного имиджа (сохранившегося даже по прошествии почти четверти века – респект, хуле) с копипастой идей дебютного альбома Korn, продолжив странным, но интересно звучащим и выбивающимся из общего тренда Chamber Music с неожиданной кавер-версией песни Peter Gabriel, где на вокале отметился аж сам Великий, например, а упокоившись, собственно, с сабжем.
Суть и составляющие Dark Days – тупорылый грохот и непроглядно мрачная, местами исступлённо-шизофреническая атмосфера, незамысловатые, повторяющиеся, но безбожно качающие гитарные риффы и ядовитый, абразивный словно наждачка вокал, скорее отхаркивающий рубленые фразы, в противовес привычным жанру чистоголосым распевам и речитативам. На этом альбоме Coal Chamber выкристаллизовали свой стиль и стали действительно уникально-узнаваемой группой среди сонма исполнителей (хотя аналогов и Chamber Music особо нет, но там были ещё какие-то нащупывания почвы, эксперименты и творческие метания) – никто так не играл ни до, ни после. По крайней мере, для меня, абсолютно каждый трек здесь обладает какими-то нюансами и действительно запоминается, а это ценно, ведь по прошествии аж двадцати с небольшим лет с момента знакомства я всё же иногда с удовольствием переслушиваю эту работу.
Dark Days поистине стали «тёмными временами» и персональным проклятием для Coal Chamber: практически на пике своего успеха, участники группы с энтузиазмом и полной отдачей окунулись в пучину алкогольно-наркотического угара, вдрызг разругавшись-передравшись между собой и попросту выбросив группу на свалку и так уже практически исдыхающего жанра. Взаимной ненависти хватило практически на десяток лет, но итогом стал лишь совершенно беззубый и пресный Rivals, серия концертов и неудивительная развязка в виде громкого хлопанья дверью и заверениями никогда больше не связываться с мyдaками из славного прошлого. И недавно Д.Фафара, более-менее очухавшись от серьёзных проблем со здоровьем, заявил, что неиллюзорная возможность отъехать в мiр иной позволила отбросить прошлые обиды, наладить контакты с участниками группы и задаться вопросом: а что же, собственно, дальше? А дальше репетиции материала, реюнион и выступления на различных фестивалях. И думается, что вновь ненадолго…
(2) FullofHate, Occultas,
Jul 20 2023, 17:43:12 Kommando - Brutal Cell [ep] (2022)
ЦИТАТА(POMAHOB @ Jul 20 2023, 20:02:34) *
А куда подевалась тема с Sutekh Hexen & Funerary Call? Суслик лав страйки кидает?

Оно, как оказалось, уже было на форуме, только поиск отчего-то не выдал вчера ссылку.
(2) Occultas, POMAHOB,
Jul 19 2023, 17:09:17 Kommando - Brutal Cell [ep] (2022)


*Artist: Kommando
*Album: Brutal Cell [ep]
*Year: 2022
*Genre: Power Electronics
*Country: Germany
*Format: mp3@CBR320kbps
*Size: 35MB

Tracklist:
1. Peremptrix 02:04
2. Sequester 02:48
3. Veneficium 02:29
4. Evil Ota 04:06
5. Zelle 03:34
******************************
Total playing time: 15:01



[more=Extended info]"noise creates ambience and feel of a scenery, as well as the expression of a structure"

Kommando is the moniker of Dan Courtman’s aka Thorofon. with Brutal Cell he offers up supremely industrial music: the confrontational nature of the power electronics genre by pairing subtlety and diversification with aggression, the anger of death industrial and the unruliness of organic noise.

His cell is a condition of duality. Whether apparent or not, there is a force to struggle within its boundaries and a protection against unexpected turbulences, almost as if a vigorous rain were churning up the river. Constraint in it's cage, the cell offers an intensive experience that will leave its caustic scars for the remaining day.

"an issue, is a cell within the body of circumstances. the cell is made up of the vital elements which are the mechanics of a infectious condition"
2022. Ant-Zen[/more]

[more=Technical info]
Input File: 01 - Kommando - Peremptrix.mp3
Channels : 2
Sample Rate : 44100
Precision : 16-bit
Duration : 00:02:04.79 = 5503371 samples = 9359.47 CDDA sectors
File Size : 5.09M
Bit Rate : 326k
Sample Encoding: MPEG audio (layer I, II or III)
Comments :
Title=Peremptrix
Artist=Kommando
Album=Brutal Cell
Tracknumber=01
Year=2022
Genre=Power Electronics

[/more]

Register
(2) bka, Hell_Is_Here,
Jul 18 2023, 16:51:37 Gastrointestinal Perforation & DxTxFxCxAxFxP - Mitral Valve Prolapse [split] (2018)
Да будьте ж вы людьми, человек третий год безответно просит пять минут горграйнда перезалить! crazy.gif
(2) vosmidesijatye, WarmasterChorus,
Jul 15 2023, 13:55:33 Коконт - Боги Хеви-Метала (2023)
Куколд Твои Тяжёлые Шары
(2) nsk2008, RUSP73,
Jul 15 2023, 10:44:18 Cavalera Conspiracy - Bestial Devastation [ep] (2023)
ЦИТАТА(FullofHate @ Jul 15 2023, 13:09:48) *
Надеюсь, что этот день не наступит.

Если даже такой совершенно невероятный момент когда-либо наступит, то Darkthrone намеренно сделают это так, чтобы задницы любителей этого самого Total Death полыхали ярче зарева в северном небе crazy.gif
(2) Froze, FullofHate,
Jul 12 2023, 17:31:15 Терминальная Стадия - Экзистенциальная Угроза (2023)
ЦИТАТА(vosmidesijatye @ Jul 12 2023, 20:27:10) *
Понятно, что если у музыкантоф не хватает фантазии даже на оригинальную обложку, то и музло слушать смысла нет.

Наконец-то классическая и исчерпывающая рецензия на альбом от 80-го 1488.gif
Но стоит отметить, что эта вот Терминальная Стадия это как vkbm, только vkdm. Говно, в общем, бессмысленное и беспощадное.
(1) Bzth,
Jul 12 2023, 16:45:02 Волк - II (2023)
ЦИТАТА(nsk2008 @ Jul 9 2023, 20:44:30) *
Название в коллекцию к Кабану, Яблоне и Капкану

Обычный вечер в Осло, несколько парней сидят за прослушиванием сомнительного качества демо-кассет, попивая Кока-Колу и тут один толкает в плечо другого и говорит: прикинь, Гюльве, наш дурачок Кристофер группу свою Волками обозвал! Прям в копилку к Ветке и Шипу.

ЦИТАТА(metaljosue @ Jul 9 2023, 14:26:51) *
But is the album good or not?

I think Meti Bhuvah is still best russian Ildjarn-worship black metal. By and large, this record is loud, raw and... senseless.
(3) Daale, ent404, nsk2008,
Jun 20 2023, 18:52:35 Paroxysm Unit - Fragmentation ∕∕ Stratagem (2023)
[youtube]LArAdGUU4HM[/youtube]

Konstantin Korolev - Bass (Passéisme, Wombripper, ex-7 H.Target, ex-Bureau Berlin...)
Vladislav Vorozhtsov - Drums (Dispersed, Relics of Humanity, ex-7 H.Target...)
Colin Marston - Guitars (Behold the Arctopus, Dysrhythmia, Edenic Past, Encenathrakh, Gorguts, Indricothere, Krallice...)
Marc Lamorille - Vocals (Darkall Slaves, Servants of the Sword, Shockwave Extinction)
headcrab.png

Register
(7) Ash_1980, Chasm, Dark Sage, gongon81, Moonshtook, Occultas, StabWound,
Jun 14 2023, 19:02:52 Godflesh - Purge (2023)
Удушающе густой и гипнотический сладж на дабовой основе с интересно звучащей, механизированной и местами качающей не хуже какого-нибудь джангла ритм-секцией. Копоть, ржавчина и полный беспросвет. После завершения альбома безо всякого промедления запустил его на повторное прослушивание, о чём тащемта ничуть не пожалел, хотя в принципе Godflesh большей частью оставлял меня равнодушным и вообще помню из предыдущего творчества только Us And Them с Post Self. Крутой, по олдскульному звучащий в 2023 году альбом, с претензией на попадание в персональный топ.
(2) Ghostb, Infidel,
Jun 10 2023, 17:10:55 Godflesh - Purge (2023)
Всегда интересовало только одно - а где у Rammstein индустриальность-то?
(4) ent404, Ghostb, Infidel, Utugg,
Jun 5 2023, 05:59:34 Мор
ЦИТАТА(igsmoked @ Jun 5 2023, 06:32:03) *
кстати выпущен на аудиокассетах лимитированным тиражом

Вернули 93 год.
(1) Deze,
Jun 3 2023, 19:43:04 Лучшие метал альбомы 2023 // Best 2023 Metal Releases
ЦИТАТА(Old Vyaine @ Jun 3 2023, 22:35:52) *
Добрался наконец-то до пачки новых релизов, кто не спрятался в складках местности — я не виноват.

Нестерпимо хочется блевануть?
(1) avather,
Jun 3 2023, 11:45:54 Grunt - Hehku (2022)
Я так понимаю, отдельно релиз Cast Iron Hand выпилили из-за битрейта. Штош... пусть здесь висит.
Издан на Old Europa Cafe в количестве 200 виниловых пластинок, переизданий в других форматах и репрессов не будет.

Grunt Cast Iron Hand (2022)



1. Electric Whip / The Smell Of The Lilies Of The Valley / Cast Iron Hand 11:54
2. Angels / Fire That Would Not Hurt 10:31

Register
(1) goatkvlt,
May 29 2023, 09:51:37 Immortal - War Against All (2023)
(10) 6666666, Dargaud, ent404, FullofHate, Ghostb, Infidel, Nerevar, Occultas, spbfucker, todesser,
May 28 2023, 09:09:34 Immortal - War Against All (2023)
ЦИТАТА(vosmidesijatye @ May 27 2023, 14:40:50) *
А какая лирика уместна в бм?

Про одинокие хождения по хвойному ночному лесу и полные Презрения пинания валяющихся под ногами шишек, очевидно же. Можно ещё на каких-нибудь развалинах диавола славить.
Позасрали настоящий bm своей заумной дэтспелломеговщиной.
(7) 6666666, Daale, Dargaud, ent404, FullofHate, Ghostb, LadyElvina,
May 26 2023, 18:05:59 Molested Divinity - The Primordial (2023)
Третий альбом в дискографии турецкого ансамбля продолжает следовать по накатанной - многотонным катком, со смачным хрустом и утробным чавканьем по черепам слушателей. Наматывающий, словно гирлянды потрохов невнимательного пэтэушника на вал станка в цеху, brutal death metal с сочно лязгающий арматурным басом, немилосердным барабанным колошматиловом и практически непрекращающимся кишечно-полостным вокалированием. Периодически даже казалось, что довольно простые гитарные партии где-то там в глубине микса начинают мутировать в какое-то галлюциногенно-диссонансное месиво вроде того, что выдавали соседи по издающему дому Disentomb и Iniquitous Deeds, но все эти поползновения в конце концов всё равно остаются погребёнными под напором раскочегарившегося маховика смерти. Саунд, кстати говоря, вполне себе в духе продукции New Standard Elite - плотный, качественный, приятно массирующий перепонные барабанки, без провалов, глушняка или кашеобразности. Как смачный удар чугунной трубой по голове - твёрдо и чётко. И на текущий момент, в тройке претендентов на персональный топ в стиле, пока Devangelic с энтузиазмом углубляются в атмосферность и пыльную древность, а 7H.Target пытаются разломать биомеханическое колесо Сансары, Molested Divinity уверенно выходят на первое место в категории самый зверский и фееричный альбом года. Изумительная вещь.
(2) Chasm, Victim of fate,
May 16 2023, 19:15:09 Thanatomass - Hades (2023)
ЦИТАТА(TenBestial @ May 16 2023, 22:04:46) *
По-твоему, где они должны быть?

Не знаю, мне похyй.
(2) ent404, FullofHate,

10 Pages V  < 1 2 3 4 5 > » 
- Lo-Fi Version Support form
Copyrights and abuse reports form
Time is now: 26th May 2024 - 19:08:59