Welcome Guest ( Log In | Register )

Объявления

* gmail.com упорно продолжает считать почту с нас "unsolicited" и отбивает в том числе и письма активации, поэтому просьба использовать альтернативные почтовые ящики.
------------
* gmail.com continues reject all mail from us as "unsolicited" (activation mails too) therefore please use alternate mail servers.
История благодарностей участнику komhs ::: Спасибо сказали: 27566 раз(а)
Дата поста: В теме: За сообщение: Спасибо сказали:
Jul 21 2024, 10:21:15 Kanenas - To Walk The Void (2024)


*Artist: Kanenas
*Album: To Walk The Void
*Year: 2024
*Genre: Black Metal
*Country: Greece
*Format: mp3@CBR320kbps
*Size: 110MB

Tracklist:
1. None 05:24
2. The Journey 05:04
3. Blessings 05:09
4. Flames 05:39
5. Rage and Sing 06:40
6. Birth 05:50
7. The Will 04:40
8. Through the Void 05:27
******************************
Total playing time: 43:53





[more=Technical info]
Input File: 04 Flames.mp3
Channels : 2
Sample Rate : 44100
Precision : 16-bit
Duration : 00:05:39.77 = 14983725 samples = 25482.5 CDDA sectors
File Size : 13.9M
Bit Rate : 326k
Sample Encoding: MPEG audio (layer I, II or III)
Comments :
Title=Flames
Artist=kanenas
Album=to walk the void
Tracknumber=4
Year=2024

[/more]

Register
(10) AlexSmith, Altkiller, artscald, Grev, HelenVaughan, kim666, nemx, obituarydark, rammmirez, vasiljev_sergej,
Jul 21 2024, 10:18:03 Likno - Likno (2024)


*Artist: Likno
*Album: Likno
*Year: 2024
*Genre: Black Metal
*Country: Greece
*Format: mp3@CBR320kbps
*Size: 88MB

Tracklist:
1. 0.0 02:14
2. Likno 02:37
3. Void 07:42
4. Birth 07:31
5. Sea 04:37
6. Still 09:39
7. White Wings 04:37
******************************
Total playing time: 38:57





[more=Technical info]
Input File: 3.Void.mp3
Channels : 2
Sample Rate : 44100
Precision : 16-bit
Duration : 00:07:42.59 = 20400087 samples = 34694 CDDA sectors
File Size : 18.5M
Bit Rate : 320k
Sample Encoding: MPEG audio (layer I, II or III)
Comments :
Artist= Likno
Year=0
Genre=12

[/more]

Register
(10) aleon, Carcharoth, Grev, judaz, kim666, nemx, obituarydark, Orkkh, rammmirez, vasiljev_sergej,
Jul 21 2024, 10:09:05 Fading Echoes - Shadow Of Another (2024)


*Artist: Fading Echoes
*Album: Shadow Of Another
*Year: 2024
*Genre: Progressive Metal
*Country: Greece
*Format: mp3@CBR320kbps
*Size: 105MB

Tracklist:
1. The Stages of Grief, Pt. 1 - Denial 04:38
2. The Stages of Grief, Pt. 2 - Anger 04:10
3. The Stages of Grief, Pt. 3 - Bargaining 04:48
4. The Stages of Grief, Pt. 4 - Depression 05:36
5. The Stages of Grief, Pt. 5 - Acceptance 07:38
6. The First Step Forward 05:06
7. Rumination 07:21
8. The Final Act 07:00
******************************
Total playing time: 46:17





[more=Technical info]
Input File: 2.Pt.2 - Anger.mp3
Channels : 2
Sample Rate : 44100
Precision : 16-bit
Duration : 00:04:10.70 = 11056046 samples = 18802.8 CDDA sectors
File Size : 10.0M
Bit Rate : 320k
Sample Encoding: MPEG audio (layer I, II or III)
Comments :
Artist=Fading Echoes
Year=0
Genre=12

[/more]

Register
(3) after21allD, Grev, metala,
Jul 21 2024, 09:58:18 Omne Aeternum - Vanity Project [ep] (2020)


*Artist: Omne Aeternum
*Album: Vanity Project [ep]
*Year: 2020
*Genre: Progressive Metal
*Country: Greece
*Format: mp3@CBR320kbps
*Size: 32MB

Tracklist:
1. Vanity Project 03:08
2. Physics And Depression 03:25
3. Primavera 03:49
4. Under The Shade 03:53
******************************
Total playing time: 14:15



[more=Technical info]
Input File: 3.Primavera.mp3
Channels : 2
Sample Rate : 44100
Precision : 16-bit
Duration : 00:03:49.15 = 10105647 samples = 17186.5 CDDA sectors
File Size : 9.17M
Bit Rate : 320k
Sample Encoding: MPEG audio (layer I, II or III)
Comments :
Artist=Omne Aeternum
Year=0
Genre=12

[/more]

Register
(1) Grev,
Jul 14 2024, 10:44:00 Profane Serenity - Spirits Of Oblivion [ep] (2024)


*Artist: Profane Serenity
*Album: Spirits Of Oblivion [ep]
*Year: 2024
*Genre: Doom/Death Metal
*Country: Greece
*Format: mp3@CBR320kbps
*Size: 52MB

Tracklist:
1. Spirits of Oblivion 07:06
2. Eternal Farewell 05:41
3. Profane Serenity 05:58
4. Whispers of the Flesh 05:08
******************************
Total playing time: 23:53

[more=Technical info]
Input File: 2.Eternal Farewell.mp3
Channels : 2
Sample Rate : 44100
Precision : 16-bit
Duration : 00:05:40.88 = 15032808 samples = 25566 CDDA sectors
File Size : 13.6M
Bit Rate : 320k
Sample Encoding: MPEG audio (layer I, II or III)
Comments :
Artist=Profane Serenity
Album=Spirits of Oblivion
Year=2024
Genre=12

[/more]

Register
(10) doomTemplar, metala, obituarydark, Orgasmik, rammmirez, stumpheavyrock, VALERY, vlad74, Wail, XxNachtmahRxX,
Jul 14 2024, 10:40:54 Haunting Scars - ΠΑΓΩΜΕΝΟ ΟΝΕΙΡΟ [ep] (2024)


*Artist: Haunting Scars
*Album: ΠΑΓΩΜΕΝΟ ΟΝΕΙΡΟ [ep]
*Year: 2024
*Genre: Black Metal
*Country: Greece
*Format: mp3@CBR320kbps
*Size: 51MB

Tracklist:
1.Παγωμένο Όνειρο 06:34
2.The Everlasting Pain 09:52
3.A Dying Flame 06:09
******************************
Total playing time: 22:35

[more=Technical info]
Input File: 02 The Everlasting Pain.mp3
Channels : 2
Sample Rate : 44100
Precision : 16-bit
Duration : 00:09:52.80 = 26142612 samples = 44460.2 CDDA sectors
File Size : 23.8M
Bit Rate : 321k
Sample Encoding: MPEG audio (layer I, II or III)
Comments :
Title=The Everlasting Pain
Artist=Haunting Scars
Album=ΠΑΓΩΜΕΝΟ ΟΝΕΙΡΟ
Tracknumber=2
Year=2024

[/more]

Register
(4) aleon, kim666, rammmirez, vasiljev_sergej,
Jul 14 2024, 10:34:42 Schizogony - Unworldly Magnanimity [demo] (2008)


*Artist: Schizogony
*Album: Unworldly Magnanimity [demo]
*Year: 2008
*Genre: Death Metal/Grindcore
*Country: Greece
*Format: mp3@CBR320kbps
*Size: 38MB

Tracklist:
1. Kill Whatever Bothers and Mutilate the Others 04:19
2. Assfucked Rapist Cop 02:13
3. Unwordly Magnaninity 04:43
4. Nuclear Warmoney 02:45
5. Pre-eminent Juggernaut Bearaucracy 02:58
******************************
Total playing time: 16:58

[more=Technical info]
Input File: 2.Assfucked Rapist Cop.mp3
Channels : 2
Sample Rate : 44100
Precision : 16-bit
Duration : 00:02:13.54 = 5889246 samples = 10015.7 CDDA sectors
File Size : 5.34M
Bit Rate : 320k
Sample Encoding: MPEG audio (layer I, II or III)
Comments :
Artist=Schizogony
Album=Unworldly Magnanimity
Year=2008
Genre=12

[/more]

Register
(1) Reverend,
Jun 29 2024, 19:33:22 Carnivora's Feast - Teufel (2024)


*Artist: Carnivora's Feast
*Album: Teufel
*Year: 2024
*Genre: Black Metal
*Country: Greece
*Format: mp3@CBR320kbps
*Size: 107MB

Tracklist:
1.Genocide 01:06
2.Commander 04:25
3.Shepherd 04:25
4.Tuefel 03:26
5.The Fence 04:42
6.Hyenas Instinct 04:47
7.Carnivorous 06:19
8.Aurora 03:25
9.Ruins 02:31
10.Gradual Sunsets 04:53
11.We, the foul and wretched 05:36
******************************
Total playing time: 45:35



[more=Technical info]
Input File: 02 Commander.mp3
Channels : 2
Sample Rate : 44100
Precision : 16-bit
Duration : 00:04:25.71 = 11717635 samples = 19928 CDDA sectors
File Size : 10.8M
Bit Rate : 325k
Sample Encoding: MPEG audio (layer I, II or III)
Comments :
Title=Commander
Artist=Carnivora's Feast
Album=Teufel
Tracknumber=2
Year=2024

[/more]

Register
(19) Altkiller, artscald, atomgod6669, Condehate, dcatagua, Evrom, Grev, kim666, nemx, obituarydark, sacrut, stormhatt, supremo, toly1917, VALERY, vasiljev_sergej, Wail, wreak, yuratroll,
Jun 29 2024, 19:27:38 Wanted - Masquerade (1996)


*Artist: Wanted
*Album: Masquerade
*Year: 1996
*Genre: Heavy Metal
*Country: Greece
*Format: mp3@CBR320kbps
*Size: 112MB

Tracklist:
1.Twisted every way 03:54
2.Masquerade 04:46
3.Wheels of fortune 03:33
4.Iron cross 03:53
5.Lady Blue 05:49
6.Eagles die free 08:17
7.Claustrophobia 04:19
8.Kiss of death 05:24
9.Sweet white female 05:30
******************************
Total playing time: 45:25





[more=Technical info]
Input File: 02 Masquerade.mp3
Channels : 2
Sample Rate : 44100
Precision : 16-bit
Duration : 00:04:46.29 = 12625433 samples = 21471.8 CDDA sectors
File Size : 11.6M
Bit Rate : 324k
Sample Encoding: MPEG audio (layer I, II or III)
Comments :
Title=Masquerade
Artist=Andreas' Tangra Wanted
Album=Masquerade
Tracknumber=2
Year=2024

[/more]

Register
(11) after21allD, artscald, dcatagua, gwar, Marek, metala, Mogozoz, rainbow83, stumpheavyrock, Wail, Z28517,
Jun 29 2024, 19:13:51 XaosViscera - Works Of The Devil [ep] (2024)


*Artist: XaosViscera
*Album: Works Of The Devil [ep]
*Year: 2024
*Genre: Black Metal
*Country: Greece
*Format: mp3@CBR320kbps
*Size: 65MB

Tracklist:
1. Revivify the Infernal 06:08
2. Doomanteia - Opferblut 05:25
3. Low Magic Throat Cutting 07:21
4. Flayed Skins 04:45
5. Supplication of Obsidian Witchfyre 04:50
******************************
Total playing time: 28:29



[more=Technical info]
Input File: 2.Doomanteia - Opferblut.mp3
Channels : 2
Sample Rate : 44100
Precision : 16-bit
Duration : 00:05:25.23 = 14342775 samples = 24392.5 CDDA sectors
File Size : 13.0M
Bit Rate : 320k
Sample Encoding: MPEG audio (layer I, II or III)
Comments :
Artist=XaosViscera
Year=0
Genre=12

[/more]

Register
(10) Fallen_Angel_of_Doom, Grev, HelenVaughan, IncendiaryMight, kim666, milosdjor, obituarydark, vasiljev_sergej, Vitner, Wail,
Jun 29 2024, 19:07:17 Motordeath - Trenched Existence [ep] (2024)


*Artist: Motordeath
*Album: Trenched Existence [ep]
*Year: 2024
*Genre: Death Metal/Grindcore
*Country: Greece
*Format: mp3@CBR320kbps
*Size: 55MB

Tracklist:
1. Motors of Death 02:33
2. Remain Strong 02:28
3. Devourment of Truth 02:21
4. Their Commands 03:12
5. Narco Dealer 02:51
6. 1987 01:34
7. Revenge of the Gypsies 03:48
8. To the Tomb... 03:01
******************************
Total playing time: 21:48



[more=Technical info]
Input File: 02 Remain Strong.mp3
Channels : 2
Sample Rate : 44100
Precision : 16-bit
Duration : 00:02:28.49 = 6548321 samples = 11136.6 CDDA sectors
File Size : 6.19M
Bit Rate : 333k
Sample Encoding: MPEG audio (layer I, II or III)
Comments :
Title=Remain Strong
Artist=Motordeath
Album=Trenched Existence
Tracknumber=2
Year=2024

[/more]

Register
(12) artscald, Dante_D, dcatagua, Evrom, Golfzilla, Grabarz, Razorbladeswaltz, Slammer4000, supremo, vyacheslav, Wail, wreak,
Jun 29 2024, 19:00:12 Mold Of Tree - Blood [ep] (2024)


*Artist: Mold Of Tree
*Album: Blood [ep]
*Year: 2024
*Genre: Black Metal
*Country: Greece
*Format: mp3@CBR320kbps
*Size: 21MB

Tracklist:
1.Murder 02:48
2.Blood 01:46
3.Death 01:05
4.Hate! 01:34
5.Hollow 02:03
******************************
Total playing time: 9:16





[more=Technical info]
Input File: 2. Blood.mp3
Channels : 2
Sample Rate : 44100
Precision : 16-bit
Duration : 00:01:46.56 = 4699208 samples = 7991.85 CDDA sectors
File Size : 4.26M
Bit Rate : 320k
Sample Encoding: MPEG audio (layer I, II or III)
Comments :
Artist=Mold of Tree
Year=0
Genre=12

[/more]

Register
(5) Grev, kim666, obituarydark, vasiljev_sergej, Wail,
Jun 29 2024, 18:57:44 Mold Of Tree - Hollow [single] (2024)


*Artist: Mold Of Tree
*Album: Hollow [single]
*Year: 2024
*Genre: Black Metal
*Country: Greece
*Format: mp3@CBR320kbps
*Size: 5MB

Tracklist:
1. Hollow 02:03
******************************
Total playing time: 2:03





[more=Technical info]
Input File: 1. Hollow.mp3
Channels : 2
Sample Rate : 44100
Precision : 16-bit
Duration : 00:02:03.90 = 5464166 samples = 9292.8 CDDA sectors
File Size : 4.96M
Bit Rate : 320k
Sample Encoding: MPEG audio (layer I, II or III)
Comments :
Artist=Mold of Tree
Year=0
Genre=12

[/more]

Register
(3) Grev, vasiljev_sergej, Wail,
Jun 23 2024, 11:32:28 Mørkhet - I [ep] (2024)


*Artist: Mørkhet
*Album: I [ep]
*Year: 2024
*Genre: Atmospheric Black Metal
*Country: Greece
*Format: mp3@VBR128kbps
*Size: 15MB

Tracklist:
1.Raven's Path 01:09
2.The Forest of forgotten souls 04:27
3.Gazing Upon Death 05:19
4.Black Aura 04:39
******************************
Total playing time: 15:34




[more=Technical info]
Input File: 2.The Forest of forgotten souls.mp3
Channels : 2
Sample Rate : 44100
Precision : 16-bit
Duration : 00:04:27.96 = 11817124 samples = 20097.1 CDDA sectors
File Size : 4.29M
Bit Rate : 128k
Sample Encoding: MPEG audio (layer I, II or III)

[/more]

Register
(5) dermarsoran, kim666, rammmirez, vasiljev_sergej, vlad74,
Jun 23 2024, 11:22:40 Ophidian - Descent Into The Labyrinth [ep] (2024)


*Artist: Ophidian
*Album: Descent Into The Labyrinth [ep]
*Year: 2024
*Genre: Doom/Black Metal
*Country: Greece
*Format: mp3@CBR320kbps
*Size: 53MB

Tracklist:
1. Τhe Initiation 04:34
2. Moon Sacrifice 05:11
3. Descent into the Labyrinth 04:54
4. Aristocrats of the Spirit 03:53
5. Twilight of Serenity 04:43
******************************
Total playing time: 23:15



[more=Technical info]
Input File: 2.Moon Sacrifice.mp3
Channels : 2
Sample Rate : 44100
Precision : 16-bit
Duration : 00:05:11.23 = 13725287 samples = 23342.3 CDDA sectors
File Size : 12.4M
Bit Rate : 320k
Sample Encoding: MPEG audio (layer I, II or III)
Comments :
Artist=Ophidian
Year=0
Genre=12

[/more]

Register
(9) Bzth, dermarsoran, milosdjor, rammmirez, rost, VALERY, vasiljev_sergej, Wail, XxNachtmahRxX,
Jun 23 2024, 11:19:18 Rotting Christ - Live In Athens 1993 [bootleg] (1993)


*Artist: Rotting Christ
*Album: Live In Athens 1993 [bootleg]
*Year: 1993
*Genre: Black Metal
*Country: Greece
*Format: mp3@CBR320kbps
*Size: 43MB

Tracklist:
1.The Sign Of Evil Existence 02:02
2.Transform All Suffering Into Plague 04:59
3.Feast Of The Grand Whore 03:38
4,Fgmenth, Thy Gift 04:19
5.The Forest Of N'Gai 04:14
******************************
Total playing time: 19:12

[more=Technical info]
Input File: 5.The Forest Of N\'Gai.mp3
Channels : 2
Sample Rate : 44100
Precision : 16-bit
Duration : 00:04:14.75 = 11234607 samples = 19106.5 CDDA sectors
File Size : 10.2M
Bit Rate : 320k
Sample Encoding: MPEG audio (layer I, II or III)
Comments :
Artist=Rotting Christ
Album=Live in Athens (1993)
Year=1993
Genre=12

[/more]

Register
(11) BlackSwordMaster88, dermarsoran, Grev, Gylve, Occultas, Reverend, stumpheavyrock, thenecromancer, vasiljev_sergej, Wail, Xtohar,
Jun 23 2024, 11:11:31 Disdainer - Lethargy [demo] (1994)


*Artist: Disdainer
*Album: Lethargy [demo]
*Year: 1994
*Genre: Heavy Metal
*Country: Greece
*Format: mp3@CBR320kbps
*Size: 9MB

Tracklist:
1.Lethargy 03:56
******************************
Total playing time: 3:56

[more=Technical info]
Input File: 1.Lethargy.mp3
Channels : 2
Sample Rate : 48000
Precision : 16-bit
Duration : 00:03:56.41 = 11347536 samples ~ 17730.5 CDDA sectors
File Size : 9.46M
Bit Rate : 320k
Sample Encoding: MPEG audio (layer I, II or III)

[/more]

Register
(5) after21allD, Reverend, stumpheavyrock, Wail, Xtohar,
Jun 23 2024, 11:06:05 Kernel - Blind Devotion [demo] (1997)


*Artist: Kernel
*Album: Blind Devotion [demo]
*Year: 1997
*Genre: Heavy/Power Metal
*Country: Greece
*Format: mp3@CBR320kbps
*Size: 23MB

Tracklist:
1.V.I.A. (Violence Is Addiction) 03:25
2.Hit & Run 02:37
3.Blind Devotion 04:28
******************************
Total playing time: 10:30

[more=Technical info]
Input File: 2.Hit & Run.mp3
Channels : 2
Sample Rate : 44100
Precision : 16-bit
Duration : 00:02:37.08 = 6927228 samples = 11781 CDDA sectors
File Size : 6.28M
Bit Rate : 320k
Sample Encoding: MPEG audio (layer I, II or III)
Comments :
Artist=Kernel
Album=Blind Devotion
Year=1997
Genre=12

[/more]

Register
(6) after21allD, Bloodline Christian, Reverend, stumpheavyrock, Wail, Xtohar,
Jun 16 2024, 13:58:31 State Of Dark - Tougher Than Fear (2022)


*Artist: State Of Dark
*Album: Tougher Than Fear
*Year: 2022
*Genre: Progressive/Post-Metal
*Country: Greece
*Format: mp3@CBR320kbps
*Size: 72MB

Tracklist:
1. Pain 06:44
2. Destiny 04:09
3. Vengeance 05:27
4. Courage 09:15
5. Dominance 06:32
******************************
Total playing time: 32:07




[more=Technical info]
Input File: 2.Destiny.mp3
Channels : 2
Sample Rate : 44100
Precision : 16-bit
Duration : 00:04:10.08 = 11028396 samples = 18755.8 CDDA sectors
File Size : 10.0M
Bit Rate : 320k
Sample Encoding: MPEG audio (layer I, II or III)
Comments :
Artist=State Of Dark
Year=0
Genre=12

[/more]

Register
(2) LiarOfAngmar, Sanctus,
Jun 16 2024, 13:26:48 State Of Dark - Your True Enemy (2024)


*Artist: State Of Dark
*Album: Your True Enemy
*Year: 2024
*Genre: Progressive/Post-Metal
*Country: Greece
*Format: mp3@CBR320kbps
*Size: 135MB

Tracklist:
1.Βeginning Of The End 01:50
2.The Victim 06:50
3.Scars Of The Past 07:42
4.Inner Storm 06:24
5.Before Hope Meets Despair 09:04
6.The Ultimate Fate 28:20
******************************
Total playing time: 1:00:10




[more=Technical info]
Input File: 2.The Victim.mp3
Channels : 2
Sample Rate : 44100
Precision : 16-bit
Duration : 00:06:50.60 = 18107548 samples = 30795.1 CDDA sectors
File Size : 16.4M
Bit Rate : 320k
Sample Encoding: MPEG audio (layer I, II or III)
Comments :
Artist=State Of Dark
Year=0
Genre=12

[/more]

Register
(1) LiarOfAngmar,
Jun 16 2024, 13:10:12 Wanted - Kingdom On The Sky [demo] (2024)


*Artist: Wanted
*Album: Kingdom On The Sky [demo]
*Year: 2024
*Genre: Heavy Metal
*Country: Greece
*Format: mp3@CBR320kbps
*Size: 26MB

Tracklist:
1.Kingdom on the sky 06:07
2.Kingdom on the sky (acoustic version) 05:37
******************************
Total playing time: 11:44




[more=Technical info]
Input File: 1.Kingdom on the sky.mp3
Channels : 2
Sample Rate : 44100
Precision : 16-bit
Duration : 00:06:07.11 = 16189463 samples = 27533.1 CDDA sectors
File Size : 14.7M
Bit Rate : 320k
Sample Encoding: MPEG audio (layer I, II or III)
Comments :
Artist=Wanted
Year=0
Genre=12

[/more]

Register
(4) after21allD, stumpheavyrock, Wail, Xtohar,
Jun 16 2024, 13:01:41 Katathlepsis - Sigil Of Self-Annihilation [demo] (2024)


*Artist: Katathlepsis
*Album: Sigil Of Self-Annihilation [demo]
*Year: 2024
*Genre: Black Metal
*Country: Greece
*Format: mp3@CBR320kbps
*Size: 66MB

Tracklist:
1. Illusion of Companionship 06:53
2. The Love That Never Was 11:13
3. 22 Year Old Living Dead 11:18
******************************
Total playing time: 29:24


Preview 2

[more=Technical info]
Input File: 2.The Love That Never Was.mp3
Channels : 2
Sample Rate : 44100
Precision : 16-bit
Duration : 00:11:14.10 = 29727986 samples = 50557.8 CDDA sectors
File Size : 27.0M
Bit Rate : 320k
Sample Encoding: MPEG audio (layer I, II or III)
Comments :
Artist=Katathlepsis
Year=0
Genre=12

[/more]

Register
(6) dermarsoran, kim666, obituarydark, SilentNidhogg, stormhatt, vasiljev_sergej,
Jun 16 2024, 12:47:39 Catapult The Sun - Dark Sun Festivities [ep] (2024)


*Artist: Catapult The Sun
*Album: Dark Sun Festivities [ep]
*Year: 2024
*Genre: Sludge/Drone/Doom Metal
*Country: Greece
*Format: mp3@CBR320kbps
*Size: 73MB

Tracklist:
1. Queen Of Solstice 08:53
2. Dystopiate Haze 07:13
3. Our Pigs WIll Drink Your King's Blood 08:27
4. A Shrine Of Salt 05:46
5. Slowly We Drone 08:55
******************************
Total playing time: 39:14

[more=Technical info]
Input File: 02 Dystopiate Haze.mp3
Channels : 2
Sample Rate : 44100
Precision : 16-bit
Duration : 00:07:13.55 = 19119731 samples = 32516.5 CDDA sectors
File Size : 14.1M
Bit Rate : 260k
Sample Encoding: MPEG audio (layer I, II or III)
Comments :
Title=Dystopiate Haze
Artist=Catapult The Sun
Album=DARK SUN FESTIVITIES
Tracknumber=2
Year=2024

[/more]

Register
(9) artscald, HMHamster, marilin, Mencae77, skidnik, stumpheavyrock, VALERY, vlad74, XxNachtmahRxX,
Jun 16 2024, 12:41:16 Scent Of Thorns - Ascension [ep] (2024)


*Artist: Scent Of Thorns
*Album: Ascension [ep]
*Year: 2024
*Genre: Experimental Death Metal
*Country: Greece
*Format: mp3@CBR320kbps
*Size: 33MB

Tracklist:
1.Devour the Will 05:48
2.Death Foreseen 04:29
3.Ascension 03:58
******************************
Total playing time: 14:15





[more=Technical info]
Input File: 3.Ascension.mp3
Channels : 2
Sample Rate : 44100
Precision : 16-bit
Duration : 00:03:58.51 = 10518071 samples = 17887.9 CDDA sectors
File Size : 9.54M
Bit Rate : 320k
Sample Encoding: MPEG audio (layer I, II or III)
Comments :
Artist=Scent of Thorns
Year=0
Genre=12

[/more]

Register
(1) Sanctus,
Jun 16 2024, 12:36:31 Eternal - Bloodspill [single] (2024)


*Artist: Eternal
*Album: Bloodspill [single]
*Year: 2024
*Genre: Thrash Metal
*Country: Greece
*Format: mp3@CBR320kbps
*Size: 14MB

Tracklist:
1. Bloodspill 07:01
******************************
Total playing time: 7:01




[more=Technical info]
Input File: 1.Bloodspill.mp3
Channels : 2
Sample Rate : 48000
Precision : 16-bit
Duration : 00:07:01.97 = 20254464 samples ~ 31647.6 CDDA sectors
File Size : 17.1M
Bit Rate : 324k
Sample Encoding: MPEG audio (layer I, II or III)
Comments :
Title=Bloodspill
Artist=ETERNAL
Album=Bloodspill
Year=2024

[/more]

Register
(7) after21allD, amiroo, artscald, boby9052, gwar, stumpheavyrock, Xtohar,

131 Pages V   1 2 3 > » 
- Lo-Fi Version Support form
Copyrights and abuse reports form
Time is now: 24th July 2024 - 13:14:04