Welcome Guest ( Log In | Register )

История благодарностей участнику Andrew ::: Спасибо сказали: 35372 раз(а)
Дата поста: В теме: За сообщение: Спасибо сказали:
May 26 2022, 19:58:33 Clayshaper - Vampiric (2022)


*Artist: Clayshaper
*Album: Vampiric
*Year: 2022
*Genre: Melodic/Progressive Death Metal
*Country: Sweden
*Format: mp3@CBR320kbps
*Size: 164MB

Tracklist:
1. Prologue 01:01
2. Town Bell 04:21
3. Hex Rite 04:13
4. Graveyard Ecdysis 03:19
5. Sunrise Cult 04:24
6. Blood Healer 03:30
7. Barrowborn 04:12
8. Forest Regalia 05:11
9. Vampiric 03:56
10. Spirit Linked 03:53
11. The Coveted Nectar 03:50
12. Hex Rite (Instrumental Version) 04:13
13. Sunrise Cult (Instrumental Version) 04:24
14. Vampiric (Instrumental Version) 03:56
15. Barrowborn (Instrumental Version) 04:12
16. Forest Regalia (Instrumental Version) 05:11
17. Spirit Linked (Instrumental Version) 03:53
******************************
Total playing time: 1:07:39





[more=Extended info]Shaper Everything[/more]

[more=Technical info]
Input File: 02 - Town Bell.mp3
Channels : 2
Sample Rate : 44100
Precision : 16-bit
Duration : 00:04:21.00 = 11510100 samples = 19575 CDDA sectors
File Size : 10.7M
Bit Rate : 328k
Sample Encoding: MPEG audio (layer I, II or III)
Comments :
Title=Town Bell
Artist=Clayshaper
Album=Vampiric
Tracknumber=2
Year=2022-05-27
Discnumber=1

[/more]

Register
(10) artscald, chipsgott, infozahist, Marek, postal67, stumpheavyrock, VALERY, yuratroll, zhol, Сварог Барг,
May 26 2022, 16:22:27 Desert Near The End - The Dawning Of The Son (2022)


*Artist: Desert Near The End
*Album: The Dawning Of The Son
*Year: 2022
*Genre: Power/Thrash Metal
*Country: Greece
*Format: mp3@CBR320kbps
*Size: 103MB

Tracklist:
1. Break the Chains 04:56
2. Rise for Dominion 04:02
3. A Wolf Amongst Lions 04:23
4. Iron Rain 04:10
5. I Am Hell and Hell Is Me 06:48
6. Wound My Way 05:03
7. Obsidian Angel 06:33
8. Beyond the Gates 06:44
******************************
Total playing time: 42:39





[more=Extended info]Panos Kalompratsos Guitars
Akis Prasinikas Bass (2010-present)
See also: ex-The Eventide
Alexandros Papandreou Vocals (2010-present)
See also: ex-The Eventide[/more]

[more=Technical info]
Input File: 02 - Rise For Dominion.mp3
Channels : 2
Sample Rate : 44100
Precision : 16-bit
Duration : 00:04:02.00 = 10672200 samples = 18150 CDDA sectors
File Size : 9.91M
Bit Rate : 328k
Sample Encoding: MPEG audio (layer I, II or III)
Comments :
Title=Rise For Dominion
Artist=Desert Near The End
Album=The Dawning Of The Son
Tracknumber=2
Year=2022-05-27
Discnumber=1

[/more]

Register
(15) after21allD, artscald, Balusina, boby9052, chipsgott, gwar, Herrant, JPV, komhs, Marek, metala, Rover, sergsazan, stumpheavyrock, Сварог Барг,
May 25 2022, 19:28:31 Michael Schenker Group - Universal (2022)


*Artist: Michael Schenker Group
*Album: Universal
*Year: 2022
*Genre: Hard Rock
*Country: Germany
*Format: mp3@CBR320kbps
*Size: 103MB

Tracklist:
01. Emergency 3:49
02. Under Attack 04:37
03. Calling Baal 0:39
04. A King Has Gone 04:53
05. The Universe 04:20
06. Long Long Road 04:17
07. Wrecking Ball 04:08
08. Yesterday Is Dead 04:01
09. London Calling 04:30
10. Sad Is The Song 04:37
11. Au Revoir 03:30
12. Turn Off The World 04:45
13. Fighter 04:11
******************************
Total playing time: 52:17





[more=Technical info]
Input File: 02_michael_schenker_group_-_under_attack.mp3
Channels : 2
Sample Rate : 44100
Precision : 16-bit
Duration : 00:04:37.05 = 12218081 samples = 20779 CDDA sectors
File Size : 9.53M
Bit Rate : 275k
Sample Encoding: MPEG audio (layer I, II or III)
Comments :
Title=Under attack
Artist=Michael Schenker Group
Album=Universal
Tracknumber=2/13
Year=2022
Genre=Hard Rock

[/more]

Register
(7) Aresson, canadaspaceman, cesar, gwar, Melusinara, thenecromancer, VALERY,
May 25 2022, 14:22:57 Avocyn - Ritualist Profane. Satanist [single] (2022)


*Artist: Avocyn
*Album: Ritualist Profane. Satanist [single]
*Year: 2022
*Genre: Blackened Deathcore/Metalcore
*Country: United States
*Format: mp3@CBR320kbps
*Size: 12MB

Tracklist:
1. Ritualist Profane. Satanist 5:15
******************************
Total playing time: 5:15




[more=Technical info]
Input File: Avocyn - Ritualist Profane. Satanist.mp3
Channels : 2
Sample Rate : 44100
Precision : 16-bit
Duration : 00:05:15.55 = 13915887 samples = 23666.5 CDDA sectors
File Size : 12.6M
Bit Rate : 320k
Sample Encoding: MPEG audio (layer I, II or III)
Comments :
Title=Ritualist Profane. Satanist
Artist=Avocyn

[/more]

Register
(1) dermarsoran,
May 25 2022, 12:30:14 Renuen - Leave Your Hell Behind [single] (2022)


*Artist: Renuen
*Album: Leave Your Hell Behind [single]
*Year: 2022
*Genre: Melodic Death Metal
*Country: Belarus
*Format: mp3@CBR320kbps
*Size: 8MB

Tracklist:
1. Leave Your Hell Behind 03:22
******************************
Total playing time: 3:22




[more=Extended info]Aleh Huta Guitars (lead) (2005-present)
See also: ex-Tutejszyja
Alex Kavaliou Vocals (lead) (2005-present)
See also: ex-Tutejszyja
Alexi Bykovski Bass (2014-present)
See also: Адарвірог
Victor Homich Guitars (rhythm) (2015-present)[/more]

[more=Technical info]
Input File: Renuen - Leave Your Hell Behind.mp3
Channels : 2
Sample Rate : 48000
Precision : 16-bit
Duration : 00:03:22.49 = 9719568 samples ~ 15186.8 CDDA sectors
File Size : 8.10M
Bit Rate : 320k
Sample Encoding: MPEG audio (layer I, II or III)
Comments :
Title=Leave Your Hell Behind
Artist=Renuen

[/more]

Register
(3) artscald, chipsgott, Wail,
May 25 2022, 12:19:28 Biersbreaker - Martxa Baten Lehen Notak [single] (2022)


*Artist: Biersbreaker
*Album: Martxa Baten Lehen Notak [single]
*Year: 2022
*Genre: Melodic Death/Folk Metal
*Country: Spain
*Format: mp3@CBR320kbps
*Size: 7MB

Tracklist:
1. Martxa baten lehen notak 3:01
******************************
Total playing time: 3:01





[more=Extended info]Unai Bass (2010-present)
See also: ex-Azken Garrasia, ex-Hiverland
Xabi "Viky" Guitars, Bagpipes (2010-present)
See also: ex-Hiverland
Gonzalo "Nigga" Guitars (2016-present)
See also: ex-Dawnmaster, ex-Impio
Mikka Vocals (2017-present)
Iosu "Bizargorri" Drums (2019-present)
See also: Helldamm[/more]

[more=Technical info]
Input File: Biersbreaker - Martxa baten lehen notak(1).mp3
Channels : 2
Sample Rate : 44100
Precision : 16-bit
Duration : 00:03:00.96 = 7980468 samples = 13572.2 CDDA sectors
File Size : 7.24M
Bit Rate : 320k
Sample Encoding: MPEG audio (layer I, II or III)
Comments :
Title=Martxa baten lehen notak
Artist=Biersbreaker

[/more]

Register
(3) artscald, chipsgott, Necromicon666,
May 25 2022, 11:46:31 Sunfall - Roots Bloody Roots [single] (2022)


*Artist: Sunfall
*Album: Roots Bloody Roots [single]
*Year: 2022
*Genre: Groove Metal/Metalcore
*Country: International
*Format: mp3@CBR320kbps
*Size: 9MB

Tracklist:
1. Roots Bloody Roots 4:01 (Sepultura Cover)
******************************
Total playing time: 4:01



[more=Extended info]United Kingdom / Australia.[/more]

[more=Technical info]
Input File: Sunfall - Roots Bloody Roots.mp3
Channels : 2
Sample Rate : 44100
Precision : 16-bit
Duration : 00:04:01.36 = 10644020 samples = 18102.1 CDDA sectors
File Size : 9.65M
Bit Rate : 320k
Sample Encoding: MPEG audio (layer I, II or III)
Comments :
Title=Roots Bloody Roots (Sepultura cover)
Artist=Sunfall

[/more]

Register
(3) artscald, chipsgott, sludge666,
May 25 2022, 11:13:00 Spire Of Lazarus - Farah [single] (2022)


*Artist: Spire Of Lazarus
*Album: Farah [single]
*Year: 2022
*Genre: Technical Deathcore
*Country: Austria
*Format: mp3@CBR320kbps
*Size: 14MB

Tracklist:
1. Farah 06:28
******************************
Total playing time: 6:28





[more=Extended info]Thomas Fèanis Bass (2020-present)
See also: Irityll, ex-Project:Epigone (live), ex-Dayum, Call the Mothership, Manège Noir, ex-The Negative Bias (live)
Julius Kössler Guitars (2020-present)
See also: Irityll, ex-Dayum, Jioda, Omni Express
Jon Nellis Vocals (2021-present)
See also: KANG[/more]

[more=Technical info]
Input File: Spire Of Lazarus - Farah.mp3
Channels : 2
Sample Rate : 44100
Precision : 16-bit
Duration : 00:06:26.66 = 17051794 samples = 28999.6 CDDA sectors
File Size : 15.5M
Bit Rate : 320k
Sample Encoding: MPEG audio (layer I, II or III)
Comments :
Title=Farah
Artist=Spire Of Lazarus

[/more]

Register
(2) artscald, chipsgott,
May 25 2022, 09:20:56 Hexis - Exhaurire [single] (2022)


*Artist: Hexis
*Album: Exhaurire [single]
*Year: 2022
*Genre: Black Metal
*Country: Denmark
*Format: mp3@CBR320kbps
*Size: 17MB

Tracklist:
1. Exhaurire 07:45
******************************
Total playing time: 7:45





[more=Technical info]
Input File: Hexis - Exhaurire.mp3
Channels : 2
Sample Rate : 44100
Precision : 16-bit
Duration : 00:07:43.05 = 20420461 samples = 34728.7 CDDA sectors
File Size : 18.5M
Bit Rate : 320k
Sample Encoding: MPEG audio (layer I, II or III)
Comments :
Title=Exhaurire
Artist=Hexis

[/more]

Register
(5) artscald, Occultas, stormhatt, vasiljev_sergej, Wail,
May 25 2022, 08:58:40 Mirthless - Inviolable Sin [single] (2022)


*Artist: Mirthless
*Album: Inviolable Sin [single]
*Year: 2022
*Genre: Progressive Death Metal/Deathcore
*Country: United States
*Format: mp3@CBR320kbps
*Size: 9MB

Tracklist:
1. Inviolable Sin 03:56
******************************
Total playing time: 3:56




[more=Extended info]Matthew Carmichael Drums, Synths
Yousef Jeddi Guitars, Bass, Vocals
See also: Atomic Carnage
Eli Roberson Vocals[/more]

[more=Technical info]
Input File: Mirthless - Inviolable Sin.mp3
Channels : 2
Sample Rate : 44100
Precision : 16-bit
Duration : 00:03:54.15 = 10326059 samples = 17561.3 CDDA sectors
File Size : 9.37M
Bit Rate : 320k
Sample Encoding: MPEG audio (layer I, II or III)
Comments :
Title=Inviolable Sin
Artist=Mirthless

[/more]

Register
(2) artscald, chipsgott,
May 25 2022, 08:42:16 Entrails - Reborn In Worms [single] (2022)


*Artist: Entrails
*Album: Reborn In Worms [single]
*Year: 2022
*Genre: Old School Death Metal
*Country: Sweden
*Format: mp3@CBR320kbps
*Size: 8MB

Tracklist:
1. Reborn in Worms 03:37
******************************
Total playing time: 3:37





[more=Extended info]Jimmy Lundqvist Guitars, Drum programming (1990-1998), Guitars (2009-present)
Pontus "Penki" Samuelsson Guitars (2014-2018), Bass, Vocals (2018-present)
See also: Facerip, Gravestone, Void
Arvid Borg Drums (2019-present)
See also: Carneus, Resonance Cascade, ex-Sorthug, ex-Stridsvagn
Markus Svensson Guitars (2019-present)
See also: Nuclear Salvation[/more]

[more=Technical info]
Input File: Entrails - Reborn In Worms.mp3
Channels : 2
Sample Rate : 44100
Precision : 16-bit
Duration : 00:03:38.06 = 9616402 samples = 16354.4 CDDA sectors
File Size : 8.81M
Bit Rate : 323k
Sample Encoding: MPEG audio (layer I, II or III)
Comments :
Title=Reborn In Worms
Artist=Entrails
Album=Reborn In Worms
Year=2022

[/more]

Register
(1) hell_armageddon,
May 25 2022, 08:26:57 Xandria - Reborn [single] (2022)


*Artist: Xandria
*Album: Reborn [single]
*Year: 2022
*Genre: Symphonic Metal
*Country: Germany
*Format: mp3@CBR320kbps
*Size: 13MB

Tracklist:
1. Reborn 05:13
******************************
Total playing time: 5:13





[more=Extended info]Marco Heubaum Guitars, Keyboards, Programming, Vocals (1994-present)
Tim Schwarz Bass (2022-present)
Dimitrio Gatsios Drums (2022-present)
Rob Klawoon Guitars (2022-present)
Ambre Vourvahis Vocals (2022-present)
See also: Fragment Soul (live)[/more]

[more=Technical info]
Input File: XANDRIA - Reborn (2022).mp3
Channels : 2
Sample Rate : 44100
Precision : 16-bit
Duration : 00:05:44.11 = 15175119 samples = 25808 CDDA sectors
File Size : 14.1M
Bit Rate : 327k
Sample Encoding: MPEG audio (layer I, II or III)
Comments :
Title=XANDRIA - Reborn | Napalm Records
Artist=Napalm Records

[/more]

Register
(6) Alpha_Prime, Aresson, boby9052, Dante_D, gwar, infozahist,
May 25 2022, 08:18:47 Bleeding Through - Rage [single] (2022)


*Artist: Bleeding Through
*Album: Rage [single]
*Year: 2022
*Genre: Metalcore
*Country: United States
*Format: mp3@CBR320kbps
*Size: 9MB

Tracklist:
1. Rage 03:54
******************************
Total playing time: 3:54




[more=Extended info]Brandan Schieppati Vocals (1999-2014, 2018-present)
See also: Sorrows, Suffer Well, The Iron Son, ex-Throwdown, ex-Alfalfabet, ex-Breakneck, ex-Die Die My Darling, ex-Eighteen Visions, ex-I Am War, ex-The Innocent, ex-The Mistake
Derek Youngsma Drums (2000-2014, 2018-present)
See also: ex-Cast in Stone, ex-Daggers, ex-Shattered
Brian "Lefty" Leppke Guitars (2001-2014, 2018-present)
See also: Day of Contempt
Ryan Wombacher Bass (2002-2014, 2018-present)
See also: ex-Devil You Know, Light the Torch
Marta Demmel Keyboards (2004-2014, 2018-present)[/more]

[more=Technical info]
Input File: Bleeding Through - Rage.mp3
Channels : 2
Sample Rate : 44100
Precision : 16-bit
Duration : 00:03:54.39 = 10336423 samples = 17579 CDDA sectors
File Size : 9.41M
Bit Rate : 321k
Sample Encoding: MPEG audio (layer I, II or III)
Comments :
Title=Rage
Artist=Bleeding Through

[/more]

Register
(4) artscald, chipsgott, Ostinato, tschunioronbeer,
May 25 2022, 07:44:53 Heruvim - Shadowheart [ep] (2022)


*Artist: Heruvim
*Album: Shadowheart [ep]
*Year: 2022
*Genre: Death Metal
*Country: Ukraine
*Format: mp3@CBR320kbps
*Size: 62MB

Tracklist:
1. Shadowheart 08:38
2. Oppression 03:24
3. Empire Falls 07:55
4. Hyborian Age 04:25
******************************
Total playing time: 24:22






[more=Extended info]Vyacheslav Babienko Bass
See also: Lostpray, Silent Grace
Nick Skindrummer Drums
See also: Lostpray
Kick Flis Guitars (lead)
See also: ex-Re-Vengeance
Nefarious Vocals, Guitars (2019-present)
See also: Kingpin[/more]

[more=Technical info]
Input File: 02. Oppression.mp3
Channels : 2
Sample Rate : 44100
Precision : 16-bit
Duration : 00:03:24.73 = 9028681 samples = 15354.9 CDDA sectors
File Size : 8.29M
Bit Rate : 324k
Sample Encoding: MPEG audio (layer I, II or III)
Comments :
Title=Oppression
Artist=Heruvim
Album=Shadowheart
Tracknumber=02
Year=2022
Genre=Old-School Death Metal

[/more]

Register
(7) artscald, cesar, chipsgott, Marek, terron, VALERY, Wail,
May 25 2022, 07:33:06 Leivato - Plenitude On The Other Side (2022)


*Artist: Leivato
*Album: Plenitude On The Other Side
*Year: 2022
*Genre: Melodic Death Metal
*Country: France
*Format: mp3@CBR320kbps
*Size: 71MB

Tracklist:
1. Last Stir
2. Come, See, Conquer
3. Bloodbath
4. Under the Reaper's Watch
5. Until Death Unites Us
6. Plenitude on the Other Side
7. Nothing but Void
8. Entombed
******************************
Total playing time: 31:25







[more=Technical info]
Input File: 02 - Come, See, Conquer.mp3
Channels : 2
Sample Rate : 44100
Precision : 16-bit
Duration : 00:03:05.40 = 8176316 samples = 13905.3 CDDA sectors
File Size : 7.42M
Bit Rate : 320k
Sample Encoding: MPEG audio (layer I, II or III)
Comments :
Title=Come, See, Conquer
Artist=Leivato
Album=Plenitude on the Other Side
Tracknumber=2
Year=2022

[/more]

Register
(7) artscald, BugEyes, chipsgott, hate_eternal, krotovich, sergsazan, VALERY,
May 23 2022, 16:34:07 Black Seal - We Must Make Them Fall (2022)
Внезапно вменяемая работа от гишпанцев.
Слегка притрешеванный хеви с добротным вокалом и отличной муз составляющей! Очень добротный опус.
(1) Сварог Барг,
May 23 2022, 07:42:34 Black Seal - We Must Make Them Fall (2022)


*Artist: Black Seal
*Album: We Must Make Them Fall
*Year: 2022
*Genre: Heavy/Power Metal
*Country: Spain
*Format: mp3@CBR320kbps
*Size: 98MB

Tracklist:
1. Never
2. We Must Make Them Fall
3. Free of Chains
4. Perpetual
5. Kingdom of Fools
6. Place to Hide
7. Life Reset
8. Pay Your Sins
9. Wake Up
******************************
Total playing time: 42:53






[more=Extended info]Jesús Marco Drums
See also: ex-Wolfheart
Daniel Iranzo Guitars (lead)
Fernando Guzmán Guitars (rhythm)
See also: ex-Wolfheart
Daniel Maestro Vocals
See also: ex-Wolfheart, Iron Maños
Jorge Garcia Bass (2018-present)
See also: Anestesica[/more]

[more=Technical info]
Input File: 02 - We Must Make Them Fall.mp3
Channels : 2
Sample Rate : 44100
Precision : 16-bit
Duration : 00:05:21.98 = 14199186 samples = 24148.3 CDDA sectors
File Size : 13.0M
Bit Rate : 323k
Sample Encoding: MPEG audio (layer I, II or III)
Comments :
Title=We Must Make Them Fall
Artist=Black Seal
Album=We Must Make Them Fall
Tracknumber=2/9
Year=2022

[/more]

Register
(19) ace73pq, after21allD, artscald, boby9052, caro, Danilodanilo, gwar, gwynnbleid, Herrant, HMHamster, lary_veel, Marek, metala, postal67, sergsazan, stumpheavyrock, varlam4, vir2al, Сварог Барг,
May 22 2022, 19:34:55 Summoning - Let Mortal Heroes Sing Your Fame (2001)
CD-RIP
320, 129 Mb:


Register
(1) Occultas,
May 22 2022, 19:24:13 Summoning - Minas Morgul (1995)
CD-RIP
320, 155 Mb:


Register
(1) Occultas,
May 22 2022, 19:15:24 Summoning - Dol Guldur (1996)
CD-RIP
320, 155 Mb:


Register
(2) Occultas, stumpheavyrock,
May 22 2022, 18:56:48 Summoning - Stronghold (1999)
CD-RIP
320, 145 Mb:


Register
(2) Occultas, thenecromancer,
May 21 2022, 15:00:07 Assignment - Assimilation (2022)
Альбом каверов.
(1) Storky,
May 21 2022, 13:10:17 Blind Guardian - Secrets Of The American Gods [single] (2022)


*Artist: Blind Guardian
*Album: Secrets Of The American Gods [single]
*Year: 2022
*Genre: Power Metal
*Country: Germany
*Format: mp3@CBR320kbps
*Size: 15MB

Tracklist:
1. Secrets of the American Gods 06:37
******************************
Total playing time: 6:37




[more=Extended info]Hansi Kürsch Bass (1987-1997), Vocals (1987-present)
See also: ex-Lucifer's Heritage, ex-Demons & Wizards, ex-Executor
André Olbrich Guitars (lead) (1987-present)
See also: ex-Lucifer's Heritage, ex-European, ex-Zero Fault
Marcus Siepen Guitars (rhythm) (1987-present)
See also: ex-Demons & Wizards (live), ex-Lucifer's Heritage, ex-Sinbreed
Frederik Ehmke Drums, Percussion, Flute, Bagpipes (2005-present)
See also: Sinbreed, ex-Schattentantz, ex-Demons & Wizards (live), ex-Neoshine[/more]

[more=Technical info]
Input File: 01_blind_guardian_secrets_of_the_american_gods.mp3
Channels : 2
Sample Rate : 44100
Precision : 16-bit
Duration : 00:06:38.52 = 17574864 samples = 29889.2 CDDA sectors
File Size : 15.9M
Bit Rate : 320k
Sample Encoding: MPEG audio (layer I, II or III)
Comments :
Title=Secrets Of The American Gods
Artist=Blind Guardian
Album=The God Machine
Tracknumber=1
Year=2022
Genre=PowerMetal

[/more]

Register
(12) Aresson, cancer1974, dulak, gwar, infozahist, mikerx, plfan93, Reverend, sergsazan, Wail, Луч, Сварог Барг,
May 21 2022, 12:56:09 Avantasia - The Wicked Rule The Night [single] (2022)


*Artist: Avantasia
*Album: The Wicked Rule The Night [single]
*Year: 2022
*Genre: Symphonic Power Metal
*Country: Germany
*Format: mp3@CBR320kbps
*Size: 11MB

Tracklist:
1. The Wicked Rule the Night (feat. Ralf Scheepers) 04:24
******************************
Total playing time: 4:24




[more=Extended info]Tobias Sammet Vocals, Keyboards, Piano, Orchestrations (2000-present), Bass (2006-present)
See also: Edguy
Sascha Paeth Guitars, Keyboards, Piano, Orchestrations (2006-present)
See also: Sascha Paeth's Masters of Ceremony, ex-Aina, ex-Heavens Gate, ex-Luca Turilli, ex-Luca Turilli's Dreamquest, ex-Redkey, ex-Trillium, ex-Sharona, ex-The Wirepushers, ex-Virgo (Matos/Paeth)
Miro Rodenberg Keyboards, Orchestrations (2006-present)
See also: ex-Aina, ex-Trillium, ex-Luca Turilli, ex-Virgo (Matos/Paeth)[/more]

[more=Technical info]
Input File: 01_avantasia_ralf_scheepers_the_wicked_rule_the_night.mp3
Channels : 2
Sample Rate : 44100
Precision : 16-bit
Duration : 00:04:25.03 = 11687823 samples = 19877.2 CDDA sectors
File Size : 12.4M
Bit Rate : 373k
Sample Encoding: MPEG audio (layer I, II or III)
Comments :
Title=The Wicked Rule The Night (feat. Ralf Scheepers)
Artist=Avantasia
Album=The Wicked Rule The Night
Tracknumber=1
Year=2022
Genre=Metal

[/more]

Register
(16) ALEXSATHANAS, Aresson, artscald, boby9052, caro, Cartman223, chipsgott, dulak, finmetal, GorAtheist, gwar, gwynnbleid, Olrak, Rover, sergsazan, Сварог Барг,
May 21 2022, 09:58:09 Slight Of Mind - Cosmic Resurrection (2022)


*Artist: Slight Of Mind
*Album: Cosmic Resurrection
*Year: 2022
*Genre: Progressive/Heavy Metal
*Country: United States
*Format: mp3@CBR320kbps
*Size: 135MB

Tracklist:
01. From The Ashes 05:21
02. Follow Me 05:26
03. Invincible 05:02
04. Falling To Pieces 07:15
05. Someday 05:40
06. Black Rain 06:19
07. The City Gods 05:17
08. If Only 05:38
09. Apache Moon 07:16
10. 1015 03:05
******************************
Total playing time: 56:19







[more=Technical info]
Input File: 02 - Follow Me.mp3
Channels : 2
Sample Rate : 44100
Precision : 16-bit
Duration : 00:05:25.00 = 14332500 samples = 24375 CDDA sectors
File Size : 13.2M
Bit Rate : 324k
Sample Encoding: MPEG audio (layer I, II or III)
Comments :
Title=Follow Me
Artist=Slight Of Mind
Album=Cosmic Resurrection
Tracknumber=2
Year=2022-05-21
Discnumber=1

[/more]

Register
(11) after21allD, artscald, caro, infozahist, Marek, metala, MetalW, Olrak, postal67, Rover, stumpheavyrock,

210 Pages V   1 2 3 > » 
- Lo-Fi Version Support form
Copyrights and abuse reports form
Time is now: 29th May 2022 - 09:32:23