Welcome Guest ( Log In | Register )

История благодарностей участнику Andrew ::: Спасибо сказали: 21031 раз(а)
Дата поста: В теме: За сообщение: Спасибо сказали:
Feb 22 2020, 20:01:13 Vivisect - Vivisect [ep] (2020)


*Artist: Vivisect
*Album: Vivisect [ep]
*Year: 2020
*Genre: Death Metal
*Country: United States
*Format: mp3@CBR320kbps
*Size: 31MB

Tracklist:
1. Intro 00:46
2. Order of the Solar Temple 05:20
3. Rat Torture 04:58
******************************
Total playing time: 11:04




[more=Technical info]
Input File: 02. Order of the Solar Temple.mp3
Channels : 2
Sample Rate : 44100
Precision : 16-bit
Duration : 00:05:20.88 = 14150896 samples = 24066.1 CDDA sectors
File Size : 13.8M
Bit Rate : 345k
Sample Encoding: MPEG audio (layer I, II or III)
Comments :
Title=Order of the Solar Temple
Artist=Vivisect
Album=Vivisect
Tracknumber=2
Year=2020

[/more]

Register
(8) ASkyThatBurns, caro, craP_cillA, infiltrator, Olethros, Rosen, VALERY, wn129aa,
Feb 21 2020, 21:40:44 Simplefast - Eternal (2020)
Вокал не для такой музыки
(2) infiltrator, Olrak,
Feb 21 2020, 21:17:06 White Crone - The Poisoner (2020)


*Artist: White Crone
*Album: The Poisoner
*Year: 2020
*Genre: Heavy Metal
*Country: United States
*Format: mp3@CBR320kbps
*Size: 118MB

Tracklist:
01. The Dream of Tiamat 04:04
02. The Poisoner 03:19
03. To the Abyss 04:27
04. Our Sacred Duty 00:50
05. Broken 04:46
06. The Seven Gates of Hell 04:39
07. New Planet Earth 04:51
08. Interment 05:35
09. Edge of Gone 04:02
10. Melancholia 02:00
11. Under Hag Stones 05:01
12. 18 Rabbit 07:18
******************************
Total playing time: 50:52





[more=Technical info]
Input File: 02 - The Poisoner.mp3
Channels : 2
Sample Rate : 44100
Precision : 16-bit
Duration : 00:03:19.80 = 8811092 samples = 14984.9 CDDA sectors
File Size : 8.01M
Bit Rate : 321k
Sample Encoding: MPEG audio (layer I, II or III)
Comments :
Title=The Poisoner
Artist=White Crone
Album=The Poisoner
Tracknumber=02
Year=2020
Genre=Heavy Metal
Discnumber=1

[/more]

Register
(12) Bzth, caro, chipsgott, Darkness, infiltrator, metala, Olethros, Olrak, Rosen, Rover, sagratan, wgs73,
Feb 21 2020, 18:04:06 Black Swan - Shake The World (2020)


*Artist: Black Swan
*Album: Shake The World
*Year: 2020
*Genre: Melodic Hard Rock
*Country: United States
*Format: mp3@CBR320kbps
*Size: 131MB

Tracklist:
01. Shake The World
02. Big Disaster
03. Johnny Came Marching
04. Immortal Souls
05. Make It There
06. She's On To Us
07. The Rock That Rolled Away
08. Long Road To Nowhere
09. Sacred Place
10. Unless We Change
11. Divided/United
******************************
Total playing time: 57:02



[more=Extended info]Line-Up:

Robin McAuley (MSG, Grand Prix, Survivor, Michael Schenker Fest, Demon Angels) - vocal
Reb Beach (Winger, Whitesnake) - guitar
Jeff Pilson (Foreigner, The End Machine, ex-Dokken) - bass
Matt Starr (Ace Frehley, Mr. Big) - drums[/more]

[more=Technical info]
Input File: 1 - Shake the World.mp3
Channels : 2
Sample Rate : 44100
Precision : 16-bit
Duration : 00:04:35.74 = 12160134 samples = 20680.5 CDDA sectors
File Size : 11.1M
Bit Rate : 322k
Sample Encoding: MPEG audio (layer I, II or III)
Comments :
Title=Shake the World
Artist=Black Swan
Album=Shake the World
Tracknumber=1
Year=2020
Genre=Rock/Hard Rock
Discnumber=1

[/more]

Register
(4) AHBAnep, Diflock, oldvarg, Olethros,
Feb 21 2020, 14:56:41 Malamorte - God Needs Evil (2020)
ЦИТАТА(Samaritianin @ Feb 21 2020, 01:39:37) *
*Genre: Blackened Heavy Metal

Странно, в превьюшном треке Blackened не услышал 13.gif
(1) isvili,
Feb 21 2020, 14:48:11 Sortout - Conquer From Within (2020)


*Artist: Sortout
*Album: Conquer From Within
*Year: 2020
*Genre: Melodic Death Metal/Metalcore
*Country: Austria
*Format: mp3@CBR320kbps
*Size: 101MB

Tracklist:
1. Undertow 04:02
2. Relentless 03:20
3. Echoes of Conflict 03:34
4. Illusions 03:58
5. Eternal Hate 03:31
6. Sever the Serpent's Tongue 03:03
7. Blind Eyes 03:38
8. Monuments 03:38
9. Midas' Gift 03:15
10. Paragon of Misery 05:17
11. Law of Creation 03:08
12. A Journey from Within 03:50
******************************
Total playing time: 44:14





[more=Extended info]Günter Meusburger Bass
Benjamin Herter Vocals
Michael Geuze Guitars (2015-present)
See also: No.sar
André Hammerer Drums (2017-present)
See also: No.sar
Aaron Schedler Guitars (rhythm) (2018-present)
See also: No.sar[/more]

[more=Technical info]
Input File: 04-sortout-illusions-ea1ce3c8.mp3
Channels : 2
Sample Rate : 44100
Precision : 16-bit
Duration : 00:03:57.52 = 10474676 samples = 17814.1 CDDA sectors
File Size : 9.62M
Bit Rate : 324k
Sample Encoding: MPEG audio (layer I, II or III)
Comments :
Title=Illusions
Artist=Sortout
Album=Conquer From Within
Tracknumber=4/12
Year=2020
Genre=Metal

[/more]

Register
(9) ASkyThatBurns, caro, infiltrator, metalwoman, Olethros, Rosen, satanist666, VALERY, zhol,
Feb 21 2020, 14:34:13 Scalpture - Eisenzeit (2020)


*Artist: Scalpture
*Album: Eisenzeit
*Year: 2020
*Genre: Old School Death Metal
*Country: Germany
*Format: mp3@CBR320kbps
*Size: 94MB

Tracklist:
1. The Storm... 02:14
2. ...Ebbs into Stalemate 04:55
3. Und Ehre ist's 04:50
4. Fire Flies Through Empty Skies 00:58
5. Hinterlandsymphonie 03:58
6. Eisenzeit 04:53
7. Hell Is a Field in France 03:08
8. Yperite 04:35
9. Of Daredevils and Doughboys 03:15
10. All Quiet on the Western Front 04:22
******************************
Total playing time: 37:08





[more=Extended info]Felix Guitars
See also: Evoked, Abythic (live), Wifebeater
Thorsten Vocals
Tobias Guitars (2016-present)
Moritz Drums (2017-present)
Niklas Bass (2019-present)[/more]

[more=Technical info]
Input File: 02. ...Ebbs into Stalemate.mp3
Channels : 2
Sample Rate : 44100
Precision : 16-bit
Duration : 00:04:56.04 = 13055320 samples = 22202.9 CDDA sectors
File Size : 12.5M
Bit Rate : 339k
Sample Encoding: MPEG audio (layer I, II or III)
Comments :
Title=...Ebbs into Stalemate
Artist=Scalpture
Album=Eisenzeit
Tracknumber=2
Year=2020
Genre=OSDM

[/more]

Register
(29) AHBAnep, akym, alikkon, andreikun, ASkyThatBurns, atavist, BugEyes, caro, Dark Sage, DarkHorde, hammer, infiltrator, jollo, kauyumari, Mist13Signifier, oldthrashman, Olethros, Ostinato, Rosen, RUSP73, SatanicPanzer, Satyr, THROWER666, Tino, VALERY, wanderer73, WX419, yuratroll, zhol,
Feb 16 2020, 21:26:14 Blackbird Kings - A New World Order [ep] (2017)
Register
(1) BlackArrow,
Feb 10 2020, 20:38:54 Testament - Night Of The Witch [single] (2020)


*Artist: Testament
*Album: Night Of The Witch [single]
*Year: 2020
*Genre: Thrash Metal
*Country: United States
*Format: mp3@CBR320kbps
*Size: 23MB

Tracklist:
1. Night of the Witch 06:32
******************************
Total playing time: 6:32




[more=Technical info]
Input File: 01 Night of the Witch.mp3
Channels : 2
Sample Rate : 44100
Precision : 16-bit
Duration : 00:06:32.15 = 17293771 samples = 29411.2 CDDA sectors
File Size : 17.2M
Bit Rate : 352k
Sample Encoding: MPEG audio (layer I, II or III)
Comments :
Title=Night of the Witch
Artist=Testament
Album=Titans of Creation
Tracknumber=01
Year=2020
Genre=Rock
Discnumber=1

[/more]

Register
(4) Aresson, nikolay81, plfan93, wgs73,
Feb 10 2020, 20:02:40 Nightwish - Noise [single] (2020)


*Artist: Nightwish
*Album: Noise [single]
*Year: 2020
*Genre: Symphonic Power Metal
*Country: Finland
*Format: mp3@CBR320kbps
*Size: 13MB

Tracklist:
1. Noise 05:40
******************************
Total playing time: 5:40




[more=Technical info]
Input File: 2 - Noise.mp3
Channels : 2
Sample Rate : 44100
Precision : 16-bit
Duration : 00:05:40.37 = 15010229 samples = 25527.6 CDDA sectors
File Size : 13.8M
Bit Rate : 325k
Sample Encoding: MPEG audio (layer I, II or III)
Comments :
Title=Noise
Artist=Nightwish
Album=HUMAN. :II: NATURE.
Tracknumber=2
Year=2020
Genre=Rock
Discnumber=1

[/more]

Register
(1) Aresson,
Feb 10 2020, 19:35:47 Bois Mange Crève - Bois Mange Crève (2020)


*Artist: Bois Mange Crève
*Album: Bois Mange Crève
*Year: 2020
*Genre: Atmospheric/Depressive Black Metal
*Country: France
*Format: mp3@CBR320kbps
*Size: 93MB

Tracklist:
1. Xylostomiase 08:45
2. Régénéré 07:30
3. Ainsi Sucèrent T - Elles (âme Et Chibre) 06:14
4. Quand La Bière Et La Musique Sont Fortes 08:32
5. Xylostomiase Empire 06:53
******************************
Total playing time: 37:54




[more=Technical info]
Input File: 02 Régénéré.mp3
Channels : 2
Sample Rate : 44100
Precision : 16-bit
Duration : 00:07:30.72 = 19876532 samples = 33803.6 CDDA sectors
File Size : 18.2M
Bit Rate : 322k
Sample Encoding: MPEG audio (layer I, II or III)
Comments :
Title=Régénéré
Artist=Bois Mange Crève
Album=Bois Mange Crève
Tracknumber=2
Year=2020

[/more]

Register
(17) 1968_janeart, AlexHellhammer1602, ASkyThatBurns, craP_cillA, HMHamster, infiltrator, kim666, murian, nikolay81, Olethros, Rosen, satanist666, senecazm, SilentNidhogg, stone88, VALERY, vasiljev_sergej,
Feb 10 2020, 12:30:10 Green Day - Father Of All Motherfuckers (2020)


*Artist: Green Day
*Album: Father Of All Motherfuckers
*Year: 2020
*Genre: Punk Rock
*Country: United States
*Format: mp3@CBR320kbps
*Size: 62MB

Tracklist:
01. Father of All... 2:31
02. Fire, Ready, Aim 1:52
03. Oh Yeah! 2:51
04. Meet Me on the Roof 2:39
05. I Was a Teenage Teenager 3:44
06. Stab You in the Heart 2:10
07. Sugar Youth 1:54
08. Junkies on a High 3:06
09. Take the Money and Crawl 2:08
10. Graffitia 3:17
******************************
Total playing time: 26:12




[more=Technical info]
Input File: 02-green_day-fire_ready_aim.mp3
Channels : 2
Sample Rate : 44100
Precision : 16-bit
Duration : 00:01:52.75 = 4972275 samples = 8456.25 CDDA sectors
File Size : 4.58M
Bit Rate : 325k
Sample Encoding: MPEG audio (layer I, II or III)
Comments :
Title=Fire, Ready, Aim
Artist=Green Day
Album=Father Of All Motherfuckers
Tracknumber=2
Year=2020
Genre=Rock

[/more]

Register
(8) Aresson, DMIYUR, EVENGAR, Joey_73, lucifix, metala, Penetralia, VALERY,
Feb 10 2020, 12:15:35 Stone Temple Pilots - Perdida (2020)


*Artist: Stone Temple Pilots
*Album: Perdida
*Year: 2020
*Genre: Alternative Rock
*Country: United States
*Format: mp3@CBR320kbps
*Size: 104MB

Tracklist:
01. Fare Thee Well 04:21
02. Three Wishes 04:51
03. Perdida 03:29
04. I Didn't Know the Time 05:31
05. Years 03:30
06. She's My Queen 04:41
07. Miles Away 04:56
08. You Found Yourself While Losing Your Heart 05:43
09. I Once Sat at Your Table 01:56
10. Sunburst 06:28
******************************
Total playing time: 45:26




[more=Technical info]
Input File: 2 - Three Wishes.mp3
Channels : 2
Sample Rate : 44100
Precision : 16-bit
Duration : 00:04:52.04 = 12879052 samples = 21903.1 CDDA sectors
File Size : 11.7M
Bit Rate : 321k
Sample Encoding: MPEG audio (layer I, II or III)
Comments :
Title=Three Wishes
Artist=Stone Temple Pilots
Album=Perdida
Tracknumber=2
Year=2020
Genre=Rock
Discnumber=1

[/more]

Register
(3) Bruce, DMIYUR, Olethros,
Feb 10 2020, 10:32:26 Ego Absence - Serpent's Tongue (2020)
(2) AHBAnep, infiltrator,
Feb 10 2020, 10:29:11 Indominuspain - Luchar Hasta El Final (2020)
Кстати, сыграно очень неплохо, но вот вокал+манера исполнения+гишпанский.... 21.gif
(1) minimums,
Feb 5 2020, 21:25:02 Rage - Wings Of Rage (2020)
ЦИТАТА(Shadowman @ Feb 5 2020, 15:28:14) *
есть пара классных вещей, а есть и откровенный проходняк.

Согласен на все 100%!
Что в новом Rage, что в Annihilator - по пару треков, а целиком альбомы не ахти.
(3) Ghostb, infiltrator, Shadowman,
Feb 5 2020, 21:21:36 The Absence - Riders Of The Plague (2007)
ЦИТАТА(vosmidesijatye @ Feb 5 2020, 23:55:02) *
По сравнению с чем?

С тем, что был раньше!
(1) Foneg,
Feb 5 2020, 21:14:20 The Black Dahlia Murder - Verminous [single] (2020)


*Artist: The Black Dahlia Murder
*Album: Verminous [single]
*Year: 2020
*Genre: Technical Melodic Death Metal
*Country: United States
*Format: mp3@CBR320kbps
*Size: 9MB

Tracklist:
1. Verminous 03:49
******************************
Total playing time: 3:49





[more=Technical info]
Input File: 1 - Verminous.mp3
Channels : 2
Sample Rate : 44100
Precision : 16-bit
Duration : 00:03:49.89 = 10138149 samples = 17241.8 CDDA sectors
File Size : 9.72M
Bit Rate : 338k
Sample Encoding: MPEG audio (layer I, II or III)
Comments :
Title=Verminous
Artist=The Black Dahlia Murder
Album=Verminous
Tracknumber=1
Year=2020
Genre=Metal
Discnumber=1

[/more]

Register
(12) chipsgott, Foneg, gwar, infiltrator, morbidangelo, Olethros, Ostinato, Rosen, Sanctus, sludge666, varlam4, wanderer73,
Feb 5 2020, 20:19:49 Dynazty - Presence Of Mind [single] (2020)


*Artist: Dynazty
*Album: Presence Of Mind [single]
*Year: 2020
*Genre: Heavy/Power Metal
*Country: Sweden
*Format: mp3@CBR320kbps
*Size: 10MB

Tracklist:
1. Presence of Mind 04:23
******************************
Total playing time: 4:23




[more=Extended info]Sweden,Stockholm/Label:AFM Records/Line-Up:
Nils Johan Molin-voc.
Rob Magnusson-gui.
Mikael Lavér-gui.
Jonathan Olsson-bass.
Georg Härnsten Egg-drums.[/more]

[more=Technical info]
Input File: 01_dynazty_presence_of_mind.mp3
Channels : 2
Sample Rate : 44100
Precision : 16-bit
Duration : 00:04:16.07 = 11292643 samples = 19205.2 CDDA sectors
File Size : 10.2M
Bit Rate : 320k
Sample Encoding: MPEG audio (layer I, II or III)

[/more]

Register
(11) aviacademy, goxther, gwynnbleid, Herrant, infiltrator, metalwoman, morbidangelo, Olethros, Rosen, senecazm, varlam4,
Feb 1 2020, 22:02:41 Schizophrenia - Voices [ep] (2020)
МЕГА шикардозный и бомбезный сабж!!!
Вот, что стоит обсуждению, а не вымученные из пальца новые альбомы Sepultura & Annihilator! Хоть и опус носит статус миника, слушается на одном дыхании и вызывает только положительные и позитивные эмоции. А, учитывая, что это дебютная работа, то музыканты просто умнички, сумев уже в первой своей работе показать высокий класс и огромный потенциал!
(3) Occultas, Samaritianin, troll_swamp,
Jan 29 2020, 20:44:00 A Coup De Grace - The Work Of Ravens (2020)


*Artist: A Coup De Grace
*Album: The Work Of Ravens
*Year: 2020
*Genre: Metalcore/Deathcore
*Country: United States
*Format: mp3@CBR320kbps
*Size: 71MB

Tracklist:
01. Skin Deep
02. NBK
03. Luxury for the Dead
04. Across the Tracks
05. Raze the Throne
06. Leech
******************************
Total playing time: 30:51





[more=Technical info]
Input File: 2 - NBK.mp3
Channels : 2
Sample Rate : 44100
Precision : 16-bit
Duration : 00:05:24.98 = 14331794 samples = 24373.8 CDDA sectors
File Size : 13.1M
Bit Rate : 322k
Sample Encoding: MPEG audio (layer I, II or III)
Comments :
Title=NBK
Artist=A Coup de Grace
Album=The Work of Ravens
Tracknumber=2
Year=2020
Genre=Metal
Discnumber=1

[/more]

Register
(9) Foneg, infiltrator, Olethros, Ostin Devil, Ostinato, Rosen, serjred, varlam4, zhol,
Jan 29 2020, 20:34:01 Hôr - Tell No One What Happens Here (2020)


*Artist: Hôr
*Album: Tell No One What Happens Here
*Year: 2020
*Genre: Black/Death Metal
*Country: United States
*Format: mp3@CBR320kbps
*Size: 90MB

Tracklist:
1. The Breathing Permit ov Hôr 04:22
2. Keepers of the Great Secret 03:21
3. The Walk of Doom to the Mound of the Antlered God 04:09
4. Tell No One What Happens Here, Pt. 1 04:27
5. Ov Ash and Blackened Earth (1,000 Years of Victory) 05:52
6. The Howling Dogs of Jesus Christ 03:18
7. Mysterium Terribile et Fascinans 04:40
8. Tell No One What Happens Here, Pt. 2 05:22
******************************
Total playing time: 35:31




[more=Technical info]
Input File: 02. Keepers of the Great Secret.mp3
Channels : 2
Sample Rate : 44100
Precision : 16-bit
Duration : 00:03:21.76 = 8897528 samples = 15131.9 CDDA sectors
File Size : 9.00M
Bit Rate : 357k
Sample Encoding: MPEG audio (layer I, II or III)
Comments :
Title=Keepers of the Great Secret
Artist=Hor
Album=Tell No One What Happens Here
Tracknumber=2/8
Year=2020

[/more]

Register
(18) ASkyThatBurns, atavist, Bolitho, Doooomed, Foneg, GorAtheist, infiltrator, metala, multizwilling, Olethros, Rosen, satanist666, Shadechaser, SilentNidhogg, VALERY, vasiljev_sergej, vov7609, wanderer73,
Jan 29 2020, 09:00:38 Voroth - Voroth [ep] (2019)


*Artist: Voroth
*Album: Voroth [ep]
*Year: 2019
*Genre: Death/Thrash Metal
*Country: Russian Federation
*Format: mp3@CBR320kbps
*Size: 51MB

Tracklist:
1. Явитель Снов
2. Чернотою
3. Белые Века
4. Вечный Голод
******************************
Total playing time: 20:48



[more=Technical info]
Input File: Dark East Productions - Voroth - Voroth (EP) - 01 Явитель Снов.mp3
Channels : 2
Sample Rate : 44100
Precision : 16-bit
Duration : 00:05:32.09 = 14644993 samples = 24906.5 CDDA sectors
File Size : 13.3M
Bit Rate : 321k
Sample Encoding: MPEG audio (layer I, II or III)
Comments :
Title=Явитель Снов
Artist=Dark East Productions
Album=Voroth - Voroth (EP)
Tracknumber=1
Year=2020

[/more]

Register
(6) boby9052, infiltrator, Olethros, Rosen, stumpheavyrock, Wail,
Jan 28 2020, 21:10:41 In Victory - Ecstasy Of The Enlightened [ep] (2020)


*Artist: In Victory
*Album: Ecstasy Of The Enlightened [ep]
*Year: 2020
*Genre: Symphonic Power Metal
*Country: Sweden
*Format: mp3@CBR320kbps
*Size: 26MB

Tracklist:
1. Reaching Eternity 03:14
2. Magic 03:17
3. The Prophecies Will Unfold 03:56
******************************
Total playing time: 10:27





[more=Extended info]V M-M Guitars (2013-present)
Topias Kupiainen Drums (2018-present)
See also: Arion, Tuomas Norjanen Project
Mattias Lindberg Vocals (2018-present)
See also: Royal Jester, ex-ReinXeed[/more]

[more=Technical info]
Input File: 01 Reaching Eternity.mp3
Channels : 2
Sample Rate : 44100
Precision : 16-bit
Duration : 00:00:00.19 = 8555 samples = 14.5493 CDDA sectors
File Size : 8.48M
Bit Rate : 350M
Sample Encoding: MPEG audio (layer I, II or III)
Comments :
Title=Reaching Eternity
Artist=In Victory
Album=Ecstasy of the Enlightened
Tracknumber=1/3
Year=2020-20-20
Genre=Alternative
Discnumber=1/1

[/more]

Register
(16) ASkyThatBurns, aviacademy, Cartman223, djsema4, gwar, gwynnbleid, Herrant, infiltrator, Mogozoz, Olethros, Rosen, Rover, satanist666, senecazm, sergsazan, zhol,
Jan 28 2020, 17:03:54 God Dethroned - Illuminati (2020)
ЦИТАТА(Battaleon @ Jan 27 2020, 21:39:08) *
бомбовейший альбом от ветеранов banana.gif

Мне также новый опус пришелся по душе! Вроде бы и никакой новизны - все шаблонно и избито, а альбом очень понравился true_black.gif
(2) Battaleon, infiltrator,

167 Pages V   1 2 3 > » 
- Lo-Fi Version Support form
Copyrights and abuse reports form
Time is now: 24th February 2020 - 22:18:16