Welcome Guest ( Log In | Register )

История благодарностей участнику Andrew ::: Спасибо сказали: 38074 раз(а)
Дата поста: В теме: За сообщение: Спасибо сказали:
Jan 29 2023, 11:39:51 Tempashot - Certified Dangerous (2023)
Моднявая хрень, особенно вокал 22.gif
(1) Oldskulthrasher,
Jan 29 2023, 11:18:35 Korruptor - A State Of Decay (2023)
Вокал слабоват.
(1) AHBAnep,
Jan 18 2023, 16:53:06 Bloodbound - Odin's Prayer [single] (2023)


*Artist: Bloodbound
*Album: Odin's Prayer [single]
*Year: 2023
*Genre: Heavy/Power Metal
*Country: Sweden
*Format: mp3@CBR320kbps
*Size: 12MB

Tracklist:
1. Odin’s Prayer 05:07
******************************
Total playing time: 5:07



[more=Extended info]Fredrik Bergh Bass (2004-2006), Keyboards, Vocals (additional) (2004-present)
See also: ex-Forceline, ex-Shape, ex-Street Talk
Tomas Olsson Guitars (2004-present)
See also: ex-Shape, ex-Street Talk
Henrik Olsson Guitars (rhythm) (2006-present)
Patrik J Selleby Vocals (2010-present)
See also: Shadowquest, Tales and Legends, ex-Dawn of Silence
Anders Broman Bass (2011-present)
See also: ex-H.W.B., Taleswapper, ex-Detox
Daniel Hansfeldt Drums (2017-present)
See also: Follow the Cipher, ex-Mandrake, ex-ReinXeed (live), ex-Twilight Force, ex-Blazon Stone (live), ex-Sabaton (live), ex-Archon, ex-Billion Dollar Babies, ex-Vobra, ex-Z.I.A. (Zion Is Awakening)[/more]

[more=Technical info]
Input File: Bloodbound — Odin's Prayer.mp3
Channels : 2
Sample Rate : 44100
Precision : 16-bit
Duration : 00:05:06.06 = 13497026 samples = 22954.1 CDDA sectors
File Size : 12.2M
Bit Rate : 320k
Sample Encoding: MPEG audio (layer I, II or III)

[/more]

Register
(9) artscald, aviacademy, DTGB, gwar, infozahist, Reverend, sergsazan, Wail, wreak,
Jan 18 2023, 16:45:37 Frozen Crown - Victorious [single] (2023)


*Artist: Frozen Crown
*Album: Victorious [single]
*Year: 2023
*Genre: Power Metal
*Country: Italy
*Format: mp3@CBR320kbps
*Size: 12MB

Tracklist:
1. Victorious 05:07
******************************
Total playing time: 5:07




[more=Technical info]
Input File: Frozen Crown — Victorious.mp3
Channels : 2
Sample Rate : 44100
Precision : 16-bit
Duration : 00:05:07.54 = 13562690 samples = 23065.8 CDDA sectors
File Size : 12.3M
Bit Rate : 320k
Sample Encoding: MPEG audio (layer I, II or III)

[/more]

Register
(11) artscald, aviacademy, chipsgott, green7272, gwar, gwynnbleid, infozahist, Reverend, sergsazan, Wail, wreak,
Jan 18 2023, 15:52:59 Evil Never Lose - This Is My World [ep] (2023)
(1) hell_armageddon,
Jan 6 2023, 21:18:33 Hanging Garden - The Four Winds [single] (2022)


*Artist: Hanging Garden
*Album: The Four Winds [single]
*Year: 2022
*Genre: Melodic Doom/Death/Gothic Metal
*Country: Finland
*Format: mp3@CBR320kbps
*Size: 9MB

Tracklist:
1. The Four Winds 03:55
******************************
Total playing time: 3:55




[more=Extended info]Mikko Kolari Guitars (2004-present)
See also: ShamRain
Jussi Hämäläinen Guitars, Vocals (2009-present)
See also: ex-Embraced, Mercury Circle, The Chant
Nino Hynninen Keyboards (2009-present)
See also: ex-Clockwork Spirit, ex-Raakku, ex-Amarantine
Antti Ruokola Drums (2010-2015, 2022-present)
See also: Minutian, ex-Diablerie, ex-Dramatuner
Toni Hatakka Vocals (2010-present)
See also: 2nd Suicide, ex-Clockwork Spirit, ex-Raakku, ex-Amarantine
Jussi Kirves Bass (2011-present)
See also: Inland, ex-Endomorphism
Riikka Hatakka Vocals (female) (2019-present)[/more]

[more=Technical info]
Input File: Hanging Garden — The Four Winds.mp3
Channels : 2
Sample Rate : 44100
Precision : 16-bit
Duration : 00:03:55.92 = 10403852 samples = 17693.6 CDDA sectors
File Size : 9.44M
Bit Rate : 320k
Sample Encoding: MPEG audio (layer I, II or III)

[/more]

Register
(13) artscald, Hell_Is_Here, Ice Gnoll, infozahist, lacrimoza, libertine, Mihalik, Olrak, quarantine, Reverend, russ777, Sanctus, wreak,
Jan 6 2023, 20:58:48 ...And Oceans - Cloud Heads [single] (2022)


*Artist: ...And Oceans
*Album: Cloud Heads [single]
*Year: 2022
*Genre: Symphonic Black Metal
*Country: Finland
*Format: mp3@CBR320kbps
*Size: 10MB

Tracklist:
1. Cloud Heads 04:19
******************************
Total playing time: 4:19





[more=Extended info]T Guitars (1995-2005, 2017-present)
See also: Festerday, Magenta Harvest, ex-Headache, ex-Havoc Unit, ex-O
Teemu Saari Guitars (1995-2001, 2017-present)
See also: Festerday, ex-Headache, ex-O
Kauko Kuusisalo Drums (2018-present)
See also: Aegrus, Damnation Prayer, Fatal Sound Project, Gloria Morti, Gorephilia, Ydin, True Black Dawn (live)
Antti Simonen Keyboards (2018-present)
See also: ex-Obscurant, ex-Alghazanth (live), ex-Morian, ex-Soulfallen
Mathias Lillmåns Vocals (2019-present)
See also: Chthonian, Decomposter, Dispyt, Festerday, Finntroll, Magenta Harvest, Morbikon, Observant, The Iniquity Descent, Ondfødt (live), ex-Carnaticum, ex-Degenerate, ex-Twilight Moon, ex-Argent Void
Pyry Hanski Bass (2020-present)
See also: Before the Dawn, Endzeit, Gloria Morti, Mörbid Vomit, Red Moon Architect, Trollheims Grott, Oceanwake (live), True Black Dawn (live), ex-RoutaSielu, ex-Black Sun Aeon (live), Duo HANN, ex-Aeonian Sorrow, ex-Casket, ex-Omnium Gatherum (live), ex-Stam1na (live), ex-Swallow the Sun (live), ex-Less than Three[/more]

[more=Technical info]
Input File: and Oceans — Cloud Heads.mp3
Channels : 2
Sample Rate : 44100
Precision : 16-bit
Duration : 00:04:19.30 = 11434910 samples = 19447.1 CDDA sectors
File Size : 10.4M
Bit Rate : 320k
Sample Encoding: MPEG audio (layer I, II or III)

[/more]

Register
(21) Aresson, artscald, blacky66, Cartman223, chipsgott, dulak, Grev, gwynnbleid, Hell_Is_Here, infozahist, Lanceatum, Occultas, Reverend, Sanctus, sergsazan, VALERY, varlam4, VLADISLAV_V_K, Wail, wreak, zyklon,
Jan 6 2023, 20:39:45 Beyond The Black - Dancing In The Dark [single] (2022)


*Artist: Beyond The Black
*Album: Dancing In The Dark [single]
*Year: 2022
*Genre: Symphonic Metal
*Country: Germany
*Format: mp3@CBR320kbps
*Size: 10MB

Tracklist:
1. Dancing in the Dark 04:05
******************************
Total playing time: 4:05




[more=Extended info]Jennifer Haben Vocals (lead) (2014-present)
See also: ex-Saphir
Kai Tschierschky Drums (2016-present)
See also: ex-God's Second Son
Tobi Lodes Guitars, Vocals (backing) (2016-present)
See also: Winterstorm
Chris Hermsdörfer Guitars, Vocals (backing) (2016-present)
See also: Serenity, Fallen After Midnight, ex-Visions of Atlantis[/more]

[more=Technical info]
Input File: Beyond The Black — Dancing In The Dark.mp3
Channels : 2
Sample Rate : 44100
Precision : 16-bit
Duration : 00:04:05.45 = 10824345 samples = 18408.8 CDDA sectors
File Size : 9.82M
Bit Rate : 320k
Sample Encoding: MPEG audio (layer I, II or III)

[/more]

Register
(12) after21allD, artscald, Cartman223, chipsgott, dulak, gwar, infozahist, quarantine, Reverend, sergsazan, Wail, wreak,
Jan 6 2023, 20:09:48 Enslaved - Congelia [single] (2022)


*Artist: Enslaved
*Album: Congelia [single]
*Year: 2022
*Genre: Progressive Metal
*Country: Norway
*Format: mp3@CBR320kbps
*Size: 18MB

Tracklist:
1. Congelia 08:02
******************************
Total playing time: 8:02




[more=Extended info]Ivar Bjørnson Guitars, Keyboards, Piano, Electronics, Effects, Percussion, Vocals (backing) (1991-present)
See also: Ivar Bjørnson & Einar Selvik, ex-Desekrator, ex-Inoculate Injure, ex-Phobia, ex-Trinacria, BardSpec, Dream of an Opium Eater, ex-Borknagar, ex-Mysticum, ex-Satyricon (live), ex-Taake (live), ex-Bloodflowers, ex-Obnoxious, ex-Vulcana
Grutle Kjellson Vocals (lead), Bass, Mouth harp, Electronics, Effects (1991-present)
See also: ex-Desekrator, ex-Phobia, ex-Trinacria, ex-Insanity, ex-Tangerine Funk
Arve Isdal Guitars (lead) (2002-present), Vocals (backing) (2015-present)
See also: Audrey Horne, Malignant Eternal, ex-I, ex-Trinacria, ex-Demonaz, Drott, ex-Paul Di'Anno (live), ex-Bourbon Flame, ex-Earshot, ex-Temple of the Black Moon
Håkon Vinje Keyboards, Vocals (clean) (2017-present)
See also: Ivar Bjørnson & Einar Selvik (live), Seven Impale
Iver Sandøy Drums, Vocals (clean) (2018-present)
See also: Ilti Milta, Relentless Aggression, Ivar Bjørnson & Einar Selvik (live), ex-Manngard, ex-Trinacria, Emmerhoff & The Melancholy Babies, oppnedbass, PV Staff / PV & The HeHeHeeeY's!, Turbostipend, ex-Ballgorp, ex-Jazkamer, ex-War Pigs (Black Sabbath tribute)[/more]

[more=Technical info]
Input File: Enslaved — Congelia.mp3
Channels : 2
Sample Rate : 44100
Precision : 16-bit
Duration : 00:08:01.37 = 21228241 samples = 36102.5 CDDA sectors
File Size : 19.3M
Bit Rate : 320k
Sample Encoding: MPEG audio (layer I, II or III)

[/more]

Register
(23) A.L.Rapsod, artscald, cancer1974, chipsgott, dulak, Evilded, Grev, gwynnbleid, Hell_Is_Here, infozahist, Lanceatum, lucifix, Mannard, metaljosue, nadin85, nikolay81, noel666, RDawson, Reverend, thenecromancer, Wail, wanderer73, wreak,
Jan 1 2023, 22:30:03 Burning Shadow - Essence (2023)
Ужас!!! 22.gif
(4) AHBAnep, isvili, krotovich, silentstorm,
Dec 25 2022, 21:18:26 Cryptic Carnage - Scriptures Of Torment (2022)
ЦИТАТА(Winterdark @ Dec 25 2022, 22:35:54) *
А я, было, обрадовался, что немцы 6.gif

Ну, расстраиваться особо нет причин. Альбом очень приличный, послушай.
(1) Winterdark,
Dec 24 2022, 21:37:05 Лучшие метал альбомы 2022 // Best 2022 Metal Releases
Так как до конца года осталась неделя, то можно подводить окончательные итоги. На мой взгляд, год выдался очень урожайным на добротные альбомы:

Melodic Death Metal:

1. Cantu Ignis - Enslaved By Volition (2022)
2. Blind The Eye - The Lion Of Lions (2022)
3. Circle Of Chaos - Forlorn Reign (2022)
4. Decaptacon - For Those Who Died (2022)
5. Pure Massacre - Pure Massacre (2022)
6. Sealed - Disciple (2022)
7. Virulence - Necrosis [ep] (2022)

Thrash Metal:

1. Atrox Trauma - On The Line Of Nothing And Something (2022)
2. Chemicide - Common Sense (2022)
3. Amken - Passive Aggression (2022)
4. Defiatory - Apokalyps (2022)
5. Silentend - Neverending War (2022)
6. The Troops Of Doom - Antichrist Reborn (2022)
7. Traitor - Exiled To The Surface (2022)
8. Lucretia - Divided We Fall (2022)

Heavy/Power Metal:

1. Stray Gods - Storm The Walls (2022)
2. Black Seal - We Must Make Them Fall (2022)
3. Salamandra - Opus Bohemica (2022)

Death Metal:

1. Abyssus - Death Revival (2022)
2. Bleeding - Infected Sanity (2022)
3. Ebullition - The Common Grave Of Mankind (2022)
4. Graceless - Chants From Purgatory (2022)
5. Heretic Legion - Torment (2022)
6. Sentient Horror - Rites Of Gore (2022)
7. Strangle Wire - Shaped By Human Frailty (2022)

Melodic/Symphonic Black Metal:

1. Eucharist - I Am The Void (2022)
2. Pure Wrath - Hymn To The Woeful Hearts (2022)
3. Sekoria - Seelenwanderung (2022)
4. Walg - II (2022)
5. The Mist From The Mountains - Monumental - The Temple Of Twilight (2022)
6. Death Comes In Waves - Not Of This World (2022)
7. Diabolical Raw - Elegy Of Fire Dusk (2022)
8. Stormruler - Sacred Rites & Black Magick (2022)
(2) Winterdark, скептик,
Dec 24 2022, 21:30:00 Разочаровавшие альбомы в металле 2022
Kreator, к большому сожалению...
Группа, которая входит в ТОР-5 , на альбомах которых вырос, переслушиваю с громадным удовольствием и, что самое главное, они не надоедают совсем, но тут такой лабудяк Милле и Ко записали...лучше бы его не было совсем, а то репутация уж слишком...
(1) Ingvar,
Dec 24 2022, 12:09:01 Frozen Crown - Call Of The North [single] (2022)


*Artist: Frozen Crown
*Album: Call Of The North [single]
*Year: 2022
*Genre: Power Metal
*Country: Italy
*Format: mp3@CBR320kbps
*Size: 14MB

Tracklist:
1. Call of the North 06:24
******************************
Total playing time: 6:24





[more=Extended info]Federico Mondelli Keyboards, Guitars, Vocals (2017-present)
See also: Nocturna, Volturian, ex-Dirty Rain, Be the Wolf
Giada "Jade" Etro Vocals (2017-present)
See also: Ashes You Leave, ex-Tystnaden, ex-Overtures (live)
Francesco Zof Bass (2021-present)
See also: StoryTime
Niso Tomasini Drums (2021-present)
See also: Droonkey, Lighthouse, Nuclear Winter (Megadeth Tribute)
Fabiola “Sheena” Bellomo Guitars (lead) (2021-present)
See also: Inira, ex-Manam, ex-Ulcus, ex-Blades Rampage, ex-Outsiders, ex-The Rabbit Revolution[/more]

[more=Technical info]
Input File: Frozen Crown — Call of the North.mp3
Channels : 2
Sample Rate : 44100
Precision : 16-bit
Duration : 00:06:24.11 = 16939295 samples = 28808.3 CDDA sectors
File Size : 15.4M
Bit Rate : 320k
Sample Encoding: MPEG audio (layer I, II or III)

[/more]

Register
(13) after21allD, artscald, aviacademy, cesar, chipsgott, gwar, infozahist, Olrak, Reverend, sergsazan, Veggr, Wail, wreak,
Dec 19 2022, 19:44:47 Apocalyptica - Rise Again [single] (2022)


*Artist: Apocalyptica
*Album: Rise Again [single]
*Year: 2022
*Genre: Symphonic Metal
*Country: Finland
*Format: mp3@CBR320kbps
*Size: 12MB

Tracklist:
1. Rise Again (feat Simone Simons) 05:19
******************************
Total playing time: 5:19



[more=Technical info]
Input File: Apocalyptica — Rise Again (feat. Epica).mp3
Channels : 2
Sample Rate : 44100
Precision : 16-bit
Duration : 00:05:20.03 = 14113367 samples = 24002.3 CDDA sectors
File Size : 12.8M
Bit Rate : 320k
Sample Encoding: MPEG audio (layer I, II or III)

[/more]

Register
(18) Alpha_Prime, Aresson, artscald, Cartman223, chipsgott, Dante_D, dulak, Grev, gwar, gwynnbleid, IamTLR, kluval, kostja, noel666, Reverend, varlam4, Wail, wreak,
Dec 19 2022, 19:09:55 All For Metal - Born In Valhalla [single] (2022)


*Artist: All For Metal
*Album: Born In Valhalla [single]
*Year: 2022
*Genre: Heavy Metal
*Country: International
*Format: mp3@CBR320kbps
*Size: 9MB

Tracklist:
1. Born in Valhalla 03:47
******************************
Total playing time: 3:47




[more=Extended info]Florian Toma Bass
See also: The Butcher Sisters
Leif Jensen Drums
Johanna Eicker Guitars
See also: ex-Eklipse
Tetzel Vocals
See also: Asenblut
Antonio Calanna Vocals
See also: ex-DeVicious[/more]

[more=Technical info]
Input File: All For Metal — Born in Valhalla.mp3
Channels : 2
Sample Rate : 44100
Precision : 16-bit
Duration : 00:03:47.19 = 10019079 samples = 17039.2 CDDA sectors
File Size : 9.09M
Bit Rate : 320k
Sample Encoding: MPEG audio (layer I, II or III)

[/more]

Register
(11) artscald, chipsgott, Grev, gwar, Reverend, sergsazan, serrrgej, stumpheavyrock, varlam4, Wail, wreak,
Dec 19 2022, 18:52:34 Graveworm - Dead Words [single] (2022)


*Artist: Graveworm
*Album: Dead Words [single]
*Year: 2022
*Genre: Melodic Black/Death Metal
*Country: Italy
*Format: mp3@CBR320kbps
*Size: 11MB

Tracklist:
1. Dead Words 05:01
******************************
Total playing time: 5:01




[more=Extended info]Stefan Unterpertinger Guitars (1992-2003, 2012-present), Keyboards (2012-present)
Stefan Fiori Vocals (1992-present)
See also: Dragonbreed, ex-Shadowcast (live)
Eric Righi Guitars (2001-present)
Florian Reiner Bass (2011-present)
See also: Ontborg, ex-Voices of Decay
Moe Harringer Drums (2022-present)
See also: Mammon, Ambassador (Aut), G.O.D, ex-Agrypnie, ex-Heretoir (live), ex-Scavenger of Souls[/more]

[more=Technical info]
Input File: 01_graveworm_dead_words.mp3
Channels : 2
Sample Rate : 44100
Precision : 16-bit
Duration : 00:05:01.04 = 13275996 samples = 22578.2 CDDA sectors
File Size : 12.0M
Bit Rate : 320k
Sample Encoding: MPEG audio (layer I, II or III)

[/more]

Register
(25) AlexSmith, Aresson, artscald, cenzored, chipsgott, dermarsoran, dulak, Grev, Hell_Is_Here, IamTLR, legion01, nadin85, noel666, randumbum, Reverend, sergsazan, stormhatt, VALERY, varlam4, vasiljev_sergej, Vitald, Wail, wanderer73, wreak, Zenial,
Dec 18 2022, 19:47:03 Epidemic Scorn - Destrumanity (2022)
(1) METALHUNTER,
Dec 18 2022, 19:43:54 Hedon - Year Of The Witch (2022)
(3) dermarsoran, Phlebotomized, randumbum,
Dec 9 2022, 21:15:25 Instorm - Psycho Violence (2022)
Лавры Children Of Bodom....
(1) Victim of fate,
Dec 1 2022, 19:11:52 Morbideth - World Chaos (2022)

(1) metaljosue,
Nov 29 2022, 19:46:08 Sword - III (2022)
Очень приличного уровня олд скульный хеви (Кам Бэк команды, после 34 летнего перерыва).
(1) Rhoads,
Nov 18 2022, 19:06:55 Trash Panda - Pawns Of The Putrid God (2022)


*Artist: Trash Panda
*Album: Pawns Of The Putrid God
*Year: 2022
*Genre: Death/Brutal Death Metal
*Country: United States
*Format: mp3@CBR320kbps
*Size: 65MB

Tracklist:
01. Regorgitated
02. Concentrated Trash Compactor Cocktail
03. Maggot Bath
04. Soda Ring Strangulation
05. Drowning in Swill
06. Gnaw
07. Curdled and Warm
08. Tearing Through the Hefty Bags
09. They Came in the Night
10. The Putrid God
******************************
Total playing time: 26:54







[more=Technical info]
Input File: 02_trash_panda_concentrated_trash_compactor_cocktail.mp3
Channels : 2
Sample Rate : 44100
Precision : 16-bit
Duration : 00:01:30.52 = 3992020 samples = 6789.15 CDDA sectors
File Size : 3.96M
Bit Rate : 350k
Sample Encoding: MPEG audio (layer I, II or III)
Comments :
Title=Concentrated Trash Compactor Cocktail
Artist=Trash Panda
Album=Pawns of the Putrid God
Tracknumber=2
Year=2022
Genre=Brutal Death, Grindcore, Hardcore

[/more]

Register
(12) artscald, chipsgott, denver, Hell_Is_Here, jollo, Lord Of The Siths, MMMMM, satanist666, sludge666, supremo, vyacheslav, wreak,
Nov 18 2022, 18:33:54 Metal Church - Out Of Balance [single] (2022)


*Artist: Metal Church
*Album: Out Of Balance [single]
*Year: 2022
*Genre: Heavy/Power Metal
*Country: United States
*Format: mp3@CBR320kbps
*Size: 23MB

Tracklist:
1. Out of Balance 04:25
2. Revolution Underway 05:25
******************************
Total playing time: 9:50





[more=Extended info]Kurdt Vanderhoof Guitars (1980-1987, 1998-2009, 2012-present)
See also: Presto Ballet, ex-Vanderhoof, Hall Aflame, Todd Michael Hall, ex-Chris Caffery (live), ex-The Lewd
Steve Unger Bass (2004-2009, 2012-present)
See also: Garden of Eden, Killing Machine, Autograph, Where Angels Suffer, ex-Chris Caffery (live), ex-Temple of Brutality (live)
Rick van Zandt Guitars (2008-2009, 2012-present)
See also: ex-Rottweiller, ex-Q5 (live), ex-Ronny Munroe, ex-Private Stock, ex-Snowblind
Stet Howland Drums (2017-present)
See also: Killing Machine, ex-Temple of Brutality, 10,000 Views, ex-Belladonna, ex-Impellitteri, ex-Violent Storm, ex-W.A.S.P., ex-Stream, ex-Blackfoot, ex-Chet Thompson, ex-Four by Fate, ex-Lita Ford, ex-Where Angels Suffer[/more]

[more=Technical info]
Input File: 02_metal_church_revolution_underway.mp3
Channels : 2
Sample Rate : 44100
Precision : 16-bit
Duration : 00:05:25.64 = 14360592 samples = 24422.8 CDDA sectors
File Size : 13.4M
Bit Rate : 329k
Sample Encoding: MPEG audio (layer I, II or III)
Comments :
Title=Revolution Underway
Artist=Metal Church
Album=Damned If You Do
Tracknumber=4/10
Year=2018
Discnumber=1/1

[/more]

Register
(19) after21allD, Aresson, artscald, Bardo, boby9052, chipsgott, Emm Human, Grev, gwar, kluval, Olrak, piwimetal, refleks22, Reverend, sergsazan, stumpheavyrock, thenecromancer, Wail, wreak,
Nov 14 2022, 19:04:22 Roadhog - Gates To Madness (2022)
Добротный олд скульный хеви! С первых аккордов повеяло Armored Saint.
(1) Samaritianin,

219 Pages V   1 2 3 > » 
- Lo-Fi Version Support form
Copyrights and abuse reports form
Time is now: 5th February 2023 - 18:12:03