Welcome Guest ( Log In | Register )

История благодарностей участнику Andrew ::: Спасибо сказали: 17260 раз(а)
Дата поста: В теме: За сообщение: Спасибо сказали:
Yesterday, 21:16:45 Non Omnis Moriar - The Mirror (2019)
Очень добротный олд скульный мелодез выдали латиносы! 20.gif
Ясное дело, что ничего нового и изобретательного в свою музыку музыканты не привнесли, но слушается очень даже приятно, учитывая, что в музыке отсутствуют кор, чистый вокал, клавиши, грув и остальная непотребность.
(2) Bloodn Lord, infiltrator,
Sep 14 2019, 18:55:18 Degitx - Digital Hell (2019)


*Artist: Degitx
*Album: Digital Hell
*Year: 2019
*Genre: Electronic/Power Metal
*Country: Belarus
*Format: mp3@CBR320kbps
*Size: 175MB

Tracklist:
1. Digital Tale (Intro) 05:27
2. Phoenix 05:04
3. Pixel Rain 04:41
4. Digital Hell 05:52
5. Forest House (Vocals) 04:47
6. Enchanted 04:44
7. Lands Are Waiting 04:32
8. Disillusion 04:49
9. Turbo Ghost 05:04
10. Robotic Cycles 06:29
11. Requiem for a Wind (Vocals) 02:19
12. Light End 03:31
13. Warp (Vocals) 04:20
14. City Under Sky (Extended) 03:11
15. New Dawn 03:52
16. Not for Us (Vocals) 03:37
17. Machine Paradigm (Vocals) 04:02
******************************
Total playing time: 1:16:21





[more=Extended info]Alexey Kasyanchuk Everything (2010-present)[/more]

[more=Technical info]
Input File: 02_degitx_phoenix.mp3
Channels : 2
Sample Rate : 44100
Precision : 16-bit
Duration : 00:05:04.45 = 13426289 samples = 22833.8 CDDA sectors
File Size : 12.2M
Bit Rate : 320k
Sample Encoding: MPEG audio (layer I, II or III)
Comments :
Title=Phoenix
Artist=DEgITx
Album=Digital Hell
Year=2019-23-03
Genre=Melodic Death Metal

[/more]

Register
(7) artscald, chipsgott, infiltrator, Olethros, Rosen, Rover, Sanctus,
Sep 13 2019, 21:05:58 White Mantis - Sacrifice Your Future (2019)
Отменный трешак! metaler.gif Понятно, что абсолютно никаких новых и новаторских идей в музыку не привнесено, но звучит вполне достойно!
(1) MEmethuselah,
Sep 13 2019, 10:17:57 Lindemann - Steh Auf [single] (2019)


*Artist: Lindemann
*Album: Steh Auf [single]
*Year: 2019
*Genre: Industrial Metal
*Country: Germany
*Format: mp3@CBR320kbps
*Size: 14MB

Tracklist:
01. Steh auf 03:05
02. Steh auf (Trivium Remix) 03:08
******************************
Total playing time: 6:13




[more=Technical info]
Input File: 1 - Steh auf.mp3
Channels : 2
Sample Rate : 44100
Precision : 16-bit
Duration : 00:03:04.75 = 8147387 samples = 13856.1 CDDA sectors
File Size : 7.42M
Bit Rate : 321k
Sample Encoding: MPEG audio (layer I, II or III)
Comments :
Title=Steh auf
Artist=Lindemann/Peter Tägtgren
Album=Steh auf
Tracknumber=1
Year=2019
Genre=Rock
Discnumber=1

[/more]

Register
(5) KKK1488, kostja, Krosis, metalwoman, Olethros,
Sep 13 2019, 10:07:19 Cold - The Things We Can't Stop (2019)


*Artist: Cold
*Album: The Things We Can't Stop
*Year: 2019
*Genre: Alternative Rock/Post-Grunge/Hard Rock
*Country: United States
*Format: mp3@CBR320kbps
*Size: 107MB

Tracklist:
01. Intro
02. Shine
03. Snowblind
04. The Devil We Know
05. Run
06. Better Human
07. Without You
08. Quiet Now
09. The One That Got Away
10. Systems Fail
11. Beautiful Life
12. We All Love
******************************
Total playing time: 45:50







[more=Technical info]
Input File: 02. Shine.mp3
Channels : 2
Sample Rate : 44100
Precision : 16-bit
Duration : 00:04:40.18 = 12355982 samples = 21013.6 CDDA sectors
File Size : 11.5M
Bit Rate : 328k
Sample Encoding: MPEG audio (layer I, II or III)
Comments :
Title=Shine
Artist=Cold
Album=The Things We Can't Stop
Tracknumber=02
Year=2019
Genre=Rock
Discnumber=1

[/more]

Register
(1) Olethros,
Sep 13 2019, 09:53:32 The 69 Eyes - West End (2019)


*Artist: The 69 Eyes
*Album: West End
*Year: 2019
*Genre: Gothic Metal/Rock
*Country: Finland
*Format: mp3@CBR320kbps
*Size: 112MB

Tracklist:
01 Two Horns Up
02 27 & Done
03 Black Orchid
04 Change
05 Burn Witch Burn
06 Cheyenna
07 The Last House On The Left
08 Death & Desire
09 Outsiders
10 Be Here Now
11 Hell Has No Mercy
******************************
Total playing time: 48:38







[more=Technical info]
Input File: 2 27 & Done.mp3
Channels : 2
Sample Rate : 44100
Precision : 16-bit
Duration : 00:04:17.40 = 11351252 samples = 19304.9 CDDA sectors
File Size : 10.4M
Bit Rate : 322k
Sample Encoding: MPEG audio (layer I, II or III)
Comments :
Title=27 & Done
Artist=The 69 Eyes
Album=West End
Tracknumber=2/11
Year=2019
Discnumber=1/1

[/more]

Register
(12) A.L.Rapsod, as71, DowntownGsus, EVENGAR, kostja, Krosis, Lanceatum, marilin, mintare, Oath19, Olethros, VALERY,
Sep 11 2019, 20:16:47 Lifecurse - The Wolf You Feed Part 1 Ulsiga (2019)


*Artist: Lifecurse
*Album: The Wolf You Feed Part 1 Ulsiga
*Year: 2019
*Genre: Metalcore/Melodic Death Metal
*Country: United States
*Format: mp3@CBR320kbps
*Size: 112MB

Tracklist:
01. Hostis Humanis Generis 01:25
02. The Wolf You Feed 05:06
03. Lights Out 05:36
04. Proxy 05:12
05. Smoke & Mirrors 04:10
06. Fortunes 02:25
07. Buzzard Bait 03:10
08. I Thought Hurricane Season Was Over 04:24
09. The Path 03:02
10. The Boy Who Cried Wolf 03:54
11. Time Travelling 05:27
12. Vulgatæ Geographia 01:06
******************************
Total playing time: 44:57






[more=Technical info]
Input File: 02_lifecurse_the_wolf_you_feed.mp3
Channels : 2
Sample Rate : 44100
Precision : 16-bit
Duration : 00:00:00.31 = 13451 samples = 22.8759 CDDA sectors
File Size : 13.0M
Bit Rate : 342M
Sample Encoding: MPEG audio (layer I, II or III)
Comments :
Title=The Wolf You Feed
Artist=Lifecurse
Album=The Wolf You Feed Part 1: Ulsiga
Tracknumber=2/12
Year=2019
Genre=Metal
Discnumber=1/1

[/more]

Register
(9) artscald, Bloodn Lord, infiltrator, Olethros, phtm, respect, Rosen, VALERY, zhol,
Sep 10 2019, 21:25:27 Sonata Arctica - Talviyö (2019)
ЦИТАТА(MeatWolf @ Sep 10 2019, 14:10:10) *
Выключил в середине первой песни. И что со звуком?

А что собственно говоря, с самой музыкой, с идеями, с текстами??? 6.gif
По правде говоря, после прослушивания новых альбомов именитых некогда команд стиля, а именно BloodBound, HammerFall, Dragonforce, Sonata Arctica, Freedom Call - создалось такое чувство, что стилю действительно пришел окончательный капец! Слушаешь и тяжело поверить, что 15-20 лет назад, эти команды издавали прекраснейшие альбомы, которые переслушиваешь с большущим удовольствием и, не смотря на то, что материал знаешь практически наизусть, но получаешь при этом действительно удовольствие! 20.gif А новые же альбомы...с трудом дослушиваешь до конца и понимаешь, что к ним ты уже никогда не вернешься, потому как материал просто-напросто высосан из пальца, в котором нет ни души, ни харизмы, ни музыкальных идей.
На мой взгляд - лучше такое вообще не выпускать, потому как кроме раздражения и негодования материал не вызывает никаких положительных эмоций, к сожалению. Повторюсь, но складывается впечатление, что альбомы выпускаются потому что "НАДО", а не потому что "ХОЧЕТСЯ"...
(3) dragonhead, Ghostb, infiltrator,
Sep 6 2019, 10:38:49 Dark Side - Upadek [ep] (2019)


*Artist: Dark Side
*Album: Upadek [ep]
*Year: 2019
*Genre: Melodic Death Metal
*Country: Poland
*Format: mp3@CBR320kbps
*Size: 43MB

Tracklist:
1. Intro 01:09 instrumental
2. Rozdarty 03:33
3. Człowieczeństwo 02:56
4. Teorie 03:42
5. Koszmarny sen 03:41
6. Incydent 03:32
******************************
Total playing time: 18:33





[more=Technical info]
Input File: 02_dark_side_rozdarty.mp3
Channels : 2
Sample Rate : 44100
Precision : 16-bit
Duration : 00:03:33.49 = 9414777 samples = 16011.5 CDDA sectors
File Size : 8.66M
Bit Rate : 325k
Sample Encoding: MPEG audio (layer I, II or III)
Comments :
Title=Rozdarty
Artist=Dark Side
Album=Upadek
Tracknumber=2/6
Year=2019
Genre=9
Discnumber=1/1

[/more]

Register
(16) artscald, Bloodn Lord, chipsgott, Gazzzooo, infiltrator, isvili, metalwoman, Mogozoz, oldvarg, Rosen, sergsazan, TeamatSE, VALERY, Winterdark, zhol, Сварог Барг,
Sep 5 2019, 20:50:43 Atlantean Kodex - The Course Of Empire (2019)
Cloud Mail 320:
Register
(8) AHBAnep, BladeOvDarkness, boby9052, doomTemplar, Hellstriker, metaljosue, Olethros, postal67,
Sep 5 2019, 20:48:13 Cognizance - Malignant Dominion (2019)
Cloud Mail 320:
Register


Хороший добротный материал. Только стилистически вернее так: Technical Death Metal/Deathcore
(3) AHBAnep, maochen, Olethros,
Sep 5 2019, 20:42:55 Noekk - Waltzing In Obscurity (2019)
Cloud Mail 320:
Register
(3) AHBAnep, Olethros, stumpheavyrock,
Sep 5 2019, 20:23:28 Everfrost - Winterider (2019)
Cloud Mail 320:
Register



1488.gif Глядя на рисунки альбомов команды, тяжковато как то сказать, что группа родом из Финляндии...
(4) djsema4, Ghostb, infiltrator, Olethros,
Sep 5 2019, 19:57:23 Decayed - The Oath Of Heathen Blood (2019)
(3) FlammenTod666, infiltrator, oLdBoy,
Sep 5 2019, 19:49:35 Alterant - Honor System (2019)
(2) AHBAnep, DenisKov,
Sep 5 2019, 19:46:41 5Rand - Dark Mother (2019)
Cloud Mail 320:
Register
(2) Olethros, spiritualdecay666,
Sep 5 2019, 19:43:38 Rival - Rival (2019)
Cloud 320:
Register
(1) Olethros,
Sep 5 2019, 19:36:27 Arises - System (2019) (3) DenisKov, Old Vyaine, spiritualdecay666,
Sep 4 2019, 13:24:15 Doom Rot - Territory Of Solitude [single] (2019)


*Artist: Doom Rot
*Album: Territory Of Solitude [single]
*Year: 2019
*Genre: Melodic Death Metal
*Country: Russian Federation
*Format: mp3@CBR320kbps
*Size: 27MB

Tracklist:
01. Territory Of Solitude 05:36
02. Tyrants (Immortal Cover) 05:59
******************************
Total playing time: 11:35




[more=Technical info]
Input File: 01_doom_rot_territory_of_solitude.mp3
Channels : 2
Sample Rate : 44100
Precision : 16-bit
Duration : 00:05:49.30 = 15403998 samples = 26197.3 CDDA sectors
File Size : 14.0M
Bit Rate : 320k
Sample Encoding: MPEG audio (layer I, II or III)
Comments :
Title=Territory Of Solitude
Artist=Doom Rot
Album=Territory Of Solitude (Single)
Tracknumber=1
Year=2019
Genre=Melodic Death/Black Metal

[/more]

Register
(5) artscald, Gazzzooo, metalwoman, Olethros, Rosen,
Sep 2 2019, 19:56:25 Алиса - Посолонь (2019)


*Artist: Алиса
*Album: Посолонь
*Year: 2019
*Genre: Rock
*Country: Russian Federation
*Format: mp3@CBR320kbps
*Size: 166MB

Tracklist:
01. Посолонь
02. Под Дождем
03. Путь Держим На Север
04. Половодье
05.Окаянные Дни
06. Раскол
07. Пуля
08. Побег
09. Эшелон
10. Москва
11. Леший
12. Сверх
13. Акробаты Снов
14. Чудо
15. Март
******************************
Total playing time: 1:22:28




[more=Technical info]
Input File: 02. Под Дождем.mp3
Channels : 2
Sample Rate : 44100
Precision : 16-bit
Duration : 00:05:43.38 = 15143014 samples = 25753.4 CDDA sectors
File Size : 13.9M
Bit Rate : 324k
Sample Encoding: MPEG audio (layer I, II or III)
Comments :
Artist=АлисА
Album=Посолонь
Year=2019

[/more]

Register
(16) A.L.Rapsod, Alexis The Best, Aresson, cancer1974, DMIYUR, infiltrator, Kaamos, Krosis, max_stalingradsky, paganheart, tOmV, v.v.m, VALERY, vasilisk, ZambuL, Язва,
Sep 2 2019, 13:52:48 Resilence - Night Maze (2019)


*Artist: Resilence
*Album: Night Maze
*Year: 2019
*Genre: Melodic Death Metal/Metalcore
*Country: Spain
*Format: mp3@CBR320kbps
*Size: 109MB

Tracklist:
01. Sing This Song 05:27
02. Night Maze 04:51
03. Only Sorrow Shows 04:30
04. Feeding the Trees 05:46
05. Rest My Dear 05:18
06. Some Thoughts 01:20
07. Trapped in 06:30
08. Don't Waste Your Life 06:53
09. The Deception 05:34
******************************
Total playing time: 46:09



[more=Technical info]
Input File: 02. Night Maze.mp3
Channels : 2
Sample Rate : 44100
Precision : 16-bit
Duration : 00:04:51.31 = 12846771 samples = 21848.2 CDDA sectors
File Size : 11.9M
Bit Rate : 326k
Sample Encoding: MPEG audio (layer I, II or III)
Comments :
Title=Night Maze
Artist=Resilence
Album=Night Maze
Tracknumber=2/9
Year=2019
Discnumber=1/1

[/more]

Register
(12) artscald, Bloodn Lord, gwynnbleid, infiltrator, lary_veel, metalwoman, Mogozoz, Olethros, Rosen, talismanFS, VALERY, wreak,
Sep 1 2019, 16:57:48 Dragonforce - Extreme Power Metal (2019)
ЦИТАТА(adeptus_custodes @ Sep 1 2019, 16:17:21) *
Почему у паверщиков такие смешные названия?

ЦИТАТА(adeptus_custodes @ Sep 1 2019, 16:17:21) *
Фреди Меркьюри

facessspalm.png
(2) BleedingSun, Exorcist,
Sep 1 2019, 16:40:13 Inania Regna - Malevola (2019)


*Artist: Inania Regna
*Album: Malevola
*Year: 2019
*Genre: Blackened Death Metal
*Country: Spain
*Format: mp3@CBR320kbps
*Size: 104MB

Tracklist:
1. Suddenly Bloodstained 06:51
2. Queen Of Horror 06:17
3. A Pale Hand 06:32
4. Life Oscillates Between Pain And Boredom 04:27
5. Deepression 05:48
6. The End´s Inception 05:23
7. The Hands Resist Him 09:39
******************************
Total playing time: 44:57





[more=Technical info]
Input File: 02 - Queen of Horror.mp3
Channels : 2
Sample Rate : 44100
Precision : 16-bit
Duration : 00:06:18.17 = 16677253 samples = 28362.7 CDDA sectors
File Size : 15.4M
Bit Rate : 326k
Sample Encoding: MPEG audio (layer I, II or III)
Comments :
Title=Queen of Horror
Artist=Inania Regna
Album=Malevola
Tracknumber=2
Year=2019

[/more]

Register
(12) 666kolobok666, artscald, atavist, metala, older68, Olethros, Rosen, tim47, VALERY, vov7609, vyacheslav, wreak,
Sep 1 2019, 16:30:17 Nothingness - The Hollow Gaze Of Death (2019)


*Artist: Nothingness
*Album: The Hollow Gaze Of Death
*Year: 2019
*Genre: Death Metal
*Country: United States
*Format: mp3@CBR320kbps
*Size: 84MB

Tracklist:
1. A Cycle Unending 05:50
2. Abyssal Woe 04:21
3. Iced over Ash 05:37
4. The Wretched Ground Beckons 05:52
5. Wickedness in Purity 05:28
6. Adorned with a Crown of Contempt 04:57
7. Timeless Menace 05:12
******************************
Total playing time: 37:17





[more=Technical info]
Input File: 02 Abyssal Woe.mp3
Channels : 2
Sample Rate : 44100
Precision : 16-bit
Duration : 00:04:21.34 = 11525226 samples = 19600.7 CDDA sectors
File Size : 10.6M
Bit Rate : 323k
Sample Encoding: MPEG audio (layer I, II or III)
Comments :
Title=Abyssal Woe
Artist=Nothingness
Album=The Hollow Gaze Of Death
Tracknumber=2
Year=2019

[/more]

Register
(15) AHBAnep, artscald, atavist, Doooomed, kolar666, metala, older68, Olethros, Ostinato, Rosen, tim47, VALERY, vyacheslav, wreak, Герб,
Sep 1 2019, 16:22:34 Polemicist - Zarathustrian Impressions (2019)


*Artist: Polemicist
*Album: Zarathustrian Impressions
*Year: 2019
*Genre: Melodic Black/Death Metal
*Country: United States
*Format: mp3@CBR320kbps
*Size: 101MB

Tracklist:
1. Zarathustra's Theme (Intro) 01:57
2. Concerning the Rabble 04:53
3. Revenge of the Tarantulas 05:18
4. Life Overcoming Itself 05:23
5. On Redemption 05:00
6. The Vision and the Riddle 05:35
7. The Convalescent 04:58
8. Return to Solitude 05:45
******************************
Total playing time: 38:49






[more=Technical info]
Input File: 02 Concerning the Rabble.mp3
Channels : 2
Sample Rate : 44100
Precision : 16-bit
Duration : 00:04:53.45 = 12941101 samples = 22008.7 CDDA sectors
File Size : 13.6M
Bit Rate : 372k
Sample Encoding: MPEG audio (layer I, II or III)
Comments :
Title=Concerning the Rabble
Artist=Polemicist
Album=Zarathustrian Impressions
Tracknumber=2
Year=2019

[/more]

Register
(14) artscald, atavist, BlazonStone, DenisKov, metala, Mogozoz, Olethros, Ostinato, Rosen, VALERY, vasiljev_sergej, wreak, zhol, Сварог Барг,

152 Pages V   1 2 3 > » 
- Lo-Fi Version Support form
Copyrights and abuse reports form
Time is now: 16th September 2019 - 11:14:50