Welcome Guest ( Log In | Register )

История благодарностей участнику Andrew ::: Спасибо сказали: 30056 раз(а)
Дата поста: В теме: За сообщение: Спасибо сказали:
May 14 2021, 15:59:23 Djevel - Tanker Som Rir Natten (2021)
(1) Occultas,
May 13 2021, 19:50:42 Reign Of Athena - The Awakening (2021)
Modern Melodic Death Metal
Чет вооообще не понравилось.
(1) fr47,
May 7 2021, 18:00:18 Steel Fox - Red Snow (2021)

Мда, молодчаги бразильцы. Очень достойно!
(1) aviacademy,
May 7 2021, 17:48:50 Artillery - X (2021)
Чет никогда не нравилась эта команда. Сколько не пытался, но недотреш...
(1) BleedingSun,
May 7 2021, 17:39:49 Arc Spectra - Arc Spectra (2021)
Modern Melodic Death/Groove Metal
Не интересно.
(1) Agressor,
May 7 2021, 17:06:06 Led To The Grave - Pray For Death [ep] (2021)


*Artist: Led To The Grave
*Album: Pray For Death [ep]
*Year: 2021
*Genre: Thrash/Melodic Death Metal
*Country: United States
*Format: flac
*Size: 56MB

Tracklist:
1. Pray for Death 03:10
2. No Salvation 04:14
******************************
Total playing time: 7:24




[more=Extended info]Jeff Moody Drums (2006-2011, 2011-present)
Chris Crobar Vocals, Guitars (2006-present)
Nick Hebditch Guitars (2012-present)[/more]

Register
(6) boby9052, infiltrator, Marek, Olethros, sergsazan, Volk11911,
May 2 2021, 21:15:12 Ninkharsag - The Dread March Of Solemn Gods (2021)
Melodic Black Metal - однозначно!
Качественный продукт, может конечно, все вторично, но исполнено достойно!
(1) Metalass,
May 2 2021, 20:53:49 Slice Of Sorrow - Egothrone (2021)
Звиздец, вот это бредятина мелодетом нынче зовется???
Мда...............
(1) Metalass,
Apr 29 2021, 19:51:37 Misfire - Sympathy For The Ignorant (2021) (1) Vladimir,
Apr 26 2021, 19:23:56 Flesh To Dust - Promo [ep] (2021)


*Artist: Flesh To Dust
*Album: Promo [ep]
*Year: 2021
*Genre: Death/Thrash Metal
*Country: United States
*Format: mp3@CBR320kbps
*Size: 48MB

Tracklist:
1. No Mercy 03:59
2. Burning the Books of Abraham 03:49
3. Dead God 03:33
4. Ripping Death 03:03
5. Cerebral Atrophy 03:14
6. Flesh to Dust 02:55
******************************
Total playing time: 20:33




[more=Extended info]John Thatoneguy Bigby Bass (2018-present)
See also: Idol Smasher, ex-Victims of the Cave
Tyrus Donald Legg Drums (2018-present)
See also: Idol Smasher, ex-Victims of the Cave
Connor Martin Vocals, Guitars (2018-present)
See also: ex-Victims of the Cave[/more]

[more=Technical info]
Input File: Flesh To Dust - 2021 Promo EP - 02 Burning The Books of Abraham.mp3
Channels : 2
Sample Rate : 44100
Precision : 16-bit
Duration : 00:03:49.08 = 10102428 samples = 17181 CDDA sectors
File Size : 9.27M
Bit Rate : 324k
Sample Encoding: MPEG audio (layer I, II or III)
Comments :
Title=Burning The Books of Abraham
Artist=Flesh To Dust
Album=2021 Promo EP
Tracknumber=2
Year=2021

[/more]

Register
(15) boby9052, caro, Diflock, FartNapalm, GorAtheist, infiltrator, Marek, Olethros, sergsazan, sludge666, stumpheavyrock, tschunioronbeer, VALERY, varlam4, wanderer73,
Apr 25 2021, 15:53:32 The Circle - Metamorphosis [ep] (2021)


*Artist: The Circle
*Album: Metamorphosis [ep]
*Year: 2021
*Genre: Atmospheric Black/Post Black/Blackened Extreme Metal
*Country: Germany
*Format: mp3@CBR320kbps
*Size: 65MB

Tracklist:
1. Chapter I: Angst
2. Chapter II: Verzweiflung
3. Chapter III: Zorn
4. Chapter IV: Erlösung
******************************
Total playing time: 27:13





[more=Technical info]
Input File: 01_the_circle_chapter_i_angst.mp3
Channels : 2
Sample Rate : 44100
Precision : 16-bit
Duration : 00:06:27.00 = 17066700 samples = 29025 CDDA sectors
File Size : 16.4M
Bit Rate : 339k
Sample Encoding: MPEG audio (layer I, II or III)
Comments :
Title=Chapter I: Angst
Artist=The Circle
Album=Metamorphosis
Tracknumber=1
Year=2021-23-04

[/more]

Register
(17) aleon, BladeOvDarkness, grokuik, infiltrator, kim666, krotovich, Lionheart-P, Lunaris, Olethros, Ostinato, randumbum, robertho777, SilentNidhogg, VALERY, varlam4, vasiljev_sergej, yuratroll,
Apr 25 2021, 10:29:26 Aeon Of Awareness - Dialogue With The Unconcious [ep] (2021)


*Artist: Aeon Of Awareness
*Album: Dialogue With The Unconcious [ep]
*Year: 2021
*Genre: Melodic Death Metal
*Country: Germany
*Format: flac
*Size: 120MB

Tracklist:
1. Mind Purifying Nature 01:58 instrumental
2. Resignation 04:50
3. Fort Fortress 04:42
4. De l'aube des temps 04:55
******************************
Total playing time: 16:25





[more=Extended info]Per Lümbersson All instruments, Vocals (backing) (2020-present)
See also: Lumberhead, ex-Bloodland
Meta List Vocals (2020-present)
See also: Calliophis, Dynamation, ex-Disobedience, ex-Extinctionist, ex-Philosopher[/more]

Register
(3) Marek, varlam4, zhol,
Apr 25 2021, 10:18:52 Fenris Vrede - Viking (2021)


*Artist: Fenris Vrede
*Album: Viking
*Year: 2021
*Genre: Melodic Death/Viking Metal
*Country: Norway
*Format: mp3@CBR320kbps
*Size: 67MB

Tracklist:
1. Torden
2. Utgard
3. Iduns Epler
4. Fisketur
5. Viking
6. Balders Dod
7. Dodsriket
******************************
Total playing time: 29:32





[more=Technical info]
Input File: 02 - Utgard.mp3
Channels : 2
Sample Rate : 44100
Precision : 16-bit
Duration : 00:03:54.54 = 10343346 samples = 17590.7 CDDA sectors
File Size : 9.39M
Bit Rate : 320k
Sample Encoding: MPEG audio (layer I, II or III)
Comments :
Title=Utgard
Artist=Fenris Vrede
Album=Viking
Tracknumber=2
Year=2021

[/more]

Register
(21) akym, BugEyes, chipsgott, DenisKov, gwynnbleid, HMHamster, infiltrator, infozahist, kimkayoung, krotovich, kryptor, Marek, Mogozoz, Olethros, sergsazan, talismanFS, TeamatSE, VALERY, varlam4, Сварог Барг, скептик,
Apr 24 2021, 19:22:39 Frozen Crown - Winterbane (2021)
К большому сожалению, но эта работа - шаг назад.
Дебют был шикарен! Вторая работа чуть послабее, но тоже на уровне.
А вот сей опус уже как то слабоват.
(3) avather, isvili, Olrak,
Apr 21 2021, 16:27:44 All Is Ashes - What Comes Next (2021)


*Artist: All Is Ashes
*Album: What Comes Next
*Year: 2021
*Genre: Groove/Thrash Metal
*Country: United States
*Format: mp3@CBR320kbps
*Size: 102MB

Tracklist:
01. Waves of Change 03:59
02. Made for More 03:50
03. Empty Tales 03:07
04. Locked Down 04:26
05. Disallowed 03:47
06. Thrill of the Hunt 04:24
07. Uncontrollable 03:31
08. Vindictive 04:02
09. My Weapon 03:32
10. Death of an Artist 05:21
******************************
Total playing time: 39:59






[more=Technical info]
Input File: 02 - Made for More.mp3
Channels : 2
Sample Rate : 44100
Precision : 16-bit
Duration : 00:03:50.00 = 10143000 samples = 17250 CDDA sectors
File Size : 9.41M
Bit Rate : 327k
Sample Encoding: MPEG audio (layer I, II or III)
Comments :
Title=Made For More
Artist=All Is Ashes
Album=What Comes Next
Tracknumber=2
Year=2021-21-04
Discnumber=1

[/more]

Register
(6) caro, infiltrator, Lukittaz, Marek, Olethros, varlam4,
Apr 20 2021, 08:09:17 Cathartic - Ceremonial Resurrection [ep] (2020)


*Artist: Cathartic
*Album: Ceremonial Resurrection [ep]
*Year: 2020
*Genre: Old School Death Metal
*Country: Mexico
*Format: mp3@CBR320kbps
*Size: 51MB

Tracklist:
1. The Crypt is Hidden Forever 03:35
2. Slowly Rotting 03:21
3. Retribution 04:05
4. Where Nothing Prevails 04:34
5. Bringer of Hate 02:52
6. Drowned in Terror 03:04
******************************
Total playing time: 21:31






[more=Extended info]Jimmy Figueroa Bass (2019-present)
See also: ex-Iron Force
Jimmy Beltrán Guitars (2019-present)
See also: ex-Iron Force, ex-Imminent Reaper
Erick Beltrán Guitars, Vocals (2019-present)
See also: ex-Iron Force, ex-Imminent Reaper (live)
Ángel Rosales Drums (2020-present)
See also: Hybrid Depravity[/more]

[more=Technical info]
Input File: 02. Slowly Rotting.mp3
Channels : 2
Sample Rate : 44100
Precision : 16-bit
Duration : 00:03:23.49 = 8973997 samples = 15261.9 CDDA sectors
File Size : 8.60M
Bit Rate : 338k
Sample Encoding: MPEG audio (layer I, II or III)
Comments :
Title=Slowly Rotting
Artist=Cathartic
Album=Ceremonial Resurrection
Tracknumber=2/6
Year=2020
Genre=Death Metal
Discnumber=1/1

[/more]

Register
(19) andreikun, cesar, infiltrator, ITNOR, kauyumari, metamfer, Mist13Signifier, Olethros, realexxx75, sergsazan, smysl, stumpheavyrock, THROWER666, Tino, VALERY, vyacheslav, Wail, wanderer73, wtk.412,
Apr 20 2021, 06:40:42 Ashen Earth - Oceans Above (2021)


*Artist: Ashen Earth
*Album: Oceans Above
*Year: 2021
*Genre: Melodic/Progressive Death Metal
*Country: United States
*Format: mp3@CBR320kbps
*Size: 156MB

Tracklist:
01. Overture
02. As Paths Cross
03. Of Vengeance and Consequence
04. Crimson
05. The Sun Fills Our Sails
06. Oceans Above I Days Gone By
07. Oceans Above II Unmoored in the Cosmic Abyss
08. Oceans Above III Rekindled
09. Warlord
10. New Pantheon
11. Our Place Amongst the Pyre
******************************
Total playing time: 1:02:22





[more=Extended info]David Cox Guitars (2012-present)
Pat Sissom Guitars (2012-present)
See also: ex-Ruines ov Abaddon
Jeff Meredith Vocals (2012-present)
See also: Unicorn Death
Ben Wilson Drums (2014-present)
See also: Cerulean, Gravespell (live)
Collin Adler Bass (2015-present)[/more]

[more=Technical info]
Input File: 02. As Paths Cross.mp3
Channels : 2
Sample Rate : 44100
Precision : 16-bit
Duration : 00:04:59.09 = 13189957 samples = 22431.9 CDDA sectors
File Size : 12.7M
Bit Rate : 340k
Sample Encoding: MPEG audio (layer I, II or III)
Comments :
Title=As Paths Cross
Artist=Ashen Earth
Album=Oceans Above
Tracknumber=2/11
Year=2021-21-20
Genre=Metal
Discnumber=1/1

[/more]

Register
(19) alikkon, avather, caro, DenisKov, gwynnbleid, infiltrator, kimkayoung, Lukittaz, Marek, metala, Mogozoz, Mplast, Olethros, Reverend, stumpheavyrock, VALERY, varlam4, zhol, Сварог Барг,
Apr 20 2021, 05:25:50 Dead World Reclamation - Aura Of Iniquity (2021)


*Artist: Dead World Reclamation
*Album: Aura Of Iniquity
*Year: 2021
*Genre: Technical/Symphonic Death Metal/Deathcore
*Country: United States
*Format: mp3@CBR320kbps
*Size: 117MB

Tracklist:
1. Ripped from the Grave 04:39
2. Embrace the Hive 04:19
3. The Everlasting Hunt 04:51
4. Pantheon of Shadows 05:41
5. Heralds of the Formless One 04:29
6. Arachnocratic Assemblage 04:14
7. Whispers of the Evergloom 05:39
8. The Void Bargain 05:28
9. Those Born of Suffering 04:21
10. Plaguemaster's Legacy 05:02
******************************
Total playing time: 48:43





[more=Extended info]Mark Gray Drums (2017-present)
See also: ex-Sun Speaker (live), Apocalypse Pony, ex-Apparitions
Andre Lothian Guitars (2017-present)
Dakota James Guitars (2017-present)
Conner Posz Vocals (2018-present)
Alexander Beltz Bass (2019-present)
See also: Hounds of Tindalos[/more]

[more=Technical info]
Input File: 02. Embrace the Hive.mp3
Channels : 2
Sample Rate : 44100
Precision : 16-bit
Duration : 00:04:19.09 = 11425869 samples = 19431.7 CDDA sectors
File Size : 10.4M
Bit Rate : 320k
Sample Encoding: MPEG audio (layer I, II or III)
Comments :
Title=Embrace the Hive
Artist=Dead World Reclamation
Album=Aura of Iniquity
Tracknumber=02
Year=2021

[/more]

Register
(23) AdamCassard, Barlak, Bloodn Lord, caro, chipsgott, hate_eternal, infiltrator, kimkayoung, Lukittaz, Marek, metala, noel666, Olethros, SABRAX, sadmannn, StabWound, symphonicadiction, TeamatSE, VALERY, varlam4, Vladimir, Луч, скептик,
Apr 20 2021, 05:15:45 Whrwlf - Dawnbringer (2021)


*Artist: Whrwlf
*Album: Dawnbringer
*Year: 2021
*Genre: Black Metal
*Country: Belarus
*Format: mp3@CBR320kbps
*Size: 106MB

Tracklist:
1. Всеночь 04:22
2. Сквозь тернии к звёздам 04:50
3. Мой стяг 04:35
4. Последний порыв 04:17
5. На крыльях войны 02:52
6. Жажды пульс 04:03
7. Наследникам крови 02:54
8. Грядущим трагедиям - быть 04:16
9. Новых пожарищ тень 04:32
10. Мертворождение победы 04:14
11. Поступью в благодатную высь 03:48
******************************
Total playing time: 44:43



[more=Technical info]
Input File: 02. Сквозь Тернии к Звёздам.mp3
Channels : 2
Sample Rate : 44100
Precision : 16-bit
Duration : 00:04:50.08 = 12792616 samples = 21756.1 CDDA sectors
File Size : 11.6M
Bit Rate : 320k
Sample Encoding: MPEG audio (layer I, II or III)
Comments :
Title=Сквозь Тернии К Звёздам
Artist=Whrwlf
Album=Dawnbringer
Tracknumber=2
Year=2021
Genre=Black Metal

[/more]

Register
(26) AlexSmith, alikkon, atavist, Branis, caro, dermarsoran, infiltrator, kim666, LEGION69, mondlicht, murian, Olethros, pahail, randumbum, robertho777, RUDACHUR, satanist666, SilentNidhogg, Slavas, smysl, stone88, stormhatt, VALERY, varlam4, vasiljev_sergej, Wail,
Apr 14 2021, 18:00:50 The Offspring - Let The Bad Times Roll (2021)
ЦИТАТА(vosmidesijatye @ Apr 14 2021, 17:57:17) *
Помню то лето

А я помню весну 1996 года, когда по дешевке купил альбом Smash.
Это был пик и вершина творчества. Стиль ааааабсолютно не мой, но альбом МЕГа шикардозный!
А это....уже жалкая породия и попытка нарулить песню.
(6) Bruce, fateefffddd, infiltrator, spazm, Strygaldwir, Velemysl,
Apr 14 2021, 15:52:54 The Offspring - Let The Bad Times Roll (2021)


Примитивщина, ужас. От старой былой толковой команды, выпустившая пару гениальных альбомов, не осталось и следа.
(2) fateefffddd, infiltrator,
Apr 14 2021, 07:10:11 Svdestada - Azabache (2021)


*Artist: Svdestada
*Album: Azabache
*Year: 2021
*Genre: Melodic Black Metal/Black 'n' Roll
*Country: Spain
*Format: mp3@CBR320kbps
*Size: 75MB

Tracklist:
1. Manifiesto 01:08 instrumental
2. Azabache 03:19
3. Fuga 02:45
4. Hogueras 02:02
5. Pesomuerto 02:58
6. Derrota 03:55
7. Petricor 03:53
8. Apóstata 02:29
9. Rendición 02:56
10. Sotavento 06:24
11. Galerna 00:46 instrumental
******************************
Total playing time: 32:35





[more=Extended info]Jorge Urosa Bass
See also: ex-MotherSloth (live)
Peter Lopez Drums
See also: ex-Lvx in Tenebris
Fernando Lamattina Guitars
Mario C. Vaises Vocals
See also: Khmer, ex-El Ego, ex-Become Wrath[/more]

[more=Technical info]
Input File: 02 - Azabache.mp3
Channels : 2
Sample Rate : 44100
Precision : 16-bit
Duration : 00:03:19.07 = 8778855 samples = 14930 CDDA sectors
File Size : 8.03M
Bit Rate : 323k
Sample Encoding: MPEG audio (layer I, II or III)
Comments :
Title=Azabache
Artist=Svdestada
Album=Azabache
Tracknumber=2
Year=2021
Genre=Melodic Black Metal

[/more]

Register
(15) AlexSmith, atavist, DenisKov, infiltrator, kimkayoung, Olethros, randumbum, robertho777, symphonicadiction, VALERY, varlam4, vasiljev_sergej, Vitald, zhol, Сварог Барг,
Apr 14 2021, 07:02:28 Inner Sanctum - Perpetual Kind Of Past [ep] (2021)


*Artist: Inner Sanctum
*Album: Perpetual Kind Of Past [ep]
*Year: 2021
*Genre: Death/Thrash Metal
*Country: Uruguay
*Format: mp3@CBR320kbps
*Size: 55MB

Tracklist:
1. Waking the Dead 05:18
2. Machines 03:34
3. After the Dark 05:53
4. The Sorrow Must Fall 04:01
5. Dark Frozen Mud 06:38
******************************
Total playing time: 25:24




[more=Extended info]Heber W. Hammer Guitars (1989-present, 2006, 2009-2016, 2020-present)
See also: ex-Legend, ex-Melkor Morgoth
Pablo Van Lagat Bass, Vocals (1990-1996), Vocals (2020-present)
See also: ex-Senda Negra, ex-Angkor Vat, ex-Raven Circle, ex-Varsovia Tyrana
Gustavo Herrera Bass (2020-present)
See also: ex-Charrua, ex-Parasital Existence
Gustavo Tort Drums (2020-present)
See also: ex-Arcanus, ex-Stertor, Macabriah, ex-Malevaje, ex-Varsovia Tyrana[/more]

[more=Technical info]
Input File: 02. Machines.mp3
Channels : 2
Sample Rate : 44100
Precision : 16-bit
Duration : 00:03:35.39 = 9498875 samples = 16154.5 CDDA sectors
File Size : 8.86M
Bit Rate : 329k
Sample Encoding: MPEG audio (layer I, II or III)
Comments :
Title=Machines
Artist=Inner Sanctum
Album=Perpetual Kind of Past
Tracknumber=02/05
Year=2021

[/more]

Register
(9) after21allD, AHBAnep, infiltrator, Marek, Olethros, randumbum, sergsazan, TeamatSE, vyacheslav,
Apr 8 2021, 08:04:40 Sadistic Domain - Descomposicon Mortal (2021)


*Artist: Sadistic Domain
*Album: Descomposicon Mortal
*Year: 2021
*Genre: Death/Thrash Metal
*Country: Colombia
*Format: flac
*Size: 111MB

Tracklist:
1. XII 00:55
2. Herencia de violencia 02:16
3. Ruptura 03:20
4. Acontecimientos de tragedias 02:51
5. Descomposición mortal 03:10
6. MMXX 00:55
7. Antihuman 03:35
******************************
Total playing time: 17:02




[more=Extended info]Juan Morales All instruments (2012-2013), Vocals, Guitars (2013-present)
See also: ex-Anticonforme, Antitaurino, BestialHammer, ex-Alcoholemia, ex-Bio-Death, ex-Dark Pussy, ex-Death in Throne, ex-Silex, ex-Veneno Negro
Luis Alberto Torres Drums (2020-present)
See also: Acrimonia, Evil Possession, ex-Exequia, ex-Ghoulish Pain[/more]

Register
(8) boby9052, infiltrator, jollo, Olethros, sergsazan, stumpheavyrock, wgs73, wtk.412,
Apr 7 2021, 18:49:37 Helloween - Indestructible [single] (2021)


*Artist: Helloween
*Album: Indestructible [single]
*Year: 2021
*Genre: Power/Speed Metal
*Country: Germany
*Format: mp3@CBR320kbps
*Size: 10MB

Tracklist:
1. Indestructible 04:31
******************************
Total playing time: 4:31




[more=Extended info]Markus Grosskopf Bass (1983-present)
See also: ex-Shock Machine, ex-Weinhold, ex-Bassinvaders, Kickhunter, ex-Avantasia, ex-Trick or Treat (live), ex-Edguy (live), ex-Roland Grapow, ex-Blast Furnace, ex-Gentry, ex-Second Hell
Michael Weikath Guitars (1983-present)
See also: ex-Blast Furnace, ex-Powerfool
Kai Hansen Guitars, Vocals (1983-1988, 2017-present)
See also: Gamma Ray, Hansen & Friends, Unisonic, ex-Iron Savior, ex-Avantasia (live), ex-Ancient Call, ex-Gentry, ex-Iron Fist, ex-Powerfool, ex-Second Hell
Michael Kiske Vocals (1986-1993, 2017-present)
See also: Kiske / Somerville, Place Vendome, Unisonic, Michael Kiske, ex-Avantasia (live), ex-Ill Prophecy, ex-SupaRed
Andi Deris Vocals (1994-present)
See also: Andi Deris and The Bad Bankers, ex-Pink Cream 69, ex-Kymera, ex-Dragon, ex-Nameless, ex-Paranoid
Sascha Gerstner Guitars (2002-present)
See also: Palast, ex-Freedom Call, ex-Lanzer (live)
Dani Löble Drums (2005-present)
See also: ex-Glenmore, ex-Höllenhunde, Gotthard (live), ex-Rawhead Rexx, ex-Krokus (live), ex-Blaze (live), ex-Element 58[/more]

[more=Technical info]
Input File: 01 helloween_indestructible.mp3
Channels : 2
Sample Rate : 44100
Precision : 16-bit
Duration : 00:04:31.40 = 11968916 samples = 20355.3 CDDA sectors
File Size : 10.9M
Bit Rate : 320k
Sample Encoding: MPEG audio (layer I, II or III)

[/more]

Register
(4) Aresson, ENDSMOUTH, rammmirez, sergsazan,

194 Pages V   1 2 3 > » 
- Lo-Fi Version Support form
Copyrights and abuse reports form
Time is now: 17th May 2021 - 20:18:38