Welcome Guest ( Log In | Register )

История благодарностей участнику Andrew ::: Спасибо сказали: 32501 раз(а)
Дата поста: В теме: За сообщение: Спасибо сказали:
Nov 28 2021, 11:09:08 Hypocrisy - Worship (2021)
Ептиль, вот это разочарование!
На мой взгляд какая то невнятная размазня получилась, а не альбом некогда именитой и почитаемой группы. На новом опусе не понравилось абсолютно ничего: ни звук, не идеи, не реализация. Блекло и уныло тоскливо 6.gif
(2) dark1988, plfan93,
Nov 26 2021, 11:49:30 Khnvm - Portals To Oblivion (2021)
Очень добротная, смачная дезяра шведского разлива, да в добавок не лишенная ноток мелодизма! 20.gif
(5) avather, DarkHorde, Occultas, SyncestrA, Thrashman,
Nov 21 2021, 12:17:55 Misanthrope - Temple Of The Dark Light (2021)

(1) Diflock,
Nov 21 2021, 12:14:26 Frost Koffin - Southern Misery (2021)
Облога, конечно, збсь....
(1) vosmidesijatye,
Nov 16 2021, 08:08:34 Black Blood Of The Earth - Bleak Light, Fervent Dark (2021)
Альбом очень сильно пришелся по душе, вчера 4 раза заслушал на репите.
И стилистику сложно охарактеризовать, но на мой взгляд это все таки Blackened Melodic Death/Melodic Doom Metal - но альбом очень достойный!!!
(2) kauyumari, Occultas,
Nov 15 2021, 21:34:51 Black Blood Of The Earth - Bleak Light, Fervent Dark (2021)


*Artist: Black Blood Of The Earth
*Album: Bleak Light, Fervent Dark
*Year: 2021
*Genre: Blackened Death/Doom Metal
*Country: Poland
*Format: mp3@CBR320kbps
*Size: 111MB

Tracklist:
1. Cold Daylight 06:51
2. Grey Cobweb Veil 05:54
3. The Fog Descends 07:09
4. The Dying Sun 05:34
5. October 07:18
6. Dusk and Decay 06:10
7. Drowning 06:35
******************************
Total playing time: 45:31





[more=Extended info](youtube рип), но альбом просто шикарен!

Marcin Witek Guitars (2008-present)
Adam Walczak Guitars (2008-present)
Michał Sieroń Vocals, Bass (2008-present)[/more]

[more=Technical info]
Input File: 02. Grey Cobweb Veil.mp3
Channels : 2
Sample Rate : 44100
Precision : 16-bit
Duration : 00:05:53.67 = 15596759 samples = 26525.1 CDDA sectors
File Size : 14.1M
Bit Rate : 320k
Sample Encoding: MPEG audio (layer I, II or III)
Comments :
Title=Grey Cobweb Veil
Artist=Black Blood of the Earth
Album=Bleak Light, Fervent Dark
Tracknumber=02
Year=2021

[/more]

Register
(17) AHBAnep, AlexSmith, artscald, cesar, Chasm, kauyumari, Mencae77, metala, Occultas, Olethros, Orgasmik, sergsazan, Thrashman, VALERY, vyacheslav, ZloySamaritianin, Сварог Барг,
Nov 14 2021, 18:30:04 Advent Of Fire - Verikaste (2021)
Как раз со страной все в порядке - команда из Финляндии!
Сабж....это уже другое дело.
(2) fr47, Samaritianin,
Nov 14 2021, 18:24:41 Spit On My Tomb - Necrosis (2021)
(1) troll_swamp,
Nov 14 2021, 17:48:56 Firewind - New Found Power [single] (2021)


*Artist: Firewind
*Album: New Found Power [single]
*Year: 2021
*Genre: Heavy/Power Metal
*Country: Greece
*Format: mp3@CBR320kbps
*Size: 9MB

Tracklist:
1. New Found Power 04:15
******************************
Total playing time: 4:15




[more=Extended info]Gus G. Guitars (1998-present), Keyboards (1998-2004, 2020-present)
See also: Gus G., ex-Tuska20, ex-Dream Evil, ex-Mystic Prophecy, ex-Nightrage, ex-Ozzy Osbourne, ex-Arch Enemy (live)
Petros Christo Bass (2003-present)
See also: ex-Breaking Silence, Overpower
Jo Nunez Drums (2011-present)
See also: Darkblazers, Dragonland, Lords of Black, Gus G. (live), ex-Suicide of Demons, ex-Negate (live), ex-Kamelot, ex-Meridian Dawn, ex-Nightrage, ex-Marty Friedman (live), ex-About: Blank, ex-Mystica
Herbie Langhans Vocals (2020-present)
See also: Beyond the Bridge, Radiant, Sonic Haven, Steel Rhino, The Lightbringer of Sweden, Whispers in Crimson, Avantasia (live), ex-Seventh Avenue, ex-The Preachers, ex-Neoshine, ex-Sinbreed, ex-Symphonity, ex-Voodoo Circle[/more]

[more=Technical info]
Input File: 01 firewind_new_found_power.mp3
Channels : 2
Sample Rate : 44100
Precision : 16-bit
Duration : 00:04:15.31 = 11259259 samples = 19148.4 CDDA sectors
File Size : 10.2M
Bit Rate : 320k
Sample Encoding: MPEG audio (layer I, II or III)

[/more]

Register
(11) after21allD, boby9052, caro, chipsgott, gwynnbleid, Olethros, Reverend, sergsazan, uncolored, Wail, wreak,
Nov 14 2021, 17:39:11 Sabaton - Christmas Truce [single] (2021)


*Artist: Sabaton
*Album: Christmas Truce [single]
*Year: 2021
*Genre: Power Metal
*Country: Sweden
*Format: mp3@CBR320kbps
*Size: 12MB

Tracklist:
1. Christmas Truce 05:18
******************************
Total playing time: 5:18





[more=Technical info]
Input File: 01 sabaton_christmas_truce.mp3
Channels : 2
Sample Rate : 44100
Precision : 16-bit
Duration : 00:05:18.11 = 14028783 samples = 23858.5 CDDA sectors
File Size : 13.1M
Bit Rate : 331k
Sample Encoding: MPEG audio (layer I, II or III)
Comments :
Title=Christmas Truce
Artist=Sabaton
Album=Christmas Truce
Year=2021
Genre=Metal

[/more]

Register
(16) Aresson, artscald, caro, chipsgott, csgmnk, dafya328, DeathDragon, gwar, gwynnbleid, Legacy100, noel666, Olethros, Reverend, sergsazan, Wail, wreak,
Nov 14 2021, 17:13:02 Timawa - Agoraphobic Rotten Cunt (2021)


*Artist: Timawa
*Album: Agoraphobic Rotten Cunt
*Year: 2021
*Genre: Brutal Death Metal
*Country: Philippines
*Format: mp3@CBR320kbps
*Size: 64MB

Tracklist:
01. Batuk’an Combatant
02. Shadows of Douche
03. Thalassocracy
04. Mananabas Scythe Wielding Killer
05. Bungisngis
06. Death March
07. Agoraphobic Rotten Corpse a Cunt
08. Reclusion Perpetua
09. Crimes of Super Natural Origin (featuring Loubelle Luis of Xeno Devata)
******************************
Total playing time: 27:04





[more=Technical info]
Input File: 02. Shadows of Douche.mp3
Channels : 2
Sample Rate : 44100
Precision : 16-bit
Duration : 00:02:46.41 = 7338637 samples = 12480.7 CDDA sectors
File Size : 6.75M
Bit Rate : 324k
Sample Encoding: MPEG audio (layer I, II or III)
Comments :
Title=Shadows of Douche
Artist=Timawa
Album=Agoraphobic Rotten Cunt
Tracknumber=2/9
Year=2021
Genre=Brutal Death

[/more]

Register
(9) arsen_hay, caro, Hell_Is_Here, jollo, julianotidre, Olethros, supremo, vyacheslav, wreak,
Nov 10 2021, 12:44:52 Saratoga - Xxx (2021)


*Artist: Saratoga
*Album: Xxx
*Year: 2021
*Genre: Heavy/Power Metal
*Country: Spain
*Format: mp3@CBR320kbps
*Size: 150MB

Tracklist:
1. Perro traidor 04:29
2. Vientos de guerra 03:47
3. Maldito corazón 05:42
4. No sufriré jamás por ti 03:43
5. A morir 04:06
6. Mi ciudad 04:41
7. Si amaneciera 06:11
8. Las puertas del cielo 03:44
9. A sangre y fuego 04:25
10. El vuelo del halcón 04:36
11. Lejos de ti 04:50
12. Rojo fuego 04:24
13. Tras las rejas 04:52
14. Resurrección 04:55
******************************
Total playing time: 1:04:25






[more=Extended info]Niko del Hierro Bass, Vocals (backing) (1992-present)
See also: Alderaan, ex-Hades, ex-King-Kong, ex-Barón Rojo, ex-Ñu, ex-Medina Azahara (live), ex-Panzer (live), ex-Acido, ex-Zero, ex-Ibérica
Jero Ramiro Guitars (1992-2006, 2014-present)
See also: Jero Ramiro, ex-Santa, ex-Ñu, ex-Panzer (live), ex-Santelmo, ex-Barracuda, ex-Pielmetal, ex-Salamandra, ex-WC?
Tete Novoa Vocals (lead) (2007-present)
See also: Manhattan Rock Band, Tete Novoa, ex-Shaigon
El Estepario Siberiano Drums (2020-present)[/more]

[more=Technical info]
Input File: 02 - Vientos de Guerra.mp3
Channels : 2
Sample Rate : 44100
Precision : 16-bit
Duration : 00:03:47.00 = 10010700 samples = 17025 CDDA sectors
File Size : 9.28M
Bit Rate : 327k
Sample Encoding: MPEG audio (layer I, II or III)
Comments :
Title=Vientos de Guerra (Versión XXX)
Artist=Saratoga
Album=XXX
Tracknumber=2
Year=2021-11-05
Genre=Metal
Discnumber=1

[/more]

Register
(15) after21allD, aviacademy, boby9052, caro, dcatagua, gwar, Herrant, HMHamster, julianotidre, Olethros, postal67, Rover, vir2al, wreak, Сварог Барг,
Nov 9 2021, 17:10:33 Equilibrium - Revolution [single] (2021)


*Artist: Equilibrium
*Album: Revolution [single]
*Year: 2021
*Genre: Epic Folk Metal
*Country: Germany
*Format: mp3@CBR320kbps
*Size: 9MB

Tracklist:
1. Revolution 04:17
******************************
Total playing time: 4:17




[more=Extended info]René Guitars (rhythm), Keyboards, Vocals (2001-present), Bass, Drums (2014)
Hati Drums (2010-present)
See also: Sign of Cain, Viscera Trail, ex-Krampus
Robse Vocals (2010-present)
See also: Minas Morgul, Vrankenvorde, Mallevs Maleficarvm (live), ex-Kalmah (live), ex-A Leap into Dark
Dom Guitars (lead), Vocals (2014-present)
See also: Nothgard, ex-Wolfchant, ex-Nordavind
Skar Bass, Vocals (clean) (2019-present)
See also: ex-Okular, ex-Third Invention, Wheels of Rust, ex-Blood Red Throne, ex-Zerozonic, ex-Trollfest (live)
Skadi Rosehurst Keyboards (2019-present)[/more]

[more=Technical info]
Input File: Equilibrium - Revolution.mp3
Channels : 2
Sample Rate : 44100
Precision : 16-bit
Duration : 00:04:17.03 = 11335155 samples = 19277.5 CDDA sectors
File Size : 10.3M
Bit Rate : 320k
Sample Encoding: MPEG audio (layer I, II or III)

[/more]

Register
(21) Aresson, artscald, aviacademy, caro, Cartman223, chipsgott, Dreamtale, Emm Human, gwar, gwynnbleid, infozahist, kostja, noel666, Olethros, Reverend, SAPOGi, sergsazan, Vyr, Wail, wreak, zhol,
Nov 9 2021, 16:44:31 Eucharist - Mistress Of Nightmares [single] (2021)


*Artist: Eucharist
*Album: Mistress Of Nightmares [single]
*Year: 2021
*Genre: Melodic Death Metal
*Country: Sweden
*Format: mp3@CBR320kbps
*Size: 11MB

Tracklist:
1. Mistress of Nightmares 04:47
******************************
Total playing time: 4:47





[more=Technical info]
Input File: Eucharist - Mistress of Nightmares.mp3
Channels : 2
Sample Rate : 44100
Precision : 16-bit
Duration : 00:04:47.91 = 12696875 samples = 21593.3 CDDA sectors
File Size : 11.5M
Bit Rate : 320k
Sample Encoding: MPEG audio (layer I, II or III)

[/more]

Register
(19) Amadeus, artscald, BugEyes, caro, chipsgott, de4th_parasIte, Emm Human, gwynnbleid, Hell_Is_Here, kimkayoung, kostja, Nordavind, Olethros, Reverend, sergsazan, spazm, Wail, wreak, zhol,
Nov 9 2021, 16:34:54 Eucharist - Shadows [single] (2021)


*Artist: Eucharist
*Album: Shadows [single]
*Year: 2021
*Genre: Melodic Death Metal
*Country: Sweden
*Format: mp3@CBR320kbps
*Size: 13MB

Tracklist:
1. Shadows 06:02
******************************
Total playing time: 6:02




[more=Technical info]
Input File: Eucharist - Shadows.mp3
Channels : 2
Sample Rate : 44100
Precision : 16-bit
Duration : 00:06:02.81 = 15999833 samples = 27210.6 CDDA sectors
File Size : 14.5M
Bit Rate : 320k
Sample Encoding: MPEG audio (layer I, II or III)

[/more]

Register
(17) artscald, BugEyes, caro, chipsgott, de4th_parasIte, Emm Human, gwynnbleid, Hell_Is_Here, kimkayoung, kostja, Nordavind, Olethros, Reverend, sergsazan, Wail, wreak, zhol,
Nov 9 2021, 16:23:32 Unanimated - As The Night Takes Us [single] (2021)


*Artist: Unanimated
*Album: As The Night Takes Us [single]
*Year: 2021
*Genre: Melodic Death/Black Metal
*Country: Sweden
*Format: mp3@CBR320kbps
*Size: 9MB

Tracklist:
1. As the Night Takes Us 04:14
******************************
Total playing time: 4:14




[more=Extended info]Jonas Deroueche Guitars
See also: ex-General Surgery, ex-Carbonized
Johan Bohlin Guitars (1988-1996, 2007-present)
See also: ex-Desultory, ex-Zebulon
Richard Cabeza Vocals (1988-1991), Bass (1990-1991, 1993-1996, 2007-present)
See also: Dismember, ex-Born of Fire, ex-Damnation, ex-Rape Pillage and Burn, ex-General Surgery, ex-Dark Funeral (live), ex-Satyricon (live), ex-Carbonized, ex-Murder Squad, ex-Obscuratum
Micke Broberg Vocals (1991-1996, 2007-present)
See also: Born for Burning, Contempt of the Light, Massive Destruction, ex-Celestial Pain, The 13th Passenger, ex-Damnation, ex-Harms Way
Anders Schultz Drums (2011-present)
See also: Unleashed[/more]

[more=Technical info]
Input File: Unanimated - As the Night Takes Us.mp3
Channels : 2
Sample Rate : 44100
Precision : 16-bit
Duration : 00:04:14.37 = 11217629 samples = 19077.6 CDDA sectors
File Size : 10.2M
Bit Rate : 320k
Sample Encoding: MPEG audio (layer I, II or III)

[/more]

Register
(29) Aresson, artscald, BugEyes, caro, chipsgott, Cyrci, DiegoMassakre, Emm Human, Froze, gwynnbleid, Hell_Is_Here, infozahist, Kaotik, kimkayoung, kostja, lucifix, Nordavind, Occultas, Olethros, Reverend, sergsazan, spazm, Storky, syntexid, thenecromancer, vasiljev_sergej, Wail, wreak, zhol,
Nov 4 2021, 12:36:13 Destinity - In Continuum (2021)


ЦИТАТА(sta1081 @ Oct 17 2021, 14:41:55) *
Самый лучший у них!!!

Спорное утверждение. 2008 был очень добротный, мне более по душе нежели новое творение.
(1) Storky,
Nov 4 2021, 10:46:00 Bloodred Hourglass - Your Highness (2021)


Очень слабенько. Второй альбом группы на сегодняшний день самый сильный.
(2) Storky, TodesGott,
Nov 4 2021, 10:38:50 Draconicon - Dark Side Of Magic (2021)
(1) Ingvar,
Nov 4 2021, 10:32:53 Burning Point - Arsonist Of The Soul (2021)
(1) Ingvar,
Nov 4 2021, 10:24:33 Necrofier - Prophecies Of Eternal Darkness (2021)
Неплохо, но однообразно.
(1) Ingvar,
Nov 4 2021, 10:11:26 Shadowland - The Necromancers Castle (2021)
Олд скульно. Альбом из середины 80-х.
(1) Ingvar,
Nov 4 2021, 10:04:48 Slapdown - Fundamentally Wicked (2021)
(1) Ingvar,
Nov 4 2021, 09:55:46 Seven Sisters - Shadow Of A Fallen Star Pt.1 (2021) (1) Ingvar,
Nov 4 2021, 09:43:42 Abscession - Rot Of Ages (2021)
Шикарный альбом. Мощно, четко, мелодично!
(1) Ingvar,

201 Pages V   1 2 3 > » 
- Lo-Fi Version Support form
Copyrights and abuse reports form
Time is now: 3rd December 2021 - 02:06:00