Welcome Guest ( Log In | Register )

Объявления

* gmail.com упорно продолжает считать почту с нас "unsolicited" и отбивает в том числе и письма активации, поэтому просьба использовать альтернативные почтовые ящики.
------------
* gmail.com continues reject all mail from us as "unsolicited" (activation mails too) therefore please use alternate mail servers.
История благодарностей участнику Andrew ::: Спасибо сказали: 40570 раз(а)
Дата поста: В теме: За сообщение: Спасибо сказали:
Jul 1 2024, 21:33:54 Crocell - Of Frost, Of Flame, Of Flesh (2024)
ЦИТАТА(isvili @ Jun 28 2024, 17:52:11) *
Эти всегда интересно играли

Согласен, но первые альбомы поинтереснее были.
(1) DarkHorde,
Jul 1 2024, 19:48:06 Metonic - Ghostly Ship (2024)
Легковесный хеви, ближе к харду.
(1) Genuine Thrashiac,
Jul 1 2024, 19:37:58 Dark Tranquillity - Not Nothing [single] (2024)


*Artist: Dark Tranquillity
*Album: Not Nothing [single]
*Year: 2024
*Genre: Melodic Death Metal
*Country: Sweden
*Format: mp3@CBR320kbps
*Size: 11MB

Tracklist:
1. Not Nothing 04:52
******************************
Total playing time: 4:52



[more=Extended info]Новый альбом Endtime Signals 16 Августа

Mikael Stanne Guitars (rhythm) (1991-1993), Vocals (1993-present)
See also: Grand Cadaver, The Halo Effect, ex-Septic Broiler, Cemetery Skyline, ex-HammerFall, ex-In Flames (live)
Martin Brändström Keyboards, Programming, Electronics (1999-present)
See also: ex-Tiamat (live)
Johan Reinholdz Guitars (rhythm) (2020-present)
See also: Andromeda, Nonexist, Skyfire, Faithful Darkness (live), ex-Opus Atlantica, ex-Widow, Kontinuum (Swe), Murdered Beats, ex-Bullhead
Christian Jansson Bass (2022-present)
See also: Grand Cadaver, Pagandom, Novarupta (live), ex-Transport League, ex-Kill the Parish
Joakim Strandberg-Nilsson Drums (2022-present)
See also: Faithful Darkness, Nonexist, ex-Moorgate, ex-Thrive, Wolves Within, ex-In Mourning[/more]

[more=Technical info]
Input File: Dark_Tranquillity-Not_Nothing.mp3
Channels : 2
Sample Rate : 44100
Precision : 16-bit
Duration : 00:04:52.81 = 12913097 samples = 21961 CDDA sectors
File Size : 11.9M
Bit Rate : 325k
Sample Encoding: MPEG audio (layer I, II or III)
Comments :
Title=Not Nothing
Artist=Dark Tranquillity
Album=Not Nothing (Single)
Tracknumber=1
Year=2024
Genre=Melodic Death Metal

[/more]

Register
(6) artscald, djsema4, gwar, IamTLR, metalwoman, wreak,
Jul 1 2024, 19:20:20 Beast In Black - Power Of The Beast [single] (2024)


*Artist: Beast In Black
*Album: Power Of The Beast [single]
*Year: 2024
*Genre: Melodic Heavy/Power Metal
*Country: Finland
*Format: mp3@CBR320kbps
*Size: 10MB

Tracklist:
1. Power of the Beast 04:29
******************************
Total playing time: 4:29




[more=Extended info]Máté Molnár Bass (2015-present)
See also: ex-Wisdom
Kasperi Heikkinen Guitars (2015-present)
See also: Merging Flare, Gamma Ray (live), Conquest, ex-Iconofear, Guardians of Mankind, ex-Amberian Dawn, ex-U.D.O., ex-Elenium, ex-Disease
Anton Kabanen Guitars, Vocals (backing) (2015-present)
See also: ex-Wisdom, ex-Battle Beast
Yannis Papadopoulos Vocals (lead) (2015-present)
See also: ex-Until Rain, ex-Wardrum, ex-Qantice (live), ex-Crosswind
Atte Palokangas Drums (2018-present)
See also: Agonizer, Among the Prey, Thunderstone, ex-DreamRealm, ex-Before the Dawn, ex-Sinity, ex-Waltari (live)[/more]

[more=Technical info]
Input File: Beast_In_Black_-_Power_Of_The_Beast.mp3
Channels : 2
Sample Rate : 44100
Precision : 16-bit
Duration : 00:04:29.90 = 11902502 samples = 20242.4 CDDA sectors
File Size : 10.8M
Bit Rate : 320k
Sample Encoding: MPEG audio (layer I, II or III)
Comments :
Title=Power Of The Beast
Artist=Beast In Black

[/more]

Register
(15) artscald, aviacademy, boby9052, cast_iron, djsema4, finntroll3, Grev, gwar, metalwoman, Reverend, sergsazan, stumpheavyrock, Wail, Weikai, wreak,
Jun 27 2024, 20:07:02 Neaera - All Is Dust (2024)
Мда, что-то окончательно ипаганилась некогда добротная команда. 6.gif
(1) Winterdark,
Jun 25 2024, 13:58:13 Codename Demolition - Power Over Demons (2024)
(1) Genuine Thrashiac,
Jun 23 2024, 19:59:38 Powerwolf - Sinners Of The Seven Seas [single] (2024)


*Artist: Powerwolf
*Album: Sinners Of The Seven Seas [single]
*Year: 2024
*Genre: Power Metal
*Country: Germany
*Format: mp3@CBR320kbps
*Size: 7MB

Tracklist:
1. Sinners of the Seven Seas 03:00
******************************
Total playing time: 3:00





[more=Extended info]Новый альбом Wake Up the Wicked 26 июля.

Charles Greywolf Bass, Guitars (2004-present)
See also: ex-Flowing Tears, ex-Heavatar, ex-Red Aim
Matthew Greywolf Guitars (2004-present)
See also: ex-Flowing Tears, ex-Red Aim
Falk Maria Schlegel Keyboards (2004-present)
See also: ex-The Experience, ex-Red Aim
Attila Dorn Vocals (2004-present)
See also: ex-Dragon's Tongue, ex-Meskalin, ex-Red Aim
Roel van Helden Drums (2011-present)
See also: Zero Hour, ex-Delphian, ex-Dvplo, ex-Lites over Fenix, System Pilot, ex-Marcel Coenen, ex-Subsignal, ex-Sun Caged, ex-Gramoxone, ex-My Favorite Scar, ex-Equisa (live)[/more]

[more=Technical info]
Input File: Powerwolf_-_Sinners_Of_The_Seven_Seas.mp3
Channels : 2
Sample Rate : 44100
Precision : 16-bit
Duration : 00:03:01.15 = 7988803 samples = 13586.4 CDDA sectors
File Size : 7.25M
Bit Rate : 320k
Sample Encoding: MPEG audio (layer I, II or III)
Comments :
Title=Sinners Of The Seven Seas
Artist=Powerwolf

[/more]

Register
(7) artscald, Grev, gwar, Reverend, RodJohnson, Wail, wreak,
Jun 23 2024, 18:44:06 Nuclear Storm - Good Morning Berlin (2024)
Country of origin:
Germany
(1) metaljosue,
Jun 20 2024, 19:10:06 Mechanyzed - Ivy King (2024)
Привет из 80-х, треша, не услышал.
(1) Bloodline Christian,
Jun 17 2024, 11:13:50 Kryptos - Sirens Of Steel [single] (2024)


*Artist: Kryptos
*Album: Sirens Of Steel [single]
*Year: 2024
*Genre: Heavy/Thrash Metal
*Country: India
*Format: mp3@CBR320kbps
*Size: 9MB

Tracklist:
1. Sirens of Steel 03:53
******************************
Total playing time: 3:53



[more=Extended info]Новый альбом Decimator 5 Июля

Nolan Lewis Guitars (1998-present), Vocals (2005-present)
See also: ex-Aeons of Sorrow, Witchgoat
Rohit Chaturvedi Guitars (lead) (2006-present)
See also: ex-Millennium
Vijit Singh Drums (2019-present)
See also: Regicide
Vasu Chandran Bass (2023-present)
See also: Amorphia, Hell Hordes, Aempyrean (live)[/more]

[more=Technical info]
Input File: Kryptos_-_Sirens_of_Steel.mp3
Channels : 2
Sample Rate : 44100
Precision : 16-bit
Duration : 00:03:53.80 = 10310712 samples = 17535.2 CDDA sectors
File Size : 9.40M
Bit Rate : 322k
Sample Encoding: MPEG audio (layer I, II or III)
Comments :
Title=Sirens of Steel
Artist=Kryptos
Album=Sirens of Steel
Year=2024

[/more]

Register
(7) amiroo, artscald, CTPEMLEHIE, piwimetal, sergsazan, Wail, wreak,
Jun 17 2024, 10:52:46 Wolfheart - Grave [single] (2024)


*Artist: Wolfheart
*Album: Grave [single]
*Year: 2024
*Genre: Melodic Death Metal
*Country: Finland
*Format: mp3@CBR320kbps
*Size: 10MB

Tracklist:
1. Grave 04:22
******************************
Total playing time: 4:22



[more=Extended info]Новый альбом Draconian Darkness 6 сентября

Tuomas Saukkonen Bass, Drums (2013-2014), Vocals, Guitars (2013-present)
See also: Before the Dawn, Dawn of Solace, ex-Black Sun Aeon, ex-Bonegrinder, ex-RoutaSielu, ex-The Final Harvest, ex-Jumalhämärä, ex-Rajavyöhyke
Lauri Silvonen Bass, Vocals (backing) (2014-present)
See also: Bloodred Hourglass, Casket, Death Confronting
Joonas Kauppinen Drums (2014-present)
See also: Disease of the Nation, ex-Ancient Misery, ex-Burning Empire, ex-Misery Inc., Hyljätyt, ex-Before the Dawn, ex-Threatening
Vagelis Karzis Guitars (lead), Vocals (clean) (2020-present)
See also: Full House Brew Crew, ex-Rotting Christ (live)[/more]

[more=Technical info]
Input File: Wolfheart-Grave.mp3
Channels : 2
Sample Rate : 48000
Precision : 16-bit
Duration : 00:04:22.35 = 12592656 samples ~ 19676 CDDA sectors
File Size : 10.7M
Bit Rate : 327k
Sample Encoding: MPEG audio (layer I, II or III)
Comments :
Title=Grave
Artist=Wolfheart
Album=Grave (Single)
Tracknumber=01
Year=2024
Genre=Melodic Death Metal

[/more]

Register
(5) artscald, BlackSwordMaster88, Reverend, Wail, wreak,
Jun 14 2024, 18:01:24 Bred From Hate - Bred From Hate (2024)
Хватило на 2 трека. Чет вообще ни о чем.
(2) AHBAnep, Winterdark,
Jun 13 2024, 19:51:22 Darkened - Defilers Of The Light (2024)
Отличный альбом, мелодичный аж через край! 20.gif
(1) metaljosue,
Jun 12 2024, 19:39:04 The Black Dahlia Murder - Aftermath [single] (2024)


*Artist: The Black Dahlia Murder
*Album: Aftermath [single]
*Year: 2024
*Genre: Melodic Death Metal
*Country: United States
*Format: mp3@CBR320kbps
*Size: 7MB

Tracklist:
1. Aftermath 03:01
******************************
Total playing time: 3:01



[more=Extended info]Brian Eschbach Guitars (2001-2022), Vocals (2022-present)
Ryan Knight Guitars (2008-2016, 2022-present)
See also: The Knife Trade, Ryan Knight, ex-Arsis
Max Lavelle Bass (2012-present)
See also: Serpent of Gnosis, ex-Compost Pile, ex-Twisted Sacrifice, ex-Despised Icon, ex-Goratory, ex-Trauma Concept, ex-Burn in Silence, ex-Lecherous
Alan Cassidy Drums (2012-present)
See also: Slugdge, Havok (live), ex-Unbodied, ex-Abigail Williams, ex-Cryptic Abuse, ex-The Breathing Process, ex-Dead Ashore
Brandon Ellis Guitars (2016-present)
See also: Exodus (live), Insomnium (live), ex-Arsis, ex-Cannabis Corpse, ex-Structure of Inhumanity, ex-Finntroll (live), ex-Sylosis (live)

New album “Servitude” out 27.09.2024[/more]

[more=Technical info]
Input File: The_Black_Dahlia_Murder_-_Aftermath.mp3
Channels : 2
Sample Rate : 44100
Precision : 16-bit
Duration : 00:03:02.12 = 8031404 samples = 13658.9 CDDA sectors
File Size : 7.28M
Bit Rate : 320k
Sample Encoding: MPEG audio (layer I, II or III)
Comments :
Title=Aftermath
Artist=The Black Dahlia Murder

[/more]

Register
(3) AHBAnep, Wail, wreak,
Jun 9 2024, 18:36:00 Astharoth - Cosmos And Chaos (2024)
Jarek Tatarek Vocals, Guitars (1988-1994), All instruments, Vocals (2020-present)
See also: Arcane Dimension, Arcane Ritual, ex-In the Silence (live), ex-Krater, ex-Halcyon Days
(1) Genuine Thrashiac,
Jun 6 2024, 12:17:47 HammerFall - Hail To The King [single] (2024)


*Artist: HammerFall
*Album: Hail To The King [single]
*Year: 2024
*Genre: Heavy/Power Metal
*Country: Sweden
*Format: mp3@CBR320kbps
*Size: 10MB

Tracklist:
1. Hail to the King 04:32
******************************
Total playing time: 4:32



[more=Extended info]Oscar Dronjak Guitars (1993-present)
See also: Ceremonial Oath, ex-Crystal Age, ex-Desecrator, ex-The Hippie Killers
Fredrik Larsson Bass (1994-1997, 2007-present)
See also: Death Destruction, ex-Crystal Age, ex-None, ex-Cans, ex-Evergrey
Joacim Cans Vocals (1996-present)
See also: ex-Mrs. Hippie, ex-Cans, ex-Warlord, ex-Highlander
Pontus Norgren Guitars (2008-present)
See also: Pänzer, ex-The Ring, ex-Dreams Fall, At the Movies, Talisman, ex-Ludor (live), ex-Great King Rat, ex-Humanimal, ex-Jekyll & Hyde, ex-Pontus Norgren, ex-The Poodles, ex-Zan Clan, ex-Jeff Scott Soto (live)
David Wallin Drums (2014-2016, 2017-present)
See also: Blacksmith, Pain (live), Stormwind, ex-Meduza

Новый альбом Avenge the Fallen 9 Августа[/more]

[more=Technical info]
Input File: HammerFall_-_Hail_To_The_King.mp3
Channels : 2
Sample Rate : 44100
Precision : 16-bit
Duration : 00:04:32.00 = 11995200 samples = 20400 CDDA sectors
File Size : 11.1M
Bit Rate : 327k
Sample Encoding: MPEG audio (layer I, II or III)
Comments :
Title=Hail To The King
Artist=Hammerfall
Album=Avenge The Fallen
Tracknumber=4
Year=2024-08-09
Genre=Metal
Discnumber=1

[/more]

Register
(12) Aresson, artscald, aviacademy, chipsgott, Elric07, gwar, gwynnbleid, metalwoman, Nolan2025, Reverend, Wail, Weikai,
Jun 6 2024, 10:20:37 Atömic Seasön - No Life Is Left [ep] (2024)
Класс! Простенько, олд скульно и слушается весьма приятно. 20.gif
(2) aviacademy, CTPEMLEHIE,
Jun 5 2024, 19:49:01 Holycide - Towards Idiocracy (2024)
Неплохо, в меру олд скульно, живо и с огоньком, но слишком уж однообразно.
(1) CTPEMLEHIE,
Jun 5 2024, 19:42:15 Tyrant Emperor - Rotten And Evil (2024)
Вокал отвратительный.
(1) AHBAnep,
Jun 5 2024, 09:22:19 Highways - Never Die (2024)
Довольно неплохой олд скульный наффталиновый Hard'N'Heavy.
(1) Genuine Thrashiac,
Jun 1 2024, 19:17:22 Nachtschläfer - Coping With The Inevitability Of Death (2024)
ЦИТАТА(kefka @ May 30 2024, 09:39:45) *
*[ ]Стиль[/b]: Melodic Death/Black Metal

13.gif Чет берут большие сомнения. По большому счету это просто говорильня под не совсем внятную музыку.
(2) AHBAnep, Razorbladeswaltz,
Jun 1 2024, 16:26:19 Lavvat - Chains (2023)
Melodic LavashDeath
(2) Kitalter, Winterdark,
May 31 2024, 19:02:28 Phronexis - Opulence Of Metal (2024)
Простенько, в меру олд скульно, на разок прослушать.
(1) Winterdark,
May 31 2024, 10:16:30 Suffering Souls - An Iconic Taste Of Demise (2024)
Толковый Melodic/Symphonic Black Metal
(1) isvili,
May 31 2024, 09:10:36 Cloven Hoof - Heathen Cross (2024)


Ну такой, уж слишком старперски-наффталиновый Hard'N'Heavy.
(1) poeira,

236 Pages V   1 2 3 > » 
- Lo-Fi Version Support form
Copyrights and abuse reports form
Time is now: 13th July 2024 - 03:53:39