Welcome Guest ( Log In | Register )

История благодарностей участнику Andrew ::: Спасибо сказали: 30758 раз(а)
Дата поста: В теме: За сообщение: Спасибо сказали:
Yesterday, 13:13:54 When Darkness Falls - What We Leave Behind (2021)


*Artist: When Darkness Falls
*Album: What We Leave Behind
*Year: 2021
*Genre: Melodic Death Metal
*Country: United States
*Format: mp3@CBR320kbps
*Size: 79MB

Tracklist:
1. Heavy Blood
2. Zenith: The Black
3. 1666 the Monument
4. Deathless Rotting
5. Order 270
6. Equidistance
7. Another Grave to Dig
8. For This We Bleed
******************************
Total playing time: 34:30




[more=Technical info]
Input File: 02 - Zenith_ The Black.mp3
Channels : 2
Sample Rate : 44100
Precision : 16-bit
Duration : 00:05:21.85 = 14193541 samples = 24138.7 CDDA sectors
File Size : 12.9M
Bit Rate : 320k
Sample Encoding: MPEG audio (layer I, II or III)
Comments :
Title=Zenith: The Black
Artist=When Darkness Falls
Album=What We Leave Behind
Tracknumber=2
Year=2021

[/more]

Register
(6) djsema4, Lukittaz, Taakeferd, wn129aa, zhol, скептик,
Yesterday, 10:09:55 Preludium Fury - Victory Of The Champion (2021)


*Artist: Preludium Fury
*Album: Victory Of The Champion
*Year: 2021
*Genre: Power Metal
*Country: United States
*Format: mp3@CBR320kbps
*Size: 104MB

Tracklist:
1. Triumph Over Anguish 04:37
2. The Power of the Beautiful Lord 04:12
3. Swords and Sorcery 04:48
4. Far Beyond the Astral Door 03:57
5. General Bjorn 04:04
6. Reign of Metal 03:36
7. War of the Dragons 04:43
8. Live to Die 04:48
9. Divine Opus # 3 04:09 instrumental
******************************
Total playing time: 38:54





[more=Extended info]Jason Hall Vocals, Guitars
Eric Johansson Vocals (2020-present)
Berzan Önen Vocals (2021-present)
See also: Ascraeus, United, Warring[/more]

[more=Technical info]
Input File: 02 - The Power of the Beautiful Lord (feat. Berzan Önen).mp3
Channels : 2
Sample Rate : 44100
Precision : 16-bit
Duration : 00:04:12.00 = 11113200 samples = 18900 CDDA sectors
File Size : 10.3M
Bit Rate : 327k
Sample Encoding: MPEG audio (layer I, II or III)
Comments :
Title=The Power Of The Beautiful Lord (Feat. Berzan Önen)
Artist=Preludium Fury
Album=Victory Of The Champion
Tracknumber=2
Year=2021-24-07
Genre=Heavy Metal
Discnumber=1

[/more]

Register
(8) ace73pq, boby9052, caro, Lukittaz, Marek, metala, Taakeferd, zhol,
Yesterday, 09:32:20 Comorbidity - Dead, Infected Everywhere (2021)


*Artist: Comorbidity
*Album: Dead, Infected Everywhere
*Year: 2021
*Genre: Death Metal
*Country: United States
*Format: mp3@CBR320kbps
*Size: 41MB

Tracklist:
1. Flattened
2. The Bastard
3. Bringer of Plagues
4. Blood Crusted Steel
5. Punitive Expedition
6. Dead, Infected Everywhere
******************************
Total playing time: 16:47




[more=Extended info]Ernie Jaramillo Bass
See also: Chemicaust, Embalmed, Oblivious Obscurity, Protest, ex-Cunthammer, ex-Dissolution, ex-Irreverence, War Ensemble, Womb Wrecker, ex-Demonseed, ex-Wings of Dahak
Ivan Limon Drums
See also: Empty Shell, ex-Interment, ex-Oblivious Obscurity
Eric Ramirez Guitars
See also: ex-Interment
Dave Tillery Guitars, Vocals
See also: Embalmed, Oblivious Obscurity, Wings of Dahak, ex-Truncator, ex-Gruesome Fate[/more]

[more=Technical info]
Input File: 02. The Bastard.mp3
Channels : 2
Sample Rate : 44100
Precision : 16-bit
Duration : 00:03:11.00 = 8423100 samples = 14325 CDDA sectors
File Size : 7.86M
Bit Rate : 329k
Sample Encoding: MPEG audio (layer I, II or III)
Comments :
Title=The Bastard
Artist=Comorbidity
Album=Dead, Infected Everywhere
Tracknumber=2
Year=2021
Discnumber=1

[/more]

Register
(4) caro, Marek, Taakeferd, wanderer73,
Yesterday, 09:24:18 Existence:void - Anatman (2021)


*Artist: Existence:void
*Album: Anatman
*Year: 2021
*Genre: Black/Death Metal
*Country: Portugal
*Format: mp3@CBR320kbps
*Size: 86MB

Tracklist:
01. Tome of Void
02. Eternal Recurrence
03. Paragons of Fury
04. Sword of the Overman
05. Old Saint
06. Resplendent Sun
07. Metamorphosis of Man
******************************
Total playing time: 36:37





[more=Technical info]
Input File: 02. Eternal Recurrence.mp3
Channels : 2
Sample Rate : 44100
Precision : 16-bit
Duration : 00:06:45.00 = 17860500 samples = 30375 CDDA sectors
File Size : 16.3M
Bit Rate : 322k
Sample Encoding: MPEG audio (layer I, II or III)
Comments :
Title=Eternal Recurrence
Artist=Existence:Void
Album=Anatman
Tracknumber=2
Year=2021
Discnumber=1

[/more]

Register
(11) AlexSmith, caro, Marek, metala, Sanctus, Taakeferd, vasiljev_sergej, Velmi, vov7609, wanderer73, yuratroll,
Jul 29 2021, 12:35:39 Praise The Plague - The Obsidian Gate (2021)


*Artist: Praise The Plague
*Album: The Obsidian Gate
*Year: 2021
*Genre: Blackened Doom/Sludge Metal
*Country: Germany
*Format: mp3@CBR320kbps
*Size: 100MB

Tracklist:
1. The Descent 07:31
2. Blackening Swarm II 05:22
3. Great Collapse 09:04
4. The Obsidian Gate 04:27
5. Beyond 08:14
6. The Ascent 09:16
******************************
Total playing time: 43:54





[more=Extended info]Benjamin Linz Bass
See also: Ånd
Sascha Bühl Drums
Robert Carmosin Vocals
Marcel Martin Guitars (2017-present)
See also: ex-Earth Ship, ex-Impure, ex-Aschera
Chris Guitars (2020-present)[/more]

[more=Technical info]
Input File: 02 - Blackening Swarm II.mp3
Channels : 2
Sample Rate : 44100
Precision : 16-bit
Duration : 00:05:22.32 = 14214268 samples = 24173.9 CDDA sectors
File Size : 12.9M
Bit Rate : 320k
Sample Encoding: MPEG audio (layer I, II or III)
Comments :
Title=Blackening Swarm II
Artist=Praise the Plague
Album=The Obsidian Gate
Tracknumber=2
Year=2021

[/more]

Register
(7) caro, gena, KVRT, metala, SatanicPanzer, supremo, vasiljev_sergej,
Jul 29 2021, 12:22:44 Axel Rudi Pell - Diamonds Unlocked Ii (2021)


*Artist: Axel Rudi Pell
*Album: Diamonds Unlocked Ii
*Year: 2021
*Genre: Heavy Metal
*Country: Germany
*Format: mp3@CBR320kbps
*Size: 121MB

Tracklist:
1. Der schwarze Abt 02:03 instrumental
2. There’s Only One Way to Rock (Sammy Hagar cover) 04:26
3. Lady of the Lake (Rainbow cover) 05:17
4. She's a Lady (Paul Anka cover) 04:04
5. Room with a View (Tony Carey cover) 04:25
6. Black Cat Woman (Geordie cover) 04:12
7. Sarah (You Take My Breath Away) (Chris Norman cover) 04:51
8. Rock n’ Roll Queen (The Subways cover) 03:19
9. Paint It Black (The Rolling Stones cover) 06:03
10. I Put a Spell on You (Screamin' Jay Hawkins cover) 04:24
11. Eagle (Abba cover) 06:54
******************************
Total playing time: 49:58






[more=Extended info]Volker Krawczak Bass (1989-present)
See also: ex-The Dune, ex-Steeler, ex-Twilight
Axel Rudi Pell Guitars (1989-present)
See also: ex-Onkel Tom Angelripper, ex-Steeler, ex-X-Mas Project
Ferdy Doernberg Keyboards (1998-present)
See also: Rough Silk, ex-Roland Grapow, ex-Shock Machine, ex-Taraxacum, Sainted Sinners, ex-Dezperadoz, ex-Eden's Curse, ex-Freedom Call (live), ex-Therion (live), ex-Uli Roth (live)
Johnny Gioeli Vocals (1998-present)
See also: Eridan (live), Robert Rodrigo (live), ex-Accomplice, Crush 40, Gioeli/Castronovo, Hardline, ex-Brunette, ex-Frontiers All Stars, ex-Sons of Angels
Bobby Rondinelli Drums (2013-present)
See also: ex-Sun Red Sun, ex-Warlock, ex-Rondinelli, Over the Rainbow, Pyramid, Zebra (live), ex-Doro, ex-Quiet Riot, ex-Rainbow, ex-Riot V, ex-Black Sabbath, ex-Blue Öyster Cult, ex-The Dali Gaggers, ex-The Lizards, ex-The Sign, ex-Aerosmith (live), ex-Bonnie Tyler (live)[/more]

[more=Technical info]
Input File: 02 - There\'s Only One Way to Rock.mp3
Channels : 2
Sample Rate : 44100
Precision : 16-bit
Duration : 00:04:26.00 = 11730600 samples = 19950 CDDA sectors
File Size : 10.8M
Bit Rate : 326k
Sample Encoding: MPEG audio (layer I, II or III)
Comments :
Title=There's Only One Way To Rock
Artist=Axel Rudi Pell
Album=Diamonds Unlocked Ii
Tracknumber=2
Year=2021-30-07
Discnumber=1

[/more]

Register
(15) after21allD, ALEXSATHANAS, Aresson, Brann, caro, finmetal, flamandez, gwar, Herrant, Marek, metalboll, multizwilling, Rhoads, smes, stone88,
Jul 29 2021, 12:15:57 Underdark - Our Bodies Burned Bright On Re​-​entry (2021)


*Artist: Underdark
*Album: Our Bodies Burned Bright On Re​-​entry
*Year: 2021
*Genre: Post-Black Metal
*Country: United Kingdom
*Format: mp3@CBR320kbps
*Size: 82MB

Tracklist:
1. Qeres
2. Our Bodies Burned Bright on Re​-​Entry
3. Coyotes
4. With Ashen Hands Around Our Throats
5. Skeleton Queen
******************************
Total playing time: 36:03




[more=Extended info]Stephen Bass
Dan Drums
Ollie Guitars
Adam Guitars
Abi Vocals (2019-present)
See also: ex-Yuri[/more]

[more=Technical info]
Input File: 02 - Our Bodies Burned Bright On Re-Entry.mp3
Channels : 2
Sample Rate : 44100
Precision : 16-bit
Duration : 00:08:35.22 = 22721114 samples = 38641.4 CDDA sectors
File Size : 20.6M
Bit Rate : 320k
Sample Encoding: MPEG audio (layer I, II or III)
Comments :
Title=Our Bodies Burned Bright On Re-Entry
Artist=Underdark
Album=Our Bodies Burned Bright on Re-Entry
Tracknumber=2
Year=2021

[/more]

Register
(8) AlexSmith, caro, gena, kim666, Ostinato, sludge666, supremo, vasiljev_sergej,
Jul 29 2021, 12:08:07 Tombstoner - Victims Of Vile Torture (2021)


*Artist: Tombstoner
*Album: Victims Of Vile Torture
*Year: 2021
*Genre: Death/Thrash Metal
*Country: United States
*Format: mp3@CBR320kbps
*Size: 95MB

Tracklist:
01. Victims of Vile Torture
02. Sledgehammer
03. Breaking Point
04. Fractured Souls
05. Grave Dancer
06. Nothing's Sacred
07. Frozen in Fear
08. Armageddon
09. The Witch
10. Trepidation
******************************
Total playing time: 41:40




[more=Technical info]
Input File: 02 - Sledgehammer.mp3
Channels : 2
Sample Rate : 44100
Precision : 16-bit
Duration : 00:03:16.90 = 8683202 samples = 14767.4 CDDA sectors
File Size : 7.88M
Bit Rate : 320k
Sample Encoding: MPEG audio (layer I, II or III)
Comments :
Title=Sledgehammer
Artist=Tombstoner
Album=Victims of Vile Torture
Tracknumber=2
Year=2021

[/more]

Register
(14) caro, chipsgott, coresh, jollo, madera, Marek, metala, multizwilling, Ostinato, sergsazan, sludge666, supremo, tim47, vyacheslav,
Jul 29 2021, 11:37:15 Anakim - The Elysian Void (2021)


*Artist: Anakim
*Album: The Elysian Void
*Year: 2021
*Genre: Death Metal
*Country: United Kingdom
*Format: mp3@CBR320kbps
*Size: 119MB

Tracklist:
1. Of Starlit Shrines
2. Infinite Realities
3. Casualties of an Ascendant War
4. The Auguries of Virgin Soil
5. Bearer of the Sacred Flame
6. Malformed Chthonic Dream
7. Veins of the Unlight
8. The Elysian Void
******************************
Total playing time: 52:03




[more=Extended info]Joe Ryan Guitars
See also: ex-In Fire Baptised
Carl Hunting Guitars
Ewan Ross Drums (2014-present)
See also: Basement Torture Killings, ex-Trifixion, ex-Guerrilla, ex-In Fire Baptised, ex-Sentenced to Suffer, ex-Eye of Solitude (live), ex-Zebadiah Crowe (live), ex-Black Skies Burn (live), ex-Abgott, ex-Viscera
Anthony Ridout Bass (2016-present)
See also: Basement Torture Killings, Imperium, ex-Cenotaph, ex-Karmyne, ex-Bloodshot Dawn
Matt Small Vocals (2018-present)
See also: The Drowning, Vile Inscription, ex-Mantikore, ex-Necrocest[/more]

[more=Technical info]
Input File: 02 - Infinite Realities.mp3
Channels : 2
Sample Rate : 44100
Precision : 16-bit
Duration : 00:06:25.49 = 16999977 samples = 28911.5 CDDA sectors
File Size : 15.4M
Bit Rate : 320k
Sample Encoding: MPEG audio (layer I, II or III)
Comments :
Title=Infinite Realities
Artist=Anakim
Album=The Elysian Void
Tracknumber=2
Year=2021

[/more]

Register
(9) andreikun, caro, cesar, jollo, metala, multizwilling, supremo, vyacheslav, yuratroll,
Jul 29 2021, 11:28:51 Graveslave - No Center (2021)


*Artist: Graveslave
*Album: No Center
*Year: 2021
*Genre: Death Metal
*Country: United States
*Format: mp3@CBR320kbps
*Size: 70MB

Tracklist:
1. The Depths 01:44
2. Divide/Divide 03:20
3. Bird in Hand 03:04
4. Spectral Procession 03:48
5. Of Indifference 02:02
6. No Center 05:30
7. Death, Become 03:46
8. In the Mouths of Giants 07:21
******************************
Total playing time: 30:35




[more=Extended info]Josh Burke Bass (2014-present)
See also: ex-Before They Fell, ex-Oklahoma Caddy Shack (live)
Ben Fagerness Drums (2014-present)
See also: Gloryhole Guillotine, ex-Keys of Solomon, ex-Astral Blood, ex-Jonnyallen, ex-Oklahoma Caddy Shack, ex-Rags to Ruin
Roman Johnson Guitars (2014-present)
See also: stAlkid, ex-Astral Blood (live), ex-Jonnyallen
Ashton George Vocals (2018-present)
See also: ex-Babble Mind, ex-Blue Water Dance, ex-Count Backwards from Ten, ex-I, The Sky, ex-Southpaw (USA)[/more]

[more=Technical info]
Input File: 02 - Divide_Divide.mp3
Channels : 2
Sample Rate : 44100
Precision : 16-bit
Duration : 00:03:20.09 = 8823793 samples = 15006.5 CDDA sectors
File Size : 8.01M
Bit Rate : 320k
Sample Encoding: MPEG audio (layer I, II or III)
Comments :
Title=Divide/Divide
Artist=Graveslave
Album=No Center
Tracknumber=2
Year=2021

[/more]

Register

Register
(7) andreikun, caro, jollo, Marek, multizwilling, supremo, vyacheslav,
Jul 29 2021, 10:25:37 Väkären - Ethereal (2021)


*Artist: Väkären
*Album: Ethereal
*Year: 2021
*Genre: Black Metal
*Country: Sweden
*Format: mp3@CBR320kbps
*Size: 99MB

Tracklist:
1. Presence... 01:14
2. Blood Wraiths 03:55
3. Spirits & Decay 03:38
4. Ethereal 02:27
5. Fractals 04:33
6. Atonement 03:56
7. Penumbral 03:02
8. Living Portals of Evernight 05:16
9. Dominion of Epitaphs 01:36
10. Your God Has Failed 05:17
11. Pale Apparition 04:42
12. The Last Nether 03:43
******************************
Total playing time: 43:19



[more=Extended info]Vörðr Drums
Vieras Guitars
Mithraeum Vocals
Forlorn Vocals (2018-present)
See also: Forlorn[/more]

[more=Technical info]
Input File: 02 - Blood Wraiths.mp3
Channels : 2
Sample Rate : 44100
Precision : 16-bit
Duration : 00:03:55.33 = 10377921 samples = 17649.5 CDDA sectors
File Size : 9.42M
Bit Rate : 320k
Sample Encoding: MPEG audio (layer I, II or III)
Comments :
Title=Blood Wraiths
Artist=Vakaren
Album=Ethereal
Tracknumber=2
Year=2021

[/more]

Register

Register
(13) AlexSmith, caro, kim666, Marek, nemx, Ostinato, sabr, smes, smysl, supremo, varlam4, vasiljev_sergej, vovenom,
Jul 17 2021, 18:14:31 Sabaton - Kingdom Come [single] (2021)


*Artist: Sabaton
*Album: Kingdom Come [single]
*Year: 2021
*Genre: Power Metal
*Country: Sweden
*Format: mp3@CBR320kbps
*Size: 13MB

Tracklist:
1. Kingdom Come (Manowar cover) 04:04
2. Metal Trilogy 04:18
******************************
Total playing time: 8:22





[more=Technical info]
Input File: 02 sabaton_metal_trilogy.mp3
Channels : 2
Sample Rate : 44100
Precision : 16-bit
Duration : 00:04:18.00 = 11377800 samples = 19350 CDDA sectors
File Size : 10.4M
Bit Rate : 323k
Sample Encoding: MPEG audio (layer I, II or III)
Comments :
Title=Metal Trilogy
Artist=Sabaton
Album=Kingdom Come
Tracknumber=2
Year=2021-07-16
Discnumber=1

[/more]

Register
(20) after21allD, Aresson, boby9052, caro, chipsgott, gwar, gwynnbleid, infiltrator, Kasper969, kluval, krotovich, noel666, Olethros, Reverend, Rover, SAPOGi, sergsazan, Taakeferd, Vranakrik, Сварог Барг,
Jul 17 2021, 18:04:18 Soul's Darkness - Humanity [ep] (2021)


*Artist: Soul's Darkness
*Album: Humanity [ep]
*Year: 2021
*Genre: Melodic Death Metal
*Country: South Africa
*Format: mp3@CBR320kbps
*Size: 47MB

Tracklist:
1. Humanity 04:37
2. Waste of Skin 04:14
3. Enter the Light 03:57
4. Don't Play With Fire 04:15
5. My Last Wish 03:16
******************************
Total playing time: 20:19




[more=Technical info]
Input File: Soul\'s Darkness - Humanity - 02 Waste of Skin.mp3
Channels : 2
Sample Rate : 44100
Precision : 16-bit
Duration : 00:04:14.19 = 11209559 samples = 19063.9 CDDA sectors
File Size : 10.2M
Bit Rate : 322k
Sample Encoding: MPEG audio (layer I, II or III)
Comments :
Title=Waste of Skin
Artist=Soul's Darkness
Album=Humanity
Tracknumber=2
Year=2021

[/more]

Register
(10) bOOLty, cacicandriera, caro, HMHamster, infiltrator, MCMLXXXIX, Olethros, TeamatSE, VALERY, zhol,
Jul 17 2021, 17:14:07 Inner Stream - Stain The Sea (2021)


*Artist: Inner Stream
*Album: Stain The Sea
*Year: 2021
*Genre: Symphonic Metal
*Country: Argentina
*Format: mp3@CBR320kbps
*Size: 91MB

Tracklist:
01. Massive Drain 03:12
02. Fair War 02:50
03. Hunt You 04:10
04. Aftermath 02:56
05. Dance with Shades 03:45
06. Drown Me 04:17
07. If You Dare 03:37
08. Stain the Sea 04:22
09. The Bridge 04:10
10. Last Drink 03:02
11. Real 03:26
******************************
Total playing time: 39:47






[more=Technical info]
Input File: 02. Fair War.mp3
Channels : 2
Sample Rate : 44100
Precision : 16-bit
Duration : 00:02:50.72 = 7528708 samples = 12803.9 CDDA sectors
File Size : 6.83M
Bit Rate : 320k
Sample Encoding: MPEG audio (layer I, II or III)
Comments :
Title=Fair War
Artist=Inner Stream
Album=Stain the Sea
Tracknumber=02/11
Year=2021-21-20
Discnumber=1/1

[/more]

Register
(10) ace73pq, Alpha_Prime, aviacademy, caro, Darkness, gwar, Herrant, infiltrator, Olethros, Сварог Барг,
Jul 12 2021, 11:22:25 Mythologyca - Corner Of Hell's Road (2021)


*Artist: Mythologyca
*Album: Corner Of Hell's Road
*Year: 2021
*Genre: Heavy Metal
*Country: Brazil
*Format: mp3@CBR320kbps
*Size: 97MB

Tracklist:
1. Mythologyca
2. Evil Polish Woman
3. Intergalactic Love
4. Dracula
5. Lady of Mysteries
6. The Call of the Wild
7. Cacique Guairaca
8. The Witch of Seven Seas
9. Candles
10. The Blues of Crows Crew
******************************
Total playing time: 42:25




[more=Extended info]Vika Viante Guitars (2017-present)
Giovanni Vicentin Keyboards (2017-present)
See also: DevilSin
Marco Bührer Vocals (2017-present)
See also: ex-Beltane
Felipe Franco Bass (2020-present)
See also: Tandra
Falcão Neto Drums (2020-present)
See also: Execrate, ex-Shadow Mask[/more]

[more=Technical info]
Input File: 02 - Evil Polish Woman.mp3
Channels : 2
Sample Rate : 44100
Precision : 16-bit
Duration : 00:05:20.62 = 14139386 samples = 24046.6 CDDA sectors
File Size : 12.8M
Bit Rate : 320k
Sample Encoding: MPEG audio (layer I, II or III)
Comments :
Title=Evil Polish Woman
Artist=Mythologyca
Album=Corner of Hell's Road
Tracknumber=2
Year=2021

[/more]

Register
(13) after21allD, AHBAnep, caro, cesar, gwar, Lukittaz, metala, Olethros, postal67, Rover, Taakeferd, vir2al, Сварог Барг,
Jul 12 2021, 10:23:24 Sallow Moth - Stasis Cocoon (2021)


*Artist: Sallow Moth
*Album: Stasis Cocoon
*Year: 2021
*Genre: Death Metal
*Country: United States
*Format: mp3@CBR320kbps
*Size: 75MB

Tracklist:
1. Chalice of the Void 03:06
2. Stasis Cocoon 03:45
3. Seal of Primordium 03:15
4. Fevered Visions 01:23
5. Phantasmal Sphere of the Shadowmage Infiltrator 07:14
6. Birthing Pod, Chaos Orb, Mindslaver 05:04
7. Drowner of Secrets, Bring to Light 07:42
******************************
Total playing time: 31:29





[more=Extended info]Garry Brents All instruments, Vocals (2016-present)
See also: Cara Neir, Gonemage, Thō, ex-Ghastrah Proxiima, ex-Parabstruse, ex-Semen Across Lips, Bunrage, They Mostly Come Out at Night, ex-Wildspeaker, ex-Lunarian Sea, ex-Nautilusk, ex-Smoosz, ex-Sugar Highlands, ex-Synthetic Onslaught, ex-Vision Éternel, ex-Writhe[/more]

[more=Technical info]
Input File: 02 Stasis Cocoon.mp3
Channels : 2
Sample Rate : 44100
Precision : 16-bit
Duration : 00:03:45.56 = 9947020 samples = 16916.7 CDDA sectors
File Size : 9.50M
Bit Rate : 337k
Sample Encoding: MPEG audio (layer I, II or III)
Comments :
Title=Stasis Cocoon
Artist=Sallow Moth
Album=Stasis Cocoon
Tracknumber=2
Year=2021
Genre=Metal
Discnumber=1

[/more]

Register
(20) AHBAnep, andreikun, bOOLty, BuckSatanII, caro, cesar, infiltrator, infozahist, jollo, madera, Marek, metala, older68, Olethros, Orgasmik, supremo, Taakeferd, Tino, VALERY, vyacheslav,
Jul 12 2021, 10:09:23 Deipnosophist - The Utopian (2021)


*Artist: Deipnosophist
*Album: The Utopian
*Year: 2021
*Genre: Melodic Death Metal
*Country: Guatemala
*Format: mp3@CBR320kbps
*Size: 73MB

Tracklist:
01. The Exordium
02. The Utopian
03. The Redeemer
04. The Awakening
05. The Insomniac
06. The Wanderer
07. The Blackened
08. The Aftermath
******************************
Total playing time: 30:52






[more=Technical info]
Input File: 02. The Utopian.mp3
Channels : 2
Sample Rate : 44100
Precision : 16-bit
Duration : 00:04:21.19 = 11518435 samples = 19589.2 CDDA sectors
File Size : 10.5M
Bit Rate : 323k
Sample Encoding: MPEG audio (layer I, II or III)
Comments :
Title=The Utopian
Artist=Deipnosophist
Album=The Utopian
Tracknumber=2
Year=2021
Discnumber=1

[/more]

Register
(5) GorAtheist, infiltrator, Marek, Olethros, sergsazan,
Jul 11 2021, 20:40:51 Fatal Rebirth - Fatal Rebirth (2021)


*Artist: Fatal Rebirth
*Album: Fatal Rebirth
*Year: 2021
*Genre: Melodic Death Metal
*Country: United States
*Format: mp3@CBR320kbps
*Size: 84MB

Tracklist:
1. Last Remnant 01:35
2. Reborn 06:45
3. Exiled 05:34
4. Khan 05:57
5. A Future So Bleak 05:31
6. Deja Dead 05:30
7. Wielder of the Scythe 05:08
******************************
Total playing time: 36:00




[more=Technical info]
Input File: Fatal Rebirth - Fatal Rebirth - 02 Reborn.mp3
Channels : 2
Sample Rate : 44100
Precision : 16-bit
Duration : 00:06:45.91 = 17900763 samples = 30443.5 CDDA sectors
File Size : 16.4M
Bit Rate : 323k
Sample Encoding: MPEG audio (layer I, II or III)
Comments :
Title=Reborn
Artist=Fatal Rebirth
Album=Fatal Rebirth
Tracknumber=2
Year=2021

[/more]

Register
(13) bOOLty, caro, DeathDragon, infiltrator, Lukittaz, Marek, Olethros, Taakeferd, TeamatSE, VALERY, wanderer73, wreak, zhol,
Jul 11 2021, 17:16:02 Night Crowned - Hädanfärd (2021)
- Prewiev of All Songs

Отличный альбом! Ожидания оправдались с полна. Добротная и качественная работа, которая однозначно в ТОР года.
(1) fateefffddd,
Jul 6 2021, 20:01:45 Demonomantic - Through The Path Of His Majesty (2021)
Надо поправить. Альбом 2017 года.
(1) Occultas,
Jul 2 2021, 12:18:58 Martorn - Martorn [ep] (2021)


*Artist: Martorn
*Album: Martorn [ep]
*Year: 2021
*Genre: Melodic Black Metal
*Country: International
*Format: flac
*Size: 162MB

Tracklist:
01. Overcome 04:16
02. Martorn Rising 03:48
03. Vattenfallets Brus 04:20
04. Hell of Fire 07:01
05. Awaken 05:27
******************************
Total playing time: 24:52




[more=Extended info]Vocals/Keys by Emma Michaelsen
Guitars/Bass by Art Bertik
Drums by Ben Durfee
Violin/String Section by Alyson Montez

Martorn is a Swedish-American Metal band.[/more]

Register
(6) kimkayoung, Marek, Olethros, sergsazan, vasiljev_sergej, wreak,
Jul 2 2021, 12:06:30 Stress Angel - Bursting Church (2021)


*Artist: Stress Angel
*Album: Bursting Church
*Year: 2021
*Genre: Blackened Death/Thrash Metal
*Country: United States
*Format: mp3@CBR320kbps
*Size: 98MB

Tracklist:
1. Flaming Kingdom 03:47
2. Bursting Church 03:19
3. Godless Shrill 03:45
4. Exposure to a Disease 02:44
5. Starving in a Closet 03:10
6. Life Alert 05:00
7. Providence 04:16
8. Angel of Stress 03:09
9. Mohel’s Kiss 04:28
10. Final Doom 02:54
11. The Human 04:50
******************************
Total playing time: 41:22





[more=Extended info]Manny Sores Drums, Percussion, Vocals
See also: Barrow Wight, Natur, ex-Occultation (live), ex-Cauchemar, ex-Antichrist (live), ex-Occvlta (live)
Nicolai Orifice FX, Guitars, Keyboards[/more]

[more=Technical info]
Input File: 02. Bursting Church.mp3
Channels : 2
Sample Rate : 44100
Precision : 16-bit
Duration : 00:03:19.41 = 8793805 samples = 14955.5 CDDA sectors
File Size : 7.98M
Bit Rate : 320k
Sample Encoding: MPEG audio (layer I, II or III)
Comments :
Title=Bursting Church
Artist=Stress Angel
Album=Bursting Church
Tracknumber=02
Year=2021

[/more]

Register
(17) AHBAnep, autumnwood, caro, cesar, chipsgott, Marek, metala, multizwilling, Olethros, Sabbathian, sergsazan, stumpheavyrock, supremo, varlam4, wanderer73, wgs73, wreak,
Jul 2 2021, 11:57:12 Zakula - Zakula (2021)


*Artist: Zakula
*Album: Zakula
*Year: 2021
*Genre: Death/Thrash Metal
*Country: Greece
*Format: mp3@CBR320kbps
*Size: 60MB

Tracklist:
1. Fractals
2. Hollow
3. Atmosfear
4. Vanity
5. Lunatic
6. Inertia
7. Gallows
******************************
Total playing time: 25:40




[more=Technical info]
Input File: Zakula - Zakula - 02 hollow.mp3
Channels : 2
Sample Rate : 44100
Precision : 16-bit
Duration : 00:05:04.16 = 13413456 samples = 22812 CDDA sectors
File Size : 12.3M
Bit Rate : 324k
Sample Encoding: MPEG audio (layer I, II or III)
Comments :
Title=hollow
Artist=Zakula
Album=Zakula
Tracknumber=2
Year=2021

[/more]

Register
(18) andreikun, boby9052, caro, chipsgott, denver, jollo, Marek, metala, Olethros, piwimetal, sergsazan, stumpheavyrock, supremo, TeamatSE, vyacheslav, wanderer73, wgs73, wreak,
Jul 2 2021, 11:47:26 Stone The Oracle - Extinction Imminent [ep] (2021)


*Artist: Stone The Oracle
*Album: Extinction Imminent [ep]
*Year: 2021
*Genre: Melodic/Technical Death Metal
*Country: United States
*Format: mp3@CBR320kbps
*Size: 46MB

Tracklist:
1. Extinction Imminent
2. Concrete Facelift
3. Of Bestial Purpose
4. Ethic Cleansing
5. Negotiable Reality
******************************
Total playing time: 16:07




[more=Technical info]
Input File: Stone the Oracle - Extinction Imminent - 02 Concrete Facelift.mp3
Channels : 2
Sample Rate : 44100
Precision : 16-bit
Duration : 00:03:14.78 = 8589754 samples = 14608.4 CDDA sectors
File Size : 7.94M
Bit Rate : 326k
Sample Encoding: MPEG audio (layer I, II or III)
Comments :
Title=Concrete Facelift
Artist=Stone the Oracle
Album=Extinction Imminent
Tracknumber=2
Year=2021

[/more]

Register
(9) caro, chipsgott, kimkayoung, Marek, Olethros, piwimetal, VALERY, wreak, zhol,
Jul 1 2021, 21:27:55 Diabolizer - Khalkedonian Death (2021)
Хорошая, добротная, смачная дезяра с хорошим звуком, не лишенная ноток мелодичности.
(1) Occultas,

196 Pages V   1 2 3 > » 
- Lo-Fi Version Support form
Copyrights and abuse reports form
Time is now: 31st July 2021 - 06:41:51