Welcome Guest ( Log In | Register )

История благодарностей участнику Andrew ::: Спасибо сказали: 23637 раз(а)
Дата поста: В теме: За сообщение: Спасибо сказали:
Yesterday, 12:47:47 Echidna - Escape From Civilization (2020)


*Artist: Echidna
*Album: Escape From Civilization
*Year: 2020
*Genre: Progressive Death/Thrash Metal
*Country: Greece
*Format: mp3@CBR320kbps
*Size: 115MB

Tracklist:
1. It Came from the Blue Sky 05:56
2. Age of Plastic 05:02
3. OrganiX 04:24
4. Yet No One Notices 06:40
5. Escape 06:01
6. Empire of Crime 07:10
7. Streams 05:01
8. Remains of a Journey 02:05 instrumental
9. Cordyceps 06:10
******************************
Total playing time: 48:29






[more=Extended info]Giannis Chionidis Drums (2004-present)
See also: Cubical Sphere, Deathcraeft, Transcending Bizarre?, ex-Incorporeal
Nikos Parastatidis Guitars (2004-present)
Panos Bouklis Guitars (2004-present)
See also: ex-Rex Mundi, ex-Koronzon
Theo Deligiannidis Vocals (2005-present)
Antonis Roditis Bass (2009-present)
See also: ex-Deceptive Incarnation[/more]

[more=Technical info]
Input File: 02. Age of Plastic.mp3
Channels : 2
Sample Rate : 44100
Precision : 16-bit
Duration : 00:05:03.01 = 13362917 samples = 22726 CDDA sectors
File Size : 12.1M
Bit Rate : 320k
Sample Encoding: MPEG audio (layer I, II or III)
Comments :
Artist=Echidna
Album=Escape from Civilization
Year=2020
Genre=Progressive Death

[/more]

Register
(2) metala, Olethros,
Jul 4 2020, 09:45:39 David Reece - Cacophony Of Souls (2020)


*Artist: David Reece
*Album: Cacophony Of Souls
*Year: 2020
*Genre: Hard'n'heavy
*Country: United States
*Format: mp3@CBR320kbps
*Size: 111MB

Tracklist:
1. Chasing the Shadows 03:44
2. Blood on Your Hands 03:17
3. Judgement Day 03:30
4. Collective Anaesthesia 05:22
5. Cacophony of Souls 03:57
6. Another Life Another Time 04:47
7. Metal Voice 03:27
8. Over and Over 03:46
9. Back in the Days 03:44
10. A Perfect World 05:07
11. Bleed 03:37
12. No Disguise 03:49
******************************
Total playing time: 48:07






[more=Extended info]David Reece Vocals
See also: Gypsy Rose, John Steel, ex-Sircle of Silence, Ez Livin', Reece-Kronlund, Sainted Sinners, ex-Accept, ex-Bonfire, ex-Malice, ex-PowerWorld, ex-Sacred Child, ex-Stream, ex-Bangalore Choir, ex-Dare Force, ex-Reece, ex-Tango Down

Line up:

Line-Up:
David Reece-voc.
Andy Susemihl-guitars
Malte Frederik Burkert-bass
Andrea Gianangeli-drums[/more]

[more=Technical info]
Input File: 02_david_reece_blood_on_your_hands.mp3
Channels : 2
Sample Rate : 44100
Precision : 16-bit
Duration : 00:03:16.82 = 8679762 samples = 14761.5 CDDA sectors
File Size : 8.02M
Bit Rate : 326k
Sample Encoding: MPEG audio (layer I, II or III)
Comments :
Title=Blood on Your Hands
Artist=Reece
Album=Cacophony of Souls
Tracknumber=2
Year=2020
Genre=Rock
Discnumber=1

[/more]

Register
(3) infiltrator, Lukittaz, Olethros,
Jul 4 2020, 09:34:59 Downhill Trend - New World Disorder (2020)


*Artist: Downhill Trend
*Album: New World Disorder
*Year: 2020
*Genre: Hard'n'heavy
*Country: United States
*Format: mp3@CBR320kbps
*Size: 83MB

Tracklist:
01. Take Your Turn 02:39
02. Drifter 03:13
03. Untrue 04:21
04. My Mistake 06:05
05. Pick Your Poison 03:45
06. Fragile 04:59
07. The Only Thing 03:11
08. Believe 03:39
09. Moment 04:03
10. Another Kick in the Face 03:06
******************************
Total playing time: 39:01





[more=Technical info]
Input File: 02_downhill_trend_drifter.mp3
Channels : 2
Sample Rate : 44100
Precision : 16-bit
Duration : 00:03:13.50 = 8533438 samples = 14512.6 CDDA sectors
File Size : 7.90M
Bit Rate : 327k
Sample Encoding: MPEG audio (layer I, II or III)
Comments :
Title=Drifter
Artist=Downhill Trend
Album=New World Disorder
Tracknumber=2/10
Year=2020
Genre=17
Discnumber=1/1

[/more]

Register
(3) infiltrator, Lukittaz, Olethros,
Jul 4 2020, 09:16:48 Wounded Cross - Our Future Is Dead (2020)


*Artist: Wounded Cross
*Album: Our Future Is Dead
*Year: 2020
*Genre: Hard'n'heavy
*Country: United Kingdom
*Format: mp3@CBR320kbps
*Size: 79MB

Tracklist:
1. Our Future Is Dead 01:47 instrumental
2. Shadowplay 03:15
3. Ascension 04:03
4. Ashes 05:20
5. Endless Battle 03:15
6. Tainted Legacy 05:16
7. Rough Spark 03:07
8. Sad Future 02:33
9. Cosmic Annihilation 05:53
******************************
Total playing time: 34:29





[more=Technical info]
Input File: 02_wounded_cross_shadowplay.mp3
Channels : 2
Sample Rate : 44100
Precision : 16-bit
Duration : 00:03:15.31 = 8612951 samples = 14647.9 CDDA sectors
File Size : 7.86M
Bit Rate : 322k
Sample Encoding: MPEG audio (layer I, II or III)
Comments :
Title=Shadowplay
Artist=Wounded Cross
Album=Our Future Is Dead
Tracknumber=2
Year=2020
Genre=Metal
Discnumber=1

[/more]

Register
(3) infiltrator, Lukittaz, Olethros,
Jul 4 2020, 09:01:52 Overtake The King - Justify (2020)


*Artist: Overtake The King
*Album: Justify
*Year: 2020
*Genre: Thrash Metal/Hardcore
*Country: United States
*Format: mp3@CBR320kbps
*Size: 91MB

Tracklist:
01. To the Throne 03:04
02. Eyes Condemned 04:55
03. Downfall 04:51
04. Panzram 04:52
05. Whipped 03:08
06. Thrash Test Dummie 04:07
07. Justify 06:16
08. Breaker 07:04
******************************
Total playing time: 38:17







[more=Technical info]
Input File: 2 - Eyes Condemned.mp3
Channels : 2
Sample Rate : 44100
Precision : 16-bit
Duration : 00:04:55.10 = 13013822 samples = 22132.4 CDDA sectors
File Size : 11.9M
Bit Rate : 322k
Sample Encoding: MPEG audio (layer I, II or III)
Comments :
Title=Eyes Condemned
Artist=Overtake The King
Album=Justify
Tracknumber=2
Year=2020
Genre=Metal
Discnumber=1

[/more]

Register
(8) boby9052, chipsgott, infiltrator, Lukittaz, Mares, metala, Olethros, sayfut,
Jul 4 2020, 08:55:23 Sevencrows - Deep Thoughts (2020)


*Artist: Sevencrows
*Album: Deep Thoughts
*Year: 2020
*Genre: Heavy/Power Metal
*Country: Brazil
*Format: mp3@CBR320kbps
*Size: 76MB

Tracklist:
01. Prelude to the Message 00:59
02. Deep Thoughts 04:02
03. Reflections of My Past 05:13
04. Karma 04:17
05. Coming for Blood 04:36
06. Beyond the Chaos 03:47
07. Say Goodbye to Your Soul 04:38
08. The Devil on the Cross 04:19
09. The Wrong Way 04:20
******************************
Total playing time: 36:11





[more=Extended info]Layan Souza Bass
Renan Lima Drums
See also: Forgotten Land
Wendel França Guitars
Lucas Souza Guitars
Hugo Borges Vocals
See also: Skulls on Fire[/more]

[more=Technical info]
Input File: 02_sevencrows_deep_thoughts.mp3
Channels : 2
Sample Rate : 44100
Precision : 16-bit
Duration : 00:04:02.33 = 10686665 samples = 18174.6 CDDA sectors
File Size : 9.80M
Bit Rate : 324k
Sample Encoding: MPEG audio (layer I, II or III)
Comments :
Title=Deep Thoughts
Artist=Sevencrows
Album=Deep Thoughts
Tracknumber=2/9
Year=2020
Genre=9
Discnumber=1/1

[/more]

Register
(15) ace73pq, aviacademy, Foneg, Herrant, HMHamster, infiltrator, Lukittaz, Mares, metala, Olethros, Olrak, Rover, senecazm, sergsazan, terron,
Jun 27 2020, 22:59:23 Silent Heaven - Temple Of Greed (2020)


*Artist: Silent Heaven
*Album: Temple Of Greed
*Year: 2020
*Genre: Progressive Power Metal
*Country: Brazil
*Format: mp3@CBR320kbps
*Size: 150MB

Tracklist:
01. Into the Silent Heaven (Intro) 01:35
02. Clouds of Fate 04:54
03. Temple of Greed 04:41
04. Dark Side of Love 05:42
05. Promised Land 06:25
06. Sorrow 05:34
07. Miracle of Life 05:48
08. Stay Away 05:10
09. Elderlyland 05:51
10. Push Me Down 05:35
11. Sonhador 06:04
12. Shadows Prevail 05:18
******************************
Total playing time: 1:02:37






[more=Technical info]
Input File: 02. Clouds of Fate.mp3
Channels : 2
Sample Rate : 44100
Precision : 16-bit
Duration : 00:04:53.87 = 12959667 samples = 22040.2 CDDA sectors
File Size : 11.9M
Bit Rate : 324k
Sample Encoding: MPEG audio (layer I, II or III)
Comments :
Title=Clouds of Fate
Artist=Silent Heaven
Album=Temple of Greed
Tracknumber=2/12
Year=2020
Genre=9
Discnumber=1/1

[/more]

Register
(16) ace73pq, aviacademy, boby9052, dimitriusk, Foneg, Herrant, infiltrator, Jorn777, Lukittaz, Mares, metala, Olethros, Predatorux, Rover, senecazm, Сварог Барг,
Jun 27 2020, 20:30:06 Shallow Waters - Bed Of Snakes (2020)


*Artist: Shallow Waters
*Album: Bed Of Snakes
*Year: 2020
*Genre: Melodic/Post-Black/Doom Metal
*Country: Spain
*Format: mp3@CBR320kbps
*Size: 112MB

Tracklist:
1. Approaching the Unknown 05:41
2. Blended in the Urn 06:43
3. The Tears I've Shed 05:35
4. Bed of Snakes 05:14
5. My Hidden Friend 05:46
6. Light the Pyre 04:10
7. Scars on Your Chest 04:56
8. Banished Endeavours 05:51
9. Outward Journey 05:25
******************************
Total playing time: 49:21





[more=Extended info]Tristán Iñiguez Guitars (2018-present)
See also: The Great Wound, ex-Darkness by Oath
Andrés Pestana Hidalgo Guitars, Vocals (clean) (2018-present)
See also: Demised
Pablo Egido Vocals (2018-present)
See also: The Holeum, ex-Nahemah[/more]

[more=Technical info]
Input File: 02 Blended In The Urn.mp3
Channels : 2
Sample Rate : 44100
Precision : 16-bit
Duration : 00:06:31.34 = 17258050 samples = 29350.4 CDDA sectors
File Size : 15.7M
Bit Rate : 320k
Sample Encoding: MPEG audio (layer I, II or III)
Comments :
Title=Blended In The Urn
Artist=SHALLOW WATERS

[/more]

Register
(31) ahp, Courbet, Geralder, HMHamster, infiltrator, isvili, judaz, karpenka, Korpse, kryuger, KVRT, libertine, Lukittaz, MeatWolf, metala, Olethros, Ostinato, Paradayz, ProstoPuh, randumbum, robertho777, SatanicPanzer, satanist666, senecazm, sergsazan, Shadechaser, singrad, VALERY, varlam4, vasiljev_sergej, yuratroll,
Jun 27 2020, 19:45:42 Dead Carnage - From Hell For Hate (2020)


*Artist: Dead Carnage
*Album: From Hell For Hate
*Year: 2020
*Genre: Death Metal
*Country: Czech Republic
*Format: mp3@CBR320kbps
*Size: 88MB

Tracklist:
1. Edges of Manipulation 04:02
2. We Are Slowly Dying (Devastation) 03:02
3. Caged Brutality 03:59
4. My Blood Is Black 03:58
5. God´s Lobotomy 03:21
6. Chapel of Decay 04:12
7. From Dust 05:01
8. The First Kill..., The Last Kill... 03:14
9. Eternal Void (Hierophant cover) 03:45
******************************
Total playing time: 34:34





[more=Extended info]Petr "Pedy" Šmukař Bass
See also: Antigod, Disfigured Corpse, ex-Euthanasia
Ferenc 777 Drums
See also: Antigod, Disfigured Corpse, ex-Disfigured
Milhaus Guitars (2013-present)
See also: ex-Bloody Obsession, ex-Disfigured Corpse, ex-G.O.R.E
Yabback Guitars (2015-present)
See also: Antigod
Bendík Vocals (2019-present)
See also: ex-Adultery, ex-Grope for Thesis, ex-Silva Nigra, ex-Rhea, ex-Vesna (live)[/more]

[more=Technical info]
Input File: 02. We Are Slowly Dying (Devastation).mp3
Channels : 2
Sample Rate : 44100
Precision : 16-bit
Duration : 00:03:02.19 = 8034623 samples = 13664.3 CDDA sectors
File Size : 8.01M
Bit Rate : 352k
Sample Encoding: MPEG audio (layer I, II or III)
Comments :
Title=We Are Slowly Dying (Devastation)
Artist=Dead Carnage
Album=From Hell for Hate
Tracknumber=2
Year=2020
Genre=Death Metal

[/more]

Register
(23) alikkon, andreikun, atavist, Bloodn Lord, cesar, djsema4, Foneg, Hell_Is_Here, infiltrator, jollo, Jorn777, judaz, killingod, multizwilling, Olethros, SadistikSlayer, satanist666, VALERY, vyacheslav, wn129aa, WX419, Герб, Луч,
Jun 27 2020, 19:30:53 Sinira - The Everlorn (2020)


*Artist: Sinira
*Album: The Everlorn
*Year: 2020
*Genre: Melodic Black Metal
*Country: United States
*Format: mp3@CBR320kbps
*Size: 133MB

Tracklist:
1. Where Starlight Does Not Shine 07:47
2. Gardens of Pestilence 08:21
3. The Everlorn 09:26
4. Souls of the Flame 01:48
5. Tear Ladened Skies 06:48
6. Our Final Nightfall 07:45
7. Dawnless Twilight 11:27
8. Omega XI 02:44
******************************
Total playing time: 56:06




[more=Extended info]Knell Guitars, Vocals, Bass (2016-present)[/more]

[more=Technical info]
Input File: 02. Gardens of Pestilence.mp3
Channels : 2
Sample Rate : 44100
Precision : 16-bit
Duration : 00:08:21.40 = 22111520 samples = 37604.6 CDDA sectors
File Size : 20.1M
Bit Rate : 320k
Sample Encoding: MPEG audio (layer I, II or III)
Comments :
Title=Gardens Of Pestilence
Artist=Sinira
Album=The Everlorn
Tracknumber=2
Year=2020
Genre=Black Metal

[/more]

Register
(47) 1968_janeart, alikkon, atavist, Bloodn Lord, BugEyes, demonosz, djsema4, exorcist1969, Geralder, Golodomor, grimoir, infernallord, infiltrator, Jorn777, kim666, kiol1, Kirya82, Korpse, laTERNentrager, Lukittaz, MadCarrot, Mares, metala, multizwilling, Narasimha, older68, oldvarg, Olethros, Ostinato, pahail, randumbum, robertho777, satanist666, senecazm, sergsazan, Shadechaser, SilentNidhogg, talismanFS, tormoz, VALERY, varlam4, vasiljev_sergej, Velmi, wolverine, zhol, Авел, Сварог Барг,
Jun 27 2020, 06:49:46 Isolated - Ungodly Abomination (2020)


*Artist: Isolated
*Album: Ungodly Abomination
*Year: 2020
*Genre: Melodic Death/Thrash Metal
*Country: Mexico
*Format: mp3@CBR320kbps
*Size: 99MB

Tracklist:
01. Devil's Mansion
02. Nuns of Evil
03. True Game Of Death
04. Cry of The Banshee
05. Dawn of The Dead
06. Ente Maligno
07. Ungodly Abomination
08. Tumba Tenebrosa
******************************
Total playing time: 40:10






[more=Extended info]I. Ishtar Guitars, Bass (2003-2015)
See also: Deformate, Dødsfall, Sorrowful, ex-Blodshämnd, ex-Engrave, ex-Eternal Negation, ex-Moonlight, ex-Sepulcro, ex-DoomDogs, ex-Forest of Doom, ex-Kvalvaag, ex-Satan, ex-Desolacion, ex-Serpent's Blood
Alfonso Sánchez Drums (2017-present)
See also: Evilforces, Majestic Downfall, Ticket to Hell, Umbrälia, ex-Sorrowful, ex-The Ill over Death, ex-Shemhamphorash
P. Garnica Vocals (2017-present)[/more]

[more=Technical info]
Input File: 02. Nuns of Evil.mp3
Channels : 2
Sample Rate : 44100
Precision : 16-bit
Duration : 00:05:00.32 = 13244244 samples = 22524.2 CDDA sectors
File Size : 12.5M
Bit Rate : 332k
Sample Encoding: MPEG audio (layer I, II or III)
Comments :
Title=Nuns of Evil
Artist=Isolated
Album=Ungodly Abomination
Tracknumber=02
Year=2020

[/more]

Register
(13) AHBAnep, atavist, boby9052, BugEyes, chipsgott, infiltrator, Lukittaz, metala, Olethros, Predatorux, sergsazan, VALERY, Wail,
Jun 26 2020, 21:24:56 Brujeria - Covid-666 [single] (2020)


*Artist: Brujeria
*Album: Covid-666 [single]
*Year: 2020
*Genre: Death Metal/Grindcore
*Country: International
*Format: mp3@CBR320kbps
*Size: 17MB

Tracklist:
1. COVID-666 03:21
2. Cocaina (Eric Clapton cover) 03:30
******************************
Total playing time: 6:51




[more=Extended info]Fantasma Bass, Vocals (backing) (1989-present), Drums (1989-1992)
See also: ex-Down by Law, ex-Foreign Object, ex-Indemnifier, ex-Nip Drivers, ex-Punk Rock Vatos, ex-Santa Sabbath, ex-Slowrider
Hongo Guitars, Bass (1989-present)
See also: Absolute Power, Bent Sea, Born to Murder the World, Hicks Kinison, Insidious Disease, Lock Up, Menace, Napalm Death, Tronos, Venomous Concept, War of the Second Dragon, ex-Azagthoth, ex-Intestinal Infestation, ex-Meathook Seed, ex-Unseen Terror, ex-Warhammer, Blood from the Soul, Dark Sky Burial, Mutation, ex-Liquid Graveyard, ex-Anaal Nathrakh (live), ex-Drop Dead, ex-Malformed Earthborn
Pinche Peach Samples, Vocals (backing) (1989-present)
See also: ex-Indemnifier
Juan Brujo Vocals (lead) (1989-present)
Hongo Jr. Drums (2003-2005, 2016-present)
See also: Ancient, Liquid Graveyard, Twilight of the Gods, Noctis Imperium (live), Nuclear Assault (live), ex-Monolith, ex-Catalepsy, Monstrance, United Forces, ex-Atrocity, ex-Cradle of Filth, ex-Dimmu Borgir, ex-Leaves' Eyes, ex-Lock Up, ex-Obskkvlt, ex-Old Man's Child, ex-Sadistic Intent, ex-Testament, ex-Anaal Nathrakh (live), ex-Anathema (live), ex-Benediction (live), ex-Borknagar (live), ex-Cancer (live), ex-Criminal (live), ex-Exodus (live), ex-Gorgoroth (live), ex-Nightrage (live), ex-Possessed (live), ex-Voices (live), ex-Cerebral Fix (live), ex-Driven by Suffering
El Sangrón Vocals (2015-present)
El Criminal Guitars (2016-present)
See also: Criminal, Lock Up, Pentagram Chile, Vampyromorpha (live), ex-Fallout, United Forces, ex-Inner Sanctvm, ex-Twilight of the Gods (live)[/more]

[more=Technical info]
Input File: 01 Covid-666.mp3
Channels : 2
Sample Rate : 44100
Precision : 16-bit
Duration : 00:03:22.02 = 8909038 samples = 15151.4 CDDA sectors
File Size : 8.70M
Bit Rate : 345k
Sample Encoding: MPEG audio (layer I, II or III)
Comments :
Title=Covid-666
Artist=Brujería
Album=Covid-666
Tracknumber=1/2
Year=2020-20-20
Genre=Death Metal
Discnumber=1/1

[/more]

Register
(32) AHBAnep, ALEXSATHANAS, andreikun, Aresson, bleeding, cancer1974, caro, cesar, chipsgott, DarkHorde, djsema4, EvilSpirit, gav-gafi, Hell_Is_Here, infiltrator, killingod, legion01, LightWizard, lldma, Lunaris, Lux, Mannard, martintrue, Olethros, Pinhead666, robertho777, satanist666, Styx, supremo, uk82, varlam4, vyacheslav,
Jun 26 2020, 21:04:09 Scraper - Hunger Within (2020)


Ритм-секция еще более менее, но вот вокал и манера исполнения 21.gif
(1) lldma,
Jun 26 2020, 18:55:14 Descend - The Deviant (2020)
Слишкооом уж подзатянуто. Первые 2 трека еще воспринимаются, а потом уже... Дебютная работа очень симпатишная у шведов: прогрессивный налет также присутствует, но сам сабж более динамичный и нет сопливости-тягомотины, что для мелодеза ну совсем как не айс!
(1) скептик,
Jun 26 2020, 18:50:13 Drops Of Heart - Stargazers (2020)
Как по мне - так Melodic Death Metal здесь определение абсолютно лишнее.
(1) krotovich,
Jun 26 2020, 18:39:45 Velkhanos - The Wrath (2020)


Слабовато...
(1) lldma,
Jun 22 2020, 18:05:53 Biff Byford - School Of Hard Knocks (2020)


*Artist: Biff Byford
*Album: School Of Hard Knocks
*Year: 2020
*Genre: Hard'n'heavy
*Country: United Kingdom
*Format: mp3@CBR320kbps
*Size: 119MB

Tracklist:
1. Welcome to the Show 05:22
2. School of Hard Knocks 04:21
3. Inquisitor 01:26
4. The Pit and the Pendulum 07:18
5. Worlds Collide 04:38
6. Scarborough Fair 05:08
7. Pedal to the Metal 03:40
8. Hearts of Steel 03:25
9. Throw Down the Sword (Wishbone Ash cover) 07:02
10. Me and You 04:17
11. Black and White 05:18
******************************
Total playing time: 51:55






[more=Extended info]Christian Lundqvist Drums
See also: ex-R.A.W., ex-The Poodles
Fredrik Åkesson Guitars
See also: Opeth, ex-Southpaw, ex-Krux, John Norum, ex-Arch Enemy, ex-Shock Tilt, ex-Tiamat (live), ex-Sabbtail, ex-Monsters of Metal, ex-Talisman
Biff Byford Vocals (2018-present)
See also: Saxon, The Scintilla Project, ex-Son of a Bitch, ex-Coast, ex-Jumble Lane
Gus Macricostas Bass (2019-present)
See also: Future Shock (UK), Metalworks, ex-Battleroar, ex-Casus Belli, ex-Spitfire, ex-Saxon (live), ex-Achilla, ex-Hi-on Maiden[/more]

[more=Technical info]
Input File: 02_biff_byford_school_of_hard_knocks.mp3
Channels : 2
Sample Rate : 44100
Precision : 16-bit
Duration : 00:04:21.09 = 11513849 samples = 19581.4 CDDA sectors
File Size : 10.6M
Bit Rate : 324k
Sample Encoding: MPEG audio (layer I, II or III)
Comments :
Title=School of Hard Knocks
Artist=Biff Byford
Album=School of Hard Knocks
Tracknumber=2
Year=2020
Genre=Rock/Metal
Discnumber=1

[/more]

Register
(23) ace73pq, AHBAnep, BladeOvDarkness, Bzth, canadaspaceman, cesar, grimoir, gwar, infiltrator, Ludwig Hagen, Lukittaz, Mares, metala, nospeedlimit, oldvarg, Olethros, Paradayz, refleks22, senecazm, smes, terron, varlam4, Сварог Барг,
Jun 22 2020, 17:00:44 Before You Sleep - Grave (2020)


*Artist: Before You Sleep
*Album: Grave
*Year: 2020
*Genre: Gothic/Modern Heavy Metal
*Country: Russian Federation
*Format: mp3@CBR320kbps
*Size: 83MB

Tracklist:
01. Open Your Heart And Soul To The Lord
02. Game Over
03. Mirrors
04. Do You Believe
05. Blin (Dead) Hate
06. I Just Want To Be Myself
07. Heavy Rain
08. Fear Of God
09. Cybernate (Dedicated To Mr.Reeves)
10. End Or Not
11. Game Over (acoustic)
******************************
Total playing time: 36:22




[more=Technical info]
Input File: 02 - Game Over.mp3
Channels : 2
Sample Rate : 44100
Precision : 16-bit
Duration : 00:03:20.58 = 8845534 samples = 15043.4 CDDA sectors
File Size : 8.02M
Bit Rate : 320k
Sample Encoding: MPEG audio (layer I, II or III)
Comments :
Title=Game Over
Artist=Before You Sleep
Album=Grave
Tracknumber=02
Year=2020
Genre=alternative metal

[/more]

Register
(12) Cartman223, chipsgott, csgmnk, infiltrator, Lukittaz, metala, Olethros, refleks22, Rover, senecazm, varlam4, Сварог Барг,
Jun 22 2020, 16:46:06 Stench Of Profit - No Place To Hide (2020)


*Artist: Stench Of Profit
*Album: No Place To Hide
*Year: 2020
*Genre: Grindcore/Death Metal
*Country: Italy
*Format: mp3@CBR320kbps
*Size: 89MB

Tracklist:
1. The Lake of Void 01:22
2. Earth Is Bleeding 01:45
3. Permanent Cracks 01:59
4. Has Countdown Started 01:20
5. What's Left 2.0 01:37
6. Ruins 01:57
7. Controlled, Manouvered 01:27
8. From Who, for What 02:10
9. There Won't Be a Place to Hide 02:58
10. Hate for Our Counterparts 02:11
11. Nothing Is Scarier Than the Unknown 02:36
12. Called Hate... 02:16
13. Aware 00:25
14. Without Looking at the Past 02:14
15. Leaches 2.0 01:41
16. Every Little Piece 2.0 01:55
17. Brains on Scale 2.0 01:11
18. In the End What Will Be There Beside a Cry 00:34
19. You Won't Be Able to Hide Anymore 02:10
20. No Sun Tomorrow 02:04
******************************
Total playing time: 35:52






[more=Extended info]Maurizio Drum programming (2014-2016), Vocals (2014-present)
See also: Pit of Toxic Slime, ex-Snuff Movies After Dinner, Insane Assholes, Mano Armata Grind Congrega, ex-Wargore
Lory Guitars, Vocals (2014-present)
See also: Psychotomy, ex-Deus Irae, Gore Suicide, The Gang Bang Theory
Giovanni Drums (2016-present)
See also: Corporal Raid, Mindful of Pripyat, Riexhumation, ex-Into Darkness (live), ex-Doms[/more]

[more=Technical info]
Input File: 02. Earth Is Bleeding.mp3
Channels : 2
Sample Rate : 44100
Precision : 16-bit
Duration : 00:01:45.78 = 4664810 samples = 7933.35 CDDA sectors
File Size : 4.47M
Bit Rate : 338k
Sample Encoding: MPEG audio (layer I, II or III)
Comments :
Title=Earth Is Bleeding
Artist=Stench of Profit
Album=No Place to Hide
Tracknumber=2/20
Year=2020
Discnumber=1/1

[/more]

Register
(4) cesar, infiltrator, Olethros, satanist666,
Jun 22 2020, 16:36:58 Matarte - Sangra Maldad Eterna (2020)


*Artist: Matarte
*Album: Sangra Maldad Eterna
*Year: 2020
*Genre: Black/Death Metal
*Country: Argentina
*Format: mp3@CBR320kbps
*Size: 85MB

Tracklist:
1. Dioses muertos 03:42
2. Serpenta sathana 04:19
3. Vocare pulvere 03:49
4. Sacrificio infernal 03:23
5. Maledicto maleficvm 03:16
6. Lupus in fabula 03:24
7. Mártires 03:36
8. Funeral nocturno 03:29
9. Sacromacabro 03:20
10. Dimon divor 03:55
******************************
Total playing time: 36:13





[more=Extended info]Jonathan Bazan Bass, Guitars
See also: Ogrux
Luján Dursi Drums
Ulises Kaliléc Vocals
See also: Ogrux[/more]

[more=Technical info]
Input File: 02. Serpenta Sathana.mp3
Channels : 2
Sample Rate : 44100
Precision : 16-bit
Duration : 00:04:19.56 = 11446596 samples = 19467 CDDA sectors
File Size : 10.4M
Bit Rate : 320k
Sample Encoding: MPEG audio (layer I, II or III)
Comments :
Artist=Matarte
Album=Sangra Maldad Eterna
Year=2020

[/more]

Register
(10) AlexSmith, atavist, Bzth, infiltrator, killingod, Olethros, randumbum, SilentNidhogg, VALERY, vasiljev_sergej,
Jun 22 2020, 07:27:46 Degragore - Demonic Obsession (2020)


*Artist: Degragore
*Album: Demonic Obsession
*Year: 2020
*Genre: Brutal Death Metal
*Country: Hungary
*Format: mp3@CBR320kbps
*Size: 122MB

Tracklist:
01. Intro
02. Godtan
03. Black Devotions
04. Samhain
05. Instinct
06. Cold Blade
07. Dominus Mortis
08. Nem En Kialtok (Jozsef Attila Cover)
09. Babajaga
10. My Kingdom
******************************
Total playing time: 51:10




[more=Extended info]Tøth Jøzsef Everything (2016-2017), All instruments (2017-present)
See also: Dipylidium Caninum, Liquid Cemetery, Nekrofília
Csaba Køcsis Drums (2019-present)
Sütő Gábor Vocals (2019-present)
See also: King Furia
Gábor Várkonyi Bass (2020-present)[/more]

[more=Technical info]
Input File: 02. Godtan.mp3
Channels : 2
Sample Rate : 44100
Precision : 16-bit
Duration : 00:04:02.09 = 10676301 samples = 18157 CDDA sectors
File Size : 9.84M
Bit Rate : 325k
Sample Encoding: MPEG audio (layer I, II or III)
Comments :
Title=Godtan
Artist=Degragore
Album=Demonic Obsession
Tracknumber=2
Year=2020

[/more]

Register
(17) andreikun, atavist, cesar, chipsgott, Hell_Is_Here, Indamage, infiltrator, jollo, killingod, maochen, metala, Olethros, samokot, satanist666, Storky, supremo, vyacheslav,
Jun 22 2020, 07:14:58 Dim Dust - Valley Of Deception (2020)


*Artist: Dim Dust
*Album: Valley Of Deception
*Year: 2020
*Genre: Atmospheric/Funeral Doom Metal
*Country: Greece
*Format: mp3@CBR320kbps
*Size: 100MB

Tracklist:
1. Requiem 11:00 instrumental
2. Extinct 05:49 instrumental
3. The End 05:51 instrumental
4. Valley of Deception 06:13 instrumental
5. Sealed Gravestone 07:20 instrumental
6. Black Fog 06:41 instrumental
******************************
Total playing time: 42:54




[more=Extended info]INSTRUMENTAL ALBUM!

Maria Brkc All instruments
See also: End of Dawn, Moonscar[/more]

[more=Technical info]
Input File: 02 Extinct.mp3
Channels : 2
Sample Rate : 44100
Precision : 16-bit
Duration : 00:05:49.33 = 15405365 samples = 26199.6 CDDA sectors
File Size : 14.0M
Bit Rate : 321k
Sample Encoding: MPEG audio (layer I, II or III)
Comments :
Title=Extinct
Artist=Dim Dust
Album=Valley of Deception
Tracknumber=2
Year=2020

[/more]

Register
(17) cesar, Ellaya, Hell_Is_Here, infiltrator, karpenka, KVRT, libertine, metala, Olethros, randumbum, robertho777, Shadechaser, supremo, suseka, VALERY, woldemort, Wolftribes,
Jun 22 2020, 07:06:33 Demone - L'eone Finale (2020)


*Artist: Demone
*Album: L'eone Finale
*Year: 2020
*Genre: Black/Death Metal
*Country: Italy
*Format: mp3@CBR320kbps
*Size: 120MB

Tracklist:
1. Sagitarius-A 04:48 instrumental
2. La via sinistra 04:11
3. Coitus diabolicus 07:31
4. L'eone finale 08:19
5. Io, Demone 06:06
6. Blasfetamina 03:12 instrumental
7. Annientamento perpetuo 05:43
8. Una notte che anche dio volle dimenticare 05:48
9. Tramonto bellico 06:54
******************************
Total playing time: 52:32





[more=Extended info]Christian Cilea All instruments, Vocals[/more]

[more=Technical info]
Input File: 02 - La via sinistra.mp3
Channels : 2
Sample Rate : 44100
Precision : 16-bit
Duration : 00:04:11.42 = 11087578 samples = 18856.4 CDDA sectors
File Size : 10.2M
Bit Rate : 325k
Sample Encoding: MPEG audio (layer I, II or III)
Comments :
Title=La via sinistra
Artist=Demone
Album=L'eone finale
Tracknumber=2
Year=2020

[/more]

Register
(13) atavist, cesar, fuoco, infiltrator, infozahist, killingod, Olethros, randumbum, SilentNidhogg, thenecromancer, VALERY, varlam4, vasiljev_sergej,
Jun 21 2020, 15:51:51 Medicated - Descension (2020)


ЦИТАТА(sadmannn @ Jun 17 2020, 23:21:43) *
Довольно свежо звучит, по сравнению со старыми их ИПихами


Может звучит и свежо, но уж слишком модняво, а вот старенький материал как раз мелодез без модерна!
(1) fateefffddd,
Jun 21 2020, 15:06:19 Denken - Reencarnacion (2020)


*Artist: Denken
*Album: Reencarnacion
*Year: 2020
*Genre: Progressive Death Metal/Metalcore
*Country: Mexico
*Format: mp3@CBR320kbps
*Size: 91MB

Tracklist:
1. Ascension
2. Insanity
3. Adamantium
4. Tiempo
5. Explotar
6. Demencia
7. Reencarnacion
8. Deception
9. Mente al Limite
10. Nom (Nuevo Orden Mundial)
******************************
Total playing time: 39:35






[more=Technical info]
Input File: 02 - Insanity.mp3
Channels : 2
Sample Rate : 44100
Precision : 16-bit
Duration : 00:03:31.58 = 9330678 samples = 15868.5 CDDA sectors
File Size : 8.60M
Bit Rate : 325k
Sample Encoding: MPEG audio (layer I, II or III)
Comments :
Title=Insanity
Artist=Denken
Album=Reencarnación
Tracknumber=2
Year=2020

[/more]

Register
(5) chipsgott, infiltrator, Lukittaz, Olethros, VALERY,

175 Pages V   1 2 3 > » 
- Lo-Fi Version Support form
Copyrights and abuse reports form
Time is now: 9th July 2020 - 05:42:31