Welcome Guest ( Log In | Register )

История благодарностей участнику Andrew ::: Спасибо сказали: 21313 раз(а)
Дата поста: В теме: За сообщение: Спасибо сказали:
Mar 31 2020, 19:53:19 Nightwish - Hvman. :||: Natvre. (2020)
...Раньше очень уважительно относился к команде. Но, после альбома Once - считаю последним значимым альбомом, потом лишь отдельными треками. Какие же шикарные альбомы Oceanborn и Wishmaster, на которых был слышен свой почерк, индивидуальность. А потом уже все слабее и слабее...Наверное уже просто-напросто исписАлись. Да и с уходом Тарьи уже как то не то
(4) Alexis The Best, Glioma, infiltrator, Olrak,
Mar 31 2020, 19:42:52 Hate Disposal - Legacy [ep] (2020)


*Artist: Hate Disposal
*Album: Legacy [ep]
*Year: 2020
*Genre: Death Metal
*Country: Portugal
*Format: mp3@CBR320kbps
*Size: 49MB

Tracklist:
1. Disposable Creatures 05:27
2. Cancer 03:29
3. The Cursed Hour 04:46
4. Dark Flow 03:59
5. The Endless Struggle 03:25
******************************
Total playing time: 21:06





[more=Extended info]Luís Ferreira Guitars (lead)
Emanuel Almeida Drums (2013-present)
Pedro "Slaughter" Marques Bass (2019-present)
See also: Echoes of the Fallen Messiah, Revage, ex-PanzerFrost, ex-Fried Chicken Gasoline
David Matos Vocals (2019-present)[/more]

[more=Technical info]
Input File: 02_hate_disposal_cancer.mp3
Channels : 2
Sample Rate : 44100
Precision : 16-bit
Duration : 00:03:29.62 = 9244286 samples = 15721.6 CDDA sectors
File Size : 8.54M
Bit Rate : 326k
Sample Encoding: MPEG audio (layer I, II or III)
Comments :
Title=Cancer
Artist=Hate Disposal
Album=Legacy
Tracknumber=2
Year=2020
Genre=22

[/more]

Register
(13) cesar, chipsgott, Corpuscul, Deada, infiltrator, morbidangelo, Olethros, satanist666, scorpionmk, TeamatSE, terron, VALERY, wanderer73,
Mar 30 2020, 11:30:49 Fallacy - Wastelander [ep] (2020)


*Artist: Fallacy
*Album: Wastelander [ep]
*Year: 2020
*Genre: Death/Thrash Metal
*Country: United States
*Format: mp3@CBR320kbps
*Size: 21MB

Tracklist:
1. Witness 04:11
2. Knowledge of Nothing 04:31
******************************
Total playing time: 8:42




[more=Technical info]
Input File: Fallacy - Wastelander - 01 Witness.mp3
Channels : 2
Sample Rate : 44100
Precision : 16-bit
Duration : 00:04:11.68 = 11098956 samples = 18875.8 CDDA sectors
File Size : 10.2M
Bit Rate : 326k
Sample Encoding: MPEG audio (layer I, II or III)
Comments :
Title=Witness
Artist=Fallacy
Album=Wastelander
Tracknumber=1
Year=2020

[/more]

Register
(6) boby9052, infiltrator, METALHUNTER, morbidangelo, Olethros, stumpheavyrock,
Mar 30 2020, 11:19:37 Lutharö - Wings Of Agony [ep] (2020)
Очень понравился материал. Понятно, что калька со многих команд, но кое-что привнесено и свое. Во всяком случае звучит живо и интересно!
(2) infiltrator, Olrak,
Mar 30 2020, 08:08:20 From Hell - Rats And Ravens (2020)


*Artist: From Hell
*Album: Rats And Ravens
*Year: 2020
*Genre: Thrash/Death Metal
*Country: United States
*Format: mp3@CBR128kbps
*Size: 51MB

Tracklist:
1. Dark Heart 00:54
2. They Come at Night 05:49
3. Lilium 04:16
4. The Witch 05:50
5. Don't Cry for Help 05:43
6. Three and Nine 05:29
7. Forest of the Screaming Trees 05:49
8. Room for One 05:38
9. Body Rats 08:42
10. Am I Dead 06:56
******************************
Total playing time: 55:06





[more=Technical info]
Input File: 02_from_hell_they_come_at_night.mp3
Channels : 2
Sample Rate : 44100
Precision : 16-bit
Duration : 00:05:49.14 = 15397118 samples = 26185.6 CDDA sectors
File Size : 5.70M
Bit Rate : 131k
Sample Encoding: MPEG audio (layer I, II or III)
Comments :
Title=They Come At Night
Artist=FROM HELL
Album=Rats And Ravens
Tracknumber=2/10
Year=2020

[/more]

Register
(10) boby9052, Foneg, infiltrator, infozahist, jollo, metala, morbidangelo, Olethros, sergsazan, Volk11911,
Mar 29 2020, 20:19:37 Lutharö - Wings Of Agony [ep] (2020)


*Artist: Lutharö
*Album: Wings Of Agony [ep]
*Year: 2020
*Genre: Heavy/Thrash/Melodic Death Metal
*Country: Canada
*Format: mp3@CBR320kbps
*Size: 63MB

Tracklist:
1. Barren 05:21
2. Diamond Back 04:31
3. Blood Lightning 04:41
4. Will to Survive 05:09
5. Wings of Agony 06:02
******************************
Total playing time: 25:44





[more=Technical info]
Input File: 02_lutharo_diamond_back.mp3
Channels : 2
Sample Rate : 44100
Precision : 16-bit
Duration : 00:00:00.27 = 11951 samples = 20.3248 CDDA sectors
File Size : 11.8M
Bit Rate : 349M
Sample Encoding: MPEG audio (layer I, II or III)
Comments :
Title=Diamond Back
Artist=Lutharo
Album=Wings of Agony
Tracknumber=2/5
Year=2020
Genre=Alternative
Discnumber=1/1

[/more]

Register
(11) boby9052, BugEyes, infiltrator, kimkayoung, oldvarg, Olethros, Olrak, sadmannn, sergsazan, zerger, zhol,
Mar 29 2020, 19:51:51 Pearl Jam - Gigaton (2020)


*Artist: Pearl Jam
*Album: Gigaton
*Year: 2020
*Genre: Alternative Rock/Grunge
*Country: United States
*Format: mp3@CBR320kbps
*Size: 131MB

Tracklist:
01. Who ever said 05:11
02. Superblood wolfmoon 03:50
03. Dance of the clairvoyants 04:25
04. Quick escape 04:47
05. Alright 03:44
06. Seven o'clock 06:14
07. Never destination 04:19
08. Take the long way 03:41
09. Buckle up 03:39
10. Comes then goes 06:02
11. Retrograde 05:23
12. River cross 05:54
******************************
Total playing time: 57:09





[more=Technical info]
Input File: 02 - Superblood Wolfmoon.mp3
Channels : 2
Sample Rate : 44100
Precision : 16-bit
Duration : 00:03:49.55 = 10123287 samples = 17216.5 CDDA sectors
File Size : 9.18M
Bit Rate : 320k
Sample Encoding: MPEG audio (layer I, II or III)
Comments :
Title=Superblood Wolfmoon
Artist=Pearl Jam
Album=Gigaton
Tracknumber=02/12
Year=2020
Genre=Rock
Discnumber=1/1

[/more]

Register
(7) 666days, gwar, infiltrator, marilin, StoneTemple, thenecromancer, VALERY,
Mar 29 2020, 19:34:32 Dark Ember - Behind Oddities [ep] (2020)


*Artist: Dark Ember
*Album: Behind Oddities [ep]
*Year: 2020
*Genre: Melodic Death Metal
*Country: Argentina
*Format: mp3@CBR320kbps
*Size: 35MB

Tracklist:
01. Behind Oddities
02. Disconnected Mind
03. You Are Mine
******************************
Total playing time: 12:56





[more=Technical info]
Input File: 01.Dark Ember - Behind Oddities EP - Behind Oddities.mp3
Channels : 2
Sample Rate : 44100
Precision : 16-bit
Duration : 00:04:35.03 = 12128911 samples = 20627.4 CDDA sectors
File Size : 11.0M
Bit Rate : 320k
Sample Encoding: MPEG audio (layer I, II or III)

[/more]

Register
(6) BugEyes, djsema4, infiltrator, satanist666, sergsazan, VALERY,
Mar 29 2020, 17:34:18 Мастер - Мастер Времени (2020)
ЦИТАТА(lafuma @ Mar 29 2020, 18:48:19) *
По инерции ждешь что нибудь в духе первых двух альбомов

Не, ну этого не может быть априори!

ЦИТАТА(RUSP73 @ Mar 29 2020, 18:35:24) *
А то трек на трубе никакой...

Прослушал с большим трудом три трека и понял, что это просто жалкая попытка нарулить песню, не более.
Как можно такое записывать и издавать, не говоря уже о том, чтобы слушать подобное УГ.
(2) fateefffddd, infiltrator,
Mar 29 2020, 17:00:01 Razgate - After The Storm...The Fire (2020)


*Artist: Razgate
*Album: After The Storm...The Fire
*Year: 2020
*Genre: Thrash/Speed Metal
*Country: Italy
*Format: mp3@CBR128kbps
*Size: 36MB

Tracklist:
1. Lacrimosa Dies
2. Rising Death
3. Broken by Fire
4. After the Storm
5. Grinding Metal
6. Shredding Praise
7. Behind the Walls of Terror
8. To the Rope!
9. Bloodshed & Deliverance
10. Crucify (The Master Deceiver)
******************************
Total playing time: 38:31





[more=Technical info]
Input File: 02_razgate_rising_death.mp3
Channels : 2
Sample Rate : 44100
Precision : 16-bit
Duration : 00:03:56.10 = 10411922 samples = 17707.4 CDDA sectors
File Size : 3.85M
Bit Rate : 131k
Sample Encoding: MPEG audio (layer I, II or III)
Comments :
Title=Rising Death
Artist=Razgate
Album=After The Storm...The Fire
Tracknumber=2/10
Year=2020

[/more]

Register
(6) boby9052, infiltrator, infozahist, marilin, Olethros, Wail,
Mar 29 2020, 16:40:43 Firewind - Rising Fire [single] (2020)


*Artist: Firewind
*Album: Rising Fire [single]
*Year: 2020
*Genre: Heavy/Power Metal
*Country: Greece
*Format: mp3@CBR320kbps
*Size: 7MB

Tracklist:
1. Rising Fire 03:26
******************************
Total playing time: 3:26




[more=Technical info]
Input File: 01 firewind_rising_fire.mp3
Channels : 2
Sample Rate : 44100
Precision : 16-bit
Duration : 00:03:26.51 = 9107179 samples = 15488.4 CDDA sectors
File Size : 8.26M
Bit Rate : 320k
Sample Encoding: MPEG audio (layer I, II or III)

[/more]

Register
(6) aviacademy, Foneg, infiltrator, infozahist, Olrak, senecazm,
Mar 28 2020, 21:07:59 Kreator - 666 - World Divided [single] (2020)
Или Coma Of Souls

ЦИТАТА(SyncestrA @ Mar 28 2020, 14:41:52) *
Да нет, чего там говорить, от группы, записавшие просто фантастические альбомы в 80-90-х, остался только радующий глаз и милый сердцу логотип

Ну, будем до конца четны и откровенны, многие великие группы (если не все), выпускавшие МЕГА шикарные альбомы в 80-90 е - очень сильно видоизменились в музыкальном плане. Да и не могут они играть великолепие постоянно.
(3) infiltrator, Rhoads, SyncestrA,
Mar 28 2020, 19:02:27 Coldflesh - Phantasmagoric Realms [ep] (2020)
Отличная работа - образец правильного шведоМелодеза!
Классный дебютник, так держать, музыканты на правильном пути.
(2) infiltrator, Samaritianin,
Mar 28 2020, 18:33:18 Graceless - Where Vultures Know Your Name (2020)
Очень добротно, среднетемповый мелодичный дез метал с олд скульным привкусом!
(2) Samaritianin, troll_swamp,
Mar 28 2020, 16:54:44 Astral Chaos - It All Comes Crashing Down [ep] (2020)
Очень прилично! Учитывая, что со стилем полная беда в последнее время, то данный материал как нельзя кстати. Без кора, соплей, чистоголосья и прочей ненужности - материал воспринимается очень положительно.
(1) Samaritianin,
Mar 22 2020, 18:28:14 The Oblyvion - Amygdala (2020)
Modern Melodic Death Metal - точнее так.
(2) Bloodn Lord, VLADISLAV_V_K,
Mar 22 2020, 18:17:23 Heaven Shall Burn - Of Truth & Sacrifice (2020)
ЦИТАТА(nomadgg1 @ Mar 22 2020, 15:06:12) *
это типичный металкор

facessspalm.png
Где?????
А альбом неплохой, кстати. Единственное: ну зачем 19 треков?
(1) Bloodn Lord,
Mar 19 2020, 20:54:55 Inflixtion - Human Monstrosity (2020)
Кстати, сыграно неплохо.
(1) Phlebotomized,
Mar 18 2020, 21:50:43 Embloodyment - Circus Horribilus (2020)
Цирк какой то, а не дезяра.
(1) Phlebotomized,
Mar 15 2020, 20:03:55 Tonight We Stand - New World Disorder (2020)


*Artist: Tonight We Stand
*Album: New World Disorder
*Year: 2020
*Genre: Metalcore/Modern/Melodic Death Metal
*Country: Italy
*Format: mp3@CBR320kbps
*Size: 111MB

Tracklist:
01. Damnation
02. Phobia
03. Darkest Times
04. End of the Road
05. Gates of Hel
06. Hollowgrams
07. New World Disorder
08. The Shattered God
09. Sick Rose
10. Fire Walks with Me
11. Martyrs
12. Iwrywfa
******************************
Total playing time: 47:51




[more=Technical info]
Input File: 2 - Phobia.mp3
Channels : 2
Sample Rate : 44100
Precision : 16-bit
Duration : 00:03:26.75 = 9117543 samples = 15506 CDDA sectors
File Size : 8.37M
Bit Rate : 324k
Sample Encoding: MPEG audio (layer I, II or III)
Comments :
Title=Phobia
Artist=Tonight We Stand
Album=New World Disorder
Tracknumber=2
Year=2020
Genre=Rock
Discnumber=1

[/more]

Register
(8) chipsgott, DenisKov, Foneg, infiltrator, Olethros, sadmannn, satanist666, zhol,
Mar 11 2020, 21:57:36 Humanity Delete - No One Survives This Game (2020)


*Artist: Humanity Delete
*Album: No One Survives This Game
*Year: 2020
*Genre: Old School Death Metal
*Country: Sweden
*Format: mp3@CBR320kbps
*Size: 64MB

Tracklist:
01. Cut The Bastards Down
02. One More Dead
03. A Noose For Humanity
04. Burn It Away
05. Apocalypse Dreams
06. No One Survives This Game
07. The Hell That Lives Inside
******************************
Total playing time: 25:31



[more=Extended info]Rogga Johansson Everything (2003-present)
See also: Dead Sun, Down Among the Dead Men, Echelon, Eye of Purgatory, Grisly, Johansson & Speckmann, Lobotomy Dept, Megascavenger, Necrogod, Paganizer, PermaDeath, Pile of Skulls, Putrevore, Revolting, Ribspreader, Rogga Johansson, Severed Limbs, Stass, Svitjod, The Cleaner and Mr. Filth's Van Murders, The Grotesquery, Those Who Bring the Torture, To Descend, ex-Bloodgut, ex-Carve, ex-Demiurg, ex-Eaten, ex-Foreboding, ex-Minotaur Head, ex-Skeletal Spectre, ex-Swarming, ex-Terminal Grip, ex-The Skeletal, Troikadon, ex-Banished from Inferno, ex-Fondlecorpse, ex-Graveyard After Graveyard, ex-Sinners Burn, ex-Soulburn, ex-The 11th Hour, ex-Deranged (live), ex-Bone Gnawer, ex-To the Gallows[/more]

[more=Technical info]
Input File: 02. One More Dead.mp3
Channels : 2
Sample Rate : 44100
Precision : 16-bit
Duration : 00:03:30.09 = 9265013 samples = 15756.8 CDDA sectors
File Size : 9.00M
Bit Rate : 343k
Sample Encoding: MPEG audio (layer I, II or III)
Comments :
Title=One More Dead
Artist=Humanity Delete
Album=No One Survives This Game
Tracknumber=02/07
Year=2020

[/more]

Register
(22) AHBAnep, alikkon, andreikun, atavist, Boozer, chipsgott, garml2, Hell_Is_Here, infiltrator, infozahist, jollo, murayne, obscenity, Olethros, sergsazan, soulflesh, stumpheavyrock, swed, TeamatSE, THROWER666, VALERY, vyacheslav,
Mar 6 2020, 18:24:29 Trauma - Ominous Black (2020)
...По-моему, раньше было куда гараздо интереснее.
(5) atavist, Emm Human, infiltrator, Ingvar, older68,
Mar 1 2020, 17:32:30 Axel Rudi Pell - Gunfire [single] (2020)


*Artist: Axel Rudi Pell
*Album: Gunfire [single]
*Year: 2020
*Genre: Heavy Metal
*Country: Germany
*Format: mp3@CBR320kbps
*Size: 12MB

Tracklist:
1. Gunfire 05:21
******************************
Total playing time: 5:21




[more=Technical info]
Input File: 01_axel_rudi_pell_gunfire.mp3
Channels : 2
Sample Rate : 44100
Precision : 16-bit
Duration : 00:05:21.61 = 14183177 samples = 24121 CDDA sectors
File Size : 13.3M
Bit Rate : 331k
Sample Encoding: MPEG audio (layer I, II or III)
Comments :
Title=Gunfire
Artist=Axel Rudi Pell
Album=Gunfire
Tracknumber=1
Year=2020
Genre=Heavy Metal

[/more]

Register
(12) 1968_janeart, caro, dafya328, infiltrator, metalwoman, Olethros, Olrak, Rosen, SAPOGi, senecazm, sergsazan, varlam4,
Mar 1 2020, 10:27:24 Thor - Rising (2020)


...При прослушивании создается впечатление, что пластинка лет 40 пролежала на полочке...
(1) Ghostb,
Mar 1 2020, 10:19:59 Infernal Angels - Devourer Of God From The Void (2020)
(1) rickzammuto,

168 Pages V   1 2 3 > » 
- Lo-Fi Version Support form
Copyrights and abuse reports form
Time is now: 4th April 2020 - 18:50:13