Welcome Guest ( Log In | Register )

История благодарностей участнику Andrew ::: Спасибо сказали: 18654 раз(а)
Дата поста: В теме: За сообщение: Спасибо сказали:
Oct 2 2019, 17:31:19 Insomnium - Heart Like A Grave (2019)
ЦИТАТА(BleedingSun @ Oct 2 2019, 13:48:46) *
В известной мне музыке стараюсь ориентироваться исключительно исходя из личных ощущений - вот не нравится - и все. Какие-то там рейтинги, оценки и т.д. - не влияют практически никак.

Молодчага! Вот скажу честно, я по мелодезу, абажаю, но, вот среднетемпово-меланхоличные команды: Insomnium, In Mourning, Be'lakor - на дух не перевариваю! Для меня это не МДМ вовсе. Скорее Melodic/Progressive/Gothic Metal да и без деза вовсе.
Посему в темы с данными командами не захожу и не обсуждаю.
Сабж прослушал....не мое. Даже высказывать свою точку зрения не буду.
(1) FlammenTod666,
Oct 2 2019, 16:22:06 Coldclaw - Anti-Martyr: Decadess To Suffer (2019)
Cloud Mail 320:
Register
(1) Olethros,
Oct 2 2019, 16:20:42 Deface - Born Of Hatred (2019)
Cloud Mail 320:
Register
(2) 666kolobok666, boby9052,
Oct 2 2019, 08:12:09 Coldclaw - Anti-Martyr: Decadess To Suffer (2019)


*Artist: Coldclaw
*Album: Anti-Martyr: Decadess To Suffer
*Year: 2019
*Genre: Death/Black Metal
*Country: United States
*Format: mp3@CBR320kbps
*Size: 83MB

Tracklist:
01. The Deafening
02. Into the Mirror (Visceral Self-Loathing)
03. Bring Down the Hammer
04. Marred Womb
05. Searing Wings Through Zephyrs
06. Baptized in Smoke
07. Stillness and Divine Rivalry
08. Succumbed
09. Crippling Dementia
******************************
Total playing time: 34:58




[more=Technical info]
Input File: 02 - Into the Mirror (Visceral Self-Loathing).mp3
Channels : 2
Sample Rate : 44100
Precision : 16-bit
Duration : 00:04:23.72 = 11630052 samples = 19779 CDDA sectors
File Size : 11.0M
Bit Rate : 333k
Sample Encoding: MPEG audio (layer I, II or III)
Comments :
Title=Into the Mirror (Visceral Self-Loathing)
Artist=ColdClaw
Album=AntiMartyr: Decades to Suffer
Tracknumber=2
Year=2019

[/more]

Register
(10) artscald, atavist, infozahist, Pinhead666, Rosen, satanist666, stub888, VALERY, vasiljev_sergej, vyacheslav,
Oct 2 2019, 08:04:01 Deface - Born Of Hatred (2019)


*Artist: Deface
*Album: Born Of Hatred
*Year: 2019
*Genre: Death/Thrash Metal
*Country: United States
*Format: mp3@CBR320kbps
*Size: 87MB

Tracklist:
1. Paint the Walls Red 04:04
2. Sever Thy Tongue 03:35
3. Enemy 03:07
4. Slashing the Veil 05:19
5. Pigs 02:17
6. Blood on Your Hands 03:25
7. Institution 03:47
8. Wrath 04:11
9. Hate 07:11
******************************
Total playing time: 36:56




[more=Technical info]
Input File: 02 - Sever Thy Tongue.mp3
Channels : 2
Sample Rate : 44100
Precision : 16-bit
Duration : 00:03:35.37 = 9497597 samples = 16152.4 CDDA sectors
File Size : 8.92M
Bit Rate : 332k
Sample Encoding: MPEG audio (layer I, II or III)
Comments :
Title=Sever Thy Tongue
Artist=Deface
Album=Born of Hatred
Tracknumber=2
Year=2019

[/more]

Register
(15) artscald, atavist, Foneg, infozahist, jollo, metala, multizwilling, Olethros, Rosen, sergsazan, SnaP, stumpheavyrock, Tino, VALERY, wgs73,
Oct 2 2019, 07:55:03 Simbiose - Banalization Of Evil (2019)
Cloud Mail 320:
Register
(1) atavist,
Oct 1 2019, 17:23:57 Osaleos - The Visit [ep] (2019)


*Artist: Osaleos
*Album: The Visit [ep]
*Year: 2019
*Genre: Death/Thrash Metal
*Country: Spain
*Format: mp3@CBR128kbps
*Size: 19MB

Tracklist:
01. Grave 05:11
02. Napalm Day 02:40
03. Bilis 01:57
04. The Visit 03:43
05. Deja Vu 02:24
06. Your Shit 01:08
07. Zombie Rise 03:45
******************************
Total playing time: 20:48




Register
(4) infiltrator, Olethros, Rosen, stumpheavyrock,
Oct 1 2019, 10:52:18 Desinsertion - Body Horror (2019)


*Artist: Desinsertion
*Album: Body Horror
*Year: 2019
*Genre: Death Metal/Grindcore
*Country: United States
*Format: mp3@CBR320kbps
*Size: 77MB

Tracklist:
1. Apocalyptic Terror 03:26 instrumental
2. Kingdom of Light 04:48
3. Gasmask Messiah 04:01
4. Ego Cannibal 04:52
5. Chainsaw Hackjob 04:04
6. Flatline 04:07
7. Grave Eternity 04:06
8. End of Limbo 01:35 instrumental
9. Suite-Pee (System of a Down cover) 02:27
******************************
Total playing time: 33:26



[more=Technical info]
Input File: 02_desinsertion_kingdom_of_light.mp3
Channels : 2
Sample Rate : 44100
Precision : 16-bit
Duration : 00:04:49.04 = 12746532 samples = 21677.8 CDDA sectors
File Size : 11.7M
Bit Rate : 323k
Sample Encoding: MPEG audio (layer I, II or III)
Comments :
Title=Kingdom of Light
Artist=Desinsertion
Album=Body Horror
Tracknumber=2
Year=2019
Genre=22

[/more]

Register
(10) artscald, atavist, infiltrator, jollo, Olethros, Rosen, satanist666, VALERY, vyacheslav, Герб,
Oct 1 2019, 10:30:39 Azrael - Azrael (2019)


*Artist: Azrael
*Album: Azrael
*Year: 2019
*Genre: Heavy/Power Metal
*Country: Spain
*Format: mp3@CBR320kbps
*Size: 80MB

Tracklist:
1. Lo siento amigos 03:43
2. Hoy por fin 04:10
3. Te espero alli 04:16
4. Caera el mundo 03:44
5. Falsa fe 03:36
6. Camino incierto 04:10
7. Me quema 04:45
8. En tu propio terreno 05:50
******************************
Total playing time: 34:14




[more=Technical info]
Input File: 02 - Hoy por Fin.mp3
Channels : 2
Sample Rate : 44100
Precision : 16-bit
Duration : 00:04:10.32 = 11039068 samples = 18773.9 CDDA sectors
File Size : 10.2M
Bit Rate : 327k
Sample Encoding: MPEG audio (layer I, II or III)
Comments :
Title=Hoy por Fin
Artist=Azrael
Album=Azrael
Tracknumber=2
Year=2019

[/more]

Register
(13) artscald, aviacademy, gwar, Herrant, infiltrator, metalwoman, Olethros, robertho777, Rosen, Rover, stumpheavyrock, VALERY, Сварог Барг,
Oct 1 2019, 09:56:42 Simbiose - Banalization Of Evil (2019)


*Artist: Simbiose
*Album: Banalization Of Evil
*Year: 2019
*Genre: Death Metal/Crust/Grindcore
*Country: Portugal
*Format: mp3@CBR320kbps
*Size: 84MB

Tracklist:
1. Intolerante
2. Reuse
3. Banalization of Evil
4. E a Vida
5. Traicoeira
6. Na Mao De Estranhos (feat. Juan & Soziedad Alkoholika)
7. The Age of Glorious Deaths
8. Refugiados
9. Viver Assim
10. Medo de Mudar
11. Realidade
12. Violent Minds
******************************
Total playing time: 35:07







[more=Technical info]
Input File: 02 - Reuse.mp3
Channels : 2
Sample Rate : 44100
Precision : 16-bit
Duration : 00:03:26.56 = 9109340 samples = 15492.1 CDDA sectors
File Size : 8.60M
Bit Rate : 333k
Sample Encoding: MPEG audio (layer I, II or III)
Comments :
Title=Reuse
Artist=Simbiose
Album=Banalization of Evil
Tracknumber=2
Year=2019

[/more]

Register
(15) artscald, atavist, Grinder999, infiltrator, JD666Hellion, jollo, metala, Olethros, Paradayz, Rosen, satanist666, supremo, VALERY, vyacheslav, Герб,
Oct 1 2019, 06:23:06 Murder Hate - Alter Ego (2019)


*Artist: Murder Hate
*Album: Alter Ego
*Year: 2019
*Genre: Melodic Death/Thrash Metal
*Country: Colombia
*Format: mp3@CBR320kbps
*Size: 105MB

Tracklist:
1. Santa sodomía 05:41
2. Alter Ego 04:55
3. Líneas adversas 04:48
4. Sincronía de la degradación 04:59
5. Ambivalente 04:19
6. SuPerBia 05:02
7. Imperfecto 05:05
8. Nemesis 04:24
9. Hipersomnia 06:12
******************************
Total playing time: 45:25





[more=Technical info]
Input File: 02. Alter Ego.mp3
Channels : 2
Sample Rate : 44100
Precision : 16-bit
Duration : 00:04:55.07 = 13012675 samples = 22130.4 CDDA sectors
File Size : 11.9M
Bit Rate : 322k
Sample Encoding: MPEG audio (layer I, II or III)
Comments :
Title=Alter Ego
Artist=Murder Hate
Album=Alter Ego
Tracknumber=2/9
Year=2019
Genre=9
Discnumber=1/1

[/more]

Register
(10) -=Lion=-, artscald, BugEyes, metala, Olethros, Rosen, sergsazan, stumpheavyrock, VALERY, Сварог Барг,
Sep 30 2019, 11:03:30 Empyreal Vault - Empyreal Vault (2019)


*Artist: Empyreal Vault
*Album: Empyreal Vault
*Year: 2019
*Genre: Deathcore/Technical Death
*Country: France
*Format: mp3@CBR320kbps
*Size: 74MB

Tracklist:
01. Into the Forest 01:00
02. Deathbringer 04:04
03. Nameless and Evil 03:28
04. the Ritual 03:33
05. Astra Wound 04:51
06. Forgotten Titan 03:51
07. The Rain 02:48
08. Obscurity and Silence 03:14
09. I Am the Void 05:22
******************************
Total playing time: 32:11






[more=Technical info]
Input File: 2 - Deathbringer.mp3
Channels : 2
Sample Rate : 44100
Precision : 16-bit
Duration : 00:04:04.10 = 10764854 samples = 18307.6 CDDA sectors
File Size : 9.82M
Bit Rate : 322k
Sample Encoding: MPEG audio (layer I, II or III)
Comments :
Title=Deathbringer
Artist=Empyreal Vault
Album=Empyreal Vault
Tracknumber=2
Year=2019
Genre=Metal
Discnumber=1

[/more]

Register
(8) artscald, atavist, infiltrator, metala, Olethros, Ostinato, Rosen, Strid,
Sep 30 2019, 10:46:54 Fatuous Rump - {Brutality} (2019)
320, 134 Mb:
Register
(7) elsunga, infiltrator, jollo, maochen, MMMMM, Olethros, satanist666,
Sep 30 2019, 10:45:19 Swarm - Anathema (2019)
Cloud Mail 320:
Register
(2) boby9052, infiltrator,
Sep 30 2019, 10:42:23 Chemikill - Edge Of Wasteland (2019)
Cloud Mail 320:
Register
(4) AHBAnep, boby9052, infiltrator, MEmethuselah,
Sep 30 2019, 09:21:41 Chemikill - Edge Of Wasteland (2019)


*Artist: Chemikill
*Album: Edge Of Wasteland
*Year: 2019
*Genre: Heavy/Speed Metal
*Country: United States
*Format: mp3@CBR320kbps
*Size: 77MB

Tracklist:
1. Blackened Void
2. Blood Red Sky
3. Edge Of Wasteland
4. (Fear) The Warrior
5. City Night To Roam
6. Not To Blame
7. Great Deceiver
******************************
Total playing time: 32:47







[more=Technical info]
Input File: 02 - Blood Red Sky.mp3
Channels : 2
Sample Rate : 44100
Precision : 16-bit
Duration : 00:03:12.12 = 8472272 samples = 14408.6 CDDA sectors
File Size : 8.02M
Bit Rate : 334k
Sample Encoding: MPEG audio (layer I, II or III)
Comments :
Title=Blood Red Sky
Artist=Chemikill
Album=Edge of Wasteland
Tracknumber=2
Year=2019

[/more]

Register
(18) andgrek28, artscald, BugEyes, Corpuscul, fsc97, gwar, infiltrator, metala, metalwoman, multizwilling, Olethros, Rosen, Rover, SAPOGi, sergsazan, toly1917, VALERY, wgs73,
Sep 30 2019, 09:09:14 Swarm - Anathema (2019)


*Artist: Swarm
*Album: Anathema
*Year: 2019
*Genre: Thrash/Groove Metal
*Country: France
*Format: mp3@CBR320kbps
*Size: 133MB

Tracklist:
1. New Sun
2. Frontiers
3. Intifada
4. The Deed Is Done
5. Spoutnik Explorer
6. Deaf Blind Silent
7. Life On Hold
8. Simple Automata (Return At Home)
9. Legacy Of Misery
10. Five
11. Pyroclastic Flow
******************************
Total playing time: 58:17




[more=Technical info]
Input File: 02 - Frontiers.mp3
Channels : 2
Sample Rate : 44100
Precision : 16-bit
Duration : 00:04:33.02 = 12040182 samples = 20476.5 CDDA sectors
File Size : 11.0M
Bit Rate : 323k
Sample Encoding: MPEG audio (layer I, II or III)
Comments :
Title=Frontiers
Artist=Swarm
Album=Anathema
Tracknumber=2
Year=2019

[/more]

Register
(10) ahp, artscald, chipsgott, gwar, infiltrator, infozahist, metala, Olethros, Rosen, stumpheavyrock,
Sep 30 2019, 08:55:14 Murdery - The Art Of Killing (2019)
https://www.metal-archives.com/images/7/6/9...769446.jpg?5835

Аффтор картинку забыл прицепить 1488.gif

320:
Register
(2) jollo, Olethros,
Sep 28 2019, 20:22:56 Ripper - Sensory Stagnation [ep] (2019)
Да уж, чилийцы молодчаги, подача материала очень качественная!
Я также возлагаю большие надежды на новый полнометражник.
(2) infiltrator, troll_swamp,
Sep 28 2019, 16:32:37 Heretics - Via Appia (2019)
Тоже не зашло - какая то невнятица! 6.gif
(1) FlammenTod666,
Sep 28 2019, 16:30:50 Starborn - Savage Peace (2019)
Cloud Mail 320:
Register
(4) Boozer, Herrant, Olethros, wn129aa,
Sep 28 2019, 16:24:39 Prime Creation - Tears Of Rage (2019)
Cloud Mail 320:
Register
(3) Olethros, refleks22, zauber1,
Sep 28 2019, 16:20:27 Daemonicus - Shepherd Of The Flock [ep] (2019)


*Artist: Daemonicus
*Album: Shepherd Of The Flock [ep]
*Year: 2019
*Genre: Old School Death Metal
*Country: Sweden
*Format: mp3@VBR128kbps
*Size: 12MB

Tracklist:
1. To Poison Everything 04:24
2. Heretic Trials 04:44
3. The Grand Inquisitor 04:00
******************************
Total playing time: 13:08




Register
(7) infiltrator, Olethros, Rosen, sergsazan, stumpheavyrock, thenecromancer, vader69,
Sep 27 2019, 21:21:08 Freakings - Rise Of Violence (2019)
Cloud Mail 320:
Register
(3) fuoco, postal67, Samaritianin,
Sep 27 2019, 20:26:31 Ripper - Sensory Stagnation [ep] (2019)


*Artist: Ripper
*Album: Sensory Stagnation [ep]
*Year: 2019
*Genre: Death/Thrash Metal
*Country: Chile
*Format: mp3@VBR128kbps
*Size: 19MB

Tracklist:
1. Dissociation 01:53 instrumental
2. The Unreal 04:54
3. Sensory Stagnation 04:26
4. Like a Sacrelige 04:38
5. Terror Streets 04:15
******************************
Total playing time: 20:06





Register
(13) audisucks, boby9052, cist, infiltrator, metala, METALHUNTER, Olethros, Rosen, samokot, stumpheavyrock, troll_swamp, wanderer73, wgs73,

157 Pages V  < 1 2 3 4 5 > » 
- Lo-Fi Version Support form
Copyrights and abuse reports form
Time is now: 16th October 2019 - 13:50:51