Welcome Guest ( Log In | Register )

История благодарностей участнику Andrew ::: Спасибо сказали: 22674 раз(а)
Дата поста: В теме: За сообщение: Спасибо сказали:
May 8 2020, 20:51:35 Forgotten Tomb - Nihilistic Estrangement (2020)
(1) metaljinie,
May 6 2020, 11:40:51 Icon Of Evil - Icon Of Evil [ep] (2020)


*Artist: Icon Of Evil
*Album: Icon Of Evil [ep]
*Year: 2020
*Genre: Death Metal
*Country: Poland
*Format: mp3@CBR320kbps
*Size: 9MB

Tracklist:
01. Ojcze Wasz (Your Father in Heaven) 04:21
02. Urojony Bog (The God Delusion) 05:00
******************************
Total playing time: 9:21




[more=Technical info]
Input File: 01. Ojcze Wasz.mp3
Channels : 2
Sample Rate : 44100
Precision : 16-bit
Duration : 00:04:21.47 = 11530607 samples = 19609.9 CDDA sectors
File Size : 4.19M
Bit Rate : 128k
Sample Encoding: MPEG audio (layer I, II or III)
Comments :
Artist=Icon of Evil
Album=Icon of Evil
Year=2020
Genre=Death

[/more]

Register
(2) Olethros, Wail,
May 5 2020, 21:41:40 Clayman - Septem [ep] (2020)


*Artist: Clayman
*Album: Septem [ep]
*Year: 2020
*Genre: Melodic Death Metal
*Country: Japan
*Format: mp3@CBR320kbps
*Size: 64MB

Tracklist:
1. Gate of Wrath
2. Abysmal Pride
3. Entombed Envy
4. Diabolic Greed
5. Fatal Sloth
6. Beast of Gluttonous
7. Crimson Lust
******************************
Total playing time: 27:45




[more=Extended info]類 Bass
See also: 瘧鬼
Kuma Drums
Beru Guitars
Kenta Guitars
アヤト Vocals
See also: 瘧鬼[/more]

[more=Technical info]
Input File: 2 - Abysmal Pride.mp3
Channels : 2
Sample Rate : 44100
Precision : 16-bit
Duration : 00:04:02.28 = 10684372 samples = 18170.7 CDDA sectors
File Size : 9.76M
Bit Rate : 322k
Sample Encoding: MPEG audio (layer I, II or III)
Comments :
Title=Abysmal Pride
Artist=Clayman
Album=SEPTEM
Tracknumber=2
Year=2020
Discnumber=1

[/more]

Register
(21) AHBAnep, apostol_13, chipsgott, chon, gwynnbleid, infiltrator, isvili, lldma, Lukittaz, Mogozoz, multizwilling, oldvarg, Olethros, randumbum, satanist666, sergsazan, terron, VALERY, vir2al, zhol, Сварог Барг,
May 5 2020, 21:29:56 Killswitch Engage - Atonement Ii B-Sides For Charity [ep] (2020)


*Artist: Killswitch Engage
*Album: Atonement Ii B-Sides For Charity [ep]
*Year: 2020
*Genre: Melodic Metalcore
*Country: United States
*Format: mp3@CBR320kbps
*Size: 60MB

Tracklist:
1. To the Great Beyond 03:58
2. Hollow Convictions 04:49
3. Killing of Leviathan 02:55
4. No Devotion 04:22
5. I Feel Alive Again 03:39
6. Prophets of Treason 04:53
******************************
Total playing time: 24:36




[more=Extended info]Mike D'Antonio Bass
Adam Dutkiewicz Guitars, Vocals (backing)
Joel Stroetzel Guitars
Jesse Leach Vocals
Justin Foley Drums[/more]

[more=Technical info]
Input File: 02 Hollow Convictions.mp3
Channels : 2
Sample Rate : 44100
Precision : 16-bit
Duration : 00:04:49.27 = 12756939 samples = 21695.5 CDDA sectors
File Size : 11.7M
Bit Rate : 324k
Sample Encoding: MPEG audio (layer I, II or III)
Comments :
Title=Hollow Convictions
Artist=Killswitch Engage
Album=Atonement II B-Sides for Charity
Tracknumber=2
Year=2020
Genre=Melodic Metalcore
Discnumber=1/1

[/more]

Register
(17) boby9052, chipsgott, DenisKov, garml2, gwynnbleid, infiltrator, Lukittaz, Mares, Metalass, Olethros, respect, satanist666, Styx, TeamatSE, terron, VALERY, zhol,
May 5 2020, 21:20:49 Wiking1940 - W (2020)


*Artist: Wiking1940
*Album: W
*Year: 2020
*Genre: Black Metal
*Country: Italy
*Format: mp3@CBR320kbps
*Size: 75MB

Tracklist:
1. Obliquity and Irreversibility 04:40
2. Thousand Sun 03:00
3. W 01:58
4. Acquainted with the Dead 03:45
5. Black Salm 03:54
6. Solitary Mourner 04:07
7. Journey's End 03:08
8. Linea di fuoco 04:48
9. Epitaffio 03:14
******************************
Total playing time: 32:34




[more=Extended info]Lord Himmler Guitars, Bass, Vocals (additional) (2017-present)
See also: Bastardi Putridi di Vicenza, Dodskammer, ex-Via Dolorosa
Nameless Vocals, Guitars, Bass, Programming, Lyrics (2017-present)
See also: Bastardi Putridi di Vicenza[/more]

[more=Technical info]
Input File: 02 Thousand Sun.mp3
Channels : 2
Sample Rate : 44100
Precision : 16-bit
Duration : 00:03:00.10 = 7942322 samples = 13507.4 CDDA sectors
File Size : 7.25M
Bit Rate : 322k
Sample Encoding: MPEG audio (layer I, II or III)
Comments :
Title=Thousand Sun
Artist=Wiking 1940
Album=-W-
Tracknumber=2/9
Year=2020

[/more]

Register
(18) atavist, infiltrator, kefka, kim666, lunaraurora, multizwilling, Olethros, randumbum, Raw1488, rimfrost, robertho777, satanist666, SilentNidhogg, stub888, VALERY, varlam4, vasiljev_sergej, Wail,
May 5 2020, 21:08:58 Visions Of Choice - Mistress Of The Gods (2020)


*Artist: Visions Of Choice
*Album: Mistress Of The Gods
*Year: 2020
*Genre: Heavy/Power Metal
*Country: Germany
*Format: mp3@CBR320kbps
*Size: 134MB

Tracklist:
1. New Horizon
2. Come Tomorrow
3. Shine
4. Into The Light
5. Endlessly
6. Hold Your Head High
7. Mistress Of The Gods
8. Givin' It Up
9. Gates Of Evermore
10. Hold On
11. Touch The Sky
******************************
Total playing time: 57:25






[more=Extended info]Lineup:
Lukas Remus - Vocals
Steve Brockmann – All Instruments

guests:
Ponch Satrio (Indonesia): lead guitar on no. 1, 2, 5, 8, 9
Marco Wriedt (DE): lead guitar on no. 10
Klas Holmgren (SWE): backing vocals on no. 2[/more]

[more=Technical info]
Input File: 02_visions_of_choice_come_tomorrow.mp3
Channels : 2
Sample Rate : 44100
Precision : 16-bit
Duration : 00:04:36.45 = 12191269 samples = 20733.5 CDDA sectors
File Size : 11.3M
Bit Rate : 328k
Sample Encoding: MPEG audio (layer I, II or III)
Comments :
Title=Come Tomorrow
Artist=Visions of Choice
Album=Mistress of the Gods
Tracknumber=2
Year=2020

[/more]

Register
(23) ace73pq, aviacademy, boby9052, Darkness, DTGB, fsc97, gwar, gwynnbleid, Herrant, infiltrator, Lukittaz, metala, Mogozoz, oldvarg, Olethros, randumbum, Rover, satanist666, senecazm, sergsazan, terron, vir2al, Сварог Барг,
May 5 2020, 18:48:38 Joe Satriani - Shapeshifting (2020)


*Artist: Joe Satriani
*Album: Shapeshifting
*Year: 2020
*Genre: Instrumental Hard Rock
*Country: United States
*Format: mp3@CBR320kbps
*Size: 108MB

Tracklist:
01. Shapeshifting
02. Big Distortion
03. All For Love
04. Ali Farka, Dick Dale, An Alien And Me
05. Teardrops
06. Perfect Dust
07. Nineteen Eighty
08. All My Friends Are Here
09. Spirits, Ghosts And Outlaws
10. Falling Stars
11. Waiting
12. Here The Blue River
13. Yesterday's Yesterday
******************************
Total playing time: 46:28




[more=Technical info]
Input File: 02 - Big Distortion.mp3
Channels : 2
Sample Rate : 44100
Precision : 16-bit
Duration : 00:04:13.93 = 11198181 samples = 19044.5 CDDA sectors
File Size : 10.2M
Bit Rate : 321k
Sample Encoding: MPEG audio (layer I, II or III)
Comments :
Title=Big Distortion
Artist=Joe Satriani
Album=Shapeshifting
Tracknumber=2
Year=2020
Genre=Rock
Discnumber=1

[/more]

Register
(10) Aresson, Branis, canadaspaceman, Diflock, Old Vyaine, Olethros, rabindranad, Reverend, Луч, некрософ,
May 5 2020, 17:55:08 Outnumber The Living - Elegies For Solaris (2020)


*Artist: Outnumber The Living
*Album: Elegies For Solaris
*Year: 2020
*Genre: Melodic Death Metal/Metalcore
*Country: United States
*Format: mp3@CBR320kbps
*Size: 152MB

Tracklist:
01. Honey, I Just Can't Grizzly Bear It Anymore
02. The Marauders of a Black Sun
03. Supercharger
04. The Long Morrow
05. Rock Biter
06. Grandfather, Lie Quietly With Me Beneath The Stars
07. Necrocodone
08. Principia
09. The Great Devourer
10. The Molasses Massacre of 1919
11. The Lioness of Brittany
******************************
Total playing time: 1:05:25




[more=Extended info]Members:
Vocals – Greg Rossettini
Guitar – Michael Lejeune
Guitar – Kevin Morrison
Bass – Brandon Shafer
Drums – Michael Schmidt[/more]

[more=Technical info]
Input File: Outnumber the Living - Elegies for Solaris - 02 The Marauders of a Black Sun.mp3
Channels : 2
Sample Rate : 44100
Precision : 16-bit
Duration : 00:04:26.41 = 11748725 samples = 19980.8 CDDA sectors
File Size : 10.7M
Bit Rate : 322k
Sample Encoding: MPEG audio (layer I, II or III)
Comments :
Title=The Marauders of a Black Sun
Artist=Outnumber the Living
Album=Elegies for Solaris
Tracknumber=2
Year=2020

[/more]

Register
(8) DenisKov, gwynnbleid, infiltrator, Lukittaz, Mogozoz, Olethros, Ostinato, zhol,
May 5 2020, 08:37:19 Liquid Death - Greatest Hates (2020)


*Artist: Liquid Death
*Album: Greatest Hates
*Year: 2020
*Genre: Death Metal
*Country: United States
*Format: mp3@CBR320kbps
*Size: 61MB

Tracklist:
01. Huge Tools (Every Single Person Involved)
02. Reconsider Your Life Choices
03. Fire Your Marketing Guy
04. Dumbest Name Ever for Water
05. Get Slaughtered on Shark Tank
06. This Water Couldn't Be Less Appealing
07. Selling Your Soul Is Deplorable
08. Go Out of Business
09. This Crap Is Pure Evil
10. Bad Marketing
******************************
Total playing time: 22:07




[more=Technical info]
Input File: 02. Reconsider Your Life Choices.mp3
Channels : 2
Sample Rate : 44100
Precision : 16-bit
Duration : 00:02:21.62 = 6245442 samples = 10621.5 CDDA sectors
File Size : 5.97M
Bit Rate : 337k
Sample Encoding: MPEG audio (layer I, II or III)
Comments :
Title=Reconsider Your Life Choices
Artist=Liquid Death
Album=Greatest Hates
Tracknumber=2
Year=2020
Discnumber=1

[/more]

Register
(32) AHBAnep, alikkon, andreikun, atavist, cesar, chipsgott, egortitov, Foneg, Golfzilla, GorAtheist, Hell_Is_Here, infiltrator, jollo, kalmametallinen, korziboy, Lukittaz, Mares, Mist13Signifier, multizwilling, older68, oldvarg, Olethros, ripper33, satanist666, scorpionmk, TeamatSE, THROWER666, VALERY, Vladimir, vyacheslav, wgs73, wn129aa,
May 5 2020, 08:24:58 Flayed Alive - Dead Religion (2020)


*Artist: Flayed Alive
*Album: Dead Religion
*Year: 2020
*Genre: Brutal Death Metal
*Country: United States
*Format: mp3@CBR320kbps
*Size: 61MB

Tracklist:
1. Dwindling 02:43
2. That Which Burrows 02:26
3. Morality's Last Fringe 02:51
4. What's Left of My Faith 02:32
5. In the Name of What's Just 02:29
6. Modern Enslavement Theory 02:19
7. Domain of Self 02:39
8. The Accuser 03:03
9. Slow to Anger 03:59
******************************
Total playing time: 25:01





[more=Technical info]
Input File: 02. That Which Burrows.mp3
Channels : 2
Sample Rate : 44100
Precision : 16-bit
Duration : 00:02:26.95 = 6480495 samples = 11021.2 CDDA sectors
File Size : 5.88M
Bit Rate : 320k
Sample Encoding: MPEG audio (layer I, II or III)
Comments :
Title=That Which Burrows
Artist=Flayed Alive
Album=Dead Religion
Tracknumber=2
Year=2020
Genre=Brutal Death

[/more]

Register
(17) aa144aa, andreikun, atavist, Hell_Is_Here, infiltrator, Lukittaz, maochen, multizwilling, Olethros, randumbum, samokot, satanist666, scorpionmk, StabWound, Vladimir, vyacheslav, WX419,
May 5 2020, 08:18:30 Karmacipher - Introspectrum (2020)


*Artist: Karmacipher
*Album: Introspectrum
*Year: 2020
*Genre: Progressive Death Metal
*Country: Hong Kong
*Format: mp3@CBR320kbps
*Size: 131MB

Tracklist:
1. My Spectrum 07:27
2. None 04:46
3. Quadrant 08:03
4. Vessel 06:17
5. Revertant 05:48
6. Involuntary Converged 07:01
7. Eternal Departure 09:03
******************************
Total playing time: 48:25





[more=Technical info]
Input File: 02. None.mp3
Channels : 2
Sample Rate : 44100
Precision : 16-bit
Duration : 00:04:49.09 = 12748869 samples = 21681.7 CDDA sectors
File Size : 13.9M
Bit Rate : 384k
Sample Encoding: MPEG audio (layer I, II or III)
Comments :
Title=None
Artist=Karmacipher
Album=Introspectrum
Tracknumber=2
Year=2020
Genre=Progressive Death

[/more]

Register
(34) 555, AHBAnep, alikkon, andreikun, as71, atom72, Bloodn Lord, Boozer, cesar, chipsgott, Hell_Is_Here, infiltrator, kvetak, Lukittaz, metala, Metalass, MMMMM, multizwilling, Olethros, ondrazevsi, Ostinato, Phlebotomized, rammstein888, Requiescat, Reverend, samokot, SatanicPanzer, Shadowman, stumpheavyrock, VALERY, vyacheslav, yuratroll, Луч, Сварог Барг,
May 4 2020, 21:09:33 Havok - V (2020)
ЦИТАТА(avather @ May 4 2020, 22:37:17) *
Слабый альбом. Много шума из ничего. Скорость и хитовость куда-то пропали

Мне вообще не понравился материал. Тавтология, одно и тоже, короче к половине альбома слушать дальше, а тем более переслушивать желания просто нет!
(2) avather, DarkHorde,
May 4 2020, 20:59:11 Paradise Lost - Obsidian (2020)


*Artist: Paradise Lost
*Album: Obsidian
*Year: 2020
*Genre: Gothic/Doom Metal
*Country: United Kingdom
*Format: mp3@CBR160kbps
*Size: 63MB

Tracklist:
1. Darker Thoughts 05:46
2. Fall from Grace 05:42
3. Ghosts 04:35
4. The Devil Embraced 06:08
5. Forsaken 04:30
6. Serenity 04:46
7. Ending Days 04:36
8. Hope Dies Young 04:02
9. Ravenghast 05:30
10. Hear the Night 05:34
11. Defiler 04:45
******************************
Total playing time: 55:54






Register
(46) 0x13, amor, BleedingSun, boby9052, Cartman223, craP_cillA, DevilSign, Diflock, DiKobRaZzz, Evjenne, GANCH.Ru, Golodomor, Guns, gwar, Herrant, KVRT, Lukittaz, marilin, metala, Mihalik, multizwilling, natrogrii, nsk2008, okarodb, Olethros, Orgasmik, Penetralia, Pentium.Disel, plfan93, pulotto, quicksand, raattent, rammmirez, ripper33, sabr, SameMan, sergsazan, Shadowman, skepticist, Strygaldwir, vader69, VALERY, vo140182fav, wn129aa, yuratroll, Варонъ,
May 2 2020, 15:25:58 Make Them Die Slowly - Ferox (2020)

(2) AHBAnep, infiltrator,
May 1 2020, 08:43:25 Through The Veins - 4 Days Of Phantom (2020)


*Artist: Through The Veins
*Album: 4 Days Of Phantom
*Year: 2020
*Genre: Progressive Metal
*Country: United States
*Format: mp3@CBR320kbps
*Size: 87MB

Tracklist:
01. 4 Days of Phantom 06:12
02. Not Suitable 09:45
03. Nightcrawler 09:47
04. Mantra 08:48
******************************
Total playing time: 34:32



[more=Technical info]
Input File: 2 - Not Suitable.mp3
Channels : 2
Sample Rate : 44100
Precision : 16-bit
Duration : 00:09:45.60 = 25824784 samples = 43919.7 CDDA sectors
File Size : 23.5M
Bit Rate : 321k
Sample Encoding: MPEG audio (layer I, II or III)
Comments :
Title=Not Suitable
Artist=Through The Veins
Album=4 Days Of Phantom
Tracknumber=2
Year=2020
Genre=Metal
Discnumber=1

[/more]

Register
(10) andgrek28, HMHamster, infiltrator, metala, minimums, Mogozoz, multizwilling, Olethros, Rover, Yarri,
May 1 2020, 07:46:14 Percussor - Desperate To Expire [ep] (2020)


*Artist: Percussor
*Album: Desperate To Expire [ep]
*Year: 2020
*Genre: Death Metal
*Country: United States
*Format: mp3@CBR320kbps
*Size: 34MB

Tracklist:
01. Whore Abortion
02. Desperate to Expire
03. Disturbing Reality
04. Rejoicing Your Death
05. Defiled Reputation
06. Execrate
******************************
Total playing time: 12:49




[more=Technical info]
Input File: 02. Desperate to Expire.mp3
Channels : 2
Sample Rate : 44100
Precision : 16-bit
Duration : 00:01:32.82 = 4093406 samples = 6961.57 CDDA sectors
File Size : 4.25M
Bit Rate : 367k
Sample Encoding: MPEG audio (layer I, II or III)
Comments :
Title=Desperate to Expire
Artist=Percussor
Album=Desperate to Expire
Tracknumber=2
Year=2020

[/more]

Register
(11) GorAtheist, Hell_Is_Here, infiltrator, lldma, multizwilling, Occultas, Olethros, samokot, SyncestrA, VALERY, vyacheslav,
May 1 2020, 07:09:35 Cerebral Desecration - Further Than The Bottom (2020)


*Artist: Cerebral Desecration
*Album: Further Than The Bottom
*Year: 2020
*Genre: Death Metal/Thrash Metal
*Country: United States
*Format: mp3@CBR320kbps
*Size: 73MB

Tracklist:
01. The Washed Away 05:30
02. Further Than the Bottom 04:59
03. Obstructed 03:13
04. Peel of the Rotten 05:11
05. Deceiver 03:19
06. Upside Down 03:32
07. S.H.I.T. 05:18
******************************
Total playing time: 31:02





[more=Extended info]Ethan Wissmann Bass
See also: Trauma Concept, Wolvenguard
Collyn Rios Drums
David Machado Guitars
Javier Zamora Guitars
See also: ex-Insaniti
Jeff Giusto Vocals[/more]

[more=Technical info]
Input File: 2 - Further Than the Bottom.mp3
Channels : 2
Sample Rate : 44100
Precision : 16-bit
Duration : 00:04:58.83 = 13178579 samples = 22412.5 CDDA sectors
File Size : 12.0M
Bit Rate : 322k
Sample Encoding: MPEG audio (layer I, II or III)
Comments :
Title=Further Than The Bottom
Artist=Cerebral Desecration
Album=Further Than The Bottom
Tracknumber=2
Year=2020
Genre=Death Metal
Discnumber=1

[/more]

Register
(21) AHBAnep, atavist, boby9052, cesar, GorAtheist, Hell_Is_Here, infiltrator, jollo, Lukittaz, metala, Morgoth, multizwilling, Olethros, samokot, sergsazan, stumpheavyrock, TeamatSE, THROWER666, vyacheslav, wanderer73, wgs73,
May 1 2020, 06:41:18 Levendleed - Algehele Malaise (2020)


*Artist: Levendleed
*Album: Algehele Malaise
*Year: 2020
*Genre: Black Metal
*Country: Netherlands
*Format: mp3@CBR320kbps
*Size: 93MB

Tracklist:
1. Verstrooid
2. Daargelaten
3. Niemandsland
4. Onrecht
5. Routine
6. Uitgeteld
******************************
Total playing time: 40:33



[more=Extended info]Thomas Acid All instruments (2018-present)[/more]

[more=Technical info]
Input File: 02 - Daargelaten.mp3
Channels : 2
Sample Rate : 44100
Precision : 16-bit
Duration : 00:05:28.88 = 14503432 samples = 24665.7 CDDA sectors
File Size : 13.3M
Bit Rate : 324k
Sample Encoding: MPEG audio (layer I, II or III)
Comments :
Title=Daargelaten
Artist=Levendleed
Album=Algehele Malaise
Tracknumber=2
Year=2020

[/more]

Register
(19) AlexSmith, atavist, exorcist1969, GorAtheist, infiltrator, kim666, multizwilling, Olethros, Ostinato, randumbum, robertho777, satanist666, SilentNidhogg, stub888, VALERY, varlam4, vasiljev_sergej, vov7609, vovenom,
May 1 2020, 06:32:24 Kerium - Victims (2020)


*Artist: Kerium
*Album: Victims
*Year: 2020
*Genre: Heavy Metal
*Country: Germany
*Format: mp3@CBR320kbps
*Size: 126MB

Tracklist:
1. Victims of the Lie 04:17
2. Hate for Hate 04:18
3. Don't Dread Your Fear 06:59
4. The Beast Within 05:35
5. Invasion 06:15
6. Journey to Exile 03:44
7. World of Pain 05:10
8. Horizons 05:21
9. Earth Flesh 04:35
10. Endless War 07:41
******************************
Total playing time: 53:55


Preview 2


[more=Extended info]Jens Hartmann Bass
Ronny Dreyhaup Drums
Krystian Sciesiniski Guitars
Robert K. Guitars
Johannes Heßler Vocals[/more]

[more=Technical info]
Input File: 02 - Hate For Hate.mp3
Channels : 2
Sample Rate : 44100
Precision : 16-bit
Duration : 00:04:18.08 = 11381372 samples = 19356.1 CDDA sectors
File Size : 10.6M
Bit Rate : 327k
Sample Encoding: MPEG audio (layer I, II or III)
Comments :
Title=Hate For Hate
Artist=Kerium
Album=Victims
Tracknumber=2
Year=2020

[/more]

Register
(13) aviacademy, cesar, infiltrator, Lukittaz, metala, Mogozoz, multizwilling, Olethros, Olrak, Rover, senecazm, sergsazan, stumpheavyrock,
Apr 30 2020, 19:59:48 Sentenced - Amok (1995)
ЦИТАТА(sabr @ Apr 30 2020, 20:45:33) *
после него ваще не слушатебельно

17.gif 17.gif 17.gif Вот это поворот!!! Ну да ладно, дело вкуса. Мне, например, Похоронный Альбом тоже не нравится.
А вообще, любимые альбомы из детства/юношества люблю слушать парами:

Sentenced Down/Frozen
Iron Maiden Somewhere in Time/Fear of the Dark
Metallica Master of Puppets/Ride the Lightning
Judas Priest Defenders of the Faith/Painkiller
Sepultura Beneath the Remains/Arise
Accept Balls to the Wall/Russian Roulette
UDO Animal House/Faceless World
Yngwie Malmsteen Trilogy/Magnum Opus
W.A.S.P. W.A.S.P./The Crimson Idol
Helloween Keeper of the Seven Keys Part I/Keeper of the Seven Keys Part II
Def Leppard Pyromania/Hysteria
Rage The Missing Link/Black in Mind
Grave Digger Heart of Darkness/Tunes of War


И т.д.
(1) Bloodn Lord,
Apr 30 2020, 19:43:22 Umbra Vitae - Shadow Of Life (2020)


*Artist: Umbra Vitae
*Album: Shadow Of Life
*Year: 2020
*Genre: Death Metal
*Country: United States
*Format: mp3@CBR320kbps
*Size: 62MB

Tracklist:
01. Decadence Dissolves
02. Ethereal Emptiness
03. Atheist Aesthetic
04. Mantra Of Madness
05. Fear Is A Fossil
06. Polluted Paradise
07. Intimate Inferno
08. Return To Zero
09. Blood Blossom
10. Shadow Of Life
******************************
Total playing time: 25:57





[more=Technical info]
Input File: 02. Ethereal Emptiness.mp3
Channels : 2
Sample Rate : 44100
Precision : 16-bit
Duration : 00:02:59.76 = 7927460 samples = 13482.1 CDDA sectors
File Size : 7.48M
Bit Rate : 333k
Sample Encoding: MPEG audio (layer I, II or III)
Comments :
Title=Ethereal Emptiness
Artist=Umbra Vitae
Album=Shadow of Life
Tracknumber=2
Year=2020
Genre=Grindcore
Discnumber=1

[/more]

Register
(18) as71, atavist, cesar, egortitov, Hell_Is_Here, infiltrator, jollo, multizwilling, Olethros, Ostinato, randumbum, samokot, sarcophagus, thecyclops, VALERY, vyacheslav, WX419, Yorker,
Apr 30 2020, 17:54:51 Namet - Propast [ep] (2020)


*Artist: Namet
*Album: Propast [ep]
*Year: 2020
*Genre: Death Metal/Crust
*Country: Croatia
*Format: mp3@CBR320kbps
*Size: 44MB

Tracklist:
1. Gnjev 02:37
2. Krug prevare 02:05
3. Propast 02:01
4. Program 02:21
5. Neka gori 02:28
6. Pokvaren do srži 03:08
7. PHK 01:21
8. ... 02:11
******************************
Total playing time: 18:12




[more=Technical info]
Input File: Namet - Propast (2020) - 02 Krug Prevare.mp3
Channels : 2
Sample Rate : 44100
Precision : 16-bit
Duration : 00:02:05.63 = 5540239 samples = 9422.18 CDDA sectors
File Size : 5.23M
Bit Rate : 333k
Sample Encoding: MPEG audio (layer I, II or III)
Comments :
Title=Krug Prevare
Artist=Namet
Album=Propast (2020)
Tracknumber=2
Year=2020

[/more]

Register
(4) infiltrator, Olethros, Ostinato, Wail,
Apr 30 2020, 15:26:45 Чёрный Обелиск - Тени [ep] (2020)


*Artist: Чёрный Обелиск
*Album: Тени [ep]
*Year: 2020
*Genre: Heavy Metal
*Country: Russian Federation
*Format: mp3@CBR320kbps
*Size: 31MB

Tracklist:
1. Тени 03:23
2. Тем, кто... 03:22
3. Адреналин 03:37
4. Такси 03:26
******************************
Total playing time: 13:48




[more=Extended info]Mikhail Svetlov Guitars (1986, 1987-1988, 1990, 1999-present)
See also: ex-Blaze Bomber, ex-E.S.T., ex-Poltergeist
Dmitry Borisenkov Guitars (1992-1996), Vocals, Guitars (1999-present)
See also: Short-Stay Mission, ex-Рок Синдром, ex-Trizna
Danil Zakharenkov Bass (1999-present)
See also: Glossy Teria, ex-Adolf Castle, ex-E.S.T., ex-Артерия, ex-Рок Синдром, ex-Trizna, ex-Д.И.В.
Maxim Oleynik Drums (2011-present)
See also: Short-Stay Mission, ex-Иван Царевич, ex-Эпитафия, ex-Паника[/more]

[more=Technical info]
Input File: 02_chernii_obelisk_tem_kto.mp3
Channels : 2
Sample Rate : 44100
Precision : 16-bit
Duration : 00:03:22.88 = 8947052 samples = 15216.1 CDDA sectors
File Size : 8.12M
Bit Rate : 320k
Sample Encoding: MPEG audio (layer I, II or III)

[/more]

Register
(19) Aresson, Brann, cesar, gwar, infiltrator, minimums, Niknne, oldvarg, Olethros, Rover, SaintVitus, SAPOGi, sepultura39, Shadechaser, stumpheavyrock, VALERY, varlam4, vir2al, Сварог Барг,
Apr 30 2020, 07:50:34 Czort - Apostoł (2020)


*Artist: Czort
*Album: Apostoł
*Year: 2020
*Genre: Black Metal
*Country: Poland
*Format: mp3@CBR320kbps
*Size: 109MB

Tracklist:
1. Manicheistyczny dualizm wszechświata 06:34
2. Schody podświadomości 04:58
3. Narodziny końca 06:18
4. Manifest niepodległej woli 05:59
5. Grając w szachy z Diabłem 06:02
6. Tchnienia egzystencji 05:04
7. Dysonans duszy 05:09
8. W sercu chaosu 07:28
******************************
Total playing time: 47:32





[more=Technical info]
Input File: 02 - Schody Podświadomości.mp3
Channels : 2
Sample Rate : 44100
Precision : 16-bit
Duration : 00:04:58.39 = 13158999 samples = 22379.2 CDDA sectors
File Size : 12.1M
Bit Rate : 324k
Sample Encoding: MPEG audio (layer I, II or III)
Comments :
Title=Schody Podświadomości
Artist=Czort
Album=Apostoł
Tracknumber=2
Year=2020

[/more]

Register
(39) aleon, alikkon, atavist, Barbiturat, Bzth, Cyrci, El_Chibo, fuoco, GorAtheist, Hell_Is_Here, IFTOS1995, Indamage, infiltrator, isvili, judaz, kim666, Korpse, Morgoth, multizwilling, nadin85, nsk2008, Olethros, randumbum, robertho777, satanist666, SilentNidhogg, symphonicadiction, system36, terron, Tino, toly1917, VALERY, varg-38ru, varlam4, vasiljev_sergej, vov7609, Wail, wolverine, Козлотролль,
Apr 29 2020, 20:52:37 Descendant Of Odin - Avenge Ragnar [ep] (2020)


*Artist: Descendant Of Odin
*Album: Avenge Ragnar [ep]
*Year: 2020
*Genre: Instrumental Melodic Death/Viking Metal
*Country: United Kingdom
*Format: mp3@CBR320kbps
*Size: 68MB

Tracklist:
01. Fall of Aelle
02. War for Ragnar
03. Brothers' last Song
04. The Civil War of Kattegat
05. Rollo Is Back
******************************
Total playing time: 27:04




[more=Technical info]
Input File: 02. War for Ragnar.mp3
Channels : 2
Sample Rate : 44100
Precision : 16-bit
Duration : 00:05:17.70 = 14010350 samples = 23827.1 CDDA sectors
File Size : 13.7M
Bit Rate : 346k
Sample Encoding: MPEG audio (layer I, II or III)
Comments :
Title=War for Ragnar
Artist=Descendant Of Odin
Album=Avenge Ragnar
Tracknumber=2/5
Year=2020

[/more]

Register
(9) csgmnk, infiltrator, Olethros, Ostinato, randumbum, satanist666, terron, zhol, Сварог Барг,

172 Pages V  < 1 2 3 4 5 > » 
- Lo-Fi Version Support form
Copyrights and abuse reports form
Time is now: 3rd June 2020 - 18:36:17