Welcome Guest ( Log In | Register )

История благодарностей участнику old ::: Спасибо сказали: 3092 раз(а)
Дата поста: В теме: За сообщение: Спасибо сказали:
Jun 29 2020, 14:25:30 Instigator Of Grief - ...but Someone Still Plays (2000)
по просьбам трудящихся (BlackArrow), mpc из первого поста
Register
(1) BlackArrow,
Sep 20 2017, 13:26:15 Minotaur Head - Minotaur Head (2016)
Register
(4) Doooomed, Lightbringer, marilin, Purestenchkvlt,
Sep 20 2017, 13:04:55 GreyAblaze - GreyAblaze (2016)
Register
(4) artscald, Doooomed, SS2998, technoboy69,
Sep 12 2017, 13:31:22 Celestial Crown - Rebirth (2016)
Register
(4) Alpha_Prime, AndreFrancis, Jurmagund, SatanicPanzer,
Aug 11 2017, 15:04:11 Mirror Morionis - Our Bereavement Season (2017)
баба поет не очень, а так норм

[youtube]6b5FrxEgXpg[/youtube]
(2) igorzz, Mirddin,
Mar 22 2016, 11:48:00 Stangala - Klañv (2016)
да, грибочки ушли, немного жаль.
но и так вполне интересно
[youtube]g_1rm0BXVvA[/youtube]
(1) KVRT,
Mar 16 2016, 16:14:17 Gods Tower - Liar [single] (2016)
хорошая песня, жду альбом
(1) aserius,
Feb 18 2016, 18:42:19 Dope Smoker - Marijuana (2016)
под это дело вштыривает норм redp.gif особенно проникновенна лирика, за душу берет
всем лиголайз посоны genius.gif
(1) vosmidesijatye,
Dec 10 2015, 17:45:39 Batushka - Litourgiya (2015)
QUOTE(6666666 @ Dec 10 2015, 19:37:32) *
Песня/секунда, пожалуйста. Кроме батюшкиных завываний русского нигде не услышал.

слово "всё" расшифровать? 21.gif

польского языка и даже польского акцента там нет от слова вообще, я гарантирую это.

ребята вбросились чз польского издателя и шифруются теперь, собирая лучи ацкой попоболи со всех(что характерно!) сторон 1488.gif

молодцы, я, пожалуй, даже забашляю им 6 баксов на бандкампе
(1) RENыч,
Dec 1 2015, 11:58:27 Electric Priestess - Electric Priestess (2015)
[youtube]rhS0Q1ZQOi8[/youtube]
(1) KVRT,
Oct 27 2015, 21:59:34 Avatarium - The Girl With The Raven Mask (2015)
QUOTE(SAPOGi @ Oct 27 2015, 18:29:07) *
Чота я прокатился мимо этой группы. Судя по отзывам надо начинать с дебютника, или этот лучше вкатит?.

лично мне больше катит дебютник, но банда, тащемто, на любителя, типа меня
живьем впирают тоже, был в берлине прошлой зимой, они на разогреве 20летия аморфисовского tales from thousand lakes лабали headcrab.png
на гитарах у них лейф ейдлинг, если вдруг кто не в курсе
(1) SAPOGi,
Oct 27 2015, 16:14:32 Avatarium - The Girl With The Raven Mask (2015)
охохох headcrab.png
в ноябре тур, уже бронирую готель в вене metaler.gif
(2) Black Cat, vosmidesijatye,
Oct 21 2015, 15:56:30 Changes & Cadaverous Condition - Time [split] (2004)
перелил
(1) varlam4,
Sep 23 2015, 15:01:06 Elforg - Elforg (2015)
[youtube]EayYSn7KE8g[/youtube]
[youtube]puplEqCdeRM[/youtube]
(2) neoatheist, Old Vyaine,
Jul 24 2015, 18:21:54 Wolvespirit - Free (2015)


*Artist: Wolvespirit
*Album: Free
*Year: 2015
*Genre: Heavy Metal/Psychedelic Rock
*Country: Germany
*Format: mp3@CBR320kbps
*Size: 116MB

Tracklist:
1.I Am Free
2.Shining (Feat. Mark Slaughter)
3.Let Me Live
4.Into The Mirror
5.Angelman
6.Moonlight
7.My Best Friend
8.Wild Woman
9.Is This Love (Feat. Mark Slaughter)
10.Time Lord
11.Spirit In My Soul
12.Sometimes
13.Mercy
******************************
Total playing time: 52:41



[more=Technical info]
Input File: 01 - I Am Free.mp3
Channels : 2
Sample Rate : 44100
Precision : 16-bit
Duration : 00:03:32.42 = 9367898 samples = 15931.8 CDDA sectors
File Size : 8.50M
Bit Rate : 320k
Sample Encoding: MPEG audio (layer I, II or III)
Comments :
Title=I Am Free
Artist=Wolvespirit
Album=Free
Tracknumber=01
Year=2015
Genre=Stoner Rock

[/more]

Register
(9) Buregon, csgmnk, HMHamster, metala, Rosen, Sangre, vosmidesijatye, wgs73, wreak,
Mar 23 2015, 15:40:37 Evoke Thy Lords - Boys! Raise Giant Mushrooms In Your Cellar! (2015)
QUOTE
*Album: Boys! Raise Giant Mushrooms In Your Cellar!

aye aye captain redp.gif
(1) vosmidesijatye,
Mar 23 2015, 15:05:50 Gloaming - Keep Close The Watchfires (2015)
чо не так с вокалом-то? poke_g.gif

в общем, понравилось, но таки жидковато слегка, да
(1) vosmidesijatye,
Mar 16 2015, 11:44:56 Crimson Swan - Unlit (2015)
[youtube]_WqvifrMjqw[/youtube]
(1) Phlebotomized,
Jan 20 2015, 18:41:35 Lilium - Black, Dear (2013)
превью симпатичное, спасибо
(1) denver,
Jan 5 2015, 16:20:10 Soom - Ніч На Полонині (2014)
лириксы, конечно, у этих харьковчан - обнять и плакать

Сьогодні зранку
Хапав крізь банку
А уночі
Дрочив мріючи
hmm.gif

благо, их мало и на слух не разобрать

а музон отличный, например 20.gif headcrab.png
(2) GoatFucker, vosmidesijatye,
Dec 24 2014, 11:28:48 Põhjast - Matused (2014)
ну вот нахрена на английском-то... poke_g.gif
ести келес было бы намного лучше dwarf-1.gif
(1) Bulldozzzzzzer,
Oct 30 2014, 18:36:34 Despair - History Of Hate (1988)
Register
(1) Barricade,
Oct 21 2014, 15:03:16 At The Gates - At War With Reality (2014)
пичяль
[youtube]hzjshF0TFm8[/youtube]
(2) MMMMM, Rosen,
Oct 15 2014, 16:17:21 Wormwood - Wormwood (2014)
пункс нот дед banana.gif
(1) x_redwhite,
Oct 15 2014, 16:02:26 House Of Lightning - Lightworker (2014)
бандкамп слегка не тот, вот правильная ссылка
(1) artscald,

24 Pages V   1 2 3 > » 
- Lo-Fi Version Support form
Copyrights and abuse reports form
Time is now: 27th September 2020 - 03:38:25