Welcome Guest ( Log In | Register )

Объявления

* gmail.com упорно продолжает считать почту с нас "unsolicited" и отбивает в том числе и письма активации, поэтому просьба использовать альтернативные почтовые ящики.
------------
* gmail.com continues reject all mail from us as "unsolicited" (activation mails too) therefore please use alternate mail servers.
История благодарностей участнику Winterkalte ::: Спасибо сказали: 132 раз(а)
Дата поста: В теме: За сообщение: Спасибо сказали:
Jun 4 2024, 19:59:30 Sotherion - Vermine (2024)
Хорошо, но звук на демке мне нравился намного больше
(1) Occultas,
Nov 19 2023, 10:35:34 Phantom Winter - Her Cold Materials (2023)
Отличный альбом, намного лучше прошлых двух. Местами более медленно и атмосферно, чувствуется дух их прошлого проекта Omega Massif, и это прямо однозначно на пользу пошло. Единственный минус для меня - куколдские подлизывания феминизму в текстах на бэндкампе
(1) DarkHorde,
May 11 2022, 17:50:06 Mejores álbumes de Black-Metal 2022 / Лучшие блэк-метал альбомы 2022 / Best Black-Metal Albums 2022
Sotherion - Schwarmgeist
(2) metaljosue, Occultas,
Dec 29 2021, 20:35:55 Hatefrost & Wolfenburg - Tęsknota Przeszłych Czasów [split] (2021)
ЦИТАТА(Moonshtook @ Dec 29 2021, 19:11:24) *
Who is Jacob?

У них на обложке волки из мегатрушного фильма про жутких вампиров и оборотней "сумерки"
(1) Storky,
Dec 18 2021, 18:58:32 Funeral Mist - Deiform (2021)
Обидно, но разочарован, как и в прошлом альбоме. Скучная долбёжка, кроме пары треков. Мараната, видимо, была пиком творчества. Ну или Ариох зря распыляется ещё и на Мардук.
(1) ent404,
Sep 16 2019, 08:38:46 Психоз 4.48 - Сезоны Умирания (2019)
*Артист: Психоз 4.48 Умирания
*Альбом: Сезоны Умирания
*Год: 2019 Умирания
*Стиль: Depressive Black Metal Умирания
*Страна: Russian Federation Умирания
*Формат: mp3@CBR320kbps Умирания
*Размер: 111MB Умирания

Треклист Умирания:
01. Весна Умирания 09:22
02. Лето Умирания 12:53
03. Осень Умирания 12:45
04. Зима Умирания 13:31
(5) Krosis, Nattfodd, nsk2008, SatanicPanzer, thanataur,
Oct 7 2018, 14:17:27 Ultha - The Inextricable Wandering (2018)
Отличная вещь, жаль особого внимания тут не наблюдается.
(1) Anataas,
Jan 24 2018, 09:51:03 WOWOD - Nutro (2018)
Oh uzh etot translit... Srazu viglyadish tipo zagado4no!
(1) Ghostb,
Oct 25 2016, 10:36:57 Tsarina - Царица [demo] (2016)
ЦИТАТА(Old Vyaine @ Oct 25 2016, 12:48:56) *
Veggr, трю багахульный баец?

Всем известно, что женщинам не место в гомоэротическом мире блэк-металла (с)
(2) infiltrator, Old Vyaine,
Jan 30 2016, 14:33:41 Spektr - The Art To Disappear (2016)
Дьявольски крутая вещь
(3) ent404, Evilded, sethurius,
Mar 13 2014, 17:24:37 Frozen Ocean - The Dyson Swarm (2014)


*Artist: Frozen Ocean
*Album: The Dyson Swarm
*Year: 2014
*Genre: Dark Metal/Electronics/Ambient
*Country: Russian Federation
*Format: mp3@CBR320kbps
*Size: 111MB

Tracklist:
1. Syzygy
2. CE-4
3. Sloan Great Wall
4. SHGb02+14a
5. Exoplanet (HD 85512 b)
6. The Dyson Swarm
7. UDFj-39546284
******************************
Total playing time: 49:33

[more=Extended info]Юбилейный, пятнадцатый релиз Frozen Ocean.
Концептуальная работа на стыке среднетемповой электроники и космического dark metal.
Издан немецким лейблом Kristallblut Records, CD в 6-панельном дигипаке, оформленном Флегетоном из Wormed.
Издание лимитировано в 500 копий, а первым 100 приобретшим полагается бесплатный постер А2.[/more]

[more=Technical info]
Input File: 01 - Syzygy.mp3
Channels : 2
Sample Rate : 44100
Precision : 16-bit
Duration : 00:05:08.12 = 13588092 samples = 23109 CDDA sectors
File Size : 12.3M
Bit Rate : 320k
Sample Encoding: MPEG audio (layer I, II or III)
Comments :
Title=Syzygy
Artist=Frozen Ocean
Album=The Dyson Swarm
Tracknumber=1
Year=2014

[/more]

Register
(29) 666BlackDeath, Andr, artscald, blacky66, Carcharoth, caro, Constantinus I, Growlpapa, Hell_Is_Here, metala, Moonshtook, Old Vyaine, oldvarg, Orkkh, Ostinato, rammstein888, recber, Reverend, RUSP73, Saalingurth, senecazm, shadow666, Stringer, tamerz, tont, User123, varlam4, vasiljev_sergej, wreak,
Jan 9 2014, 16:19:29 Alcest - Shelter (2014)
Думаю, кабы это издали под другой вывеской, столько восторженных комментов бы не понапейсали. Скучная и занудная, даже по меркам пост-рока, вещь. Снежок скатился
(3) Dmitry1977, ugly, Госпромнадзор,
Jul 5 2013, 15:11:24 Frozen Ocean & Petrychor - Autumn Bridges [split] (2013)


*Artist: Frozen Ocean & Petrychor
*Album: Autumn Bridges [split]
*Year: 2013
*Genre: Blackened Shoegaze/Post-Rock | Atmospheric Folk/Black Metal
*Country: Russian Federation | United States
*Format: mp3@CBR320kbps
*Size: 51MB

Tracklist:
Petrychor:
1. Tomorrow It Will Rain Over Bouville 13:04
Frozen Ocean:
2. To Drown In Hoary Grass 05:23
3. Autumn Bridges 05:02
******************************
Total playing time: 23:29



[more=Technical info]
Input File: 03. Autumn Bridges.mp3
Channels : 2
Sample Rate : 44100
Precision : 16-bit
Duration : 00:05:02.53 = 13341529 samples = 22689.7 CDDA sectors
File Size : 12.1M
Bit Rate : 320k
Sample Encoding: MPEG audio (layer I, II or III)
Comments :
Title=Autumn Bridges
Artist=Frozen Ocean
Tracknumber=03

[/more]

Register
(37) 0x13, 666BlackDeath, artscald, blacky66, Blut aus Nord, Carcharoth, caro, Cartman223, Daarkan, dorn1, Emhyr var Emreis, Foresign, hastur, Hell_Is_Here, Hswhhh, Infidel, Koscheyushka, Lanceatum, matteo, Old Vyaine, Orkkh, princeshr, Reverend, satanist666, serach, shadow666, SIAVASH, smes, tont, trabantfan, umoral666, User123, varlam4, wreak, ZA670, Абигор, Герб,
Oct 8 2012, 12:21:14 Frozen Ocean - A Perfect Solitude (2012)
QUOTE(Glioma @ Oct 8 2012, 13:48:29) *
В смысле большинство эмбиента?

скорее атмосферный метал =)
(1) Glioma,
Oct 8 2012, 09:12:51 Frozen Ocean - A Perfect Solitude (2012)
есть на диске =) хороший альбом, только блэка уже нет
(1) Foresign,
Aug 16 2012, 11:12:58 Göatfukk - Procession Of Forked Tongues [ep] (2012)
Не, на самом деле послушай smile1.gif просто уж очень забавно названия совпали. Да и облоги похожие
Antimelodix ещё
(1) Battaleon,
Aug 2 2012, 15:26:34 Поцелуй Бомжа - На Ночь [demo] (2012)
первый трек в клочья порвал =)
(1) bolt_ps,
Jun 15 2012, 09:27:32 The Grotesquery - The Facts And Terrifying Testament Of Mason Hamilton: Tsathoggua Tales (2012)
не могу пройти мимо такого треклиста
(1) vosmidesijatye,
Apr 22 2012, 19:17:03 Hypomanie - Calm Down, You Weren't Set On Fire (2012)
QUOTE(popen13 @ Apr 22 2012, 22:02:28) *

на третью
(1) popen13,
Apr 20 2012, 19:32:57 Возмездие - Хаос (2012)
справедливости ради, музыкально не совсем говно. хотя не интересно и вторично.
(1) vozmezdie666,
Feb 22 2012, 17:20:01 Frozen Ocean - Likegyldig Raseri (2011)
вот этот чел не должен подвести)
так и вышло pray.gif
(1) Foresign,
Jan 24 2012, 15:24:02 Sektemtum - Aut Caesar Aut Nihil [studio clip] (2012)
что самое смешное, если поменять местами видеоряд в клипах, то выводы, сделанные Vertigo, останутся актуальными)
(4) D.S.Embassy, deadland, fuck3r, Vertigo,
Jan 2 2012, 08:59:10 Castle Wolfenstein - Demo 1 [demo] (2010)
QUOTE(waldemardr @ Jan 2 2012, 11:40:24) *
crazy.gif

[more="я думал, обложка будет примерно такая"] http://s.lurkmore.to/images/0/05/Wolfenstein-3d.jpg [/more]


[more="такая?"][/more]
(2) Rusty Knight, waldemardr,
Dec 2 2011, 20:33:39 Alcest - Autre Temps [studio clip] (2011)
Отвратительно
(2) deathrush666, WinterSoul,
Oct 23 2011, 07:57:30 Rancour - Раскалённые Кресты (2011)
...а лучше не играть вообще
(2) Evilded, varyag,

2 Pages V   1 2 >
- Lo-Fi Version Support form
Copyrights and abuse reports form
Time is now: 14th June 2024 - 06:41:48