Welcome Guest ( Log In | Register )

История благодарностей участнику KVRT ::: Спасибо сказали: 2072 раз(а)
Дата поста: В теме: За сообщение: Спасибо сказали:
Oct 2 2021, 17:16:08 Rivers Of Nihil - The Work (2021)
весьма!! 9.gif
мне как не почитателю технодетхов и пр.. работа крайне прияццтвенна. осознаю утраты фэннатов, но для меня это новое, свежее открытие bye.gif
(1) p4B10,
Aug 17 2021, 19:26:01 Firmament - Comfortable Oppression (2021)
приятная, расслабляющая работа.. и по вокалу/ам - всё замечательно 9.gif
(1) krotovich,
Jun 18 2021, 10:15:48 VI - De Praestigiis Angelorum (2015)
чутка некромантии..
Register
(1) wreak,
Feb 12 2021, 09:46:30 Ablaze My Sorrow - Among Ashes And Monoliths (2021)
весъма калорийно, banana.gif например
(1) Mplast,
Jan 2 2021, 20:09:24 Torfrom - Culto Al Terror (2020)
облошк - хорош, вокал - нет.. 21.gif
(1) Taakeferd,
Dec 11 2020, 20:39:49 Aphotic Zone - In The Name Of Sorrow (2019)
приятные инструментальные пассажи, вокал - сумбурный, но общей картины не портит.. а вот, кассательно гитарных секций - скудненько.. но как для однолюдного проекта, в добавок из ирана... аранжировка и сведение материала наталкивает на параллели с Filosofem 1488.gif
конечно жэ, не номиминант на признание года, но и внимания обязан быть удостоен
(1) avather,
Nov 28 2020, 22:29:22 Drowning The Light - On Astral Wings Of Wamphyric Shadows (2020)
ЦИТАТА(vosmidesijatye @ Nov 28 2020, 19:57:09) *
...And the statement about melodies is weird. There`s plenty of melodies here.

то тыж не шаришш..
всуе прёшш обутым в сабж, в коем, вовсе, не сведущщ bye.gif
(1) Alexis The Best,
Nov 2 2020, 08:59:34 Dark Reality - Umbra Cineris (1994)
ЦИТАТА(Flowergatherer @ Nov 1 2020, 17:10:57) *
REup please!!!

Register
(4) Flowergatherer, M7000, wendigo, WX419,
Oct 20 2020, 20:55:32 Vagina Witchcraft - Vagina Witchcraft (2020)
Fronted by genderqueer nonbinary poet & activist Kayla Fernandes
..уверен, спешилли и забылли дописать Vegan*
(1) Winterkalte,
Oct 20 2020, 14:03:16 Enter The Soil - The Still Forest, Bathed In Mist (2020)
трепетные обнимашки.. иссушенными, закоченелыми конечностями на фоне заката с дымкой и циклически-вяло-убывающего лиственного покрова headcrab.png
(1) Bloodn Lord,
Sep 22 2020, 12:59:42 Голос Омерики - Чехословакия (2020)


*Artist: Голос Омерики
*Album: Чехословакия
*Year: 2020
*Genre: Ska, Punk
*Country: Russian Federation
*Format: mp3@CBR320kbps
*Size: 129MB

Tracklist:
01.Как ох@нно нигде не работать 3:57
02.Министр культуры 3:38
03.Чёрный плащ 2:49
04.Мизантроп 3:29
05.Русская трэшня 3:32
06.Звук – говно, пиво дорогое! 3:39
07.Тёплая китайская куртка 3:18
08.Спецотряд ЧУМА 3:58
09.Знаем, плавали! 3:25
10Овердох@ища 3:54
11.ВММХЗК 3:50
12.Поле чудес 4:11
13.Чехословакия 4:09
14.Родина 4:30
15.Чёрный плащ Кабаре–версия 3:46
******************************
Total playing time: 56:05

Preview 1
Preview 2
Preview 3

[more=Extended info]About
"Golos Omeriki" was founded in 2004 in Moscow. Alco - chanson - cabaret - punk!

[youtube]VejtP-T3j-g[/youtube] [youtube]ji_igj2u3Pc[/youtube][/more]

[more=Technical info]
Input File: 02. Министр культуры.mp3
Channels : 2
Sample Rate : 44100
Precision : 16-bit
Duration : 00:03:38.15 = 9620415 samples = 16361.2 CDDA sectors
File Size : 8.79M
Bit Rate : 322k
Sample Encoding: MPEG audio (layer I, II or III)
Comments :
Title=Министр культуры
Artist=Голос Омерики
Album=Чехословакия
Tracknumber=2/15
Year=2020
Genre=121
Discnumber=1/1

[/more]

Register
(10) Aresson, DarkHorde, DMIYUR, gwar, infiltrator, oldvarg, Olethros, sabr, smysl, VALERY,
Aug 25 2020, 19:33:53 Brimstone Coven - The Woes Of A Mortal Earth (2020)
кошшерно.. маххрово, лампово...
(1) vosmidesijatye,
Aug 8 2020, 15:37:22 Emma Ruth Rundle - On Dark Horses (2018)


*Artist: Emma Ruth Rundle
*Album: On Dark Horses
*Year: 2018
*Genre: Folk/Post Rock/Experimental
*Country: United States
*Format: mp3@CBR320kbps
*Size: 93MB

Tracklist:
01. Fever Dreams
02. Control
03. Darkhorse
04. Races
05. Dead Set Eyes
06. Light Song
07. Apathy on the Indiana Border
08. You Don't Have To Cry
******************************
Total playing time: 42:06


Preview 2

[more=Extended info]
Emma Ruth Rundle - Guitars, Vocals, Flute, Percussion
Dylan Naydon - Drums, Percussion
Evan Patterson - Guitar, Vocals, Piano
Todd Cook - Bass
[youtube]TXCjEKpwtRc[/youtube][/more]

[more=Technical info]
Input File: 04 Races.mp3
Channels : 2
Sample Rate : 44100
Precision : 16-bit
Duration : 00:05:34.66 = 14758638 samples = 25099.7 CDDA sectors
File Size : 13.4M
Bit Rate : 321k
Sample Encoding: MPEG audio (layer I, II or III)
Comments :
Title=Races
Artist=Emma Ruth Rundle
Album=On Dark Horses
Tracknumber=4/8
Year=2018
Genre=Indie

[/more]

Register
(10) A.L.Rapsod, Angry_Chair, bloodwind, ent404, grimoir, infiltrator, Olethros, Ostinato, Tyrone, yuratroll,
Jul 29 2020, 19:24:12 Hyperborea - Umbra (2019)
Register
(1) hate_eternal,
Jun 19 2020, 09:08:14 Jupiterian - Terraforming (2017)
Register
bye.gif
(7) boby9052, kolar666, mirotvorets, Occultas, repulssion, Sabbathian, SatanicPanzer,
Jun 15 2020, 08:42:29 Лучшая песня в истории HELLOWEEN!
Forever and One (Neverland) 19.gif
(1) Deze,
Apr 22 2020, 11:30:37 Чудодейственные свойства гомеопатии, или Голосовалка за лучший альбом 2019 года, Тур 2, Плэй-офф
ЦИТАТА(Фо @ Apr 22 2020, 10:25:36) *
Я вот, к примеру, тоже совсем перестал употреблять, и как то веселее, право слово.

ибо меру знать надо 1488.gif
дык, ежели на баллансе можно всю жисть жыть припиваючи.. а коли усугублять, дак и облегчение после полной отмены потребления будет не искренним..
(1) BleedingSun,
Apr 22 2020, 11:27:26 Чудодейственные свойства гомеопатии, или Голосовалка за лучший альбом 2019 года, Тур 2, Плэй-офф
ЦИТАТА(hammer @ Apr 22 2020, 10:24:39) *
Вы в оба - в сад!

в детсад 1488.gif
(1) BleedingSun,
Apr 15 2020, 07:35:47 Kitchen Knife Conspiracy - Seven Deadly Sins (2015)
Register
(3) Golfzilla, hammer, Strangler,
Mar 17 2020, 16:23:29 Soliloquium - Things We Leave Behind (2020)
довольно сумбурненько и жыдденько bye.gif
(1) Metalass,
Dec 29 2019, 22:12:33 Daeth/Doom/Gothic Metal
ЦИТАТА(Tarelka @ Dec 29 2019, 21:08:52) *
Darkseed чей-то проект вроде? Не крематори?

нет.. но немцы
Участники: Штефан Хертрих, Харальд Винклер, Томас Херманн, Андреас Веккер, Маурицио Гуоло, Армин Дорфлер, Вилли Вурм
(1) Tarelka,
Dec 29 2019, 22:06:12 Daeth/Doom/Gothic Metal
[youtube]02nMzcGeMi0[/youtube]

Darkseed - Romantic Tales (1994)
(1) Tarelka,
Dec 29 2019, 21:48:57 Daeth/Doom/Gothic Metal
Thorr's Hammer is a female fronted Doom Metal band from Seattle, Washington that unfortunately only released one 4 song EP called "Dommedagsnatt" in 1994-1995 before the band disbanded and singer Runhild Gammels?ter went back to Oslo, Norway.
[youtube]iYWGiNLbmhs[/youtube]
и.м.х.о.-нетленочка headcrab.png
(1) Tarelka,
Dec 29 2019, 14:31:11 Голос Омерики - Хардкор (2017)


*Artist: Голос Омерики
*Album: Хардкор
*Year: 2017
*Genre: Punk Rock/Ska
*Country: Russian Federation
*Format: mp3@CBR320kbps
*Size: 128MB

Tracklist:
01. Мамбо итальяно
02. Депрессия
03. Долбо*бизм
04. 8 Марта
05. У*бан
06. Гаджет
07. Импотент
08. Х*йня
09. Клубника - облепиха
10. Fuck vegan! (Go cannibal!)
11. Don't stop DJ (feat. Чача Иванов)
12. Дезоморфин
13. На г*вно
14. Паранойя
15. Хардкор
******************************
Total playing time: 55:36

[more=Extended info]Состав Родион Лубенский — вокал, аккордеон, клавиши, слова, музыка
Александр Воробьёв — гитара, банджо, балалайка, бэк-вокал
Сергей Шмельков — бас-гитара, бэк-вокал
Алексей Боев — барабаны
Михаил "Карней" Карнейчик — перкуссия, танцы
Георгий Янковский — скрипка, бэк-вокал
[youtube]HgR02fslRhI[/youtube][/more]

[more=Technical info]
Input File: 10. Fuck vegan.mp3
Channels : 2
Sample Rate : 44100
Precision : 16-bit
Duration : 00:03:41.86 = 9784202 samples = 16639.8 CDDA sectors
File Size : 8.95M
Bit Rate : 323k
Sample Encoding: MPEG audio (layer I, II or III)
Comments :
Title=Fuck vegan
Artist=Голос Омерики
Album=Хардкор
Tracknumber=10/15
Year=2017
Genre=121
Discnumber=1/1

[/more]

Register
(2) gwar, VALERY,
Dec 26 2019, 21:47:14 Spiral Skies - Blues For A Dying Planet (2018)
ЦИТАТА(helvetestoner @ Dec 19 2019, 20:07:38) *
reupload it please!

Register
(1) Jurmagund,

39 Pages V   1 2 3 > » 
- Lo-Fi Version Support form
Copyrights and abuse reports form
Time is now: 29th November 2021 - 21:41:21