Welcome Guest ( Log In | Register )

История благодарностей участнику KVRT ::: Спасибо сказали: 2148 раз(а)
Дата поста: В теме: За сообщение: Спасибо сказали:
Jun 4 2022, 19:01:52 Dissonance - Concealed (1995)
an act of necromacy 25.gif

Register
(4) as71, Carcharoth, hell_armageddon, Lecter7,
May 14 2022, 10:34:57 Aara - Triade II: Hemera (2022)
отличчне музонъ, канонничне вокаллъ 9.gif
(1) Occultas,
May 13 2022, 08:53:13 Jungle Rot - A Call To Arms (2022)
ЦИТАТА(vosmidesijatye @ May 12 2022, 11:24:28) *
За этих ребят спасибо! Отменная группа!

ФУ..! МЯТАЛ (Ц)
(1) SatanicPanzer,
Apr 7 2022, 20:05:39 Lux Incerta - Dark Odyssey (2022)
прияцтвенно.. непринуждённо headcrab.png
(1) BleedingSun,
Jan 5 2022, 09:53:06 The Revenge Project - Deceit-Demise (2019)
актъ некромантии 9.gif
Register
(4) after21allD, ger_man_thorn, GorAtheist, wreak,
Nov 19 2021, 21:41:33 The Bridge City Sinners - Unholy Hymns (2021)


*Artist: The Bridge City Sinners
*Album: Unholy Hymns
*Year: 2021
*Genre: Folk, Bluegrass, Punk
*Country: United States
*Format: mp3@CBR320kbps
*Size: 79MB

Tracklist:
01 - The Devil's Swing 02:26
02 - Rock Bottom 03:34
03 - Departed 02:15
04 - Pick Your Poison 02:18
05 - Devil Like You 02:50
06 - Love Of Mine 03:49
07 - The Legend Of Olog-hai, Pt. 1 02:45
08 - The Legend Of Olog-hai, Pt. 2 03:04
09 - The Fear 02:41
10 - The Damned 02:47
11 - Unholy Hymns 04:00
******************************
Total playing time: 32:29



Preview 3

[more=Extended info]Libby Lux - Lead Vocals & Banjolele
Michael Sinner - Resonator Guitar
Lightnin’ Luke - Fiddle
Clyde McGee - Banjo
Scott Michaud - Upright Bass

ADDITIONAL MUSICIANS
Supporting back up vocals on “Rock Bottom'' by Connor O’Neal, Shawn D'Amario, & Spencer Mode of the all mighty Tejon Street Corner Thieves. Supporting screams on “The Fear” by Veronica Sendejas & Jesse Edward Sendejas. Supporting back up vocals on “Unholy Hymns'' by Connor O’Neal, Shawn D'Amario, Spencer Mode, Whitney Flynn & a girl named Lyz. Trombone on “Unholy Hymns” by Andrew Carew of Larry and His Flask. Guitar on “The Devil’s Swing” played by Clyde McGee.

[youtube]ZDgp1Z3EPVU[/youtube][/more]

[more=Technical info]
Input File: 01 - The Devil\'s Swing.mp3
Channels : 2
Sample Rate : 44100
Precision : 16-bit
Duration : 00:02:26.85 = 6475865 samples = 11013.4 CDDA sectors
File Size : 6.26M
Bit Rate : 341k
Sample Encoding: MPEG audio (layer I, II or III)
Comments :
Title=The Devil's Swing
Artist=The Bridge City Sinners
Album=Unholy Hymns
Tracknumber=01/11
Year=2021
Genre=Dark Folk, Folk Punk
Discnumber=1/1

[/more]

Register
(1) Pornokrator,
Oct 2 2021, 17:16:08 Rivers Of Nihil - The Work (2021)
весьма!! 9.gif
мне как не почитателю технодетхов и пр.. работа крайне прияццтвенна. осознаю утраты фэннатов, но для меня это новое, свежее открытие bye.gif
(1) p4B10,
Aug 17 2021, 19:26:01 Firmament - Comfortable Oppression (2021)
приятная, расслабляющая работа.. и по вокалу/ам - всё замечательно 9.gif
(1) krotovich,
Jul 22 2021, 12:37:56 Eyehategod - Preaching The End-Time Message [best of/compilation] (2005)
ЦИТАТА(menofiliomano @ Jul 22 2021, 01:17:12) *
please someone reup 6.gif

Register
(1) Ash_1980,
Jun 18 2021, 10:15:48 VI - De Praestigiis Angelorum (2015)
чутка некромантии..
Register
(4) aimtoknow, ent404, wreak, yarrsuaa,
Feb 12 2021, 09:46:30 Ablaze My Sorrow - Among Ashes And Monoliths (2021)
весъма калорийно, banana.gif например
(1) Mplast,
Jan 2 2021, 20:09:24 Torfrom - Culto Al Terror (2020)
облошк - хорош, вокал - нет.. 21.gif
(1) Taakeferd,
Dec 11 2020, 20:39:49 Aphotic Zone - In The Name Of Sorrow (2019)
приятные инструментальные пассажи, вокал - сумбурный, но общей картины не портит.. а вот, кассательно гитарных секций - скудненько.. но как для однолюдного проекта, в добавок из ирана... аранжировка и сведение материала наталкивает на параллели с Filosofem 1488.gif
конечно жэ, не номиминант на признание года, но и внимания обязан быть удостоен
(1) avather,
Nov 28 2020, 22:29:22 Drowning The Light - On Astral Wings Of Wamphyric Shadows (2020)
ЦИТАТА(vosmidesijatye @ Nov 28 2020, 19:57:09) *
...And the statement about melodies is weird. There`s plenty of melodies here.

то тыж не шаришш..
всуе прёшш обутым в сабж, в коем, вовсе, не сведущщ bye.gif
(1) Alexis The Best,
Nov 2 2020, 08:59:34 Dark Reality - Umbra Cineris (1994)
ЦИТАТА(Flowergatherer @ Nov 1 2020, 17:10:57) *
REup please!!!

Register
(4) Flowergatherer, M7000, wendigo, WX419,
Oct 20 2020, 20:55:32 Vagina Witchcraft - Vagina Witchcraft (2020)
Fronted by genderqueer nonbinary poet & activist Kayla Fernandes
..уверен, спешилли и забылли дописать Vegan*
(1) Winterkalte,
Oct 20 2020, 14:03:16 Enter The Soil - The Still Forest, Bathed In Mist (2020)
трепетные обнимашки.. иссушенными, закоченелыми конечностями на фоне заката с дымкой и циклически-вяло-убывающего лиственного покрова headcrab.png
(1) Bloodn Lord,
Sep 22 2020, 12:59:42 Голос Омерики - Чехословакия (2020)


*Artist: Голос Омерики
*Album: Чехословакия
*Year: 2020
*Genre: Ska, Punk
*Country: Russian Federation
*Format: mp3@CBR320kbps
*Size: 129MB

Tracklist:
01.Как ох@нно нигде не работать 3:57
02.Министр культуры 3:38
03.Чёрный плащ 2:49
04.Мизантроп 3:29
05.Русская трэшня 3:32
06.Звук – говно, пиво дорогое! 3:39
07.Тёплая китайская куртка 3:18
08.Спецотряд ЧУМА 3:58
09.Знаем, плавали! 3:25
10Овердох@ища 3:54
11.ВММХЗК 3:50
12.Поле чудес 4:11
13.Чехословакия 4:09
14.Родина 4:30
15.Чёрный плащ Кабаре–версия 3:46
******************************
Total playing time: 56:05

Preview 1
Preview 2
Preview 3

[more=Extended info]About
"Golos Omeriki" was founded in 2004 in Moscow. Alco - chanson - cabaret - punk!

[youtube]VejtP-T3j-g[/youtube] [youtube]ji_igj2u3Pc[/youtube][/more]

[more=Technical info]
Input File: 02. Министр культуры.mp3
Channels : 2
Sample Rate : 44100
Precision : 16-bit
Duration : 00:03:38.15 = 9620415 samples = 16361.2 CDDA sectors
File Size : 8.79M
Bit Rate : 322k
Sample Encoding: MPEG audio (layer I, II or III)
Comments :
Title=Министр культуры
Artist=Голос Омерики
Album=Чехословакия
Tracknumber=2/15
Year=2020
Genre=121
Discnumber=1/1

[/more]

Register
(10) Aresson, DarkHorde, DMIYUR, gwar, infiltrator, oldvarg, Olethros, sabr, smysl, VALERY,
Aug 25 2020, 19:33:53 Brimstone Coven - The Woes Of A Mortal Earth (2020)
кошшерно.. маххрово, лампово...
(1) vosmidesijatye,
Aug 8 2020, 15:37:22 Emma Ruth Rundle - On Dark Horses (2018)


*Artist: Emma Ruth Rundle
*Album: On Dark Horses
*Year: 2018
*Genre: Folk/Post Rock/Experimental
*Country: United States
*Format: mp3@CBR320kbps
*Size: 93MB

Tracklist:
01. Fever Dreams
02. Control
03. Darkhorse
04. Races
05. Dead Set Eyes
06. Light Song
07. Apathy on the Indiana Border
08. You Don't Have To Cry
******************************
Total playing time: 42:06


Preview 2

[more=Extended info]
Emma Ruth Rundle - Guitars, Vocals, Flute, Percussion
Dylan Naydon - Drums, Percussion
Evan Patterson - Guitar, Vocals, Piano
Todd Cook - Bass
[youtube]TXCjEKpwtRc[/youtube][/more]

[more=Technical info]
Input File: 04 Races.mp3
Channels : 2
Sample Rate : 44100
Precision : 16-bit
Duration : 00:05:34.66 = 14758638 samples = 25099.7 CDDA sectors
File Size : 13.4M
Bit Rate : 321k
Sample Encoding: MPEG audio (layer I, II or III)
Comments :
Title=Races
Artist=Emma Ruth Rundle
Album=On Dark Horses
Tracknumber=4/8
Year=2018
Genre=Indie

[/more]

Register
(10) A.L.Rapsod, Angry_Chair, bloodwind, ent404, grimoir, infiltrator, Olethros, Ostinato, Tyrone, yuratroll,
Jul 29 2020, 19:24:12 Hyperborea - Umbra (2019)
Register
(1) hate_eternal,
Jun 19 2020, 09:08:14 Jupiterian - Terraforming (2017)
Register
bye.gif
(8) boby9052, kolar666, mirotvorets, Occultas, quarantine, repulssion, Sabbathian, SatanicPanzer,
Jun 15 2020, 08:42:29 Лучшая песня в истории HELLOWEEN!
Forever and One (Neverland) 19.gif
(1) Deze,
Apr 22 2020, 11:30:37 Чудодейственные свойства гомеопатии, или Голосовалка за лучший альбом 2019 года, Тур 2, Плэй-офф
ЦИТАТА(Фо @ Apr 22 2020, 10:25:36) *
Я вот, к примеру, тоже совсем перестал употреблять, и как то веселее, право слово.

ибо меру знать надо 1488.gif
дык, ежели на баллансе можно всю жисть жыть припиваючи.. а коли усугублять, дак и облегчение после полной отмены потребления будет не искренним..
(1) BleedingSun,
Apr 22 2020, 11:27:26 Чудодейственные свойства гомеопатии, или Голосовалка за лучший альбом 2019 года, Тур 2, Плэй-офф
ЦИТАТА(hammer @ Apr 22 2020, 10:24:39) *
Вы в оба - в сад!

в детсад 1488.gif
(1) BleedingSun,

39 Pages V   1 2 3 > » 
- Lo-Fi Version Support form
Copyrights and abuse reports form
Time is now: 2nd December 2022 - 09:57:02