Welcome Guest ( Log In | Register )

История благодарностей участнику AHBAnep ::: Спасибо сказали: 7753 раз(а)
Дата поста: В теме: За сообщение: Спасибо сказали:
Nov 30 2019, 11:47:52 Catch 22 - Angellüst (2017)


*Artist: Catch 22
*Album: Angellüst
*Year: 2017
*Genre: Heavy/Thrash/Power Metal
*Country: United States
*Format: mp3@CBR192kbps
*Size: 73MB

Tracklist:
1. Monkeyshyne 03:23
2. AngelLüst 02:48
3. Sweet Soul Shaker 03:29
4. Guilty as Sin 03:05
5. War Machine 02:47
6. Ring My Bell 03:37
7. Unholy Love 03:38
8. Deal with the Devil 04:26
9. Widow's Watch 03:19
10. Hammer 'n' Anvil 02:47
11. Lady Killer 03:32
12. Rainmaker 03:44
13. Heavier Than Hell 03:59
14. Power and Pain 03:08
15. Lay Ya Down 04:33
******************************
Total playing time: 52:15



Preview 3

[more=Technical info]
Input File: 05 - War Machine.mp3
Channels : 2
Sample Rate : 44100
Precision : 16-bit
Duration : 00:02:45.40 = 7293964 samples = 12404.7 CDDA sectors
File Size : 3.97M
Bit Rate : 192k
Sample Encoding: MPEG audio (layer I, II or III)
Comments :
Title=War Machine
Artist=Catch 22 [USA]
Album=AngelLust
Tracknumber=05
Year=2017
Genre=Power Thrash Metal

[/more]

Register
(9) aviacademy, gwar, metala, Olethros, Rosen, Rover, sergsazan, stumpheavyrock, wgs73,
Nov 30 2019, 11:36:29 Catch 22 - Soulreaper: Evilution/Devilution (2008)
Register
(1) stumpheavyrock,
Nov 27 2019, 19:04:02 Andvaka - Andvana (2019)
"Death" - единственное, что банда забыла пришпандорить к своему BC smile3.gif
(1) krotovich,
Nov 27 2019, 09:04:39 Massemord - Luciferi Imperium (2019)
ЦИТАТА(Moonshtook @ Nov 26 2019, 22:49:01) *
Так лучше ж, чем невнятные поляки

А кто говорит, что этот коллектив плох?
Мотор - настоящий норвежский блэкарь.
(1) FlammenTod666,
Nov 26 2019, 20:59:34 Glorification & Evil Spectrum - Mystical Dimension Of The Almighty Serpent [split] (2017)
Evil Spectrum m0114.gif
(1) Qliphoth,
Nov 26 2019, 20:55:16 French Maide - The Rat (2019)

Это привет из 1994.
Тут есть несколько очень приятных вещиц.
(2) Andrew, Foneg,
Nov 26 2019, 20:46:46 Massemord - Luciferi Imperium (2019)
Тоже клюнул, думал, что поляки..
А это бродячий коллектив из итальянцев, норвега и нашего.
(1) thenecromancer,
Nov 26 2019, 19:03:55 Veneral Disease - Verdicts (1999)
Register
(1) stumpheavyrock,
Nov 26 2019, 18:53:15 Veneral Disease - Perpetual Pain Procedure (2001)
Register
(1) wendigo,
Nov 26 2019, 18:52:33 Veneral Disease - Sworn To Hate (2004)
Register
(1) wendigo,
Nov 26 2019, 09:55:26 Hades - Rebirth Of The Myth (2019)
Это испанцы из Севильи. Играют некую смесь хэви и павера. Довольно уныло.
(1) DarkHorde,
Nov 22 2019, 13:53:59 Sleep Token - Sundowning (2019)
+Alternative Rock
-Metal
Такой же метал, как Muse
(1) vosmidesijatye,
Nov 21 2019, 16:40:37 Monolith - Use Only As Directed (1999) (1) avkruchinin,
Nov 21 2019, 13:49:25 Redline - Gods And Monsters (2019)
[youtube]8ISW6KZ-PCM[/youtube]
Добротный трэд..
(1) avkruchinin,
Nov 20 2019, 10:28:28 Portrait One - Time (2019)
Это бывший Portrait от конца 80-х.
Всё тот же мелодичный хэви.
(1) Yarri,
Nov 17 2019, 10:44:18 Oceanwake - Lights Flashing In Mute Scenery (2019)
Register
(1) kimkayoung,
Nov 17 2019, 08:13:34 Ogre - Thrice As Strong (2019)


*Artist: Ogre
*Album: Thrice As Strong
*Year: 2019
*Genre: Doom Metal/Hard Rock
*Country: United States
*Format: mp3@CBR320kbps
*Size: 103MB

Tracklist:
1. The Future 05:57
2. Hive Mind 05:30
3. Big Man 03:55
4. Judgement Day 05:38
5. Blood of Winter 08:38
6. King of the Wood 05:42
7. Cyber Czar 08:24
******************************
Total playing time: 43:44



Preview 3

[more=Extended info][youtube]p2G5cL3D4pA[/youtube][/more]

[more=Technical info]
Input File: 03 - Big Man.mp3
Channels : 2
Sample Rate : 44100
Precision : 16-bit
Duration : 00:03:55.25 = 10374437 samples = 17643.6 CDDA sectors
File Size : 9.41M
Bit Rate : 320k
Sample Encoding: MPEG audio (layer I, II or III)
Comments :
Title=Big Man
Artist=Ogre
Album=Thrice as Strong
Tracknumber=03
Year=2019
Genre=Doom Metal/70's Rock

[/more]

Register
(11) autumnwood, avkruchinin, Boozer, marilin, metala, nord6666, Olethros, poeira, Rosen, VALERY, Wail,
Nov 15 2019, 19:16:41 Denial - Trail Of Devastation (2008)


*Artist: Denial
*Album: Trail Of Devastation
*Year: 2008
*Genre: Progressive Melodic Death Metal
*Country: Germany
*Format: mp3@CBR320kbps
*Size: 130MB

Tracklist:
1 29/A 01:32
2 Prophet of Disgust 04:37
3 Start to Live 05:17
4 Dimension 666 03:32
5 System Failure 03:30
6 My Gift 03:54
7 Out of Control 05:56
8 Trail of Devastation 05:15
9 Life till Death 03:55
10 Mind Penetration 03:41
11 Broken Wings 03:29
12 Salvation 05:10
13 Trail of Devastation (Bonus Version feat. Sebo) 05:15
******************************
Total playing time: 55:03


Preview 3


[more=Extended info][youtube]k4FtZ2zNs0o[/youtube][/more]

[more=Technical info]
Input File: 11 - Broken Wings.mp3
Channels : 2
Sample Rate : 44100
Precision : 16-bit
Duration : 00:03:29.51 = 9239523 samples = 15713.5 CDDA sectors
File Size : 8.38M
Bit Rate : 320k
Sample Encoding: MPEG audio (layer I, II or III)
Comments :
Title=Broken Wings
Artist=Denial [Germany]
Album=Trail of Devastation
Tracknumber=11
Year=2008
Genre=Progressive Melodic Death Metal

[/more]

Register
(6) metala, Olethros, Ostinato, Rosen, VALERY, Сварог Барг,
Nov 15 2019, 10:14:29 Crusade Of Bards - Tales Of Bards & Beasts (2019)
https://music.yandex.ru/album/8690767
Эти до Святой земли не доберутся никогда.
(1) Foneg,
Nov 15 2019, 10:11:37 Furos - Furos (2019)
https://music.yandex.ru/album/8256693
Похоже на лапотный уан-мэн высер
(1) Foneg,
Nov 15 2019, 09:59:15 Degenerate - Devastation Ahead (2019)
ЦИТАТА(SnaP @ Nov 15 2019, 00:05:56) *
как они?

Дегенеративно 1488.gif
[youtube]AxW7sirlx9Q[/youtube]
и очень мило..
(1) Foneg,
Nov 6 2019, 14:16:45 The Drowning - The Radiant Dark (2019)
ЦИТАТА(vosmidesijatye @ Nov 6 2019, 15:40:40) *
Неужели, это первый пост от юзера выше именно о музыке, а не о "Не тот тип релиза,не та страна, дата не та, перекод, транскод и говнорип" 15.gif

https://i.ibb.co/wWRpyVP/image.jpg
(1) Veggr,
Nov 3 2019, 08:12:22 Ignited - Steelbound (2019) (1) isvili,
Nov 3 2019, 07:52:25 Horizon's End - Skeleton Keys (2019)
[youtube]vsgrmqceMjk[/youtube]
вкусно
(2) Yarri, Нигилист,
Nov 2 2019, 20:07:42 Nova Darkness - Of Doom And Grief (2019) (2) Andrew, Old Vyaine,

108 Pages V   1 2 3 > » 
- Lo-Fi Version Support form
Copyrights and abuse reports form
Time is now: 6th December 2019 - 03:59:08