Welcome Guest ( Log In | Register )

История благодарностей участнику AHBAnep ::: Спасибо сказали: 7590 раз(а)
Дата поста: В теме: За сообщение: Спасибо сказали:
Yesterday, 15:04:00 Prosanctus Inferi - Noctambulous Jaws Within Sempiternal Night (2013)
Register
(1) canadaspaceman,
Oct 13 2019, 11:20:53 Oxbow - The Balls In The Great Meat Grinder Collection [best of/compilation] (1992)
Register

(2) wendigo, wolverine,
Oct 13 2019, 08:17:14 Mojo Jazz Mob - ...From Between The Fields (2019)
Превью совсем лениво искать?



(3) artscald, infiltrator, Ostinato,
Oct 12 2019, 07:36:49 Fireforce - The Iron Brigade [ep] (2019)
Перезаписали 4 песни с последнего альбома с новым вокалистом?
Ну-ну..
(2) infiltrator, Old Vyaine,
Oct 11 2019, 10:58:58 Ethereal Kingdoms - Hollow Mirror (2019)
[youtube]IXVvACjXeQI[/youtube]
Вообще-то неплохо.
(1) Old Vyaine,
Oct 11 2019, 10:39:01 Avataria - The Last Falling (2019)
ЦИТАТА
Dark Thrash Metal


[youtube]B-B9ooRDvhw[/youtube]
(1) Old Vyaine,
Oct 4 2019, 14:21:18 Graveyard - Hold Back The Dawn (2019)
8. Madre De La Noche / Strange Fruit (Billie Holiday cover)
(1) DarkHorde,
Oct 4 2019, 12:02:31 Dying Wish - Üvöltő Sötét (2019)
[youtube]fgZXEHiB2Tc[/youtube]
ох
(1) Old Vyaine,
Oct 4 2019, 11:34:01 Wardress - Dress For War (2019)
[youtube]ZbWA7COlLig[/youtube]
ох
(2) + ATheisT +, Old Vyaine,
Oct 4 2019, 11:10:50 Soul-X - The Killing Machine (2019)

грувятина, однако
(1) DarkHorde,
Oct 1 2019, 17:51:18 Disastrous Murmur - Santo Subito (2019)
ЦИТАТА(Albert66613 @ Oct 1 2019, 17:51:02) *
atavist, скорее всего с винила выложили!вот и такая тихая запись как из трубы,подождём качественной записи из CD диска!а иначе такое невозможно толком послушать,они даже на bandcamp новый альбом до сих пор не выложили!

Это не с винила, нет шумов. Просто пики где-то на половине. Но звук мягкий, как ламповый.
(1) Samaritianin,
Sep 29 2019, 11:16:49 A Day To Fall - Dying Day (2006)
Послушал, неплохой мелодес/металкор (смешно слышать, что тут кора нет). Стёр.
Но личинку отложил.
Register
(1) stumpheavyrock,
Sep 29 2019, 10:45:11 Cult Of Luna - Eternal Music [compilation] (2014)
Soundtrack of the 2010 audiobook "Eviga riket" (A dramatized tale based on the fictional notes of the late mental patient Holger Nilsson).
Музыка психушки)
(1) khestanow3001,
Sep 29 2019, 08:52:02 Black Corsair - Seven Seas (2019) (1) ace73pq,
Sep 28 2019, 11:07:46 Bretus - In Onirica (2012)


*Artist: Bretus
*Album: In Onirica
*Year: 2012
*Genre: Stoner/Doom Metal
*Country: Italy
*Format: mp3@CBR320kbps
*Size: 93MB

Tracklist:
1. Insomnia 07:52
2. The Dawn Bleeds 05:40
3. Down in the Hollow 05:30
4. Leaves of Grass 02:06
5. Escape 05:31
6. Forest of Pain 04:47
7. The Black Sleep 07:54
******************************
Total playing time: 39:20




[more=Extended info]Ghenes - Bass, Guitars (2000-present)
Zagarus - Vocals (Land of Hate, Suum, ex-Uranium 235, ex-A Buried Existence, ex-Zora)
Sest - Drums, Percussion
Faunus - Guitars (Bastardi, Glacial Fear, Lupercalia, Minervium, Zora, ex-Buzrael, ex-A Buried Existence, ex-Desecration)
Neurot - Guitars

[youtube]gdljyrWvocY[/youtube][/more]

[more=Technical info]
Input File: 04 - Leaves Of Grass.mp3
Channels : 2
Sample Rate : 44100
Precision : 16-bit
Duration : 00:02:06.18 = 5564582 samples = 9463.57 CDDA sectors
File Size : 5.05M
Bit Rate : 320k
Sample Encoding: MPEG audio (layer I, II or III)
Comments :
Title=Leaves of Grass
Artist=Bretus
Album=In Onirica
Tracknumber=04
Year=2012
Genre=Rock

[/more]

Register
(10) artscald, chipsgott, infiltrator, marilin, Olethros, Rosen, stub888, TAKATAEL, VALERY, wreak,
Sep 28 2019, 10:19:42 Starborn - Savage Peace (2019)
Register
(1) DTGB,
Sep 28 2019, 08:59:20 Let Them Hang - Ossuary (2019)
Просили полноформат? Слепили вместе три ипихи - получайте! m1234.gif
Но, конечно, хороший винил для ценителей..
(1) defamer666,
Sep 28 2019, 08:44:23 Altered State - Altered State (2019)
[youtube]bcrpuotF1hs[/youtube]
[youtube]ybrELE14PqU[/youtube]
кошерно
(1) MMMMM,
Sep 27 2019, 08:56:52 Vorna - Ajastaika (2013)
Register
(1) artscald,
Sep 27 2019, 08:47:14 Vorna - Sateet Palata Saavat (2019)
(3) Morgoth, Old Vyaine, sok,
Sep 23 2019, 18:06:35 Survive - Immortal Warriors (2019)
ЦИТАТА(krotovich @ Sep 23 2019, 19:53:16) *

[youtube]pgYKbfBkK8k[/youtube]
(5) Dreamtale, infiltrator, krotovich, NecroButcher, Samaritianin,
Sep 23 2019, 14:37:58 Dead Head - The Shark Tapes [ep] (2019)
(1) kauyumari,
Sep 22 2019, 09:08:12 Under The Sign Of The Trident - Under The Sign Of The Trident (2019) (1) Phlebotomized,
Sep 21 2019, 09:16:10 Dave Van Detta - A Revelation Retold (2019)
Serbia
(2) Reverend, Shadechaser,
Sep 20 2019, 10:43:36 The Agonist - Orphans (2019)
(1) Andrew,

106 Pages V   1 2 3 > » 
- Lo-Fi Version Support form
Copyrights and abuse reports form
Time is now: 17th October 2019 - 01:22:38