Welcome Guest ( Log In | Register )

История благодарностей участнику AHBAnep ::: Спасибо сказали: 12408 раз(а)
Дата поста: В теме: За сообщение: Спасибо сказали:
May 22 2022, 06:07:40 Cave In - Heavy Pendulum (2022)

Может, кому эта альтернатива и культ.
(1) Occultas,
May 17 2022, 20:03:07 Blut Aus Nord - Disharmonium - Undreamable Abysses (2022)
ЦИТАТА(as71 @ May 17 2022, 15:59:42) *
Да не услышит обычный человек 20 КГц ни в попе, ни в роке, ни в метале, тем более в том возрасте, в котором пребывает большая часть юзеров МА - если кто-то слышит 16 КГц, то уже респект ему. Настоящий слепой тест все провалят, если только феномен какой-нибудь не отыщется, поэтому не надо переживать на этот счет. А насчет ступеньки на 16-ти интересная информация, но не уверен - посмотрю дома, что-то мне помнится, что я и на проверенных рипах такое встречал.

Да и у меня такого со ступенькой полно. Я просто не спешу и доверяю больше глазам, чем ушам (было бы ещё с чем сравнить).
И кто доказал, что поток хуже звучит, чем флак?
Если и тащу что получше, то чисто ради того, чтоб сомнения не было. Максимализм, мать его.
PS: на 16 и выше ничего не услышать, главное чтобы "костюмчик сидел", тональность не двинулась, обертоны остались.
(1) Occultas,
May 17 2022, 09:55:26 Blut Aus Nord - Disharmonium - Undreamable Abysses (2022)
ЦИТАТА(дивин @ May 17 2022, 10:19:06) *
А как вы определили по спектру, что это ютуб рип? Вроде срез в 20 кГц, что есть гуд. Или я не туда смотрю?

Ступенька на сонограмме на 16 КГц. Характерная для оцифровки потокового аудио. Плюс подозрительно всё слишком раннее. Преждевременное тем более.
(2) Occultas, дивин,
May 16 2022, 21:57:57 Game Over - Hatred [ep] (1990)
Настолько неглупый трэш, что даже скачал для расслушивания.
(1) slack,
May 15 2022, 13:38:57 Battle Symphony - War On Earth (2022)
Register
(1) Marek,
May 15 2022, 10:16:21 Battle Symphony - War On Earth (2022)


*Artist: Battle Symphony
*Album: War On Earth
*Year: 2022
*Genre: Symphonic Heavy/Power Metal
*Country: Greece
*Format: mp3@CBR320kbps
*Size: 168MB

Tracklist:
01. Fire on Earth 05:20
02. Hail Mankind, Hail! 07:40
03. Soul Survivors 05:05
04. Genocide 04:27
05. Power and Glory 05:00
06. The Final Chance 06:10
07. One-Eyed Jack 05:25
08. Sacrifice 05:44
09. Darling 02:41
10. One Day 03:31
11. The Battle Symphony 12:54
12. Los Guerreros (Bonus Track) 05:09
******************************
Total playing time: 1:09:06





[more=Extended info]Battle Symphony - это метал-оперный проект, созданный греческим журналистом и писателем Никосом Цунисом. В симфо-метал-проекте приняли участие различные вокалисты и музыканты, среди которых Николас Лептос (Arrayan Path, ex - Warlord), Тасос Лазарис (Fortress Under Siege), Ди Теодору (Illusory), Григорис Гиарелис (Badd Kharma), Джордж Холливелл (Fortis Ventus) и Кэти Джонсон.
Музыка Battle Symphony - это чистый хэви-метал в сочетании с такими жанрами, как фолк и классическая музыка.
Их дебютный концептуальный альбом представляет научно-фантастическую историю конфликта между повстанческой человеческой армией против инопланетных обитателей планеты Земля.
[youtube]JEQ1JHJi4pE[/youtube][/more]

[more=Technical info]
Input File: 05 - Power and Glory.mp3
Channels : 2
Sample Rate : 44100
Precision : 16-bit
Duration : 00:00:59.90 = 2641678 samples = 4492.65 CDDA sectors
File Size : 2.77M
Bit Rate : 369k
Sample Encoding: MPEG audio (layer I, II or III)
Comments :
Title=Power and Glory
Artist=Battle Symphony
Album=War on Earth
Tracknumber=05
Year=2022
Genre=Symphonic Heavy Power Metal

[/more]

Register
(20) ace73pq, after21allD, andgrek28, artscald, avather, BladeOvDarkness, Bloodline Christian, boby9052, Bregon, caro, chipsgott, csgmnk, gwar, Herrant, metala, MorganaLefayFan, Olrak, Reverend, varlam4, Сварог Барг,
May 15 2022, 09:28:01 Misaligned - Colours (2022)
Продолжение мелодичного Machinæ. Дес надо искать с лупой.
(1) Andrew,
May 15 2022, 09:20:55 Inebrians - Unnatural (2022)
Register
(7) AndreFrancis, BLAUGRANAS, Dante_D, GorAtheist, infernallord, Korpse, Marek,
May 14 2022, 23:21:26 Inner Turmoil - The Void [ep] (2022)

1-й блин
(1) djsema4,
May 14 2022, 21:29:27 Axeheart - Through The Seas And Time (2022)
[youtube]l_DXUMLmdWQ[/youtube]
Весёленький Melodic Heavy/Power. Viking разве что в тематике.
(1) Andrew,
May 14 2022, 17:53:36 Mortuus - Diablerie (2022)
Register
(3) Ignativs, Occultas, rammstein888,
May 14 2022, 07:38:11 Purveyor - Ruminations (2022)
Register
(2) AndreFrancis, Marek,
May 13 2022, 14:36:10 Sevensins - Natural Selection [ep] (2020)


*Artist: Sevensins
*Album: Natural Selection [ep]
*Year: 2020
*Genre: Symphonic Black/Death Metal
*Country: Kazakhstan
*Format: mp3@CBR320kbps
*Size: 40MB

Tracklist:
1. Requiem Pt. 2 01:46
2. Possessed 04:34
3. Lobotomy 03:33
4. Unit 731 03:29
5. Columbine 03:36
******************************
Total playing time: 16:58


Preview 2

Preview 4

[more=Extended info][youtube]h5G6D2Zqxrk[/youtube]
[youtube]uUoz-l-3tLg[/youtube][/more]

[more=Technical info]
Input File: 02 - Possessed.mp3
Channels : 2
Sample Rate : 44100
Precision : 16-bit
Duration : 00:00:59.95 = 2643751 samples = 4496.18 CDDA sectors
File Size : 2.40M
Bit Rate : 320k
Sample Encoding: MPEG audio (layer I, II or III)
Comments :
Title=Possessed
Artist=SevenSins
Album=Natural Selection (EP)
Tracknumber=02
Year=2020
Genre=Symphonic Black/Death Metal

[/more]

Register
(11) artscald, caro, chipsgott, csgmnk, kim666, SABRAX, sergsazan, Shadechaser, VALERY, varlam4, vasiljev_sergej,
May 13 2022, 12:55:36 Cartilage - Dialect Of The Dead (2017)
Более правильный рип
Register
(1) hell_armageddon,
May 13 2022, 08:23:02 Graham Bonnet Band - Day Out In Nowhere (2022)
[youtube]IbakmECj-go[/youtube]
[youtube]RKjLTmWqR7M[/youtube]
(2) ace73pq, Rhoads,
May 12 2022, 22:33:27 Jungle Rot - A Call To Arms (2022)
Register
(5) Ash_1980, BLAUGRANAS, Lux, TheVoidReturned, tschunioronbeer,
May 12 2022, 17:32:53 Jungle Rot - A Call To Arms (2022)
ЦИТАТА(Terrorizer @ May 12 2022, 17:40:16) *
Вроде, как всегда на стыке Vader/Obituary: по раздельности оно уже слышалось когда-то и надо ли заново и вместе ... двоякие ощущения. Вокалиста бы им помощней.

11-й полноформат группы на счету вокалиста/гитариста, а тут всё равно есть рассуждатели за Вэйдер/Обитари и слабость вокала. Дебют, что ли? Тьфу!
(3) Ash_1980, SaintVitus, Samaritianin,
May 11 2022, 16:59:08 Evergrey - A Heartless Portrait: The Orphean Testament (2022)
(1) MeatWolf,
May 10 2022, 06:13:07 The Dark Overlords - I Am The Dark Overlords [ep] (2021)


*Artist: The Dark Overlords
*Album: I Am The Dark Overlords [ep]
*Year: 2021
*Genre: Blackened Death Metal
*Country: Denmark
*Format: mp3@CBR320kbps
*Size: 43MB

Tracklist:
1. Death from the Sky 05:44
2. The End of the World Is Coming, and I'll Be the Cause of It 05:54
3. Region of Demons 06:36
******************************
Total playing time: 18:14




[more=Extended info]flac-rip
[youtube]s87dQ2ADCLQ[/youtube][/more]

[more=Technical info]
Input File: 01. Death from the Sky.mp3
Channels : 2
Sample Rate : 44100
Precision : 16-bit
Duration : 00:00:59.98 = 2645118 samples = 4498.5 CDDA sectors
File Size : 2.40M
Bit Rate : 320k
Sample Encoding: MPEG audio (layer I, II or III)
Comments :
Title=Death from the Sky
Artist=The Dark Overlords
Album=I Am the Dark Overlords (EP)
Tracknumber=01
Year=2021
Genre=Blackened Death Metal

[/more]

Register
(11) artscald, caro, GorAtheist, Hell_Is_Here, Marek, SilentNidhogg, stumpheavyrock, VALERY, varlam4, Wail, WOLAND,
May 10 2022, 05:55:54 Thy Sorcery - Trippin' Blood (2022)
Register
(1) vosmidesijatye,
May 7 2022, 14:27:37 Mama Doom - From Blue To Bone [ep] (2018)


*Artist: Mama Doom
*Album: From Blue To Bone [ep]
*Year: 2018
*Genre: Doom/Stoner Metal/Rock
*Country: United States
*Format: mp3@CBR320kbps
*Size: 51MB

Tracklist:
1. Be Me 04:04
2. Bread 03:30
3. Pushed Aside 03:13
4. Traveler 03:16
5. Leader 04:00
6. Penny 03:37
******************************
Total playing time: 21:40




[more=Extended info][youtube]MxXNHwOadhg[/youtube][/more]

[more=Technical info]
Input File: 04 - Traveler.mp3
Channels : 2
Sample Rate : 44100
Precision : 16-bit
Duration : 00:01:00.03 = 2647411 samples = 4502.4 CDDA sectors
File Size : 2.40M
Bit Rate : 320k
Sample Encoding: MPEG audio (layer I, II or III)
Comments :
Title=Traveler
Artist=Mama Doom
Album=From Blue to Bone (EP)
Tracknumber=04
Year=2018
Genre=Doom Stoner Metal/Rock

[/more]

Register
(9) artscald, BladeOvDarkness, caro, chipsgott, csgmnk, HMHamster, stumpheavyrock, VALERY, vlad74,
May 7 2022, 08:17:18 Harvested - Harvested [ep] (2022)
На одной странице BC они написали и "Modern death metal band" и "oldschool death metal".
Видимо, пока не понимают, куда идти...
(2) ingram, WOLAND,
May 7 2022, 07:49:47 Dxvxdxd Sxlf - Before The Dawn (2021)


*Artist: Dxvxdxd Sxlf
*Album: Before The Dawn
*Year: 2021
*Genre: Symphonic Black/Gothic Metal
*Country: France
*Format: mp3@CBR256kbps
*Size: 81MB

Tracklist:
1. Man in a Vortex 03:30
2. Somewhere Far Beyond 04:09
3. After Dark 05:58
4. Weal & Woe 04:54
5. The Start of the Ending 04:14
6. Swan Song 04:38
7. Ocean of Possibilities 04:03
8. Lux in Tenebris Lucet 03:17
9. Darkstones Cathedral 05:49
10. The Turin Horse 02:09
******************************
Total playing time: 42:41



Preview 3


[more=Extended info][youtube]mTzu2IwbmlI[/youtube]
[youtube]Tk2QWAm7Cb8[/youtube][/more]

[more=Technical info]
Input File: 06 - Swan Song.mp3
Channels : 2
Sample Rate : 48000
Precision : 16-bit
Duration : 00:01:00.00 = 2880000 samples ~ 4500 CDDA sectors
File Size : 1.92M
Bit Rate : 256k
Sample Encoding: MPEG audio (layer I, II or III)

[/more]

Register
(7) aleon, Cartman223, dermarsoran, infozahist, kimkayoung, WOLAND, yuratroll,
May 7 2022, 06:31:27 Lords Of The Cemetery - Luminous Gate (2022)
Register
(2) witchfinder, WOLAND,
May 6 2022, 16:08:17 Kampon - Sa Lumang Daan [ep] (2017)
Похоже на приблэкованный мелодес.
Register
(1) Mencae77,

153 Pages V   1 2 3 > » 
- Lo-Fi Version Support form
Copyrights and abuse reports form
Time is now: 28th May 2022 - 20:53:19