Welcome Guest ( Log In | Register )

История благодарностей участнику AHBAnep ::: Спасибо сказали: 11200 раз(а)
Дата поста: В теме: За сообщение: Спасибо сказали:
Sep 19 2021, 06:30:05 Fluids & Pharmacist - Feeling Young [split] (2021)
Register
(2) vyacheslav, wreak,
Sep 18 2021, 12:38:27 Kisin - The Shapeless Fog [ep] (2021) (2) Olethros, wreak,
Sep 18 2021, 06:43:35 Tales Of The Old - The Book Of Chaos (2021) (2) hate_eternal, Samaritianin,
Sep 15 2021, 05:31:36 In Extenso - Холодная Заря [ep] (2014)
[youtube]NSY58rUDw1Y[/youtube]
nyyy.gif
(1) Ice Gnoll,
Sep 14 2021, 16:57:18 Bon Scropion - Winds Of The Unseen Sun (2021)
Register
(1) Olethros,
Sep 12 2021, 07:18:31 Posthumous - The Frightening Cold Tomb - Compendium Mortis [compilation] (2020)


*Artist: Posthumous
*Album: The Frightening Cold Tomb - Compendium Mortis [compilation]
*Year: 2020
*Genre: Black Metal
*Country: Brazil
*Format: mp3@CBR320kbps
*Size: 307MB

Tracklist:
CD1
1. An Erotic Summoning (As Succubus Creeps in My Body) 6:21
2. Crucified Carcass 3:20
3. Kill the Son of Bait-Le-Hem 4:53
4. Fuckchrist 5:00
5. Pale Queen of the Funereal Forest 4:00
6. Invoking the Winds of Damnation 4:57
7. Kitabul-Maitim 4:07
8. Zyklon-B Massive Killing Weapon 4:38
9. Beyond the Infernal Gates 7:28
10. A. R. G. H. H. H. (Abhorrent Renunciation of God in the Hostile Hell Halls) 0:28
11. Crowley Hordes Attack 3:17
12. Christ's Death (Sarcófago cover) 4:12
13. Hidden Track 1:12
CD2
14. Prelude to the Posthumous Meeting 2:18
15. The Raping of Saints 4:44
16. Invoking the Winds of Damnation 5:12
17. Dethronement of Light 5:43
18. Fuckchrist 5:21
19. Intro Posthumous / Death's Secrets 3:39
20. Final Sacrifice 3:23
21. Emotional Sarcasm 2:46
22. Corrosive Infection 3:00
23. Splendour on Fire 5:06
24. Paradise of the Deads 3:23
25. Lust Upon the Altars of Blasphemy 5:07
26. Living in the Lie 3:43
27. Final Sacrifice '96 2:49
28. Scourging on the Golgotha 2:04
29. Go to Hell (Motöthead cover) 3:19
30. The Phantom of Black Hand Hill (Running Wild cover) 6:37
31. Riff Raff (AC/DC cover) 5:21
32. Reaper (Bathory cover) 2:15
******************************
Total playing time: 2:09:43



Preview 3

[more=Extended info]CD 1:
Tracks 1-12 taken from "My Eyes, They Bleed ", Full-length 1999.

CD 2:
Tracks 1-5 taken from "Lust upon the Altars of Blasphemy" Demo 1997.
Tracks 6-9 taken from "Posthumous" Demo 1994.
Tracks 10-15 - re-recordings and unreleased tracks
Track 19 taken from "A Brazilian Tribute to Bathory - Anthems of Blood, Fire & Death" Split 2019.[/more]

[more=Technical info]
Input File: 102 - Crucified Carcass.mp3
Channels : 2
Sample Rate : 44100
Precision : 16-bit
Duration : 00:00:30.02 = 1323706 samples = 2251.2 CDDA sectors
File Size : 1.20M
Bit Rate : 321k
Sample Encoding: MPEG audio (layer I, II or III)
Comments :
Title=Crucified Carcass
Artist=Posthumous [Brazil]
Album=The Frightening Cold Tomb - Compendium Mortis (C)
Tracknumber=102
Year=2020
Genre=Black Metal

[/more]

Register
(11) caro, Ildjarn, Kaotik, Olethros, SilentNidhogg, smysl, supremo, Taakeferd, VALERY, Wail, wreak,
Sep 11 2021, 07:39:30 Rhynn - Конец Детства [ep] (2021)
Register
(1) Olethros,
Sep 11 2021, 07:29:44 Cult Of Scarecrow - Tales Of The Sacrosanct Man (2021)
Register
(2) Olethros, wreak,
Sep 8 2021, 13:47:47 Graveland - Hour Of Ragnarok (2021)
ЦИТАТА(rominow @ Sep 8 2021, 12:22:55) *
вроде было уже

А вот почему:
Graveland - Hour Of Ragnarok (2021) [post #2607455]
Рипы одинаковы.
(3) Diflock, Samaritianin, thenecromancer,
Sep 8 2021, 04:33:50 Onikiv - Transcendence Of Duality (2021)
Register
(2) Olethros, wreak,
Sep 4 2021, 13:42:17 Doctor Smoke - Dreamers And The Dead (2021)
Register
(3) eddbuzz, Olethros, wreak,
Aug 28 2021, 08:04:14 Sortilège - Phoenix (2021)
Register
(1) Olethros,
Aug 28 2021, 08:03:43 White Stones - Dancing Into Oblivion (2021)
Register
(1) Olethros,
Aug 28 2021, 08:03:15 Nocturnal - Serpent Death (2021)
Register
(4) Asketto, Extreme Brutal, Olethros, wreak,
Aug 25 2021, 10:44:56 Crashtime - Valley Of The Kings (2021)
Register
(1) Olethros,
Aug 21 2021, 08:15:22 Bonehunter - Dark Blood Reincarnation System (2021)
Register
(1) wreak,
Aug 21 2021, 06:27:53 Oceanhoarse - Dead Reckoning (2021)

Грувисто-модняво.
(1) Andrew,
Aug 21 2021, 06:10:11 Morning Dwell - The Power Will Go On (2021)
Register
(1) wreak,
Aug 18 2021, 07:00:35 Resuscitated - Inches From Death (2021)
https://music.yandex.ru/album/17070298
Неплохой дебют.
Register
(3) Olethros, wreak, Xtohar,
Aug 18 2021, 06:11:41 Parasital Existence - Endless Torments (2021)
Register
(2) Marek, Olethros,
Aug 17 2021, 07:18:24 Incarnated - Choirs Of The Dead [compilation] (2021)
В архиве 19 треков, есть "05. Fragments of Love (95).flac".
Register
(7) as71, Marek, Olethros, smysl, thenecromancer, wreak, Xtohar,
Aug 14 2021, 13:55:19 Fleshbore - Embers Gathering (2021)
Register
(3) Korpse, Olethros, wreak,
Aug 14 2021, 13:54:46 Killing - Face The Madness (2021)
Register
(2) Olethros, Xtohar,
Aug 14 2021, 13:54:19 Prestige - Reveal The Ravage (2021)
Register
(5) Bruce, Marek, Olethros, wreak, Xtohar,
Aug 14 2021, 13:53:46 Vaelmyst - Secrypts Of The Egochasm (2021)
Register
(3) Korpse, Olethros, wreak,

143 Pages V   1 2 3 > » 
- Lo-Fi Version Support form
Copyrights and abuse reports form
Time is now: 24th September 2021 - 04:00:59