Welcome Guest ( Log In | Register )

История благодарностей участнику AHBAnep ::: Спасибо сказали: 13021 раз(а)
Дата поста: В теме: За сообщение: Спасибо сказали:
Feb 5 2023, 08:51:12 Icons Of Blasphemy & Motherfog - United Through Death [split] (2022)
United Through Death look.gif
(1) kefka,
Feb 4 2023, 21:03:25 In Flames - Hell Is Overcrowded And Heaven's Full Of Sinners [ep] (2023)
Лучше сразу дерьмом обмазаться, чтобы не заметить тухлятины их новых творений.
(5) apries, krotovich, mightynorth, SaintVitus, Winterdark,
Feb 3 2023, 15:43:28 Morta Skuld - Nascency Of The Prolific [compilation] (2023)
Обрубок Morta Skuld - Through The Eyes Of Death [best of/compilation] (2011), видимо.
Ага:
ЦИТАТА
Sewer Rot Records presents a compilation of the 1990 formative recordings of Milwaukke's premiere old school death metal titans, Morta Skuld, including:
Gory Departure Demo
Prolong the Agony Demo
1990 Rehearsal Recordings (never previously released)
Basement Recordings (never previously released).

Последние треки, наверное, только на CD.
(2) canadaspaceman, spazm,
Feb 2 2023, 17:17:14 Mithridatum - Harrowing (2023)
Проект Лайла Купера, драммера и вокалиста (Abhorrent, Absvrdist, Erzebet, Humanity Is Cancer, ex-Hordes of the Morning Star, Mithridatum, ex-Ballgag, ex-The Faceless)
(1) Occultas,
Feb 2 2023, 13:58:26 Dysmal - Gates To Apperception (2023)
Проект гитариста и композитора Burial Vault.
(1) Winterdark,
Feb 2 2023, 13:49:42 Контрибуция - Гробовщик Взял Предоплату (2023)
[youtube]J3pN7eihN70[/youtube]
(2) Old Vyaine, Yarri,
Jan 27 2023, 16:12:48 Cronenberg - Grandiose Throne Of Grotesque Flesh (2023)
Горе-метал smile3.gif
(1) Andrew,
Jan 26 2023, 18:12:08 Menace - Cosmic Conspiracy (2014)
Register
(6) Buregon, Corpuscul, METALHUNTER, stumpheavyrock, Wail, wgs73,
Jan 26 2023, 11:12:22 Riverside - Id.Entity (2023)
Register
(4) AndreFrancis, garml2, SAPOGi, скептик,
Jan 13 2023, 12:47:52 Aeronwen - Aeronwen (2023)
(1) kefka,
Jan 13 2023, 11:43:55 Alyiria - Heiress (2023)
ЦИТАТА(BlackLord89 @ Jan 13 2023, 00:31:36) *
В архиве вирус!

Когда несёшь пургу, пиши, какой антивир, какой версии, с какой степенью паранойи.
По сабжу - нет там Death, каша симфоничная.
(1) fr47,
Jan 12 2023, 13:40:51 Toward The Throne - Claiming The Sun, Bringing The Darkness [ep] (2017)


*Artist: Toward The Throne
*Album: Claiming The Sun, Bringing The Darkness [ep]
*Year: 2017
*Genre: Progressive/Melodic Death Metal
*Country: France
*Format: mp3@CBR320kbps
*Size: 74MB

Tracklist:
1. Worse than Ever 06:03
2. Missing Piece 05:51
3. Antipodes 04:21
4. The Withering 03:01 instrumental
5. Obedient Gods 04:42
6. Waiting 07:26
******************************
Total playing time: 31:24



Preview 3

[more=Extended info][youtube]I3pY6mrwFYk[/youtube][/more]

[more=Technical info]
Input File: 05 - Obedient Gods.mp3
Channels : 2
Sample Rate : 44100
Precision : 16-bit
Duration : 00:00:59.98 = 2645030 samples = 4498.35 CDDA sectors
File Size : 2.40M
Bit Rate : 320k
Sample Encoding: MPEG audio (layer I, II or III)
Comments :
Title=Obedient Gods
Artist=Toward the Throne
Album=Claiming the Sun, Bringing the Darkness (EP)
Tracknumber=05
Year=2017
Genre=Progressive/Melodic Death Metal

[/more]

Register
(8) artscald, Mogozoz, Reverend, sadmannn, stumpheavyrock, Wail, wreak, zhol,
Jan 12 2023, 12:34:46 Leper Colony - Leper Colony (2023)
Я бы из прошлогоднего отметил Those Who Bring The Torture - Cosmos Osmosis (2022)
Ну, Ribspreader - Crypt World (2022), пожалуй.
(1) StabWound,
Jan 11 2023, 20:29:44 Prognan - Naši Životi Više Ne Postoje (2023)
(1) dermarsoran,
Jan 8 2023, 17:21:02 Absolution - Remittance Of Penance... [demo] (1992)
- NYP
(2) thenecromancer, varlam4,
Dec 23 2022, 19:05:10 Heretic - Dominion (2022)
(3) Andrew, Occultas, randumbum,
Dec 23 2022, 18:21:36 Masacre - Live In Ruins '92 [live] (2019)
Ссылка на архивы - не превью. И колумбийский Masacre всего один.

https://music.yandex.ru/album/17792743
[youtube]-eFZsn-W_0U[/youtube]
Хотя и без превью знал, что это жесть бутлежного качества записи)
(2) Lord Of The Siths, recber,
Dec 22 2022, 20:16:01 Code Red - Wolves Of Warfield (2007)
Limited Edition 2018 with bonuses, from inet

Register
(3) hell_armageddon, Wail, Xtohar,
Dec 22 2022, 13:41:16 Gorekaust - Ancient Halls Of Emptiness (2022)
[youtube]IfnE9TixeYs[/youtube]
(2) Foneg, Occultas,
Dec 21 2022, 11:55:43 Conniption - Kamikaze (2013)
Register
(2) canadaspaceman, stumpheavyrock,
Dec 18 2022, 07:18:10 Kate Nord - Compass To Your Heart's Desire (2022)
(1) Ice Gnoll,
Dec 18 2022, 06:59:54 Artificial - At The Statue Of Infamy [ep] (2022)
[youtube]vWAzFFqBrFw[/youtube]
(2) lldma, supremo,
Dec 16 2022, 18:56:41 Impending Mindfuck - Modus Operandi (2022)
[youtube]CzJnpgr4yEA[/youtube]
с примесью техникала
(2) aa144aa, MMMMM,
Dec 16 2022, 16:41:05 Acadence - Cyber Genesis (2022)
(2) chipsgott, Sanctus,
Dec 13 2022, 11:53:22 Minotaur - Re-Recorded Mmxxi [ep] (2021) (1) thenecromancer,

157 Pages V   1 2 3 > » 
- Lo-Fi Version Support form
Copyrights and abuse reports form
Time is now: 9th February 2023 - 06:58:21