Welcome Guest ( Log In | Register )

История благодарностей участнику AHBAnep ::: Спасибо сказали: 10747 раз(а)
Дата поста: В теме: За сообщение: Спасибо сказали:
May 16 2021, 08:52:53 The Monolith Deathcult - V3 - Vernedering: Connect The Goddamn Dots (2021)
Register

Трэклист, как на архивах.
(3) Chasm, eternald, rammstein888,
May 16 2021, 06:43:03 Pure Breed - Guidance Through Life (1999)
[youtube]BXfbwkSy2HI[/youtube]
[youtube]DjvR3th_H4M[/youtube]
(3) Occultas, Old Vyaine, Proteus_666,
May 15 2021, 14:16:03 Temple - Funeral Planet (2020)
Register
(1) Olethros,
May 15 2021, 14:10:58 Carmeria - Advenae (2021)
Register
(1) Olethros,
May 15 2021, 14:09:02 Acolyte - Entropy (2021)
Register
(2) Marek, Olethros,
May 12 2021, 08:16:20 Lysjakt - Ethereal Palace (2021)
Marius Ofstad. Бывший гитарист/вокалист Deception (Art of Deception).
В основном Progressive Death Metal. Сладж найти непросто.
(1) Shadowman,
May 10 2021, 19:13:12 Reign Of Athena - The Awakening (2021)
https://music.yandex.ru/album/15345309
Голос у Кристины неслабый. Пока всё.
(2) infiltrator, Old Vyaine,
May 9 2021, 16:18:16 Haematemesis - Unpleasant Experiment [ep] (2019)
Молодцы китайцы!
Register
(3) infiltrator, Occultas, Olethros,
May 9 2021, 15:31:07 Hadit - With Joy And Ardour Through The Incommensurable Path (2021) (3) infiltrator, Marek, yronnen,
May 9 2021, 15:28:49 Book Of Wyrms - Occult New Age (2021)
Register
(2) infiltrator, Olethros,
May 9 2021, 14:57:51 Blackbriar - The Cause Of Shipwreck (2021)
Register
(2) + ATheisT +, infiltrator,
May 8 2021, 16:09:07 Rammer - Siege Of Madness (2014)


*Artist: Rammer
*Album: Siege Of Madness
*Year: 2014
*Genre: Thrash/Death Metal
*Country: Canada
*Format: mp3@CBR320kbps
*Size: 55MB

Tracklist:
1. State of Decay 02:41
2. Obliteration WWVI 01:54
3. Cryptocracy 02:39
4. A Questionable Obsession with the Recently Deceased 01:39
5. Tyrants Apocalypse 01:44
6. Wolfcult Chernobyl 02:58
7. Death Shark 02:08
8. A Way Back from Hell 02:42
9. Following the Abyss 02:45
10. Siege of Madness 02:07
******************************
Total playing time: 23:17

[more=Extended info][youtube]wMXOOYWHp88[/youtube][/more]

[more=Technical info]
Input File: 04 - A Questionable Obsession with the Recently Deceased.mp3
Channels : 2
Sample Rate : 44100
Precision : 16-bit
Duration : 00:01:38.28 = 4334060 samples = 7370.85 CDDA sectors
File Size : 3.93M
Bit Rate : 320k
Sample Encoding: MPEG audio (layer I, II or III)
Comments :
Title=A Questionable Obsession with the Recently Deceased
Artist=Rammer
Album=Siege of Madness
Tracknumber=04
Year=2014
Genre=Thrash Death Metal

[/more]

Register
(17) after21allD, atavist, BugEyes, caro, cesar, chipsgott, CORPSEMIXA, infiltrator, jollo, Marek, Olethros, SadistikSlayer, sergsazan, stumpheavyrock, thrashiac55, Xtohar, Z28517,
May 7 2021, 09:21:59 Thronehammer - Incantation Rites (2021)
Register
(5) ErikGoth, infiltrator, Korpse, Marek, Olethros,
May 7 2021, 09:00:55 Nightshadow - Strike Them Dead (2021)
https://music.yandex.ru/album/14651649
Прекрасно!
Register
(3) aviacademy, Marek, Olethros,
May 7 2021, 08:53:06 Sonic Haven - Vagabond (2021)
ЦИТАТА
Dominik Stotzem Bass
See also: Beyond the Bridge, ex-Amyris, ex-Synchronic
André Hilgers Drums
See also: Bonfire, Silent Force, ex-Nuclear Blast Allstars, ex-The Sygnet, ex-Axxis, ex-Empire, ex-Herman Frank, ex-Lingua Mortis Orchestra, ex-Rage, ex-Razorback, ex-Sinner, ex-Vanize, ex-Regicide (live), ex-Mendacious Messiah, ex-Ninja, ex-Noisehunter (live), ex-Bourbon $treet
Carsten Stepanowicz Guitars
See also: Black Radar, Radiant, Vike Tare, ex-Pumpkin Heads
Herbie Langhans Vocals
See also: Beyond the Bridge, Firewind, Radiant, The Lightbringer of Sweden, Whispers in Crimson, Avantasia (live), ex-Seventh Avenue, ex-The Preachers, ex-Neoshine, ex-Sinbreed, ex-Symphonity, ex-Voodoo Circle

[youtube]_gKveG46gGg[/youtube]
https://music.yandex.ru/album/13649011
(3) boby9052, Devourer, infiltrator,
May 7 2021, 08:45:18 Fragment Soul - Axiom Of Choice (2021)
https://music.yandex.ru/album/14428495
Тянучка с уходом в пост-рок.
(2) infiltrator, Shadowman,
May 7 2021, 08:09:38 Immortal Sÿnn - Force Of Habit (2021) (4) Brann, eyes0re, infiltrator, Old Vyaine,
May 7 2021, 08:06:09 Arc Spectra - Arc Spectra (2021)
https://music.yandex.ru/album/13878416
что-то немузыкальное
(2) Brann, infiltrator,
May 3 2021, 04:41:28 Saponification - Opus Of Extinction (2021)
(1) Occultas,
May 1 2021, 10:22:38 Silent Verdict - Condemned (2021)
https://music.yandex.ru/album/14003674
что-то грувисто и модняво
(1) Andrew,
May 1 2021, 09:57:54 Evermore - Court Of The Tyrant King (2021)
https://music.yandex.ru/album/15081976
Сладенько, но вокал недурён.
(1) Brann,
May 1 2021, 08:21:55 Witchbound - End Of Paradise (2021) (1) Brann,
Apr 26 2021, 14:19:27 Chronic Torment - Demons Of Chaos (2009)


*Artist: Chronic Torment
*Album: Demons Of Chaos
*Year: 2009
*Genre: Death Metal
*Country: Sweden
*Format: mp3@CBR320kbps
*Size: 69MB

Tracklist:
1. Dawn of Time 03:36
2. Demons of Chaos 03:33
3. Medieval Torture 04:10
4. Plague I Feed 03:53
5. Embryonic Decay 04:54
6. Visions of Gehenna 03:37
7. Vultures Blood 02:38
8. Death to Us All 03:11
******************************
Total playing time: 29:32




[more=Extended info]Работа средней руки. Но пусть будет.[/more]

[more=Technical info]
Input File: 02 - Demons of Chaos.mp3
Channels : 2
Sample Rate : 44100
Precision : 16-bit
Duration : 00:00:59.93 = 2642693 samples = 4494.38 CDDA sectors
File Size : 2.40M
Bit Rate : 320k
Sample Encoding: MPEG audio (layer I, II or III)
Comments :
Title=Demons of Chaos
Artist=Chronic Torment [Sweden]
Album=Demons of Chaos
Tracknumber=02
Year=2009
Genre=Death Metal

[/more]

Register
(17) andreikun, atavist, caro, defamer666, infiltrator, Marek, METALHUNTER, Olethros, Proteus_666, smysl, stumpheavyrock, Svafrlami, VALERY, varlam4, vyacheslav, Waldemar666, wanderer73,
Apr 17 2021, 08:19:35 Pikes Edge - Hope (2021)
https://music.yandex.ru/album/13902434
Нет тут мелодеса. Хэви/грув. Но качёво.
(1) Andrew,
Apr 13 2021, 14:27:47 Nephilim Grinder - Spiritual Torment (2021)
Тут ожидается превью -
Притехниченный брутал.
(1) Occultas,

137 Pages V   1 2 3 > » 
- Lo-Fi Version Support form
Copyrights and abuse reports form
Time is now: 18th May 2021 - 02:33:27