Welcome Guest ( Log In | Register )

Объявления

* gmail.com упорно продолжает считать почту с нас "unsolicited" и отбивает в том числе и письма активации, поэтому просьба использовать альтернативные почтовые ящики.
------------
* gmail.com continues reject all mail from us as "unsolicited" (activation mails too) therefore please use alternate mail servers.
История благодарностей участнику Stepan ::: Спасибо сказали: 1689 раз(а)
Дата поста: В теме: За сообщение: Спасибо сказали:
Jan 19 2019, 20:28:34 Graveyard Of Souls - Cenizas (2018)


*Artist: Graveyard Of Souls
*Album: Cenizas
*Year: 2018
*Genre: Melodic Doom/Death Metal
*Country: Spain
*Format: mp3@CBR320kbps
*Size: 119MB

Tracklist:
1 El Triunfo de la Muerte 03:45
2 Cenizas 05:23
3 Perdido 06:36
4 Mi Sangre En Tu Boca 08:42
5 Mundos Que Desaparecen 06:37
6 Tendidos En El Suelo Bajo El Rostro de Dios 08:15
7 Ano Cero 07:26
8 Ocaso 07:37
******************************
Total playing time: 54:21

[more=Extended info]© Endless Winter 2018
http://endless-winter.org/[/more]

[more=Technical info]
Input File: 01 - El triunfo de la muerte.mp3
Channels : 2
Sample Rate : 44100
Precision : 16-bit
Duration : 00:03:45.39 = 9939743 samples = 16904.3 CDDA sectors
File Size : 9.02M
Bit Rate : 320k
Sample Encoding: MPEG audio (layer I, II or III)
Comments :
Title=El triunfo de la muerte
Artist=Graveyard Of Souls
Album=Cenizas
Tracknumber=01

[/more]

Register
(36) 0x13, alex-82, AndreFrancis, artscald, cesar, chefo, cryptal, Devourer, djsema4, fateefffddd, gav-gafi, Hell_Is_Here, Ice Gnoll, igorzz, Korpse, metala, MMMMM, Mogozoz, nsk2008, Olethros, Olrak, Phlebotomized, Razorbladeswaltz, ripper33, Rosen, RUDACHUR, russ777, Samaritianin, satanist666, Shadechaser, SIMPLE MAN, StoneTemple, TeamatSE, tOmV, VALERY, zaqxsw,
Jan 18 2019, 16:39:55 Fordomth - I.N.D.N.S.L.E. (2018)


*Artist: Fordomth
*Album: I.N.D.N.S.L.E.
*Year: 2018
*Genre: Funeral Black Doom Metal
*Country: Italy
*Format: mp3@CBR320kbps
*Size: 106MB

Tracklist:
1 Chapter I Intro 02:01
2 Chapter II Abyss of Hell 11:40
3 Chapter III Eternal Damnation 24:55
4 Chapter IV Interlude 08:45
5 Chapter V I.N.D.N.S.L.E. 08:39
******************************
Total playing time: 56:00

[more=Extended info]© Endless Winter 2018
http://endless-winter.org/[/more]

[more=Technical info]
Input File: Chapter V _ I.N.D.N.S.L.E.mp3
Channels : 2
Sample Rate : 44100
Precision : 16-bit
Duration : 00:08:40.41 = 22950257 samples = 39031 CDDA sectors
File Size : 20.8M
Bit Rate : 320k
Sample Encoding: MPEG audio (layer I, II or III)
Comments :
Title=I.N.D.N.S.L.E.
Artist=Fordomth
Album=I.N.D.N.S.L.E.

[/more]

Register
(18) andreikun, artscald, cryptal, cuimit1349, Doooomed, Farung, Hell_Is_Here, Olethros, Ostinato, Rosen, RUDACHUR, Sabbathian, Shadechaser, stub888, thenecromancer, tOmV, VALERY, varlam4,
Jun 22 2018, 13:45:13 Новости DOOM Metal
Поскольку тут ничего этого не было, я, с вашего позволения, выложу новости
за первую половину 2018 года.

Premarone — Das Volk der Freiheit



SuuM — Buried into the Grave



Fretting Obscurity — Flags in the dust (сегодня запостил mp3)



Satori Junk — The Golden Dwarf (где-то было, но никакой реакции)



Colossus Morose — Seclusion (сегодня запостил mp3)



In Oblivion — Memories Engraved in Stone (выйдет 1 июля)



Abysskvlt — Khaogenesis (выйдет 12 августа)


(2) Lightbringer, vosmidesijatye,
Jun 22 2018, 09:53:02 Colossus Morose - Seclusion (2018)


*Artist: Colossus Morose
*Album: Seclusion
*Year: 2018
*Genre: Funeral Doom Metal
*Country: Germany
*Format: mp3@CBR320kbps
*Size: 97MB

Tracklist:
1. Catatonical Embrace 08:39
2. Tarnished 05:49
3. Perpetually Enthralled 06:55
4. Sol(e)ace 06:34
5. Six 08:27
6. The Spiral Descent 06:11
******************************
Total playing time: 42:35

[more=Extended info]http://endless-winter.org/[/more]

[more=Technical info]
Input File: 2. Tarnished.mp3
Channels : 2
Sample Rate : 44100
Precision : 16-bit
Duration : 00:05:49.55 = 15415287 samples = 26216.5 CDDA sectors
File Size : 14.0M
Bit Rate : 320k
Sample Encoding: MPEG audio (layer I, II or III)
Comments :
Title=Tarnished
Artist=Colossus Morose
Album=Seclusion

[/more]

Register
(29) analbleeding, andreikun, cenzored, Chasm, ctulhudagon, Doooomed, Evilded, Fess, fishish, gena, Guns, Hell_Is_Here, infozahist, krotovich, marilin, MaXL, metala, Ostinato, Razorbladeswaltz, Rosen, Samaritianin, Shadechaser, stub888, terron, Tino, tOmV, VALERY, Wotanwatch, wreak,
Jun 22 2018, 09:33:37 Fretting Obscurity - Flags In The Dust (2018)


*Artist: Fretting Obscurity
*Album: Flags In The Dust
*Year: 2018
*Genre: Funeral Death/Doom Metal
*Country: Ukraine
*Format: mp3@CBR320kbps
*Size: 148MB

Tracklist:
1. Flags in the dust 13:20
2. If there is no other way to love 'em 15:39
3. Eternal return 17:56
4. Funeral never ends 18:27
******************************
Total playing time: 1:05:22

[more=Extended info]http://endless-winter.org/[/more]

[more=Technical info]
Input File: 3. Eternal return.mp3
Channels : 2
Sample Rate : 44100
Precision : 16-bit
Duration : 00:17:56.06 = 47454114 samples = 80704.3 CDDA sectors
File Size : 43.0M
Bit Rate : 320k
Sample Encoding: MPEG audio (layer I, II or III)
Comments :
Title=Eternal return
Artist=Fretting Obscurity
Album=Flags in the dust

[/more]

Register
(23) Andr, andreikun, bc_, Chasm, ctulhudagon, Doooomed, Fess, gena, Guns, Hell_Is_Here, infozahist, iteration666, marilin, Ostinato, Perkele, Rosen, Samaritianin, SatanicPanzer, Shadechaser, terron, VALERY, vyacheslav, wreak,
Jun 9 2017, 13:37:51 Bretus - ...From The Twilight Zone (2017)


*Artist: Bretus
*Album: ...From The Twilight Zone
*Year: 2017
*Genre: Stoner/Doom Metal
*Country: Italy
*Format: mp3@CBR320kbps
*Size: 90MB

Tracklist:
1. Terror Behind the Mirror 06:54
2. In the Vault 05:12
3. Old Dark House 05:00
4. Danza Macabra 06:05
5. The Murder 05:14
6. The Creeping Flesh 05:07
7. Lizard Woman 07:14
******************************
Total playing time: 40:46

[more=Extended info]http://endless-winter.org[/more]

[more=Technical info]
Input File: 3 OLD DARK HOUSE.mp3
Channels : 2
Sample Rate : 44100
Precision : 16-bit
Duration : 00:05:00.99 = 13273439 samples = 22573.9 CDDA sectors
File Size : 12.0M
Bit Rate : 320k
Sample Encoding: MPEG audio (layer I, II or III)
Comments :
Title=OLD DARK HOUSE
Artist=Bretus
Tracknumber=3

[/more]

Register
(10) Buregon, Kehl05, krmu2, marilin, Rosen, Sabbathian, SatanicPanzer, stub888, VALERY, varlam4,
Dec 14 2016, 06:18:37 Abysskvlt - Thanatochromia (2015)
Забыл еще добавить.
Это вот что такое - это что за аргумент?

>во избежании тёрок с некоторыми упомянутыми группами, он не стал делать это прилюдно

Это придумали какие-то глупые люди.
Допустим, группа А сплагиатила группу Б. Почему группе Б вредно или неприятно об этом узнать? Наоборот, они заинтересованная пострадавшая сторона и будут благодарны за такую информацию.
(1) vosmidesijatye,
Dec 6 2016, 05:00:15 Abysskvlt - Thanatochromia (2015)
Ну что ж, доброе имя Abysskvlt восстановлено, а юзер FullofHate - лжец и безответственное трепло.
(3) Faust_Vulkan_16, FullofHate, infiltrator,
Dec 2 2016, 05:13:21 Abysskvlt - Thanatochromia (2015)
QUOTE(FullofHate @ Nov 30 2016, 20:30:39) *
Тема перестала быть интересной.


ойвсё?

за свои слова не привык отвечать?
(3) Faust_Vulkan_16, infiltrator, vosmidesijatye,
Nov 29 2016, 05:12:18 Abysskvlt - Thanatochromia (2015)
QUOTE(vosmidesijatye @ Nov 28 2016, 21:50:49) *
Я фунерале прослушал достаточно много, но не услышал кого бы они драли. Не вижу ничего загрязняющего в том чтобы обозначить тех кого они ободрали. Это напрямую касается сабжа.



Да. Меня именно это заинтересовало. И еще вот это:

>Сцена и жанр ничего бы не потеряли, если бы альбом не был записан.

Так можно сказать о 95% всех альбомов на свете. И что ж теперь, они не имеют права на жизнь? Это Спарта какая-то получается, если ребенок недостаточно красив или силен, нах его со скалы? В жизни так не бывает.

Что касается мнений, я согласен, что любой имеет право на мнение, пусть даже самое дебильное. Но дебильное проще игнорировать. А тут вроде все по существу (исключая странные наезды), поэтому интересно обоснование.
(3) Faust_Vulkan_16, infiltrator, vosmidesijatye,
Nov 28 2016, 05:09:34 Abysskvlt - Thanatochromia (2015)
Что ж, квалифицированность мнения не подтверждена. А вот автор первого поста сам играет. Ему как-то больше оснований доверять.
(2) Faust_Vulkan_16, infiltrator,
Feb 5 2016, 11:58:11 Funerium - Cultus Deorum Aliorum/Nihil In Omnino Nusquam (2016)


*Artist: Funerium
*Album: Cultus Deorum Aliorum/Nihil In Omnino Nusquam
*Year: 2016
*Genre: Funeral Doom Metal
*Country: Finland
*Format: mp3@CBR320kbps
*Size: 273MB

Tracklist:
CD 1:
1. Tempest Rising 11:11
2. The Order of the Other Gods 07:55
3. Polaris 09:43
4. Ex Oblivio ad Finem 07:46
5. The End - MMXII 42:05

CD 2:
1. α 04:06
2. ∞ 10:42
3. Ø 11:17
4. Ω 11:36
5. From Infinity to Oblivion 09:17
******************************
Total playing time: 2:05:38

[more=Extended info]http://endless-winter.org[/more]

[more=Technical info]
Input File: 1 - Funerium - Incipiens.mp3
Channels : 2
Sample Rate : 44100
Precision : 16-bit
Duration : 00:04:06.40 = 10866240 samples = 18480 CDDA sectors
File Size : 9.86M
Bit Rate : 320k
Sample Encoding: MPEG audio (layer I, II or III)
Comments :
Title=Incipiens
Artist=Funerium
Album=Funerium CD2
Tracknumber=1
Discnumber=1/1

[/more]

Register
(30) blacky66, Buregon, Chasm, cuimit1349, Darkthronefoad, ddarkthrone, ENDSMOUTH, EpicDoomLord, Farung, gena, Hell_Is_Here, Korpse, libertine, marilin, morbidangelo, Necromag, Ostinato, princeshr, Rosen, RUDACHUR, Sanc, SatanicPanzer, stone88, StoneTemple, thenecromancer, Tino, VALERY, varlam4, vosmidesijatye, Герб,
Oct 2 2015, 08:56:17 In Oblivion - In Oblivion [ep] (2015)


*Artist: In Oblivion
*Album: In Oblivion [ep]
*Year: 2015
*Genre: Funeral Death/Doom Metal
*Country: United States
*Format: mp3@CBR192kbps
*Size: 41MB

Tracklist:
1. Wreathed In Gloom 15:50
2. Memories Engraved In Stone 13:47
******************************
Total playing time: 29:37

[more=Extended info]http://endless-winter.org[/more]

Register


 ! 

Транскод
 
(19) amirhossien1371, blacky66, Buregon, cuerpofalaz, Darkthronefoad, doomTemplar, Hell_Is_Here, KVRT, marilin, Ostinato, qpMM, randumbum, Rosen, SatanicPanzer, VALERY, varlam4, vyacheslav, wreak, ZloySamaritianin,
Apr 16 2015, 09:02:01 Mirror Morionis - Last Winter Tolls (2015)


*Artist: Mirror Morionis
*Album: Last Winter Tolls
*Year: 2015
*Genre: Atmospheric Doom Metal
*Country: Russian Federation
*Format: mp3@CBR320kbps
*Size: 151MB

Tracklist:
1. As Winter Arrived 17:14
2. Nine Coldest Days 16:10
3. Sunless Within 12:48
4. I'm not. You are the One 14:45
5. Forest Of Lovelorn Hearts 11:46
6. Offtime 04:56
******************************
Total playing time: 1:17:39

[more=Extended info]http://endless-winter.org[/more]

[more=Technical info]
Input File: 5 - Forest Of Lovelorn Hearts.mp3
Channels : 2
Sample Rate : 44100
Precision : 16-bit
Duration : 00:11:47.58 = 31204322 samples = 53068.6 CDDA sectors
File Size : 28.3M
Bit Rate : 320k
Sample Encoding: MPEG audio (layer I, II or III)
Comments :
Title=Forest Of Lovelorn Hearts
Artist=Mirror Morionis
Tracknumber=5

[/more]

Register
(18) AndreFrancis, BRUTAL06, chefo, d0zer, Darkthronefoad, Hell_Is_Here, KVRT, Metropolis, MMMMM, Old Vyaine, oldvarg, randumbum, Rosen, RUDACHUR, VALERY, varlam4, vosmidesijatye, wreak,
Mar 26 2015, 07:37:56 Graveyard Of Souls - Infinitum Nihil (2015)


*Artist: Graveyard Of Souls
*Album: Infinitum Nihil
*Year: 2015
*Genre: Melodic Doom/Death Metal
*Country: Spain
*Format: mp3@CBR320kbps
*Size: 90MB

Tracklist:
1. Nada es Eterno 02:47
2. Poison in the Mouth of God 06:32
3. My New World 07:10
4. Mirrors of Pain 06:46
5. Masticatione Mortuorum 07:39
6. Poisoned Air Theory 06:34
7. Infinitum Nihil 09:22
******************************
Total playing time: 46:50

Preview 1

[more=Extended info]http://endless-winter.org[/more]

[more=Technical info]
Input File: 1 - Graveyard Of Souls - Nada es Eterno.mp3
Channels : 2
Sample Rate : 44100
Precision : 16-bit
Duration : 00:27:51.11 = 73695995 samples = 125333 CDDA sectors
File Size : 6.65M
Bit Rate : 31.9k
Sample Encoding: MPEG audio (layer I, II or III)
Comments :
Title=Nada es Eterno
Artist=Graveyard Of Souls
Album=Infinitum Nihil
Tracknumber=1
Year=2015

[/more]

Register
(40) 0x13, AndreFrancis, avather, Buregon, chefo, Darkthronefoad, denver, Devourer, Farung, Gutter, gwynnbleid, kettle, kimkayoung, Korpse, KVRT, metala, Mihalik, MMMMM, Mogozoz, nsk2008, old, Old Vyaine, oldvarg, Ostinato, Phlebotomized, randumbum, Reverend, Rosen, RUDACHUR, Samaritianin, SatanicPanzer, sperminator, StoneTemple, TeamatSE, VALERY, varlam4, WOLAND, woldemort, wreak, Zenial,
Jan 29 2015, 10:01:22 Without Dreams - Rejected By Angel, Betrayed By Demon (2015)


*Artist: Without Dreams
*Album: Rejected By Angel, Betrayed By Demon
*Year: 2015
*Genre: Funeral Doom Metal
*Country: Russian Federation
*Format: mp3@CBR256kbps
*Size: 122MB

Tracklist:
1. Demon of Suicide 40:43
2. Fallen Angel 26:36
******************************
Total playing time: 1:07:19

Preview 1

[more=Extended info]http://endless-winter.org[/more]

Register
(24) 0x13, aesteticvice, autumnwood, Boozer, Darkthronefoad, Doooomed, Forest Silence, Hell_Is_Here, KVRT, libertine, LoveTarja, old, oldvarg, Persy, Rosen, SatanicPanzer, spiritualdecay666, StoneTemple, thanataur, Tratil, VALERY, varlam4, Wolfera, wreak,
Jan 15 2015, 21:55:55 The Cold View - Wires Of Woe, Ways Of Waste (2014)
Кому интересно - я насобирал тут рецензий на этот альбом. Только иностранные. В ex-СССР не сподобились.
http://endless-winter.org/endless-winter-review-eng.html
(1) Chasm,
Nov 13 2014, 12:28:11 Mournful Gust - If We Were Alive [best of/compilation] (2014)
Кстати, вот

(1) princeshr,
Nov 12 2014, 06:34:54 Mournful Gust - If We Were Alive [best of/compilation] (2014)


*Artist: Mournful Gust
*Album: If We Were Alive [best of/compilation]
*Year: 2014
*Genre: Melodic Doom/Death Metal
*Country: Ukraine
*Format: mp3@VBR224kbps
*Size: 115MB

Tracklist:
1. So Deep In Heart 01:31
2. Path Of My Tears 07:52
3. This Drama Will Be The Last 05:44
4. Let The Music Cry 06:20
5. Sleeping With My Name 08:07
6. Falling In Hope 07:13
7. Until I'm Bright 05:29
8. Words Of Farewell 04:10
9. With Every Suffering 07:46
10. Rainbow Eyes 06:37
11. A Pain To Remember 09:24
******************************
Total playing time: 1:10:13

[more=Extended info]http://endless-winter.org/[/more]

Register
(19) aa144aa, BeerBear, Darkthronefoad, Fess, Hell_Is_Here, Jurmagund, kluval, lawronchik, Mogozoz, Moonshtook, old, Old Vyaine, princeshr, Rosen, satanist666, StoneTemple, VALERY, varlam4, wreak,
Oct 21 2013, 07:21:32 Tectum - Path To Eternity (2013)


*Artist: Tectum
*Album: Path To Eternity
*Year: 2013
*Genre: Dark/Doom Metal
*Country: Ukraine
*Format: mp3@CBR192kbps
*Size: 65MB

Tracklist:
1.Scorn, Greed, Damn 02:24
2.Burning Passion 03:57
3.A Liar Among Us 06:10
4.A Poem About Lost Past 05:04
5.Splitted Soul 05:19
6.Autumn 03:23
7.It's Alive! 04:24
8.Wolf 03:38
9.Dreamdemons 05:11
10.My Path to Eternity 07:17
11.Outro 01:17
******************************
Total playing time: 48:04

[more=Extended info]http://endless-winter.ru[/more]

Register
(16) caro, garretje, Hell_Is_Here, KVRT, Kwaad, LoveTarja, metala, old, SatanicPanzer, satanist666, StoneTemple, thenecromancer, toly1917, VALERY, wreak, Сатаник,
Aug 27 2013, 08:35:29 Anagram To Anna - God, Me & Monsters (2013)


*Artist: Anagram To Anna
*Album: God, Me & Monsters
*Year: 2013
*Genre: Symphonic Metal
*Country: Ukraine
*Format: mp3@CBR192kbps
*Size: 77MB

Tracklist:
1. Obscure Me 07:56
2. Inside our Graves, the Silent Whisper 07:20
3. The Perverted Consciousness 08:18
4. Dogs Soul Carnivale 06:49
5. He Thought He Was God 07:55
6. Light that Deceived Me 08:03
7. Finally They Came 10:16
******************************
Total playing time: 56:37

Preview 1

[more=Extended info]Купить альбом можно здесь:http://endless-winter.ru
Жителям Украины лучше обращаться непосредственно
к автору: alexunder0(at)mail.ru[/more]

Register
(14) avkruchinin, carcassss, caro, Cartman223, dimmannius, Grinder777, gwynnbleid, metala, Mogozoz, princeshr, Reverend, User123, Valdmaar, wreak,
Aug 27 2013, 08:31:55 Sadael - Dreams (2013)


*Artist: Sadael
*Album: Dreams
*Year: 2013
*Genre: Death/Doom Metal
*Country: Russian Federation
*Format: mp3@CBR192kbps
*Size: 62MB

Tracklist:
1. Dreams 07:38
2. Dark Glowing 07:10
3. Purple Mantis 07:37
4. Rain, Wash My Tears 05:31
5. Wave 04:11
6. Love Overdose 05:21
7. Bring Back the Sun 03:14
8. Inner Circle 04:09
******************************
Total playing time: 44:51

Preview 1

[more=Extended info]Купить альбом можно здесь:http://endless-winter.ru
Жителям Санкт-Петербурга лучше обращаться непосредственно
к автору: 9999sadael(at)mail.ru[/more]

Register
(22) 0x13, aesteticvice, andreikun, artscald, BioMax, caro, Darkthronefoad, Hell_Is_Here, jollo, Kaphiel, metala, MMMMM, old, Old Vyaine, oldvarg, Raven Gris, SAEIDPARVANEH, Sanc, SatanicPanzer, Spikes, varlam4, wreak,
Aug 27 2013, 08:23:23 Mirror Morionis - Eternal Unforgiveness (2013)


*Artist: Mirror Morionis
*Album: Eternal Unforgiveness
*Year: 2013
*Genre: Atmospheric Doom Metal
*Country: Russian Federation
*Format: mp3@CBR192kbps
*Size: 86MB

Tracklist:
1. Towards The Woe 03:04
2. When Mirror Cries 09:19
3. Inner Waste 09:23
4. The Sun Will Never Rise 08:33
5. Her Morion Eyes 14:35
6. Diamond Sand 05:02
7. Graves Filled With My Dreams 08:29
8. Towads The Loss Within 04:32
******************************
Total playing time: 1:02:57

Preview 1

[more=Extended info]Купить альбом можно здесь:http://endless-winter.ru
Жителям Сибири и Дальнего Востока лучше обращаться непосредственно
к автору: wolvenmare(at)mail.ru[/more]

Register
(28) 0x13, 666BlackDeath, aesteticvice, Alc, aorta2, avather, BRUTAL06, caro, Darkthronefoad, doomTemplar, Fess, Hell_Is_Here, infernusgate, Kaphiel, KVRT, logunarm, metala, old, Old Vyaine, SatanicPanzer, satanist666, Tidal, umor, User123, varlam4, woldemort, wreak, zemlemer,
Jun 24 2012, 14:53:39 Falling Leaves - Mournful Cry Of A Dying Sun (2012)
QUOTE(DenKov @ Jun 24 2012, 16:35:15) *
смачным гроулингом от Draconian'a песенки все же поинтереснее звучат


тут такового не имеется
(1) DenisKov,
Jun 20 2012, 14:56:19 Ankhagram - Thoughts (2012)


*Artist: Ankhagram
*Album: Thoughts
*Year: 2012
*Genre: Atmospheric Funeral Doom Metal
*Country: Russian Federation
*Format: mp3@CBR256kbps
*Size: 133MB

Tracklist:
1. Gates In Mind 05:50
2. Don't Feel This Life 18:06
3. Lost In Reality 14:24
4. I'm a Fake 10:11
5. Without Us 11:56
6. Thoughts 12:35
******************************
Total playing time: 1:13:02

[more=Extended info]http://endless-winter.ru[/more]

Register
(76) 0x13, 666BlackDeath, aesteticvice, Akbarz, Anataas, andrew20, aorta2, ArieZ, BioMax, bka, CelticSPB, COOLER, Corpse_Of_The_Christ, D.D.A.M.M., Darth Alvasarra, demether, Doomchild, doomTemplar, e2_81, Emhyr var Emreis, Endymion, Evjenne, featb, Fess, Forest Silence, fuck3r, gena, gothicghost, graveworm-denya, Jurmagund, kig, kluval, KVRT, libertine, Lightbringer, logunarm, Lucifer, marilin, MaXL, Nadja, neoatheist, nofate, nsk2008, nsmetalhead, Old Vyaine, oldvarg, omidalfa, Paradayz, parashurama, princeshr, Pustota, Representer, Reverend, RUDACHUR, sanctum, SAPOGi, SatanicPanzer, SIAVASH, Skogvaktar, spiritualdecay666, Spyart, StoneTemple, stub888, ugly, User123, VALERY, varlam4, Velemysl, waldemardr, White_eagle, WND, woldemort, Wolftribes, Xor, Zahrim, Госпромнадзор,

9 Pages V   1 2 3 > » 
- Lo-Fi Version Support form
Copyrights and abuse reports form
Time is now: 19th June 2024 - 20:32:52