Welcome Guest ( Log In | Register )

История благодарностей участнику Theratos ::: Спасибо сказали: 12 раз(а)
Дата поста: В теме: За сообщение: Спасибо сказали:
May 23 2012, 13:46:34 Ancestral - Asinfonias Para Cerdos (2011)


*Artist: Ancestral
*Album: Asinfonias Para Cerdos
*Year: 2011
*Genre: Slamming Brutal Death Metal
*Country: Chile
*Format: mp3@CBR320kbps
*Size: 76MB

Tracklist:
1. Anchimalgen
2. Asinfonía Para Cerdos
3. Desaparición Inminente
4. Máquinas
5. Kratos
6. Ultimo Carruaje
7. Inchinñ ta Tuin Tfachi
8. Soy Kuifykeche
9. Psicopatia Terrenal
10. Litos Sarcófagos
11. Invasores
******************************
Total playing time: 32:34

[more=Extended info]www.ancestral-metal.cl


Input File: 01_ANCHIMALGEN.mp3
Channels : 2
Sample Rate : 44100
Precision : 16-bit
Duration : 00:03:28.36 = 9188588 samples = 15626.9 CDDA sectors
File Size : 8.34M
Bit Rate : 320k
Sample Encoding: MPEG audio (layer I, II or III)
Comment : 'Tracknumber=г„Ђ'

[/more]

Register
(10) artscald, Brutal, Elfrey, jollo, logunarm, PachakaKuraka, Typhoid, varlam4, Vincent, Луч,
Oct 18 2007, 05:18:31 Worship - Dooom (2007)
great album, thanxxxxx a lot!!!
(1) vosmidesijatye,

- Lo-Fi Version Support form
Copyrights and abuse reports form
Time is now: 21st September 2020 - 09:20:21