Welcome Guest ( Log In | Register )

История благодарностей участнику Shub ::: Спасибо сказали: 4247 раз(а)
Дата поста: В теме: За сообщение: Спасибо сказали:
Apr 10 2024, 13:40:02 Brodequin - Harbinger Of Woe (2024)
Альбом мега пушка, конечно. Слушаю каждый день с выхода, да не по одному разу metaler.gif
(2) Strid, WarmasterChorus,
Apr 8 2024, 20:25:19 Brodequin - Festival Of Death (2001)
На следующем, внезапно, гитары в моно, а звук лучше и разборчивее 1488.gif
(1) Фо,
Apr 6 2024, 17:08:32 Korpiklaani - Rankarumpu (2024)
ЦИТАТА(Bloodn Lord @ 6th April 2024 - 20:35:06) *
После первых двух альбомов

После первых трех genius.gif Ну и четвертый, в принципе, довольно слушабельный.
(1) Ainar,
Apr 5 2024, 18:37:52 Mütiilation - Black Metal Cult (2024)
ЦИТАТА(Фо @ 6th April 2024 - 00:27:02) *
Это, типа - мне не нравится, что вставляют горячий паяльник в жoпу, но если посмотреть на вопрос шире, то это не плохо?

Ну, типа, есть те, кому очень даже нравится, когда ему вставляют горячий паяльник в [мат->бан]у. И они могут обидеться!
И на самом делей любителей подобного метафорического паяльника очень много. Я бы даже сказал - большинство.
(2) ent404, Фо,
Apr 4 2024, 21:53:16 Korpiklaani - Rankarumpu (2024)
Все очень плохо, в общем, как обычно у них после первых 3-4 альбомов. Музыку будто бы нейросеть написала, только нейросети уже и получше могут в таком стиле.
А может, они уже в нейросетях музон генерят, а потом просто переигрывают-перезаписывают? 1488.gif
https://app.suno.ai/song/671b59dd-72e6-4d0c...5-c4be920776f3/
(3) DarkHorde, judaz, Surt,
Apr 4 2024, 20:35:43 Iron Monkey - Spleen & Goad (2024)
ЦИТАТА(Daale @ 5th April 2024 - 01:27:55) *
Dekonstruktor

Вот эти очень хороши были в виде The Moon Mistress, такого жира наваливали сочащегося. Демка их прям один из моих любимых релизов евер. А новое чет совсем муть какая-то, ещё и с прелым звуком высушенным, будто только из бани.
Раз уж напомнили, ща буду новый заценивать, не знал, что они выпустили. Слушаю вот сейчас, звук пожирнее стал теперь, но все равно чет не мое.
(2) Daale, ent404,
Apr 3 2024, 21:01:37 Gorevent - Human Garlic Baking [ep] (2016)
Register
(2) gobblin, Wail,
Mar 31 2024, 12:27:43 Самые брутальные обложки альбомов!
Каждый раз вспоминаю диск Cannibal Corpse Kill, где обложка снаружи была зацензурена, но когда открываешь, там такая жуткая мразь сразу вылазит.
Вот эта: https://us.rarevinyl.com/cdn/shop/products/...ord-476591c.jpg
Вроде ничего особенно брутального прям, просто факт забавный.
(1) Occultas,
Mar 26 2024, 16:48:20 Brodequin - Harbinger Of Woe (2024)
Suffocation In Ash оголтелый трек sbobl.png На повторе уже раз 100 послушал.

Кстати, подсоветуйте ещё ченить подобного с мощнейшим нахрюком. Но именно дэтмитол, а не слэмминг, в котором такое встречается чаще.
(2) Occultas, StabWound,
Mar 23 2024, 17:45:07 Leather Lung - Graveside Grin (2024)
С первого раза чет не очень зашло. Со второго уже лучше. Продолжаю наблюдение headcrab.png
Freewheelin' Maniac нормально так качает banana.gif

Пацаны, це годнота! Расслушал - збс! Ставлю на повтор.
(1) vosmidesijatye,
Mar 22 2024, 16:49:27 Sopor Aeternus & The Ensemble Of Shadows - Fab Dead Cult Veil (2024)


*Artist: Sopor Aeternus & The Ensemble Of Shadows
*Album: Fab Dead Cult Veil
*Year: 2024
*Genre: Neoclassical Dark Wave
*Country: Germany
*Format: mp3@VBR265kbps
*Size: 46MB

Tracklist:
01 - The Fabulous 5:45
02 - The Pumpkins 5:24
03 - The Ghosts 6:22
04 - The Dead 6:00
******************************
Total playing time: 23:31



[more=Technical info]
Input File: 02 - The Pumpkins.mp3
Channels : 2
Sample Rate : 44100
Precision : 16-bit
Duration : 00:05:23.66 = 14273274 samples = 24274.3 CDDA sectors
File Size : 11.1M
Bit Rate : 273k
Sample Encoding: MPEG audio (layer I, II or III)
Comments :
Title=The Pumpkins
Artist=Sopor Aeternus & The Ensemble of Shadows
Album=Fab Dead Cult Veil
Tracknumber=2/4
Year=29-0
Genre=Hard Rock
Discnumber=1

[/more]

Register
(4) A.L.Rapsod, DMIYUR, Lord Noctua, thenecromancer,
Feb 25 2024, 15:28:03 Dimmu Bongir - Hvis Pipen Tar Oss (2023)
Каннабис Корпс хорошие, кстати.
https://www.youtube.com/watch?v=2jmXFEBwfVg
Данный трек нормально так качает banana.gif Получше некоторых оригинальных песен даже.

Посмотрим, че данные ребята навертели...
Короче, прогнал разок, в принципе, слушать можно. Smoke weed for Satan true_black.gif
(1) Genuine Thrashiac,
Feb 15 2024, 16:04:36 Traumatomy - Extirpation Paradigms (2021)
На последнем треке хрюканина абсолютно канализационного уровня утробной рыгнутости pray.gif
(1) Occultas,
Feb 9 2024, 18:17:42 Правда ли, что Goat Black совсем не Black?
https://youtu.be/8DlRpfp67yE?t=661
Бафомет Рогатыч раскрыл секрет поистине брутального слэм-высекалова. Вы не поверите, надо просто... ходить на рыбалку! headcrab.png
(4) apries, Chasm, Genuine Thrashiac, Occultas,
Feb 4 2024, 08:39:16 Сын Собаки - Мясо Для Ебли (2024)
ЦИТАТА(vosmidesijatye @ 4th February 2024 - 03:57:38) *
Фред-Онанист

Тот самый? 1488.gif
(2) Ash_1980, Genuine Thrashiac,
Jan 22 2024, 19:27:05 Judas Priest - Firepower (2018)
[youtube]zLPaGqGzdY0[/youtube]
Нормально так.
(1) Un4given,
Nov 26 2023, 19:37:27 Sopor Aeternus & The Ensemble Of Shadows - The Colours [ep] (2023)
Register
(1) Cartman223,
Nov 24 2023, 22:36:36 Crowbar - Zero And Below (2022)
[youtube]qIFASrSpp6Y[/youtube]
(1) Genuine Thrashiac,
Nov 14 2023, 20:42:48 Жирные Подмышки Дракона Адмирала Чпока - Л.Г.Б.Д.Э. (Лепреконы, Гномы, Барды, Драконы, Эльфы) (2023)
Нормальная хрюканина, слушать можно.
(1) DarkHorde,
Oct 31 2023, 10:47:14 Sopor Aeternus & The Ensemble Of Shadows - The Colours [ep] (2023)


*Artist: Sopor Aeternus & The Ensemble Of Shadows
*Album: The Colours [ep]
*Year: 2023
*Genre: Neoclassical Dark Wave
*Country: Germany
*Format: mp3@VBR262kbps
*Size: 35MB

Tracklist:
01 Purple 5:57
02 Black 5:21
03 Orange 4:12
04 White 2:50
******************************
Total playing time: 18:20

[more=Technical info]
Input File: 01 - Purple.mp3
Channels : 2
Sample Rate : 44100
Precision : 16-bit
Duration : 00:05:57.93 = 15784669 samples = 26844.7 CDDA sectors
File Size : 11.9M
Bit Rate : 267k
Sample Encoding: MPEG audio (layer I, II or III)
Comments :
Title=Purple
Artist=Sopor Aeternus & The Ensemble Of Shadows
Album=The Colours
Tracknumber=01/04
Year=2023
Genre=Darkwave

[/more]

Register
(18) A.L.Rapsod, autumnwood, BERZERK, Cartman223, Devastator, Emhyr var Emreis, Grev, gwar, Infidel, leks, Maestrovs, nadin85, nsmetalhead, oldvarg, Reverend, Strygaldwir, thenecromancer, Wail,
Oct 31 2023, 10:41:15 Sopor Aeternus & The Ensemble Of Shadows - Alone At Sam's - An Evening With... (2023)


*Artist: Sopor Aeternus & The Ensemble Of Shadows
*Album: Alone At Sam's - An Evening With...
*Year: 2023
*Genre: Neoclassical Dark Wave
*Country: Germany
*Format: mp3@VBR265kbps
*Size: 140MB

Tracklist:
1. Evening 1:31
2. Come and Play With Us 5:37
3. Alone at Sam's 4:12
4. The Colours 4:01
5. Six Six Six 3:57
6. Nobody Home 3:35
7. The Great Annoyance 3:41
8. Dolls and Dead Things 3:22
9. Column 4:00
10. The House of Poe 2:34
11. Squares of Ha! 4:57
12. The Beast 4:10
13. Vortex 5:46
14. The Spell 5:05
15. These are the Rules 4:06
16. Counter:Spell 3:17
17. A Brief Visit to the House of Poe 3:41
18. You Can Always Play On Your Own 5:20
******************************
Total playing time: 1:12:52

[more=Technical info]
Input File: 02 - Come And Play With Us.mp3
Channels : 2
Sample Rate : 44100
Precision : 16-bit
Duration : 00:05:37.76 = 14895348 samples = 25332.2 CDDA sectors
File Size : 11.2M
Bit Rate : 266k
Sample Encoding: MPEG audio (layer I, II or III)
Comments :
Title=Come And Play With Us
Artist=Sopor Aeternus & The Ensemble Of Shadows
Album=Alone At Sam’s An Evening With...
Tracknumber=02/18
Year=2023
Genre=Darkwave

[/more]

Register
(24) A.L.Rapsod, autumnwood, Cartman223, Devastator, DMIYUR, Emhyr var Emreis, Forest Silence, Grev, gwar, IamTLR, Infidel, leks, Maestrovs, nadin85, nemavertigo, nsmetalhead, oldvarg, philfoden, princeshr, Reverend, Strygaldwir, thenecromancer, Wail, Козлотролль,
Oct 20 2023, 06:11:44 Buckethead - 500 Alchemical Experiments (2023)
ЦИТАТА(vosmidesijatye @ 20th October 2023 - 09:06:50) *
Прям даж настроение упало от упоминания Юрка этого "гитарного"

Таланта [мат->бан] у этого товарища не отнять - настолько умело, сочно, обильно и жидко дрищет, что его говно протекает вообще везде, где только можно.
Если уж не удалось стать виртуозом в гитаре - можно хотя бы стать ректально-оральным виртуозом 1488.gif Причем, скилл настолько высок, что уже зачастую и не ясно, где [мат->бан]а, а где рот.
(1) Emm Human,
Sep 27 2023, 12:26:20 Dopelord - Sons For Satan (2023)
Нашел на диске все альбомы, ща залью.
Register
(2) BleedingSun, chickenfucker,
Sep 27 2023, 08:29:16 Dopelord - Sons For Satan (2023)
Чет я ваще адово проперся с сего альбома. Особенно трек Evil Spell нравится true_black.gif
Фузза реально жирнюче дали, аж разуплотняет. Один из тех странных релизов, где, вроде бы, ничего прям совсем уж особенного нет, но доставляет нереально.
(2) BleedingSun, Froze,
Sep 25 2023, 19:11:48 Правда ли, что Goat Black совсем не Black?
https://youtu.be/pDuzYpHtcvQ?t=1078 headcrab.png headcrab.png headcrab.png
С этого момента и далее - давно я так не ржал.
(6) Ainar, Chasm, FullofHate, Genuine Thrashiac, Occultas, Фо,

43 Pages V   1 2 3 > » 
- Lo-Fi Version Support form
Copyrights and abuse reports form
Time is now: 16th April 2024 - 02:56:21