Welcome Guest ( Log In | Register )

История благодарностей участнику Un4given ::: Спасибо сказали: 5500 раз(а)
Дата поста: В теме: За сообщение: Спасибо сказали:
Mar 31 2020, 20:39:00 Лучший советчик МА - Часть 6 (Хеви) - Тур 2, Рейтингование
В отборе кто-то писал, что мол всё лучше в жанре было в 80-х. Да, вот только лучшее из 80-х стало известным и не подходит под критерии, а тут третьесортное говнецо какое-то насоветовали. Группы из 90-х и 21-го века оказались на голову выше, да и оригинальности как ни странно больше.

Sabotage - Rumore Nel Vento (Extended version 2008) - Какая-то феличита. Короче не вяжется у меня итальянский с бодрым хэви. 0 баллов
Tyrant - Mean Machine - "ну хэви", ненужные порносэмплы, 1 балл
Gravestone - Back To Attack - разнообразием не блещет, 1 балл, но немного не дотянули до большего. Опять порно-сэмплы
MP - Bursting Out - немногим лучше чем ЭСТ. 0 баллов
Pokolgép - Totális Metál - "ну хэви", 1 балл
Sacred Blade - Of the Sun and Moon - начало хорошее, во второй половине совсем нудный недопрог, хотя самая концовка хороша, но 0 баллов
Artch - Another Return - очень хорошо, но не шедевр, 2 балла
Apocrypha - Area 54 - будто сборник каверов на разные группы слушаешь, пускай будет 1 балл за разнообразие
Apocrypha - The Forgotten Scroll - понравился больше, более цельный, проговый, но всё равно почему-то не цепляет. Так что также 1 балл
Excalibur - One Strange Night - максимум духа 80-х, 3 балончика лака для волос из 3 (хотя под конец альбома слегка подсдулись)
E.S.T. - Проба пера - ведь знал, что будет плохо, надо было заочно ставить ноль, зачем я это целых 3 трека терпел? Ужасно всё, поставил бы минус три, если б можно было. Вот из-за таких групп и рождаются предубеждения против отечественной музыки.
Новый Завет - Изгоняющий Дьявола - плюс один за думовые риффы, минус много за всё остальное, но гораздо лучше ЭСТа. 0 баллов. Слышал одну песню перезаписанную от имени Саботаж.
Doctor Butcher - Doctor Butcher - весело, задорно, 2 балла
Moahni Moahna - Temple Of Life - и правда как Rainbow, с добавками симфо-, прог- и даже дум. 3 балла. Хотя вставки то из какого-то балета, то из диснеевских мультиков иногда смущают.
X-Wild - Savageland - не самый бодрый хэви, вокал так себе, но сразу заметен уровень музыкантов и композиторского мастерства (а не наяривания одного риффа всю песню как у многих), 2 балла
Skullview - Legends of Valor - такое ощущение, что все играют кто в лес, кто по дрова. По отдельности партии инструментов и вокал вроде хороши и разнообразны (кроме почти одинаковых ударных в каждом треке), а вместе не сочетаются вообще никак. Тем не менее 1 балл.
Jacobs Dream - Jacobs Dream - вот только хотел посетовать, что нет ничего примерно в духе мейденовского Somewhere in Time, как вот оно. 3 балла
Wizzard - Songs of Sins and Decadence - вокал так себе, риффы бодрые, но сильно зацикленные, но вроде не настолько плохо, чтобы ставить ноль. Концовка в отличие от большинства хороша. Итого 1 балл
Metalucifer - Heavy Metal Chainsaw - "ну хэви", 0 баллов
Ligeia - Gloria - не шедевр, но приятный такой Warlock, 2 балла (с небольшой натяжкой)
Hunters - Break The Rules - намёки на Royal Hunt? 1 балл
Gun Barrel - Outlaw Invasion - ведь слышно же, что вокалист способен на большее чем на моторхедовщину, 1 балл
Dreadnaught - Dreadnaught - модерново, в середине альбома как-то слишком однообразно, вокал тоже не очень, 0 баллов
Saintsbleed - The Mighty Monster - Редкий случай, когда интро лучше самого альбома. Не скажу, что он однообразный, но из-за посредственного вокала каждая песня в отдельности кажется монотонной. 0 баллов
ABBand - Grizzly - 0, первый трек - Сабатон, дальше нудятина, последние 4 трека более-менее, но каверы.
Vastator - Machine Hell - пол-альбома - правильный клон Judas Priest. Хотя медленные части у вокалиста получаются хуже. Испаноязычная вторая половина пооригинальней, но могли бы и перемешать. Тем не менее 3 балла
Katana - Heads Will Roll - "ну хэви", 1 балл
Vulvagun - Cold Moon Over Babylon - с таким названием группы ждал чего-то глэмрокового или моторхэдного, а надо было смотреть на название альбома и треков. 2 балла
Arkham Witch - Legions Of The Deep - +3, но слышал раньше, потому что с думцом и про Ктулху.
Dawnbringer - Into the Lair of the Sun God - начало супер, дальше ударились в лирику, а надо было перемежать с боевиками, 2 балла
Kryptos - The Coils Of Apollyon - из-за вокала кажется более однообразным чем на самом деле, 1 балл
Thunder and Lightning - In Charge of the Scythe - недопавер, но хороший такой. В кои-то веки композиции разнообразны без жанровых метаний, 2 балла
The Spirit Cabinet - Hystero Epileptic Possessed - моё
Night Viper - Exterminator - по музыке хорошо, но женский вокал тут не зашёл, 1 балл
Satan's Hallow - Satan's Hallow - звук с закосом под 80-е; вокал понравился больше чем в Night Viper, но хуже Лигейи, 1 балл
Diviner - Realms of Time - бодро, но немного утомительно, 1 балл
Midnight (Judas) Priest - (Dissident) Aggressive Hauntings - оригинальности ноль, но клоны Judas Priest и King Diamond всяко лучше чем клоны Motorhead и Accept, коих было слишком много в этой голосовалке, 2 балла
(6) avather, Deze, Lux, mirotvorets, plfan93, Tular,
Mar 31 2020, 15:32:28 Лучший советчик МА - Часть 6 (Хеви) - Тур 2, Рейтингование
Держу в курсе: пару альбомов по 3-му разу слухану и наложу список
(1) Deze,
Mar 27 2020, 19:12:10 Лучший советчик МА - Часть 6 (Хеви) - Тур 2, Рейтингование
ЦИТАТА(quicksand @ 27th March 2020 - 18:17:55) *
пожалуй самый слабый вокал, из представленных в данном туре с фронтвумен у микрофона

наоборот же лучший
(3) Deze, infiltrator, Thiarnan,
Mar 26 2020, 07:46:46 My Dying Bride - The Ghost Of Orion (2020)
ЦИТАТА(6666666 @ 26th March 2020 - 00:19:02) *
а лучший у них - 2004-й.

по занудству и однообразию с сабжем посоперничает
(1) Shadowman,
Mar 17 2020, 10:49:56 Soliloquium - Things We Leave Behind (2020)
ЦИТАТА(sadmannn @ 17th March 2020 - 09:17:07) *
М-да, таково беспардонного паразитирования на творчестве Katatonia я ещё не слышал - плагиат в каждом треке

да ладно, таких групп несколько десятков наберется
(1) Ghostb,
Mar 14 2020, 12:18:05 Лучший советчик МА - Часть 6 (Хеви) - Тур 2, Рейтингование
randyhermit,
хочешь сказать тебе какие-нибудь Fear Of The Dark или Paranoid приелись?
(3) Deze, infiltrator, mirotvorets,
Mar 14 2020, 08:43:38 Minóy - In Search Of Tarkovsky (1986)


*Artist: Minóy
*Album: In Search Of Tarkovsky
*Year: 1986
*Genre: Ambient/Drone
*Country: United States
*Format: mp3@CBR320kbps
*Size: 165MB

Tracklist:
1. In Search Of Tarkovsky 29:47
2. Memory Undefined (Dream As Truth) 28:36
******************************
Total playing time: 58:23




[more=Extended info]Cold Spring CSR273CD
В архиве содержатся также 3 сэмпла для компиляциии лейбла
Remastered for CD in 2020. Originally released in 1986 on Minóy Cassetteworks
-------
Minóy (1951-2010), a major figure in DIY noise music, produced some of the most remarkably engrossing, beautiful and imaginative work-of-art albums released on cassette in the 1980's.

Created in 1986, "In Search Of Tarkovsky" is dedicated to the late Russian Director Andrei Tarkovsky ("Solaris", "Stalker", "Andrei Rublev" etc). A unique world of musical expression, with dense audio abstractions where the origin of any particular sound isn't quite discernible. A form of labyrinthian, droning collage electronics, otherworldly and dreamlike, at times nightmarish, at times sad, but always bold and deeply affecting.

Composed after the director's death, it contains many trademarks of Minóy's style: manipulation of shortwave radio, use of spring reverb to get those strangely echoing, claustrophobic environments, and then the howling vocals, piling-up and distorting. Minóy plainly mourns the director's death but in such a unique way there is nothing to compare it to. Two long-form, elaborate pieces (just under 1 hour), essential to Minóy's aesthetic of "cinema of the ear".

This is the first Minóy material ever to be reissued. Unavailable since the original cassette release, these tracks have been remastered from the original archive files and are presented for the first time on CD in a matt-laminate digipak.[/more]

[more=Technical info]
Input File: 05 Memory Undefined (Dream As Truth) (Excerpt).mp3
Channels : 2
Sample Rate : 44100
Precision : 16-bit
Duration : 00:04:00.08 = 10587572 samples = 18006.1 CDDA sectors
File Size : 9.70M
Bit Rate : 323k
Sample Encoding: MPEG audio (layer I, II or III)
Comments :
Title=Memory Undefined (Dream As Truth) (Excerpt)
Artist=Minóy
Album=In Search Of Tarkovsky
Tracknumber=5
Year=2020
Genre=Ambient

[/more]

Register
(4) FUDEDOR, garmonbozia, infiltrator, Olethros,
Mar 13 2020, 20:14:51 Лучший советчик МА - Часть 6 (Хеви) - Тур 2, Рейтингование
ЦИТАТА(randyhermit @ 13th March 2020 - 11:54:04) *
т.е. каждый из альбомов надо бы прогнать раза 3, ну, просто чтобы эти самые хиты заметить.

я думал хит - это когда песенка максимум со второго раза въедается
(4) Deze, infiltrator, mirotvorets, plfan93,
Mar 12 2020, 15:59:53 Лучший советчик МА - Часть 6 (Хеви) - Тур 2, Рейтингование
ЦИТАТА(Deze @ 12th March 2020 - 00:18:04) *
Это ещё больше запутало

ну там правда тетка поет как в ресторанных джазовых ансамблях

ЦИТАТА(Alexis The Best @ 12th March 2020 - 12:01:29) *
вот какой порядок песен должен быть - совсем другие ощущения от прослушивания

блевать дольше или дальше?
(3) Deze, Emm Human, infiltrator,
Mar 12 2020, 15:51:26 My Dying Bride - The Ghost Of Orion (2020)
ЦИТАТА(Emm Human @ 11th March 2020 - 22:00:43) *
слушать такое в наушниках - преступление.

normal_Homerdisgust3.png
не в нашем мире, где "хай фай" колонки за 100 тыс. звучат хуже наушников за 2.5
(1) Shadowman,
Mar 7 2020, 08:57:14 My Dying Bride - The Ghost Of Orion (2020)
ЦИТАТА(Tarelka @ 6th March 2020 - 23:57:37) *
Отсюда и все эти прокладки типа The Solace

это лучший трек на альбоме
(1) Ghostb,
Mar 5 2020, 18:41:38 My Dying Bride - The Ghost Of Orion (2020)
ЦИТАТА(Faust_Vulkan_16 @ 5th March 2020 - 21:34:50) *
Спасибо, но ты же все равно услышал разницу с прошлыми альбомаи, которые были по звучанию более натуральные?

скажу точно, когда этот в наушниках послушаю, но предыдущие тоже пластмассовые были
(2) Faust_Vulkan_16, infiltrator,
Mar 5 2020, 18:34:52 Новости DOOM Metal
ЦИТАТА(Emm Human @ 5th March 2020 - 19:10:36) *
в 94-95-м смогли в дум-дэт,

15.gif
(3) 6666666, Old Vyaine, Хогги,
Mar 5 2020, 18:30:42 My Dying Bride - The Ghost Of Orion (2020)
ЦИТАТА(Faust_Vulkan_16 @ 5th March 2020 - 21:21:11) *
Пики срезаны конечно, но это не компрессор, а особенность кодека в мп3

значит я таких кривых кодеков еще не видел

ЦИТАТА(Faust_Vulkan_16 @ 5th March 2020 - 21:21:11) *
waveform в целом ничего криминального

плотновато для такой музыки, чай не Behemoth какой-нибудь

у тебя опыта конечно в разы больше чем мои потуги звукозаписи, но я прежде чем писать сравнил с предыдущими альбомами в разных битрейтах

ЦИТАТА(vosmidesijatye @ 5th March 2020 - 21:24:42) *
Последним их топчиком был 2006.

нас закидают тухлыми помидорами, но да
(3) Faust_Vulkan_16, Ghostb, infiltrator,
Mar 5 2020, 17:58:51 My Dying Bride - The Ghost Of Orion (2020)
начало нудное, но Tired Of Tears и прифолкованная/дэдкэнденсовая The Solace чудо как хороши, потом опять тягомотина, The Old Earth - неожиданно почти олдскульно (на самом деле скорее The Light At The End of The World)
по первой прослушке очень слабый альбом, но надо признать, некоторые предыдущие тоже не сразу раскрывались
в последнее время неметаллические атмосферные треки и всякие Эвинты получаются у группы лучше, пора уже сделать решительный шаг.

Faust_Vulkan_16,
рип честно говоря подозрительный (по крайней мере у Самаритянина), может конечно и мастер такой (макс. уровень 0.6/-4.5dB, жёсткая компрессия)
но честно говоря после 2006 не было не пластмассового звука

ЦИТАТА(Terrorizer @ 5th March 2020 - 17:45:04) *
Первое впечатление, что снова попал в 2009 ...

мне больше 2012 напомнил

ЦИТАТА(6666666 @ 5th March 2020 - 19:56:33) *
Что намного лучше, чем попасть в 2012-2015 года.

23.gif Feel The Misery - топчик
(4) infiltrator, Magged, metala, Shadowman,
Mar 5 2020, 17:22:39 Лучший советчик МА - Часть 6 (Хеви) - Тур 2, Рейтингование
"Август" лучше того что здесь предложили, но правда веет совковыми ВИА
"Магнит" слушал, но в упор не помню, что там было

Deze,
"С петлёй на шее" был бы на уровне, если б не звук
(2) infiltrator, mirotvorets,
Mar 1 2020, 13:14:24 Лучший советчик МА - Часть 6 (Хеви) - Тур 2, Рейтингование
ЦИТАТА(Exorcist @ 1st March 2020 - 14:48:22) *
Я бы сказал, что музыкально это что-то вроде рюзьке сношона, но на "тижолых" гитарках. Но текстов про купола вроде нет.

уж лучше бы про купола пели, а заодно сменили вокалиста, гитары урал на нормальные, студию, список можно продолжать бесконечно
(2) infiltrator, plfan93,
Feb 27 2020, 13:57:19 Lowrider - Refractions (2020)
20 лет прошло с единственного полноформата Lowrider - Ode To Io (2000)
Новинка правда менее хитова, но более медитативно-триповая

Вообще я как-то большей реакции ждал от народа
(1) Ingvar,
Feb 25 2020, 13:33:29 Khazad-Dûm - Hymns From The Deep (2020)
ЦИТАТА(Der_Hexer @ 25th February 2020 - 14:12:21) *
Если не сильно заморачиватся за правильность и чистописание на гномских рунах придуманных профессором Т.
А сфокусироватся на прослушивании сего альбома,

то можно получить 52:36 посредственных потуг играть как Esoteric
(4) atom72, gena, Ghostb, russ777,
Feb 25 2020, 08:04:58 Khazad-Dûm - Hymns From The Deep (2020)
ЦИТАТА(russ777 @ 24th February 2020 - 22:42:45) *
Все эти руны есть в Нортумбрийском футарке

а есть про них что-то официальное? а то на первых двух страницах поиска какая-то дичь про магию и асатру
опять же знаки не все
короче пацаны скачали первый попавшийся рунический шрифт и напечатали название группы
(1) russ777,
Feb 24 2020, 13:06:38 Khazad-Dûm - Hymns From The Deep (2020)
На логотипе вместо "Khazad Dûm" киртом написано "Chêdzdnj Njanj", "Chêdnjdnd Ndand" или "Cheedksdow Owaew" (в зависимости от версии кирта)
Со звуком старались так же как с логотипом
(1) ingram,
Feb 23 2020, 09:42:49 Tsiolkovski - Molniya (2020)
Скорее Post Metal/Space/Kraut-Rock
В целом ничего так, но сильно вторично
(2) infiltrator, VLADISLAV_V_K,
Feb 22 2020, 17:38:16 Lowrider - Refractions (2020)


*Artist: Lowrider
*Album: Refractions
*Year: 2020
*Genre: Stoner Rock/Metal
*Country: Sweden
*Format: mp3@CBR320kbps
*Size: 99MB

Tracklist:
1. Red River 05:11
2. Ode to Ganymede 06:46
3. Sernanders Krog 08:14
4. Ol' Mule Pepe 05:01
5. Sun Devil / M87* 04:56
6. Pipe Rider 11:25
******************************
Total playing time: 41:33



[more=Technical info]
Input File: 01 Red River.mp3
Channels : 2
Sample Rate : 44100
Precision : 16-bit
Duration : 00:05:11.30 = 13728110 samples = 23347.1 CDDA sectors
File Size : 12.6M
Bit Rate : 324k
Sample Encoding: MPEG audio (layer I, II or III)
Comments :
Title=Red River
Artist=Lowrider
Album=Refractions
Tracknumber=1
Year=2020
Genre=Stoner Rock

[/more]

Register
(14) ASkyThatBurns, Brown Herald, fishish, HMHamster, infiltrator, Leshiy666, Lyrch, Mogozoz, Olethros, Ostinato, princeshr, Rosen, SatanicPanzer, stub888,
Feb 22 2020, 15:13:20 Лучший советчик МА - Часть 5 (Прог) - Тур 2, Рейтингование
ЦИТАТА(Penetralia @ 22nd February 2020 - 15:59:11) *
баба показалась неприятной а потом вроде бы и приятная

обычно наоборот 1488.gif

ЦИТАТА(Nemez @ 22nd February 2020 - 17:31:40) *
ЦИТАТА(Alexis The Best @ Feb 22 2020, 15:50:39)
теги РИМа - бред, не соответствующий действительности!

нужно быть глухим или отшибленным на голову, чтобы не слышать готику в готике

причём готика чистейшая по заветам 80-х
(1) Penetralia,
Feb 21 2020, 08:37:03 On Thorns I Lay - Threnos (2020)
Не осилил даже в режиме имени 80го-ЭммХьюмана
(1) plfan93,

46 Pages V   1 2 3 > » 
- Lo-Fi Version Support form
Copyrights and abuse reports form
Time is now: 2nd April 2020 - 04:58:23