Welcome Guest ( Log In | Register )

История благодарностей участнику Un4given ::: Спасибо сказали: 6367 раз(а)
Дата поста: В теме: За сообщение: Спасибо сказали:
Nov 5 2021, 19:51:39 Ophis - Spew Forth Odium (2021)
ЦИТАТА(DenisKov @ 4th November 2021 - 11:22:41) *
вообще никакого развития

нех*й слушать под звуки щёлканья мышью и выпадания лута, тогда и развитие будет слышно
(3) 6666666, Ethnos, plfan93,
Nov 1 2021, 11:20:42 Sol - Before We Disappear (2018)
Новый альбомчик: Final Seizure of the Light-Being (2021)

Неформат: Ambient/Neoclassical и стоит 1 EUR, поэтому оформлять не стал
По настроению - саундтрек к какому-нибудь скандинавскому арт-хаусу про безысходность и тлен
(2) Chasm, mirotvorets,
Oct 29 2021, 14:39:04 Yes - The Quest (2021)
Ellaya,
рекомендую:
Fragile 1971
Close To The Edge 1972
Tales From Topographic Oceans 1973
остальное для фанатов
(1) Ellaya,
Oct 29 2021, 10:54:41 Funeralium - Decrepit (2021)


*Artist: Funeralium
*Album: Decrepit
*Year: 2021
*Genre: Funeral Doom/Black Metal
*Country: France
*Format: mp3@CBR320kbps
*Size: 179MB

Tracklist:
1. Aviditas 09:46
2. Ruination 31:53
3. The Lunatic Escalation Towards Extinction 23:42
4. The Terminal Purge 12:22
******************************
Total playing time: 1:17:43



[more=Technical info]
Input File: 01 Aviditas.mp3
Channels : 2
Sample Rate : 44100
Precision : 16-bit
Duration : 00:09:46.90 = 25882378 samples = 44017.6 CDDA sectors
File Size : 23.6M
Bit Rate : 322k
Sample Encoding: MPEG audio (layer I, II or III)
Comments :
Title=Aviditas
Artist=Funeralium
Album=Decrepit
Tracknumber=1
Year=2021
Genre=Funeral Doom Metal

[/more]

Register
(37) AHBAnep, AlexSmith, alikkon, andreikun, artscald, BERZERK, Black Cat, Brutal, Buregon, caro, Chasm, ENDSMOUTH, gena, grimoir, Hell_Is_Here, HMHamster, INDARKNESS, infozahist, julianotidre, kauyumari, LEGION69, Marek, Metalass, Olethros, quarantine, Reverend, robertho777, rominow, RUDACHUR, Shadechaser, SilentNidhogg, Sphinx7, supremo, thenecromancer, Tino, VALERY, wreak,
Oct 29 2021, 10:36:40 Dhyana - Bodhisattva (2021)


*Artist: Dhyana
*Album: Bodhisattva
*Year: 2021
*Genre: Psychedelic Stoner/Drone Doom Metal
*Country: United States
*Format: mp3@CBR320kbps
*Size: 269MB

Tracklist:
1. Mahayana 15:52
2. Avalokiteshvara 09:20
3. Embodiment of Great Bliss 06:21
4. Born from the Lotus 11:08
5. Padmasambhava 09:56
6. Amitabha 06:45
7. Siddhartha 08:24
8. Jewel in the Lotus 14:25
9. Rainbow Body 10:23
10. Infinite Light 12:41
11. Milarepa 12:06
******************************
Total playing time: 1:57:21



[more=Extended info]For fans of Om, Bong, Zaum.
There are other releases available for free at Bandcamp[/more]

[more=Technical info]
Input File: 03 Embodiment of Great Bliss.mp3
Channels : 2
Sample Rate : 44100
Precision : 16-bit
Duration : 00:06:21.28 = 16814492 samples = 28596.1 CDDA sectors
File Size : 15.3M
Bit Rate : 322k
Sample Encoding: MPEG audio (layer I, II or III)
Comments :
Title=Embodiment of Great Bliss
Artist=Dhyana
Album=Bodhisattva
Tracknumber=3
Year=2021
Genre=Psychedelic Doom Metal

[/more]

Register
(10) caro, gena, HMHamster, julianotidre, marilin, Olethros, skidnik, StabWound, stub888, wreak,
Oct 29 2021, 10:09:46 Новости DOOM Metal
40 Watt Sun - Perfect Light - out on 21.01.2022
[youtube]Swy_v-8SZYE[/youtube]
по превью правда металла не осталось вообще
(3) Emm Human, SatanicPanzer, Wise.man,
Oct 23 2021, 11:12:52 Новости DOOM Metal
Pantheist - Closer To God - releases 3 December 2021
(3) Emm Human, Old Vyaine, thenecromancer,
Oct 3 2021, 09:43:04 Cataleptic - The Tragedy (2021)
ЦИТАТА(Aectan @ 2nd October 2021 - 16:43:42) *
убожество). В первую очередь, в музыкальном, мелодическом плане, что, сбсенно, главное.

всё отлично тут с мелодиями и построением композиций
другое дело, что смесь Paradise Lost с Brave Murder Day Кататонии не очень интересно слушать

ЦИТАТА(Ice Gnoll @ 3rd October 2021 - 11:35:57) *
Третьесорт. Насилу дождался окончания альбома. Скучно, тускло.

под вывеской Paradise Lost небось нахваливал бы
(4) BERZERK, Bloodn Lord, DCLXVI-135, Old Vyaine,
Oct 2 2021, 14:51:30 Общие рекомендации в стиле
ЦИТАТА(Ellaya @ 2nd October 2021 - 15:33:40) *
Фанат что-ли?
Последний из могикан или из могилы?
давно уже тех нет а те далече....
помрешь,кто тебя вспомнит?

ещё не вечер, а ты уже упоролся?
(1) Old Vyaine,
Sep 30 2021, 18:01:29 Skepticism - Companion (2021)
Шикарный альбом! Чем больше слушаю, тем больше нравится.
(2) tenebriis, Thiarnan,
Sep 15 2021, 11:07:10 Chasmdweller - Flesh Crusade (2021)
олдскульная дезуха, дума нет
на Disembowelment изредка похоже, но на быстрые фрагменты
(1) Old Vyaine,
Sep 13 2021, 18:39:53 Confessor - Unraveled (2005)
Качество как в шапке:
Register
(3) Kazoth, thenecromancer, wreak,
Sep 10 2021, 11:22:52 Рожь - Вечное (2021)
ЦИТАТА(Chasm @ 31st August 2021 - 01:44:50) *
вот тут мне Kairi навеяло... хотя вру.

да не, есть что-то

ЦИТАТА(Chasm @ 31st August 2021 - 01:44:50) *
Альбом интересный и атмосферный. Не ограниченый рамками одного стиля.

Через чур неограниченный. Будто компиляцию слушаешь
(1) Chasm,
Aug 28 2021, 15:34:14 The Slow Death - Siege (2021)
Отличная атмосфера!
Мне больше зашёл чем предыдущий (Ark), но женского вокала маловато - нет того трагизма 2-го альбома.
(1) Chasm,
Aug 26 2021, 11:41:31 Новости DOOM Metal
ЦИТАТА(troll_swamp @ Aug 26 2021, 13:15:35) *
[youtube]hsaa2Qrevic[/youtube]

альбом уже на модерации banana.gif
(2) Chasm, troll_swamp,
Aug 25 2021, 07:17:18 The Sullen Route - Akira [ep] (2021)
ЦИТАТА(avather @ 20th August 2021 - 02:26:20) *
Дурацкая идея - перейти на родной. Весь шарм улетел сразу

ЦИТАТА(sidJoy @ 24th August 2021 - 11:20:38) *
может мы просто разучились родную речь в метале слышать

нет, дело вообще не в языке
(1) Metalass,
Aug 23 2021, 15:36:27 Путь - Юдоль Скорби [ep] (2020)
ЦИТАТА(Kitalter @ 24th December 2020 - 15:22:39) *
Одни из флагманов отечественного атмоблэка, за что их и любят.

такие-то флагманы!
вокал отвратный, баян в музыку не вписали, в живую играют криво
(2) Hexer, Nemez,
Jul 30 2021, 21:11:31 Hellish Form - Remains (2021)
Ох, давненько не попадалось годного "Torture Funeral": чтоб депрессивно и с надрывом, и музыка на месте была, а не дёрганье случайных сладжевых павер-кордов с сустейном на максимум всю дорогу. На третьем треке конкретно протащился.
Получилось что-то среднее между Worship и Bell Witch, но исключительно со скрим-вокалом.
В жанровый топ года, но теперь нужен курс реабилитации чем-нибудь жизнерадостным
(1) Sanctus,
Jul 24 2021, 21:23:16 (Dolch) - I & II [compilation] (2015)
Register
(4) abob, carla667, rocesid, thenecromancer,
Jul 13 2021, 11:55:52 Дрём - 4 (2021)
ЦИТАТА(Bloodn Lord @ 13th July 2021 - 14:45:24) *
музыканты добавили в своё полотно флейту (или эффект флейты, без понятия). И это настолько неудачно, что прямо-таки отбивает слушать напрочь.

На первых альбомах всё было к месту

ЦИТАТА(Bloodn Lord @ 13th July 2021 - 14:45:24) *
Лавры Коматозов

несколько преувеличены
(2) Deze, infiltrator,
Jul 11 2021, 21:08:40 Olórin - Through Shadow And Flame (2021)


*Artist: Olórin
*Album: Through Shadow And Flame
*Year: 2021
*Genre: Epic Doom Metal
*Country: United States
*Format: mp3@CBR320kbps
*Size: 109MB

Tracklist:
1. Black Chasm 07:42
2. Descension 07:23
3. Ringwe 06:14
4. The Endless Stair 08:05
5. Durin's Tower 04:30
6. Mornië 01:47
7. The White Rider 09:46
******************************
Total playing time: 45:27



[more=Technical info]
Input File: 05 Durin\'s Tower.mp3
Channels : 2
Sample Rate : 44100
Precision : 16-bit
Duration : 00:04:30.18 = 11914762 samples = 20263.2 CDDA sectors
File Size : 11.1M
Bit Rate : 329k
Sample Encoding: MPEG audio (layer I, II or III)
Comments :
Title=Durin's Tower
Artist=Olórin
Album=Through Shadow and Flame
Tracknumber=5
Year=2021
Genre=Epic Doom Metal

[/more]

Register
(21) after21allD, AHBAnep, boby9052, bOOLty, Brutal, Buregon, caro, chipsgott, DeathDragon, HMHamster, marilin, Mogozoz, Olethros, poeira, sergsazan, stumpheavyrock, supremo, VALERY, wreak, ZamanFu, zhol,
Jul 11 2021, 19:49:35 Die Apokalyptischen Reiter - The Divine Horsemen (2021)
ЦИТАТА(ent404 @ 11th July 2021 - 19:24:55) *
непровальных альбомов только первых три, дальше ширпотреб для голодных.

ЦИТАТА(cancer1974 @ 11th July 2021 - 22:39:54) *
Да и 5-й по инерции пойдёт,со скрипом но ладно

2006-й лучший
(2) Deze, infiltrator,
Jul 6 2021, 18:23:43 Die Apokalyptischen Reiter - The Divine Horsemen (2021)
И тут юзеры разнылись.

На Roots похожи только 2 темы из клипов. А я был бы не против и целого альбома в духе Сепультуры 1993-1996 на мелодетоблэковых дрожжах.
Естественно, больше всего мне понравились околодумовые Inka и Duir. Ну и Akhi ещё, эдакий металлический "кавер" на Queen - Mustafa, который лучше не включать громко при слишком бдительных соседях на пенсии )
Не зашёл только 2-й трек.
Вообще альбом в целом - Краутрок с вкраплениями метала

Лучшее, что выпустила группа со времён Riders On The Storm.
(3) Bloodn Lord, gikaki, infiltrator,
Jul 6 2021, 17:23:07 Dvar - Deii (2012)
ЦИТАТА(vosmidesijatye @ 6th July 2021 - 19:47:01) *
Сабжевых имеет смысл ваще слушать или это так, ординарный проектец?

проект неординарный, но в итоге оставил у себя только Taai Liira
(1) vosmidesijatye,
Jul 4 2021, 16:51:06 Funeral Chasm - Omniversal Existence (2021)
Альбом настолько охрененный, что я его даже купил.

Разумеется, это не Funeral, а Doom/Death, но почему GRAF ещё не умер от рака яичек на фоне коронавируса?
(2) Chasm, Samaritianin,

53 Pages V   1 2 3 > » 
- Lo-Fi Version Support form
Copyrights and abuse reports form
Time is now: 29th November 2021 - 22:36:51