Welcome Guest ( Log In | Register )

История благодарностей участнику Un4given ::: Спасибо сказали: 6281 раз(а)
Дата поста: В теме: За сообщение: Спасибо сказали:
Yesterday, 11:07:10 Chasmdweller - Flesh Crusade (2021)
олдскульная дезуха, дума нет
на Disembowelment изредка похоже, но на быстрые фрагменты
(1) Old Vyaine,
Sep 13 2021, 18:39:53 Confessor - Unraveled (2005)
Качество как в шапке:
Register
(2) Kazoth, thenecromancer,
Sep 10 2021, 11:22:52 Рожь - Вечное (2021)
ЦИТАТА(Chasm @ 31st August 2021 - 01:44:50) *
вот тут мне Kairi навеяло... хотя вру.

да не, есть что-то

ЦИТАТА(Chasm @ 31st August 2021 - 01:44:50) *
Альбом интересный и атмосферный. Не ограниченый рамками одного стиля.

Через чур неограниченный. Будто компиляцию слушаешь
(1) Chasm,
Aug 28 2021, 15:34:14 The Slow Death - Siege (2021)
Отличная атмосфера!
Мне больше зашёл чем предыдущий (Ark), но женского вокала маловато - нет того трагизма 2-го альбома.
(1) Chasm,
Aug 26 2021, 11:41:31 Новости DOOM Metal
ЦИТАТА(troll_swamp @ Aug 26 2021, 13:15:35) *
[youtube]hsaa2Qrevic[/youtube]

альбом уже на модерации banana.gif
(2) Chasm, troll_swamp,
Aug 25 2021, 07:17:18 The Sullen Route - Akira [ep] (2021)
ЦИТАТА(avather @ 20th August 2021 - 02:26:20) *
Дурацкая идея - перейти на родной. Весь шарм улетел сразу

ЦИТАТА(sidJoy @ 24th August 2021 - 11:20:38) *
может мы просто разучились родную речь в метале слышать

нет, дело вообще не в языке
(1) Metalass,
Aug 23 2021, 15:36:27 Путь - Юдоль Скорби [ep] (2020)
ЦИТАТА(Kitalter @ 24th December 2020 - 15:22:39) *
Одни из флагманов отечественного атмоблэка, за что их и любят.

такие-то флагманы!
вокал отвратный, баян в музыку не вписали, в живую играют криво
(2) Hexer, Nemez,
Jul 30 2021, 21:11:31 Hellish Form - Remains (2021)
Ох, давненько не попадалось годного "Torture Funeral": чтоб депрессивно и с надрывом, и музыка на месте была, а не дёрганье случайных сладжевых павер-кордов с сустейном на максимум всю дорогу. На третьем треке конкретно протащился.
Получилось что-то среднее между Worship и Bell Witch, но исключительно со скрим-вокалом.
В жанровый топ года, но теперь нужен курс реабилитации чем-нибудь жизнерадостным
(1) Sanctus,
Jul 24 2021, 21:23:16 (Dolch) - I & II [compilation] (2015)
Register
(3) abob, carla667, thenecromancer,
Jul 13 2021, 11:55:52 Дрём - 4 (2021)
ЦИТАТА(Bloodn Lord @ 13th July 2021 - 14:45:24) *
музыканты добавили в своё полотно флейту (или эффект флейты, без понятия). И это настолько неудачно, что прямо-таки отбивает слушать напрочь.

На первых альбомах всё было к месту

ЦИТАТА(Bloodn Lord @ 13th July 2021 - 14:45:24) *
Лавры Коматозов

несколько преувеличены
(2) Deze, infiltrator,
Jul 11 2021, 21:08:40 Olórin - Through Shadow And Flame (2021)


*Artist: Olórin
*Album: Through Shadow And Flame
*Year: 2021
*Genre: Epic Doom Metal
*Country: United States
*Format: mp3@CBR320kbps
*Size: 109MB

Tracklist:
1. Black Chasm 07:42
2. Descension 07:23
3. Ringwe 06:14
4. The Endless Stair 08:05
5. Durin's Tower 04:30
6. Mornië 01:47
7. The White Rider 09:46
******************************
Total playing time: 45:27



[more=Technical info]
Input File: 05 Durin\'s Tower.mp3
Channels : 2
Sample Rate : 44100
Precision : 16-bit
Duration : 00:04:30.18 = 11914762 samples = 20263.2 CDDA sectors
File Size : 11.1M
Bit Rate : 329k
Sample Encoding: MPEG audio (layer I, II or III)
Comments :
Title=Durin's Tower
Artist=Olórin
Album=Through Shadow and Flame
Tracknumber=5
Year=2021
Genre=Epic Doom Metal

[/more]

Register
(21) after21allD, AHBAnep, boby9052, bOOLty, Brutal, Buregon, caro, chipsgott, DeathDragon, HMHamster, marilin, Mogozoz, Olethros, poeira, sergsazan, stumpheavyrock, supremo, VALERY, wreak, ZamanFu, zhol,
Jul 11 2021, 19:49:35 Die Apokalyptischen Reiter - The Divine Horsemen (2021)
ЦИТАТА(ent404 @ 11th July 2021 - 19:24:55) *
непровальных альбомов только первых три, дальше ширпотреб для голодных.

ЦИТАТА(cancer1974 @ 11th July 2021 - 22:39:54) *
Да и 5-й по инерции пойдёт,со скрипом но ладно

2006-й лучший
(2) Deze, infiltrator,
Jul 6 2021, 18:23:43 Die Apokalyptischen Reiter - The Divine Horsemen (2021)
И тут юзеры разнылись.

На Roots похожи только 2 темы из клипов. А я был бы не против и целого альбома в духе Сепультуры 1993-1996 на мелодетоблэковых дрожжах.
Естественно, больше всего мне понравились околодумовые Inka и Duir. Ну и Akhi ещё, эдакий металлический "кавер" на Queen - Mustafa, который лучше не включать громко при слишком бдительных соседях на пенсии )
Не зашёл только 2-й трек.
Вообще альбом в целом - Краутрок с вкраплениями метала

Лучшее, что выпустила группа со времён Riders On The Storm.
(3) Bloodn Lord, gikaki, infiltrator,
Jul 6 2021, 17:23:07 Dvar - Deii (2012)
ЦИТАТА(vosmidesijatye @ 6th July 2021 - 19:47:01) *
Сабжевых имеет смысл ваще слушать или это так, ординарный проектец?

проект неординарный, но в итоге оставил у себя только Taai Liira
(1) vosmidesijatye,
Jul 4 2021, 16:51:06 Funeral Chasm - Omniversal Existence (2021)
Альбом настолько охрененный, что я его даже купил.

Разумеется, это не Funeral, а Doom/Death, но почему GRAF ещё не умер от рака яичек на фоне коронавируса?
(2) Chasm, Samaritianin,
Jun 26 2021, 10:16:09 Lustmord & Karin Park - Alter [collaboration] (2021)


*Artist: Lustmord & Karin Park
*Album: Alter [collaboration]
*Year: 2021
*Genre: Dark Ambient | Gothic/Pop/Folk
*Country: United States | Norway
*Format: mp3@CBR320kbps
*Size: 141MB

Tracklist:
1. Hiraeth 06:17
2. The Void Between 09:03
3. Perihelion 05:31
4. Twin Flames 11:04
5. Entwined 09:26
6. Kindred 07:52
7. Song of Sol 07:36
8. Sele 09:10
******************************
Total playing time: 1:05:59




[more=Extended info]в сумме получилась более мрачная версия Dead Can Dance

альбом доступен бесплатно на BandCamp

[youtube]KP2en_1QpHo[/youtube][/more]

[more=Technical info]
Input File: 03 Perihelion.mp3
Channels : 2
Sample Rate : 44100
Precision : 16-bit
Duration : 00:05:31.38 = 14614034 samples = 24853.8 CDDA sectors
File Size : 13.4M
Bit Rate : 323k
Sample Encoding: MPEG audio (layer I, II or III)
Comments :
Title=Perihelion
Artist=Lustmord & Karin Park
Album=Alter
Tracknumber=3
Year=2021
Genre=Ambient

[/more]

Register
(15) 6666666, Boozer, Cartman223, Chasm, gwar, Hell_Is_Here, Infidel, leks, mirotvorets, p4B10, Reverend, thenecromancer, tOmV, Trelledorn, wtk.412,
Jun 24 2021, 11:56:00 Helloween - Helloween (2021)
Я не знаю, откуда столько недовольных.
По первой прослушке ни одна песня не стала крутиться в голове (но есть чувство, что пара-тройка начнёт после второй попытки). Пока больше всего понравились кипероподобные Down In The Dumps и Skyfall, но это эпики, а не хиты в классическом понимании.
Но ведь и проходных песен нет вообще! Даже короткая интерлюдия (Orbit) не раздражает, а я их терпеть не могу.
Вокалисты на записи все молодцы (реальные их возможности на концертах к альбому прямого отношения не имеют).
И звук на этот раз нормальный (Straight out of Hell я только из-за него не переслушивал).
И бонусы супер!
(2) infiltrator, Old Vyaine,
Jun 9 2021, 16:01:06 Lantlôs
Yeah, the search function here sucks at diacritics

These were found by album name:
Lantlôs - .Neon (2010)
Lantlôs - Melting Sun (2014)
Lantlôs - Agape (2011)

And everything is found by typing "Lantl"

Easy
(1) Kvlt,
Jun 7 2021, 09:57:25 Vascular Curse - A Violent Scene Of Death [ep] (2021)
Бл#, реально звуки General MIDI ???
в эпоху, когда можно сделать программные инструменты неотличимыми от настоящих? (правда за тысячу-другую баксов или нелегально)
(1) ingram,
Jun 6 2021, 21:28:08 Amon Amarth - Masters Of War [single] (2021)
ЦИТАТА(Old Vyaine @ 6th June 2021 - 12:33:01) *
Отличный трек с лучшего альбома группы

На Twilight of the Thunder God такого трека нет
(3) dark1988, Deze, infiltrator,
Jun 6 2021, 17:47:51 Phlebotomized - Immense Intense Suspense (1994)
Ludwig Hagen, Bandcamp version is a remaster. Here it is

Phlebotomized - Immense Intense Suspense / Skycontact (2014 remastered compilation, 320kbps Bandcamp purchase)
Register

please note that compilation misses one or two tracks from original releases
(4) A.L.Rapsod, Ingvar, Ludwig Hagen, thenecromancer,
Jun 6 2021, 11:21:37 Funeral Moth - Polar [ep] (2019)


*Artist: Funeral Moth
*Album: Polar [ep]
*Year: 2019
*Genre: Funeral Doom Metal
*Country: Japan
*Format: mp3@CBR320kbps
*Size: 25MB

Tracklist:
1. Polar 10:31
******************************
Total playing time: 10:31



[more=Extended info]Легковесней чем обычно[/more]

[more=Technical info]
Input File: 01 polar.mp3
Channels : 2
Sample Rate : 44100
Precision : 16-bit
Duration : 00:10:31.78 = 27861630 samples = 47383.7 CDDA sectors
File Size : 25.4M
Bit Rate : 321k
Sample Encoding: MPEG audio (layer I, II or III)
Comments :
Title=Polar
Artist=Funeral Moth
Album=Polar
Tracknumber=1
Year=2019
Genre=Funeral Doom Metal

[/more]

Register
(19) BERZERK, Cdub, gena, HMHamster, infiltrator, krotovich, lacrimatorium, marilin, Olethros, quarantine, sergsazan, Shadechaser, supremo, thenecromancer, uncolored, VALERY, varlam4, Wail, wreak,
Jun 1 2021, 16:41:16 Majestic Downfall - Aorta (2021)
ЦИТАТА(skidnik @ 25th May 2021 - 20:27:54) *
Гитары, которые основную музыку делают, теряются во всём этом.

С выпячиванием ритм-секции может и переборщили, но слегка.
Мне гитары нормально слышно, притом что на нынешних колонках уклон в бас.
В наушниках слышно клиппинг на ударке, что конечно не радует, но опять же гитары слышны хорошо.

Если со звуком и накосячили, то с музыкой всё отлично.
До прослушивания альбома боялся возросшего хронометража композиций, но опасения оказались беспочвенными - музыканты не давали скучать. Понравились и плавные переходы между треками.
(1) Chasm,
Jun 1 2021, 10:20:26 Lone Wanderer - The Majesty Of Loss (2016)
Зачётная всё же группа.
На эпихе более запоминающиеся треки, альбом 2020-го атмосфернее, но и сабж хорош
(1) Chasm,
May 30 2021, 13:47:27 Majestic Downfall - Waters Of Fate (2018)
Register
(3) Buregon, Chasm, sacramentary,

53 Pages V   1 2 3 > » 
- Lo-Fi Version Support form
Copyrights and abuse reports form
Time is now: 16th September 2021 - 12:11:20