Welcome Guest ( Log In | Register )

История благодарностей участнику Un4given ::: Спасибо сказали: 6191 раз(а)
Дата поста: В теме: За сообщение: Спасибо сказали:
Jun 9 2021, 16:01:06 Lantlôs
Yeah, the search function here sucks at diacritics

These were found by album name:
Lantlôs - .Neon (2010)
Lantlôs - Melting Sun (2014)
Lantlôs - Agape (2011)

And everything is found by typing "Lantl"

Easy
(1) Kvlt,
Jun 7 2021, 09:57:25 Vascular Curse - A Violent Scene Of Death [ep] (2021)
Бл#, реально звуки General MIDI ???
в эпоху, когда можно сделать программные инструменты неотличимыми от настоящих? (правда за тысячу-другую баксов или нелегально)
(1) ingram,
Jun 6 2021, 21:28:08 Amon Amarth - Masters Of War [single] (2021)
ЦИТАТА(Old Vyaine @ 6th June 2021 - 12:33:01) *
Отличный трек с лучшего альбома группы

На Twilight of the Thunder God такого трека нет
(2) Deze, infiltrator,
Jun 6 2021, 17:47:51 Phlebotomized - Immense Intense Suspense (1994)
Ludwig Hagen, Bandcamp version is a remaster. Here it is

Phlebotomized - Immense Intense Suspense / Skycontact (2014 remastered compilation, 320kbps Bandcamp purchase)
Register

please note that compilation misses one or two tracks from original releases
(3) Ingvar, Ludwig Hagen, thenecromancer,
Jun 6 2021, 11:21:37 Funeral Moth - Polar [ep] (2019)


*Artist: Funeral Moth
*Album: Polar [ep]
*Year: 2019
*Genre: Funeral Doom Metal
*Country: Japan
*Format: mp3@CBR320kbps
*Size: 25MB

Tracklist:
1. Polar 10:31
******************************
Total playing time: 10:31



[more=Extended info]Легковесней чем обычно[/more]

[more=Technical info]
Input File: 01 polar.mp3
Channels : 2
Sample Rate : 44100
Precision : 16-bit
Duration : 00:10:31.78 = 27861630 samples = 47383.7 CDDA sectors
File Size : 25.4M
Bit Rate : 321k
Sample Encoding: MPEG audio (layer I, II or III)
Comments :
Title=Polar
Artist=Funeral Moth
Album=Polar
Tracknumber=1
Year=2019
Genre=Funeral Doom Metal

[/more]

Register
(18) BERZERK, Cdub, gena, HMHamster, infiltrator, krotovich, lacrimatorium, marilin, Olethros, quarantine, sergsazan, Shadechaser, supremo, thenecromancer, uncolored, VALERY, varlam4, Wail,
Jun 1 2021, 10:20:26 Lone Wanderer - The Majesty Of Loss (2016)
Зачётная всё же группа.
На эпихе более запоминающиеся треки, альбом 2020-го атмосфернее, но и сабж хорош
(1) Chasm,
May 30 2021, 13:47:27 Majestic Downfall - Waters Of Fate (2018)
Register
(2) Buregon, sacramentary,
May 30 2021, 13:46:54 Majestic Downfall - ...When Dead (2015)
Register
(1) sacramentary,
May 29 2021, 11:32:09 Новости DOOM Metal
ЦИТАТА(Nicrophorus @ 25th May 2021 - 23:43:08) *
16.07.21 новый альбом Towards Atlantis Lights

новость привлечёт больше внимания, если упомянуть, что в составе Костас из Pantheist, мастермайнд Void of Silence - Ivan Zara, и оставить ссылку на превью:
(1) Chasm,
May 28 2021, 22:53:14 Митол со скрипкой, виолончелью, гармошкой.
С аккордеоном:
[youtube]PwrfRso-578[/youtube]
( Beyond Belief - Towards The Diabolical Experiment (1993) )
(1) Tarelka,
May 28 2021, 22:35:58 Дрём - Отрывок/Excerpt [ep] (2019)


*Artist: Дрём
*Album: Отрывок/Excerpt [ep]
*Year: 2019
*Genre: Funeral Doom Metal
*Country: Russian Federation
*Format: mp3@CBR320kbps
*Size: 74MB

Tracklist:
1. Ничто / Nothing 10:37
2. Любовь / Love 10:08
3. Побоище / Battle 11:14
******************************
Total playing time: 31:59



[more=Technical info]
Input File: 02 Любовь - Love.mp3
Channels : 2
Sample Rate : 44100
Precision : 16-bit
Duration : 00:10:08.32 = 26827088 samples = 45624.3 CDDA sectors
File Size : 24.5M
Bit Rate : 322k
Sample Encoding: MPEG audio (layer I, II or III)
Comments :
Title=Любовь / Love
Artist=Дрём
Album=Отрывок (Excerpt)
Tracknumber=2
Year=2019
Genre=Funeral Doom Metal

[/more]

Register
(20) Bloodn Lord, Boozer, deadterror, gena, infiltrator, infozahist, Lucju, Olethros, quarantine, ripper33, Shadechaser, supremo, thenecromancer, undeadlich, VALERY, varlam4, Veggr, vlad74, Wail, wreak,
May 22 2021, 21:25:35 Nadja - Luminous Rot (2021)
ЦИТАТА(vosmidesijatye @ 22nd May 2021 - 13:47:24) *
более шершаво-нойзово

скорее пост-панково-индастриально
(1) S_tarot,
May 13 2021, 18:19:07 Garden Of Worm & The Wandering Midget - Garden Of Worm/The Wandering Midget Split 7" [split] (2017)


*Artist: Garden Of Worm & The Wandering Midget
*Album: Garden Of Worm/The Wandering Midget Split 7" [split]
*Year: 2017
*Genre: Psychedelic/Stoner Rock | Doom Metal
*Country: Finland | Finland
*Format: mp3@CBR128kbps
*Size: 11MB

Tracklist:
Garden Of Worm:
1. Whirls 6:00

The Wandering Midget:
2. Man With Black Hole Eyes 5:42
******************************
Total playing time: 11:42

Preview 1

[more=Extended info]Soundcloud rip[/more]

[more=Technical info]
Input File: 02. The Wandering Midget - Man With Black Hole Eyes.mp3
Channels : 2
Sample Rate : 44100
Precision : 16-bit
Duration : 00:05:46.63 = 15286251 samples = 25997 CDDA sectors
File Size : 5.55M
Bit Rate : 128k
Sample Encoding: MPEG audio (layer I, II or III)
Comments :
Title=Man With Black Hole Eyes
Artist=The Wandering Midget
Album=Garden Of Worm / The Wandering Midget
Tracknumber=2
Year=2017
Genre=Doom Metal

[/more]

Register
(4) Boozer, Lanceatum, quarantine, VALERY,
May 12 2021, 09:13:25 Дрём - 4 (2021)
Чёт первые три композиции совсем нудные smile2.gif
А вот четвёртая постовая понравилась.

P.S. ещё звук какой-то всратый, и эффекты на "флейту" зачем-то навесили
(3) Chasm, infiltrator, woldemort,
May 3 2021, 17:06:05 __________, или Голосовалка за лучший альбом 2020 года, ФИНАЛ
мне оба финалиста понравились
но от подгорания по поводу Benediction так смешно, что хочется за них голосовать
(5) Alexis The Best, infiltrator, judaz, neoatheist, Penetralia,
Apr 20 2021, 19:07:19 Sol - Before We Disappear (2018)
ЦИТАТА(ent404 @ 20th April 2021 - 20:48:20) *
для меня это неожиданное открытие.

я лично вот от этих их релизов тащусь:
Sol & Blóðtrú - Old Europa Death Chants [split] (2010)
Sol - Offer Thy Flesh To The Worms (2011)
(2) ent404, infiltrator,
Apr 20 2021, 16:03:38 Sol - Before We Disappear (2018)
Забаньте его на подольше
(3) Bloodn Lord, Branis, mondlicht,
Apr 19 2021, 19:41:25 __________, или Голосовалка за лучший альбом 2020 года, Тур 2
ЦИТАТА(Exorcist @ 19th April 2021 - 22:19:07) *
Так что не надо тут про каких-то мифических конкурентов, у которых всё ещё хуже.

они не мифические, весь список "попсы" попахивает. Ну кроме Тестамента, но тоже средненький альбом

EDIT: ладно, еще Inquisition зашли, прям откровений тоже нет. Оранси еще - откровения есть, но я не их целевая аудитория
(2) infiltrator, neoatheist,
Apr 19 2021, 19:29:50 Sol - Before We Disappear (2018)


*Artist: Sol
*Album: Before We Disappear
*Year: 2018
*Genre: Funeral Doom Metal/Dark Folk/Ambient
*Country: Denmark
*Format: mp3@CBR320kbps
*Size: 95MB

Tracklist:
1. Spheres 05:39
2. Wave 07:33
3. Trees Shall Rise From Our Hands 07:21
4. Carried By Old Storms 05:27
5. Eastern Sky 04:49
6. Ages 09:45
******************************
Total playing time: 40:34



[more=Technical info]
Input File: 05 Eastern Sky.mp3
Channels : 2
Sample Rate : 44100
Precision : 16-bit
Duration : 00:04:49.09 = 12748869 samples = 21681.7 CDDA sectors
File Size : 11.7M
Bit Rate : 325k
Sample Encoding: MPEG audio (layer I, II or III)
Comments :
Title=Eastern Sky
Artist=SOL
Album=Before We Disappear
Tracknumber=5
Year=2018

[/more]

Register
(27) AlexSmith, bc_, Chasm, Druidir, ent404, gav-gafi, Geisteswaffe, gena, Hell_Is_Here, HMHamster, infiltrator, kauyumari, Mist13Signifier, Olethros, rammmirez, randumbum, ripper33, robertho777, sergsazan, skidnik, stub888, thenecromancer, undeadlich, VALERY, varlam4, vlad74, wreak,
Apr 19 2021, 19:14:44 __________, или Голосовалка за лучший альбом 2020 года, Тур 2
Ситуация с Benediction напомнила о Ведьмаке 3. Игра ни по одному критерию не топ, так 7/10, вот только у конкурентов всё ещё хуже (условно 10 за графику, 1 за сюжет или наоборот; а в среднем 5). В итоге имеем чуть ли не лучшую игру десятилетия.

ЦИТАТА(Exorcist @ 19th April 2021 - 14:00:13) *
Абигор выпустили бомбу!

в детстве некоторые развлекались, кидая с балкона какахи, завернутые в газету.
Абигор, конечно, не настолько плох, но ближе к таким видам бомб
(4) Alexis The Best, infiltrator, Lux, neoatheist,
Apr 17 2021, 22:50:17 __________, или Голосовалка за лучший альбом 2020 года, Тур 2
ЦИТАТА(acerbus @ 18th April 2021 - 01:42:41) *
Это самый действенный способ скачать данный альбом в сложившейся ситуации.
????????????????????????????????????

Напряги содержимое своей сапёрной лопатки, не зли меня понапрасну.

для этого совета не обязательно было что-то другое обсерать, так что сам напрягай свои лопатки
(3) 6666666, ent404, infiltrator,
Apr 14 2021, 13:52:38 __________, или Голосовалка за лучший альбом 2020 года, Тур 2
ЦИТАТА(Exorcist @ 14th April 2021 - 16:44:45) *
Это я вспомнил Clandestine Blaze. Которые регулярно попадали в плов-ы Сатурналий, и которых я регулярно минусовал, потому что ужас-ужас. Соляки там были. Но лучше бы их не было.

ты ничего не понимаешь, это не кривые соляки, это проговые диссонансы, фри-джазовые размеры и нестандартный строй гитар. Пора бы уже выйти за рамки 1488.gif
(7) 6666666, BleedingSun, ent404, Exorcist, infiltrator, mirotvorets, Yarri,
Apr 12 2021, 17:53:49 __________, или Голосовалка за лучший альбом 2020 года, Тур 2
Abigor - Totschläger (A Saintslayer's Songbook) - и правда по звучанию ближе к их ранним работам, но с сохранением более новых наработок. Казалось, должно было получиться хорошо. Но в результате ни в п**ду, ни в Красную Армию. Толком ни математического хаоса работ 21 века, ни симфоничности-мелодичности ранних, -1.
Benediction - Scriptures - я такой кондовый дет не люблю, но +1 за несколько башкотрясных треков заслужили
Dark Tranquillity - Moment - как обычно, мелодий полно, а на выходе скукотища. Более-менее понравился только трек Failstate. -1
Finntroll - Vredesvävd - Примерно та же история, что у Abigor. По форме - тот самый финский тролль, по содержанию - его какахи. Вообще ни один трек не запомнился, хотя это была уже не первая попытка послушать альбом. -1
Inquisition - Black Mass For A Mass Grave - люблю я Immortal, особенно с идеями посвежее. Был бы ещё альбом покороче... +2 с натяжкой
My Dying Bride - The Ghost Of Orion - наверно худший альбом группы и разочарование года, -2. Рип в подборке оказался лучше того, что был изначально в теме с альбомом, но впечатления не исправил, ударные всё равно ужасно записаны.
Necrophobic - Dawn Of The Damned - вроде и ничего, но без скуки не обошлось. -1
Oranssi Pazuzu - Mestarin Kynsi - вообще не моё, но это как минимум интересно, +1
Paradise Lost - Obsidian - ещё одна нудятина от пенсионеров. Но тут я ничего и не ждал. -1
Testament - Titans Of Creation - ну трэш. Почти хорошо, но треки по 6 минут - это они зря. Да и вообще нужно как Слеер ограничиваться минутами этак 35. Тем не менее, +1.
Ulcerate - Stare Into Death And Be Still - начинается как суета сует, только с буквой Х. Заканчивается грузиловым, но тоже каким-то неправильным. Вообще неплохие моменты были, только их слишком мало, чтобы не бороться с желанием выключить. -1

Alarum - Circle's End - обычно мне не нравится, когда каждый из музыкантов играет в отдельном жанре, но в данном случае что-то в этом есть, +1
Armagedda - Svindeldjup Ättestup - ну блэк, к середине альбома стало скучно, -1
Cytotoxin - Nuklearth - неплохо, но немного утомительно, +1 с натяжкой
Darzamat - A Philosopher At The End Of The Universe - вроде и приятная музыка, но хитов не завезли. -1
Deeds of Flesh - Nucleus - может и норм, но мне уже Cytotoxin'а и тематической голосовалки хватило, без оценки
Esoctrilihum - Eternity Of Shaog - по музыке супер-отлично-мимими, только вокал всё портит, да и меру надо знать. +2 с натяжкой
Hate Forest - Hour Of The Centaur - ну блэк, мне больше Армагедды понравился, но тоже скучновато для записи в альбомы года, -1
Havukruunu - Uinuos Syömein Sota - блэк пободрее, пофолковей и помелодичнее. Не Moonsorrow, конечно, но тоже неплохо. +1
Loudblast - Manifesto - начали за здравие, да слишком одинаково всё. -1
Mekong Delta - Tales Of A Future Past - скучно не было, но и без восторгов, +1
Psychotic Waltz - The God-Shaped Void - отлично, +2
(6) Deze, ent404, FullofHate, infiltrator, judaz, Lux,
Apr 11 2021, 11:48:26 Kauan - Ice Fleet (2021)
Пожалуй лучший альбом Kauan со времён Aava Tuulen Maa
(1) MeatWolf,
Apr 6 2021, 07:53:32 Celtachor - Fiannaoícht (2018)
Register
(2) kimkayoung, thenecromancer,

52 Pages V   1 2 3 > » 
- Lo-Fi Version Support form
Copyrights and abuse reports form
Time is now: 14th June 2021 - 22:41:01