Welcome Guest ( Log In | Register )

История благодарностей участнику grinderrr ::: Спасибо сказали: 186 раз(а)
Дата поста: В теме: За сообщение: Спасибо сказали:
Apr 6 2023, 17:09:02 Septicflesh - Reconstruction [ep] (2023)
ЦИТАТА(xax @ Apr 6 2023, 16:40:12) *
Только это абсолютно 100% те же самые оркестровки, что и на альбоме год назад бонусами выходили.


Ты прав. Композиции оказались те же:

The band comments "We are excited to present you with Reconstruction, a digital EP that consists of the bonus songs from Modern Primitive, now making them available to all our fans."
(1) Occultas,
Apr 6 2023, 13:34:26 Septicflesh - Reconstruction [ep] (2023)
ЦИТАТА(xax @ Apr 6 2023, 05:40:30) *
бонусы с прошлого альбома с новой картинкой. можно не качать.


Symphonic death metallers SEPTICFLESH have announced a new digital EP titled Reconstruction, that will feature three reimagined versions of songs from their latest album Modern Primitive. The new versions of these songs were recorded with an orchestra and a choir to achieve an entirely symphonic sound.
(1) Occultas,
Mar 1 2023, 21:26:04 Mordeth - The Unknown Knows (2018)
Кастрированный релиз.
Отсутствует заявленный в шапке темы трэк #2 Monolith.
(1) Occultas,
Feb 22 2023, 01:35:43 99.9 - 99.9 (2022)
Эксперименты тут в диссонансах, структуре композиций, а также индустриальном налёте.
Wanna be to Abigor.
Никакой "шведятины" нет и в помине...
(1) dimmannius,
Nov 4 2022, 23:31:44 Toxik - Kinetic Closure (2020)
ЦИТАТА(Samaritianin @ Nov 4 2022, 22:19:05) *
потому как это сборник старых песен,а слак указал как полный bye.gif


Да я не против, чтобы он указал.
И не против, чтобы ты указал.
Только я тоже указываю, что этот "полный" альбом, выпущенный отдельно в 20-ом уже полностью входил в полный сборник в том же полном виде, выпущенный в 18-ом.
(2) AHBAnep, canadaspaceman,
Nov 4 2022, 19:46:35 Toxik - Kinetic Closure (2020)
Этот тоже, кажется, полностью отсюда:
Toxik - III Works [compilation] (2018)
(1) canadaspaceman,
Sep 11 2022, 19:29:35 Unquintessence - Nil Solaris [demo] (2000)
Register
(2) Sergey, Vlosinssrigg,
Aug 10 2022, 18:05:27 Paralytic Of... - ...A Groovy Kind Of Seasickness (1998)


*Artist: Paralytic Of...
*Album: ...A Groovy Kind Of Seasickness
*Year: 1998
*Genre: Progressive/Avant-Garde Metal
*Country: Germany
*Format: mp3@CBR320kbps
*Size: 106MB

Tracklist:
1. Brother 04:32
2. 23 Reasons to Die 06:05
3. Save the Pig 04:17
4. Three Dark Kings 05:01
5. Weird 05:06
6. Mitro 00:38
7. Don't Deny 04:23
8. Clic-Clack 06:12
9. DB 05:13
10. We've Got 01:00
11. Groovy Kind of Seasickness 04:07
******************************
Total playing time: 46:34

[more=Technical info]
Input File: 01. Brother.mp3
Channels : 2
Sample Rate : 44100
Precision : 16-bit
Duration : 00:04:33.10 = 12043798 samples = 20482.6 CDDA sectors
File Size : 10.9M
Bit Rate : 320k
Sample Encoding: MPEG audio (layer I, II or III)
Comments :
Title=Brother
Artist=Paralytic of...
Album=...a Groovy Kind of Seasickness
Tracknumber=1
Year=1998

[/more]

Register
(14) artscald, as71, Buregon, Carcharoth, caro, chipsgott, Hell_Is_Here, kimkayoung, lucifix, Mencae77, metala, MMMMM, Proteus_666, wreak,
Jul 5 2022, 23:49:37 Infernal Bizarre - Mroczne Dziedzictwo (2022)
Скорее, Death/Grind. Technical не услышал.
(1) mittal,
Mar 13 2022, 23:24:26 Meditation - Cosmic Overdose (2022) (1) Occultas,
Feb 3 2022, 22:18:09 Mesmerize (Fra) - LysergSäureDiäthylamid (2012)
Альбом появился, только стиль совсем не тот, который на демках (Gothic Rock):

(1) SyncestrA,
Nov 26 2021, 22:03:14 Versus Chaos - Extremes Expressions [ep] (2002)


*Artist: Versus Chaos
*Album: Extremes Expressions [ep]
*Year: 2002
*Genre: Technical Brutal Death Metal/Hardcore
*Country: Canada
*Format: mp3@CBR320kbps
*Size: 31MB

Tracklist:
1. Intro 00:53
2. Extremes Expressions Of Hate 03:04
3. Piercing 03:11
4. Tools Of Gore 02:26
5. Sâh 02:58
6. The Forbidden Emotion 02:55
******************************
Total playing time: 15:27

[more=Extended info]Yascha Savoie - Bass
Christian Paquet - Drums (ex-Negativa)
Felix Williamson - Guitars
Alex LeBlanc - Vocals (Fracturus, Neuraxis, ex-Minds, ex-Necrosphere, ex-Mass Murder Messiah, ex-Point Blank Rage, ex-Vengeful, ex-Atheretic)[/more]

[more=Technical info]
Input File: 02. Extremes Expressions of Hate.mp3
Channels : 2
Sample Rate : 44100
Precision : 16-bit
Duration : 00:03:03.78 = 8104566 samples = 13783.3 CDDA sectors
File Size : 7.35M
Bit Rate : 320k
Sample Encoding: MPEG audio (layer I, II or III)
Comments :
Title=Extremes Expressions of Hate
Artist=Versus Chaos
Album=Extremes Expressions
Tracknumber=2
Year=2002-26-11
Genre=22

[/more]

Register
(11) artscald, caro, chipsgott, Hell_Is_Here, julianotidre, Marek, metala, Olethros, varlam4, vyacheslav, wreak,
Dec 6 2020, 23:18:26 Beherit - Bardo Exist (2020)
Бонусный диск с композицией "Bardo Exists" есть у кого-нибудь?
(1) Occultas,
Jun 8 2020, 00:10:36 Vicious Circle - Unearthed Precision [ep] (2020)
Это те же трэки, что и здесь
Vicious Circle - Lifelong Suicide [demo] (2007)
только перезаписанные в 2018-ом году.
(1) metala,
Oct 13 2019, 22:43:27 Cemetery Gates - Through The Shadows Of Fear (2019)
Группа из Швеции, какие нах штаты?
(1) BlackArrow,
Oct 26 2018, 20:03:34 Project: Wormhole - Time Beings (2018)
США, а не Испания.


(2) artscald, StabWound,
Oct 21 2018, 18:50:13 Cynic - Right Between The Eyes [compilation] (2003)
Интересно, это официальная обложка или кто-то нафотошопил?
Логотип на обложке совсем другой группы crazy.gif
(1) Shadowman,
Jul 31 2018, 22:58:49 Morgroth - Догмы Тёмных Богов (2018)
Feed Sorry for the Funutic 1488.gif
(1) samokot,
May 27 2018, 21:09:04 夢遊病者 - 一期一会 (2018)
ЦИТАТА(smysl @ May 26 2018, 20:10:23) *
*Country: Japan


OSAKA + TVER + NEW YORK
(1) Leolomb,
May 27 2018, 20:43:55 夢遊病者 - 5772 (2017)
The country is not Japan!
The members hail from Osaka, Tver and New York.


(1) Leolomb,
Apr 29 2017, 22:36:58 Definition Sane - Psychodelirium [best of/compilation] (2004)
Register

(1) lawronchik,
Apr 11 2017, 19:24:08 Uprising - Uprising (2002)
Для страждущих аборигенов:
Register

Register
(1) avather,
Mar 25 2017, 23:39:30 R'lyeh - Celestial Malefactor (2017)
One-man band from Arizona, United States.
http://metalmansion.com/profile/RobertAguilar

(1) AHBAnep,
Dec 26 2016, 15:48:32 Eczema - La Decadencia Del Ser (2008)
Все трэки по ссылкам ниже.

Ссылки от самой группы на скачивание всех старых альбомов:

(1) jaft64,
Dec 26 2016, 15:47:01 Eczema - Soledad, El Llanto De La Muerte (2001)
Ссылки от самой группы на скачивание всех старых альбомов:

(1) varlam4,

5 Pages V   1 2 3 > » 
- Lo-Fi Version Support form
Copyrights and abuse reports form
Time is now: 6th June 2023 - 16:26:04