Welcome Guest ( Log In | Register )

История благодарностей участнику gena ::: Спасибо сказали: 383 раз(а)
Дата поста: В теме: За сообщение: Спасибо сказали:
Jul 18 2021, 15:39:44 High´n´heavy - V (2021)
High n' Heavy
(2) infiltrator, vosmidesijatye,
Jul 2 2021, 09:06:01 Year Of No Light - Consolamentum (2021)
[youtube]mjbZJLA4LaM[/youtube]
(1) mirotvorets,
Jul 1 2021, 14:15:55 Taake - Avvik [compilation] (2021)
In this context, “Avvik” also refers to this particular collection of songs, as the album compiles tracks which never really fitted in to any of the Taake releases, and hence ended up on three split-10” with Whoredom Rife, Deathcult and Helheim, released on different labels.

“Avvik” collects the Taake tracks from the three split-10” releases for a limited digipak cd release. All tracks have been remixed and remastered for a digital release, and some of the remixes have some surprising guest appearances. Exclusively for this release, Dr Mikannibal of Sigh did Taake the honour of adding her saxophone to a slightly longer version of the Sisters of Mercy cover “Heartland”.

Also, live guitarist Gjermund have done a very special acoustic version of the classic track “Nattestid ser Porten vid I”, which is exclusive for this release.
(2) craP_cillA, Occultas,
Jun 24 2021, 19:16:16 Darkthrone - Eternal Hails...... (2021)
для меня это лучший их релиз из последних десяти. прекрасная работа
(3) infiltrator, smes, Zyozic_Bandutto,
May 16 2021, 20:13:37 Clandestine Blaze - Secrets Of Laceration (2021)
как пластинку из 90х поставил. альбом будет топом года
(3) infiltrator, mirotvorets, Original_ZED,
Dec 31 2020, 10:06:44 מזמור - Yodh (2016)
QUOTE(varlam4 @ Dec 31 2020, 11:15:09) *
Перезалейте плз

Register
(1) varlam4,
Dec 31 2020, 08:49:11 מזמור - מזמור (2012)
QUOTE(varlam4 @ Dec 31 2020, 01:10:35) *
Перезалейте плз

Register
(2) kim666, varlam4,
Nov 26 2020, 21:43:33 Новости Black-направления
Funérailles de feu
by Sainte Marie des Loups

качайте бесплатно при желании
(3) infiltrator, Occultas, suseka,
Nov 20 2020, 08:42:26 Bog Wizard - From The Mire (2020)
(2) infiltrator, serjred,
Oct 31 2020, 08:02:54 Gypsybyrd - Eye Of The Sun (2020)


*Artist: Gypsybyrd
*Album: Eye Of The Sun
*Year: 2020
*Genre: Stoner Rock
*Country: United States
*Format: mp3@CBR320kbps
*Size: 72MB

Tracklist:
1. Prisoner 05:36
2. Eye Of The Sun 06:08
3. Cosmic Eyes 04:36
4. Gotta Get Away 05:11
5.The Quest for the Enlightened One 03:12
6.The Mountain 05:36
******************************
Total playing time: 30:19



[more=Extended info]released January 31, 2020

Vocals, Guitars, Keys and Drums performed by Jake Lewis
Bass performed by Freddy Allen (of Sun Of Grey)

All songs, music, and lyrics by Jake Lewis
Mix and Mastered by Jake Lewis
copyright cosmic sound recordings

Album art by Jake Lewis[/more]

[more=Technical info]
Input File: Gypsybyrd - EYE OF THE SUN - 01 Prisoner.mp3
Channels : 2
Sample Rate : 44100
Precision : 16-bit
Duration : 00:05:36.08 = 14821260 samples = 25206.2 CDDA sectors
File Size : 13.6M
Bit Rate : 324k
Sample Encoding: MPEG audio (layer I, II or III)
Comments :
Title=Prisoner
Artist=Gypsybyrd
Album=EYE OF THE SUN
Tracknumber=1
Year=2020

[/more]

Register
(3) infiltrator, marilin, Olethros,
Oct 15 2020, 13:38:08 Benediction - Scriptures (2020)
дадада The Grand Leveller это вообще входит в классику лучшего что было в этом мире headcrab.png
(1) Amadeus,
Oct 3 2020, 20:28:37 Briqueville - Quelle (2020)
отличный материал. недавно искал предыдущие работы. может кто поделиться?
(1) Fallen Soul,
Sep 18 2020, 19:58:54 Raven Throne - Viartannie (Chroniki Źmiainaj Ciemry) (2020)
очень хорошо
(1) Samaritianin,
Sep 9 2020, 07:22:23 Novae Militiae - Topheth (2020)
отличный релиз. в 20-ом на удивление много хорошего материала вышло
(1) Occultas,
Aug 8 2020, 18:14:34 Selbst - Relatos De Angustia (2020)
отличный материал, после прослушивания поставил 17-го года, одно удовольствие
(2) infiltrator, NOMIDIMON,
Aug 6 2020, 13:08:10 Vassafor - To The Death (2020)
записываю в лучшие альбомы года
(2) Femto, infiltrator,
Jun 19 2020, 20:41:14 Postvorta - Siderael Pt. One (2020)
ЦИТАТА(deathic @ Jun 19 2020, 20:06:24) *
please, re-upload.

что тебе мешает с бэндкэмп скачать бесплатно??
(1) deathic,
Jun 15 2020, 20:58:47 Örmagna - Örmagna (2019)
очередная хорошая работа прошла незамеченной для меня с прошлого года 20.gif
(1) sabr,
May 29 2020, 21:15:10 Sinister - Deformation Of The Holy Realm (2020)
Зашло на ура! Очень злой альбом 25.gif
Месят дедушки что надо
(5) CTPEMLEHIE, infiltrator, judaz, smes, Язва,
May 22 2020, 05:50:02 Revenge - Strike.Smother.Dehumanize (2020)
Убойный альбом. Все на месте. То чего и ждешь от канадцев. На мой взгляд слегка не дотягивает до шедеврального предыдущего полноформата, заслушанного до дыр 25.gif 25.gif 25.gif
p.s. всем кому не по нраву, слушать в обязательном порядке новый armagedda, от где истинный мрак ценителей 1488.gif
(2) infiltrator, sacrut,
May 10 2020, 08:06:31 Lysergene - Critical Mass (2008)
музыка заходит на одном дыхании. на можно послушать еще интересные работы лейбла Phantom Hertz Recordings
p.s mirotvorets как всегда на высоте 9.gif 9.gif 9.gif
(1) mirotvorets,
Apr 1 2020, 09:07:57 Новости Black-направления
ЦИТАТА(ripper33 @ Mar 24 2020, 18:06:43) *
[youtube]ScMbsZW3qn4[/youtube]

скорей бы 17 апреля. Хотя есть надежда, что добрые люди раньше сольют в сеть )). Как никак самый ожидаемый релиз
(4) Chasm, Darkwood, infiltrator, Абигор,
Mar 20 2020, 07:12:35 Medico Peste - ב :the Black Bile (2020)
Великолепная работа. Прогнал три раза. Слушается интереснее двух крайних мгвы. Лучший трек закрывающий.
(1) smes,
Mar 19 2020, 16:43:39 Medico Peste - ב :the Black Bile (2020)
наконец то хорошие новости 25.gif
(2) infiltrator, NOMIDIMON,
Mar 8 2020, 06:18:12 Новости Black-направления
[youtube]1qNNKAcnuu4[/youtube]
(4) infiltrator, rimfrost, suseka, vovenom,

8 Pages V   1 2 3 > » 
- Lo-Fi Version Support form
Copyrights and abuse reports form
Time is now: 1st August 2021 - 06:22:19