Welcome Guest ( Log In | Register )

История благодарностей участнику roaroma ::: Спасибо сказали: 416 раз(а)
Дата поста: В теме: За сообщение: Спасибо сказали:
Jan 26 2023, 11:16:50 Menace - Open Fire (2023)
прямое наследие Чака - причем тут олдскултреш
(1) DarkHorde,
Nov 16 2022, 17:05:04 Sandro Casu - We Are (2021)
горшочек, не вари !
(1) Yarri,
Nov 15 2022, 17:22:21 Rototypical - Volume I: The Tactician (2021)
это циник
(1) aesteticvice,
Nov 4 2022, 07:56:44 Pahan Ikoni - Ikonoklasti (2022)
пахан иконы ? smile1.gif
(1) nsk2008,
May 28 2022, 06:18:34 Pentarium - Abgott (2022)
[youtube]https://www.youtube.com/channel/UC3AiGtJM2BwE4Hk3CteiPTg[/youtube]
(1) DenisKov,
Apr 11 2021, 18:55:34 Morte Silmoris - Morte Silmoris (2020)
интересный вокал аля Мустейн
(2) infiltrator, razor7,
Nov 19 2020, 13:49:29 Dark Tranquillity - Moment (2020)
pray.gif pray.gif pray.gif pray.gif pray.gif pray.gif pray.gif pray.gif pray.gif
(3) AprilbuG, infiltrator, Nattfodd,
Jan 5 2020, 11:13:39 Holocaustic - Exhibit C (2020)
Register
(9) boby9052, infiltrator, KeeLs, METALHUNTER, Olethros, stumpheavyrock, vyacheslav, wendigo, wgs73,
Aug 2 2019, 16:36:38 Skrik - Skeleton (2019)
прогрессивом не пахнет - альтернативщина-грувщина.
(1) AHBAnep,
Mar 15 2019, 19:48:23 Iron Maiden - Eddie's Archive [compilation] (2002)
харвестер оф мани.
(2) AHBAnep, Ghostb,
Jul 28 2018, 21:21:59 Tarja - Act Ii [live] (2018)
бабло победит все.
(1) Ghostb,
Nov 30 2017, 06:23:28 Пикник - Искры и канкан (2017)


*Artist: Пикник
*Album: Искры и канкан
*Year: 2017
*Genre: Rock
*Country: Russian Federation
*Format: mp3@CBR320kbps
*Size: 87MB

Tracklist:
01. Лихие пришли времена
02. Злая кровь
03. Парню 90 лет
04. Последний из Могикан
05. Всё хорошо!
06. Ты кукла из папье-маше
07. Большая игра
08. Принцесса
09. Зачем?
10. Ничего.
******************************
Total playing time: 41:01

[more=Technical info]
Input File: 05 Всё хорошо!.mp3
Channels : 2
Sample Rate : 44100
Precision : 16-bit
Duration : 00:02:52.66 = 7614394 samples = 12949.6 CDDA sectors
File Size : 7.03M
Bit Rate : 326k
Sample Encoding: MPEG audio (layer I, II or III)
Comments :
Title=Всё хорошо!
Artist=РџРёРєРЅРёРє
Album=Р?СЃРєСЂС‹ Рё канкан
Tracknumber=5/10
Year=2017
Genre=17
Discnumber=1/1

[/more]

Register
(13) A.L.Rapsod, andivi, Aresson, avkruchinin, Diflock, DMIYUR, Lanceatum, Mplast, raritetum, SAPOGi, SatanicPanzer, VALERY, некрософ,
Aug 26 2017, 09:01:49 Solitary Confinement - Einzelhaft (1996)
первый раз такое вижу - Превышен лимит на скачивание файла. Вы можете сохранить его только на Яндекс.Диск.
лечится какнить ? ессно, кроме сохранения на этот диск себе.
(1) lldma,
Aug 3 2017, 13:17:58 Quiet Riot - Road Rage (2017)
Register
(4) Aresson, fabriziomagno, Old Vyaine, wgs73,
Jan 10 2017, 07:10:48 Minraud - Vox Populi (2017)
тизер очень содержательный, по музыке прямо таки авангард !
(1) Shadowman,
Apr 28 2016, 17:08:49 Burden Of Life - In Cycles (2016)
[youtube]https://www.youtube.com/watch?v=eM7-WGjNIF0[/youtube]
(1) KVRT,
Apr 27 2016, 18:32:43 Darin Zane - The Lexical (2016)
[youtube]https://www.youtube.com/channel/UCSllPlJCraz6wuz8z16nR6w[/youtube]
(1) Renegade765,
Mar 15 2016, 13:57:08 Scare Don't Fear - From The Ground Up (2014)
[youtube]https://www.youtube.com/watch?v=107qZ_ilHZ4[/youtube]
(1) KVRT,
Jan 8 2016, 14:27:53 Church - Tears Of God (2015)
Register

(1) avkruchinin,
Dec 22 2015, 17:20:33 Face Of Agony - Death Blow (2015)
[youtube]https://www.youtube.com/watch?v=5DPhp4vuUF4[/youtube]
(1) Diflock,
Dec 17 2015, 21:07:25 Cain's Dinasty - The Hollow Earth (2015)
Register


(2) metala, three3go,
Oct 28 2015, 06:54:12 Vanden Plas - Chronicles Of The Immortals: Netherworld II (2015)
спасибо, ждал .
айфолдер испортил все ожидания .

Register

(3) dimitris p., metala, Shadowman,
Oct 12 2015, 18:45:13 Parkway Drive - Ire (2015)
что за ключ дешифрования ?
(1) Typhoid,
May 12 2015, 13:50:41 Mental Vortex - I Am Now… (2011)
ссылка на ютуб вовсе не на ютуб ссылка .
(1) Genuine Thrashiac,
Sep 23 2010, 12:19:08 Robert Plant - Band Of Joy (2010)


*Artist: Robert Plant
*Album: Band Of Joy
*Year: 2010
*Genre: Rock
*Country: United States
*Format: mp3@CBR320kbps
*Size: 108MB

Tracklist:
01. Angel Dance
02. House of Cards
03. Central Two-0-Nine
04. Silver Rider
05. You Can't Buy My Love
06. Falling In Love Again
07. The Only Sound That Matters
08. Monkey
09. Cindy, I'll Marry You Someday
10. Harm's Swift Way
11. Satan Your Kingdom Must Come Down
12. Even This Shall Pass Away
******************************
Total playing time: 47:40


Preview 2

Register
(2) KoreanGringo, авантаж,

4 Pages V   1 2 3 > » 
- Lo-Fi Version Support form
Copyrights and abuse reports form
Time is now: 29th March 2023 - 07:27:52