Welcome Guest ( Log In | Register )

История благодарностей участнику StabWound ::: Спасибо сказали: 2065 раз(а)
Дата поста: В теме: За сообщение: Спасибо сказали:
May 21 2022, 09:01:42 Carlton Melton - Where This Leads (2020)


*Artist: Carlton Melton
*Album: Where This Leads
*Year: 2020
*Genre: Psychedelic/Space Rock
*Country: United States
*Format: flac
*Size: 808MB

Tracklist:
1. The Stars Are Dying 17:30
2. Butchery 02:13
3. Waylay 07:36
4. Dezebelle 05:28
5. Smoke Drip Revisited 12:58
6. Crown Shyness 06:28
7. Three Zero Two 06:02
8. Porch Dreams 06:21
9. Closer 06:15
******************************
Total playing time: 1:10:51



[more=Extended info]

[24bit-48kHz.FLAC]



Dome Rock.

Nestled deep in the forests of Mendocino County in Northern California, huddled under the protective shade of towering redwoods and within earshot of frothy waves crashing against the Pacific coastline, squats a geodesic dome that has served as crucible for the experimental genius of Carlton Melton.Nature and Man operate under different logics. But here, Carlton Melton wholly entrusts this idyllic environment with the task of inspiring and guiding their musical improvisations.

The Dome has been the ideal setting to facilitate their creativity. Without forcing a specific dynamic or theme, the band inhabits its womb-like confines to improvise, explore, dream. Their music draws on psychedelia, stoner metal, krautrock, and ambient atmospherics to convey, above all else, a mood.

A prickly guitar melody will float lazily, a wall of dissonant feedback will resolve into a hypnotic drone, or a colossal riff will exhume the soul of Jimi Hendrix. One hears Hawkwind or Spacemen 3 jamming with Pink Floyd at Pompeii.

Indeed, Carlton Melton have one foot in the ancient world and one tentacle in deep space. They are both the pack of... more
credits
released October 30, 2020
__________________
5% Recovery Record[/more]

Register
(2) Ash_1980, marilin,
May 21 2022, 07:53:33 Carlton Melton - Photos Of Photos (2012)


*Artist: Carlton Melton
*Album: Photos Of Photos
*Year: 2012
*Genre: Psychedelic/Space Rock
*Country: United States
*Format: flac
*Size: 436MB

Tracklist:
1. Nor' Easter 12:03
2. Photos of Photos 06:43
3. Space Treader 10:24
4. Wingspan 08:21
5. Adrift 22:29
6. Smoke Drip 09:58
******************************
Total playing time: 1:09:58



[more=Extended info]

Released September 21, 2012

All Songs recorded at The Dome by Brian
Mixed & Mastered at Taylor Street Studios by Josh McBain
Artwork by Kaveh Soofi
Layout by Clint Golden
Photos by Andy Duvall
__________________
5% Recovery Record[/more]

Register
(2) marilin, Occultas,
May 21 2022, 07:29:02 Carlton Melton - Aground [ep] (2018)


*Artist: Carlton Melton
*Album: Aground [ep]
*Year: 2018
*Genre: Psychedelic/Space Rock
*Country: United States
*Format: flac
*Size: 138MB

Tracklist:
1. Upon Your Return 05:48
2. Simulacra 02:25
3. Phildelayphian 03:29
4. Simmer 06:25
5. Holiday Hours 07:03
******************************
Total playing time: 25:10



[more=Extended info]

Bass – Clint Golden*
Drums, Guitar – Andy DuVall
Guitar – Phil Manley (tracks: A3)
Guitar, Synth – Rich Millman
Lacquer Cut By – K*
Layout – Clint Golden*
Mastered By – John McBain
Photography By – Andy DuVall
Recorded By, Mixed By – Phil Manley

Released in a quantity of 600 for Record Store Day 2016
__________________
5% Recovery Record[/more]

Register
(2) Ash_1980, marilin,
May 18 2022, 06:31:39 Sleepwulf - Sleepwulf (2020)


*Artist: Sleepwulf
*Album: Sleepwulf
*Year: 2020
*Genre: Doom Metal, Psychedelic Rock
*Country: Sweden
*Format: flac
*Size: 307MB

Tracklist:
01. Wizard Slayer 04:35
02. Beasts Of Collision 04:25
03. Lucifer's Light 03:17
04. Standing Stones 06:18
05. God Of The Gaps 01:31
06. Tumbling Towers 03:24
07. Misty Mountain 04:02
08. Wicked Man 03:36
09. One Eyed Jailor 05:38
10. Spell Of The Dead Man's Hand Bonus track 03:16
11. Witches Covenant (Bonus track) 03:31
12. Moonbeams Curl (Bonus track) 02:36
******************************
Total playing time: 46:09




[more=Extended info]

Sleepwulf’s debut album is a bonfire of vintage 70s proto doom sounds that recently set fire to the underground rock scene, managing to gain a #3 spot on the cuvited Doom Charts.

Inspired heavily from the work of renowned occultist John Dee, this album attempts to rekindle his vision of a united cosmos. From the stars to atoms and back again, every aspect of the album is rooted in these core principles. These themes also seep into the back cover artwork which was cut from a single piece of paper, with each image representing a song on the album.

To keep the authentic retro vibe, the album was self-recorded live on tape in their practice room. “It was a journey to capture the sound we were hearing when we jammed together but after a lot of trial and error, we got there in the end”.

The cover art was drawn in the late 70s by the singer's father and left undiscovered in a cupboard for 40 years until shortly before the album was finished.
This is an album of cycles and connection, which endeavors to bring the sounds of old into the burning sun once again.
credits

released February 18, 2022
__________________
5% Recovery Record[/more]

Register
(2) VALERY, vosmidesijatye,
Apr 10 2022, 00:58:42 Trio Mediaeval - Solacium (2021)
QUOTE(Amadeus @ Mar 23 2022, 05:47:18) *
Прекрасная, волшебная, чарующая музыка



I have many more releases/bands (polyphonic) like this. I will be uploading them little bit by little bit 20.gif
(2) Amadeus, Dargaud,
Apr 6 2022, 08:50:21 Bhleg - Fäghring (2022)
QUOTE(r1348 @ Apr 1 2022, 03:06:28) *
Thank you! Anyone with a FLAC rip?

Also: fag ring 1488.gif


[24bit-44kHz.FLAC]


________________________________________
658MB / 5% Recovery Record
Register

9.gif
(3) Andr, Demonic, Olethros,
Apr 6 2022, 04:52:17 Star One - Revel In Time (2022)
3CD Deluxe Version or something like that...

CD1 - Revel in Time
01. Fate of Man 05:29
02. 28 Days Till the End of Time 07:21
03. Prescient 06:34
04. Back From the Past 04:50
05. Revel in Time 04:38
06. The Year of ’41 06:20
07. Bridge of Life 05:14
08. Today Is Yesterday 05:46
09. A Hand on the Clock 05:52
10. Beyond the Edge of It All 04:52
11. Lost Children of the Universe 09:46

CD2 - Same Songs, Different Singers
01. Fate of Man 05:29
02. 28 Days Till the End of Time 07:21
03. Prescient 06:34
04. Back From the Past 04:50
05. Revel in Time 04:38
06. The Year of ’41 06:20
07. Bridge of Life 05:14
08. Today Is Yesterday 05:46
09. A Hand on the Clock 05:52
10. Beyond the Edge of It All 04:52
11. Lost Children of the Universe 09:46

CD3 - Instrumental Versions Of All Songs
01. Fate of Man 05:29
02. 28 Days Till the End of Time 07:21
03. Prescient 06:34
04. Back From the Past 04:50
05. Revel in Time 04:38
06. The Year of ’41 06:20
07. Bridge of Life 05:14
08. Today Is Yesterday 05:46
09. A Hand on the Clock 05:52
10. Beyond the Edge of It All 04:52
11. Lost Children of the Universe 09:46
------
Total Time: 3:20:06
Album info:
Register

===================== Audio =====================
Format : MPEG Audio
Formatversion : Version 1
Formatprofile : Layer 3
Mode : Joint stereo
Bit rate mode : Constant
Bit rate : 320 Kbps
Channel(s) : 2 channels
Sampling rate : 44.1 KHz
Compression mode : Lossy
Writing library : LAME3.99.5
________________________________________
502MB / 5% Recovery Record
Register



Technical info:
Register

CD1 - Revel in Time [24bit-48kHz.FLAC]
CD2 - Same Songs, Different Singers [24bit-48kHz.FLAC]
CD3 - Instrumental Versions Of All Songs [16bit-44kHz.FLAC]
________________________________________
2.2GB / 5% Recovery Record
Register


9.gif

(1) Victim of fate,
Apr 3 2022, 05:53:23 Otava Yo - Do You Love (2019)


*Artist: Otava Yo
*Album: Do You Love
*Year: 2019
*Genre: World, Russian Folk
*Country: Russian Federation
*Format: flac
*Size: 1000MB

Tracklist:
01. Once upon a Time on a High Hill 3:41
02. Oh, Dusya My Marusya 5:03
03. Brooms 4:36
04. Maidens Have Sown the Flax 6:36
05. The Lord Once Gave Me Tea 5:24
06. Guelder-Rose Berries 5:10
07. Do You Love? 7:45
08. Sumetskaya: Fist-Fighting Rhymes 4:11
09. The Ruby Rose Bush 3:10
******************************
Total playing time: 45:36

Preview 1


Preview 4

[more=Extended info]

[24bit-96kHz.FLAC]



A group of professional folk musicians in St. Petersburg, Russia, spontaneously got together in 2005 and formed Otava Yo as a side project. They wanted to create new interpretations of Russian folk music, accessible to all audiences, and to revive old favorite Soviet tunes
After working on its "Russian beat" concept for three years the band released a new album, "Once Upon a Time."

Some call them "modern buffoons", others describe the music as "communal flat groove", and both are true. Otava Yo serves up its music in a vigorous manner with a good dose of humor, mixing up overdriven traditional Russian instruments with a stereotypical Russian look, which simultaneously frightens and attracts the tourists.
Witty song introductions emerged with the music, livening up already energetic performances. The band is very popular in its home city of St. Petersburg, playing some 80 concerts a year at various venues and events. 2010 and 2011 were especially successful - Otava Yo played at several well known European folk festivals, breaking records in festival CD sales and
meeting the President of Estonia; made its first music video; received an award from Bratislava’s Humor Academy; and produced a play based on Russian Christmas songs, to be released on an album in December 2011.
__________________
5% Recovery Record[/more]

Register
(3) Cartman223, gwar, Hexer,
Apr 2 2022, 10:03:33 Somnolent - The Infernal Expanse (2021)


*Artist: Somnolent
*Album: The Infernal Expanse
*Year: 2021
*Genre: Industrial/Black Metal/Noise
*Country: United States
*Format: flac
*Size: 471MB

Tracklist:
1. Somnolent - I 07:38
2. Somnolent - II 11:10
3. Somnolent - III 07:54
4. Somnolent - IV 12:27
******************************
Total playing time: 39:09




[more=Extended info]

[24bit-44kHz.FLAC]



SRUIN159
Somnolent rises from the abyss with its new album "The Infernal Expanse", an immense aural beast of infernal and diabolical black/death industrial dark ambient chaos fuming from the monstrous jaws of total hell and oblivion. The band comprises of founding solo multi-instrumentalist Jessi Nihl (Noctis, ex-Lycus, ex-Necrite, among others) on guitars, synths and electronics, joined on this release by vocalist MA (Abstracter, Atrament, Ash Prison), and the work sees the duo revel into unseen deconstructions of reality, fusing dark ambient, ritual industrial, noise and cancerous black/death metal debris to unearth the quintessence of infernal sonic abandon.

"The Infernal Expanse" both complements and diverges from Somnolent's lengthy mostly digital-only and purely electronic dark ambient and harsh noise discography, and sees the project expand its instrumental arsenal and apocalyptic yield to catastrophic effects. Adding percussions, strings, violins, and a churning cauldron of crushing metal guitar abstractions to the preexisting electronic dark ambient substrate, with "The Infernal Expanse" Somnolent deliberately embrace certain malevolent and diseased strains of extreme metal, morphing into an otherworldly sonic cataclysm of hellish... more
credits
released December 3, 2021

Initial manifestations took place under extreme duress in the Autumn and Winter of 2019

Jessi Nihil: guitars, synthesizers, sound design, sampling, concept and visuals
MA: vocals and lyrics
Michael Quigley: drums, percussion and programming -
Thuy Nguyen: violin

Mixed by Jessi Nihil @ The Tesseract 2021
Mastered by Frederic Arbour

Artwork by Jessi Nihil
Design and Layout by MA
__________________
5% Recovery Record[/more]

Register
(4) as71, Corpuscul, Dante_D, jared_wanted,
Apr 1 2022, 10:08:43 Satan - Earth Infernal (2022)

[24bit-44kHz.FLAC]


505MB / 5% Recovery Record
Register

9.gif
(9) Marek, MEmethuselah, Oldskulthrasher, Olethros, SAPOGi, Spork, TheVoidReturned, valgalder, Xtohar,
Mar 29 2022, 05:36:54 Shri Sriram - The Letter (2020)
This is a strange and beautiful opus, the bass work is hypnotic, its minimalists approach is incredibly expressive.

Wrap some headphones and lose yourself in a strange and sublime journey.

20.gif
(1) Ghostb,
Mar 28 2022, 08:28:15 Selzar - In A Dream Somewhere (2022)


*Artist: Selzar
*Album: In A Dream Somewhere
*Year: 2022
*Genre: Progressive Metal
*Country: Unknown
*Format: mp3@CBR320kbps
*Size: 172MB

Tracklist:
01. In a Dream 01:36
02. Sugarfly 05:08
03. Unfinished 09:21
04. The Hunger 05:36
05. As Anxiety Solidifies 05:12
06. Death Scene in Crimson 07:06
07. Ghost of December 10:05
08. Reminiscence 05:39
09. Somewhere 05:41
10. Given the Leaves Fall Again 15:25
******************************
Total playing time: 1:10:49

[more=Extended info]===================== Audio =====================
Format : MPEG Audio
Formatversion : Version 1
Formatprofile : Layer 3
Mode : Joint stereo
Mode extension : MS Stereo
Bit rate mode : Constant
Bit rate : 320 Kbps
Channel(s) : 2 channels
Sampling rate : 44.1 KHz
Compression mode : Lossy
Writing library : LAME3.99r
Encoding settings : -m j -V 4 -q 3 -lowpass 20.5

__________________
5% Recovery Record[/more]

[more=Technical info]
Input File: 02 - Sugarfly.mp3
Channels : 2
Sample Rate : 44100
Precision : 16-bit
Duration : 00:05:08.00 = 13582800 samples = 23100 CDDA sectors
File Size : 12.5M
Bit Rate : 325k
Sample Encoding: MPEG audio (layer I, II or III)
Comments :
Title=Sugarfly
Artist=Selzar
Album=In a Dream Somewhere
Tracknumber=2
Year=2022-03-27
Genre=Metal
Discnumber=1

[/more]

Register
(12) after21allD, artscald, caro, csgmnk, Dante_D, dimitriusk, Herrant, infozahist, metala, Mogozoz, Olethros, wreak,
Mar 27 2022, 04:51:54 John Zorn - A Garden Of Forking Paths (2022)


*Artist: John Zorn
*Album: A Garden Of Forking Paths
*Year: 2022
*Genre: Avant-Garde, Contemporary Jazz
*Country: United States
*Format: flac
*Size: 212MB

Tracklist:
1. Riverrun (Beckett's Labyrinth) 3:42
2. The Secret Mirror 5:42
3. Circular Ruins 5:32
4. Legend 5:58
5. The Rose of Paracelsus 4:06
6. The Zahir 2:55
7. The Encounter 4:02
8. Orbus Tertius 3:18
9. The Forking Path 7:59
******************************
Total playing time: 43:14

Preview 1

[more=Extended info]Container: flac (tracks)
Quality: Hi-Fi, lossless audio
Sample Rate: 44100 Hz / 16 bit, Stereo
Source: Digital download


Line-up / Musicians
- John Zorn / compositions

With:
- Bill Frisell / guitar
- Gyan Riley / guitar
- Julian Lage / guitar

Releases information
CD Tzadik Records TZ 8386 (February 18, 2022, US)
__________________
5% Recovery Record[/more]

Register
(6) AndreFrancis, Dooomerrr, grimoir, hell_armageddon, Hell_Is_Here, kimkayoung,
Mar 27 2022, 04:43:11 John Zorn - Perchance To Dream... (2022)


*Artist: John Zorn
*Album: Perchance To Dream...
*Year: 2022
*Genre: Avant-Garde, Contemporary Jazz
*Country: United States
*Format: flac
*Size: 238MB

Tracklist:
01. Introit 10:42
02. A Secret Twilight 05:00
03. Lacrimosa 06:44
04. Eventide 06:30
05. Midnight Vespers 04:39
06. Hekate 05:58
07. Tenderness 05:04
******************************
Total playing time: 44:37

Preview 1

[more=Extended info]Container: flac (tracks)
Quality: Hi-Fi, lossless audio
Sample Rate: 44100 Hz / 16 bit, Stereo
Source: Digital download


A beautiful suite of music for late night listening, spiritual and evocative, performed by an all-star unit of four members of Zorn’s inner circle.

Structured like a religious mass, these seven lovely nocturnes take you to an otherworldly space of beauty and tenderness, unlike any other Zorn compositions you have ever heard. Gorgeous and restful music from a compositional seeker who continues to defy categorization, “Perchance to Dream…” is one of the most unusual and haunting collections in his catalog.

Personnel:
Bill Frisell: Guitar
Brian Marsella: Piano, Fender Rhodes Piano
John Medeski: Organ
Kenny Wollesen: Drums, Chimes
__________________
5% Recovery Record[/more]

Register
(5) AndreFrancis, grimmstone, grimoir, hell_armageddon, Hell_Is_Here,
Mar 27 2022, 01:02:52 Эпидемия (Новый Состав) - Не Ищи Меня [ep] (2021)


*Artist: Эпидемия (Новый Состав)
*Album: Не Ищи Меня [ep]
*Year: 2021
*Genre: Power Metal
*Country: Russian Federation
*Format: flac
*Size: 334MB

Tracklist:
1. Не ищи меня 3:54
2. Феанор 8:31
3. Не ищи меня (инструментал) 3:55
4. Феанор (инструментал) 8:32
******************************
Total playing time: 24:52



[more=Extended info]

[Hi-Res.24bit-44kHz.FLAC]



Released September 20, 2021
__________________
5% Recovery Record[/more]

Register
(5) Aresson, boby9052, metalwoman, Wail, wanderer73,
Mar 21 2022, 13:04:46 Pierced - Cheers To Brutality (2022)

[Hi-Res.24bit-176.4kHz.FLAC]

________________________________________
2.4GB / 5% Recovery Record
Register
(3) Marek, Olethros, wreak,
Mar 21 2022, 01:11:24 Pierced - Cheers To Brutality (2022)


*Artist: Pierced
*Album: Cheers To Brutality
*Year: 2022
*Genre: Thrash Metal
*Country: United States
*Format: mp3@CBR320kbps
*Size: 137MB

Tracklist:
01. Machine Gun Metal 05:04
02. Cheers to Brutality 05:10
03. You Can't Play God With Me 05:03
04. Feel My Pain 04:59
05. Razors and Heathens 03:44
06. Devil of Ramadi 04:11
07. 9-11 04:23
08. The Fist 03:04
09. Warchief 03:57
10. Blood Sweat Aim Fire 04:30
11. Bound Alive 04:24
12. Valhalla 03:39
13. Impaler 04:19
******************************
Total playing time: 56:27



Preview 3

[more=Extended info]---- Transcoded from a flac-192Hz copy to 44.1Hz-320kbps MP3 -----
===================== Audio =====================
Format : MPEG Audio
Formatversion : Version 1
Formatprofile : Layer 3
Mode : Joint stereo
Mode extension : MS Stereo
Bit rate mode : Constant
Bit rate : 320 Kbps
Channel(s) : 2 channels
Sampling rate : 44.1 KHz
Compression mode : Lossy
Writing library : LAME3.100
__________________
5% Recovery Record[/more]

[more=Technical info]
Input File: 08 - The Fist.mp3
Channels : 2
Sample Rate : 44100
Precision : 16-bit
Duration : 00:03:04.49 = 8135833 samples = 13836.5 CDDA sectors
File Size : 7.45M
Bit Rate : 323k
Sample Encoding: MPEG audio (layer I, II or III)
Comments :
Title=The Fist
Artist=Pierced
Album=Cheers to Brutality
Tracknumber=8
Year=2022
Genre=Metal
Discnumber=1

[/more]

Register

(23) after21allD, artscald, atavist, boby9052, BugEyes, caro, Corpuscul, gwar, HMHamster, infozahist, metala, METALHUNTER, metaljosue, Mogozoz, Olethros, piwimetal, postal67, sergsazan, stumpheavyrock, supremo, Terrorizer, wanderer73, wreak,
Mar 19 2022, 07:38:34 Alco Frisbass - Le Mystere Du Gue Pucelle (2021)


*Artist: Alco Frisbass
*Album: Le Mystere Du Gue Pucelle
*Year: 2021
*Genre: Progressive Rock, Canterbury Scene
*Country: France
*Format: mp3@CBR320kbps
*Size: 107MB

Tracklist:
1. Le Mystère du Gué Pucelle 10:13
2. Histoire Diffuse 09:55
3. Sélénite 09:14
4. Pulsar 07:18
5. Alchemical Corpus 08:05
******************************
Total playing time: 44:45



[more=Extended info]------ Web D/L -----
===================== Audio =====================
Format : MPEG Audio
Formatversion : Version 1
Formatprofile : Layer 3
Bit rate mode : Constant
Bit rate : 320 Kbps
Channel(s) : 2 channels
Sampling rate : 44.1 KHz
Compression mode : Lossy
Writing library : LAME3.93
Encoding settings : -m s -V 4 -q 0
===================== Audio =====================



Here is the third Alco Frisbass's Album " Le Mystère du Gué Pucelle " !

All tracks composed and performed by Alco Frisbass :

Patrick "Paskinel" Dufour : keys and synths, drums programming
Fabrice "Chfab" Chouette : keys and synths, electric guitars
Frédéric "Tourneriff" Chaput : bass, electric and acoustic guitars, keys, synths and modular, percussions

Jean-Luc Payssan as guest on "Pulsar" : classical guitar, sitar, mandolin and voices

Mixed and Mastered by Frédéric Chaput

Produced by Alco Frisbass

Cover by Marie-Laure Veron
Artwork by Frédéric Chaput
credits
released September 30, 2021
__________________
5% Recovery Record[/more]

[more=Technical info]
Input File: 01. Le Mystère du Gué Pucelle.mp3
Channels : 2
Sample Rate : 44100
Precision : 16-bit
Duration : 00:10:13.81 = 27069021 samples = 46035.7 CDDA sectors
File Size : 24.7M
Bit Rate : 321k
Sample Encoding: MPEG audio (layer I, II or III)
Comments :
Title=Le Mystère du Gué Pucelle
Artist=Alco Frisbass
Album=Le Mystere du Gue Pucelle
Tracknumber=1/5
Year=2021
Genre=Jazz-Rock | Progressive Rock

[/more]

Register
(1) gena,
Mar 19 2022, 06:06:11 Goat - Medication Time (1991)


*Artist: Goat
*Album: Medication Time
*Year: 1991
*Genre: Psychedelic Rock
*Country: Sweden
*Format: flac
*Size: 1086MB

Tracklist:
01. Sexman 2:31
02. Everybody Wants to Be There 3:26
03. Good Times 3:18
04. Bug 3:09
05. Falling 6:52
06. Lying in the Flowers 5:12
07. Something Wrong 3:05
08. In the Fields 4:30
09. Is This Me 3:12
10. I Want You Back 4:15
11. Beneath the Skin 3:56
******************************
Total playing time: 43:26

qobus

Preview 3

[more=Extended info]

[Hi-Res.24bit-96kHz.FLAC]



Goat
With an unfettered sound influenced by everything from Afro-beat to Anatolian funk, Goat are an experimental psychedelic rock band based out of Gothenburg, Sweden. The band have received acclaim for their explosive, energetic performances, during which they don elaborate masks and costumes, as well as their more structured full-length recordings, including the aptly named 2012
__________________
5% Recovery Record[/more]

Register
(3) Bruce, Wail, Xtohar,
Mar 18 2022, 08:25:39 Nanna Barslev - Lysbærer (2022)


*Artist: Nanna Barslev
*Album: Lysbærer
*Year: 2022
*Genre: World, Dark Folk, Nordic Folk, Viking Music
*Country: Denmark
*Format: flac
*Size: 539MB

Tracklist:
1. Skjoldmø 6:57
2. Runebundet 4:28
3. Mod vrede 5:41
4. Askr 6:01
5. Lysbærer 5:09
6. Rhimfaxe 3:46
7. Jagtmarker 7:06
8. Sunna Sol 4:05
9. Sten 3:07
******************************
Total playing time: 46:20


Uber Rock
Preview 3

[more=Extended info]

[Hi-Res.24bit-96kHz.FLAC]



Debut solo album of the renown Nordic Folk artist and composer Nanna Barslev, out March 18th 2022 via By Norse Music!

In “Lysbærer”, Nanna invites you into a hidden world between dark and light in nature and human nature, from misty underworld roots to ancient mountain calls, from scenic battle fields to meditative healing spells, with protection spells and words from the Edda.

The album title “Lysbærer”, which translates to “Carrier of light” is a reference to the celebration of the Sun and the Moon, lighting up the dark and changing seasons. The circle of life and death connecting with nature and the nature in us humans. The dark and light theme is the main essence of the vision in this album and follows up with the theme of chaos and cosmos from Nanna’s previous single “Skelfr Yggdrasil” released in 2019.

Interpretation of Nordic folklore and mythology themes are one of Nanna’s signatures, expressed through her mesmerising and fascinating voice, that ranges from experimental old Nordic singing techniques to underworld growling and whispering.

”Lysbærer” was produced by Fieke van den Hurk (Eivør, TVINNA) in Dearworldstudio, the Netherlands. Together for “Lysbærer”, Fieke and Nanna have found a sound that reflects the heritage of Nanna’s previous projects, bringing together momentums ranging from Metal, distorted Folktronica, crispy sounds and heavy beats. The album was mastered by Iver Sandøy (Enslaved, Ivar Bjørnson & Einar Selvik)

The album features guest appearances by the Dutch musician Lies Sommer (Ball noir) on the hurdy gurdy and harp.

"Lysbærer" is available for pre-order on CD Digipack and vinyl editions in the By Norse Music stores:


Releases March 18, 2022
__________________
5% Recovery Record[/more]

Register
(8) + ATheisT +, Aamiinaa, Bruce, Cartman223, gwar, SyncestrA, ZamanFu, дивин,
Mar 18 2022, 01:48:31 Wolftower - Funeral Swords [ep] (2022)


*Artist: Wolftower
*Album: Funeral Swords [ep]
*Year: 2022
*Genre: Black Metal
*Country: Finland
*Format: mp3@CBR128kbps
*Size: 56MB

Tracklist:
1. Call To Battle 1:31
2. Wolves of Night 5:02
3. Archaic Wanderer of the Nightlands 4:30
4. Rivers of Blood 1:38
5. Ancient Woods of Darkness 4:42
6. Raven's Cry 4:10
7. Funeral Swords 1:25
******************************
Total playing time: 22:58



[more=Extended info]__________________
5% Recovery Record

Recorded between September 2021 & March 2022.
Everything by Vyrtur.
credits
released March 16, 2022

Weird spectos...


[/more]

[more=Technical info]
Input File: 02-wolftower-wolves_of_night.mp3
Channels : 2
Sample Rate : 44100
Precision : 16-bit
Duration : 00:05:02.24 = 13328828 samples = 22668.1 CDDA sectors
File Size : 12.1M
Bit Rate : 320k
Sample Encoding: MPEG audio (layer I, II or III)
Comments :
Title=Wolves of Night
Artist=Wolftower
Album=Funeral Swords
Tracknumber=2/7
Year=2022-00-00
Genre=Black Metal

[/more]

Register
(13) Bzth, Grev, Ildjarn, kim666, nemx, rammmirez, rimfrost, RUSP73, satanist666, thenecromancer, vasiljev_sergej, Vidder242, WOLAND,
Mar 18 2022, 00:58:14 Twilight Glimmer - Scars Behind The Twilight (2021)


*Artist: Twilight Glimmer
*Album: Scars Behind The Twilight
*Year: 2021
*Genre: Death Metal
*Country: Colombia
*Format: mp3@VBR269kbps
*Size: 163MB

Tracklist:
1. Poisoned Air 4:13
2. Paradox 3:59
3. Death Metal Attack NTFB 5:01
4. I Malign 5:23
5. Withering 3:08
6. In Glorious Failure 5:35
7. All Living Creatures 3:46
8. Consciences in Vitro 5:23
9. Self Inflicted Fear 3:37
10. Spitfire 2:56
11. Voice of Reason 5:12
12. Breed from Score 4:06
13. Fragile Madness Limit 3:19
14. Filthy Seeds 3:20
15. Servants of the Lie (Inédito 2005) 2:30
16. Rising Supremacy (Inédito 2005) 3:28
17. Tierra de lamentos (Cover Masacre) 3:38
18. Hate and Infernal Rage (Inédito 2003) 2:13
19. Connectome (Live) 3:16
20. Deafening Sorrow (Live) 4:48
******************************
Total playing time: 1:18:51





[more=Extended info]__________________
5% Recovery Record[/more]

[more=Technical info]
Input File: 05-twilight_glimmer-withering.mp3
Channels : 2
Sample Rate : 44100
Precision : 16-bit
Duration : 00:03:08.03 = 8292079 samples = 14102.2 CDDA sectors
File Size : 6.40M
Bit Rate : 272k
Sample Encoding: MPEG audio (layer I, II or III)
Comments :
Title=Withering
Artist=Twilight Glimmer
Album=Scars Behind The Twilight
Tracknumber=5/20
Year=2021-00-00
Genre=Death Metal

[/more]

Register
(12) artscald, caro, Femto, jollo, Olethros, Reverend, Sanctus, supremo, VALERY, vyacheslav, wanderer73, wreak,
Mar 16 2022, 21:46:59 King Gizzard & The Lizard Wizard & Tropical Fuck Storm - Satanic Slumber Party [ep] (2022)
lol

yeah, you have to be tripping...

This music is written for Magic Mushroom trips, in particular 'live' settings, like a small fringe music festival deep in a forest someplace, were no cars roam.

hahahahahahah


(1) Mencae77,
Mar 16 2022, 05:48:40 King Gizzard & The Lizard Wizard & Tropical Fuck Storm - Satanic Slumber Party [ep] (2022)


*Artist: King Gizzard & The Lizard Wizard & Tropical Fuck Storm
*Album: Satanic Slumber Party [ep]
*Year: 2022
*Genre: Psychedelic Rock, Post-Punk
*Country: Australia
*Format: flac
*Size: 231MB

Tracklist:
1. Satanic Slumber Party Part 1 (The Chairman's Portrait) 0:54
2. Satanic Slumber Party Part 2 (Midnight In Sodom) 5:43
3. Satanic Slumber Party Part 3 (Hoof And Horn) 12:14
******************************
Total playing time: 18:51


Preview 2
NME

[more=Extended info]
FLAC 24 bit / 48 kHz
----- WEB-FLAC -----





Line-up / Musicians

- Gareth Liddiard / Performer
- Fiona Kitschin / Performer
- Lauren Hammel / Performer
- Erica Dunn / Performer
- Stu Mackenzie / Performer
- Joe Walker / Performer
- Ambrose Kenny-Smith / Performer
- Michael Cavanagh / Performer
- Eric Moore / Performer
- Cook Craig / Performer


Releases information
Cover Artwork: Satomi Matsuzaki
Recorded by: Gareth Liddiard
Mastered by: Lachlan Carrick
Mixed by: Gareth Liddiard and Mike Deslande
Design by: Ryan Hover

Joyful Noise Recordings JNR412 (digital)
__________________
5% Recovery Record[/more]

Register
(7) Ash_1980, Ghostb, marilin, Mencae77, metaljosue, p4B10, Wail,
Mar 14 2022, 04:36:48 Dog Fashion Disco - Cult Classic (2022)


*Artist: Dog Fashion Disco
*Album: Cult Classic
*Year: 2022
*Genre: Avant-Garde Metal
*Country: United States
*Format: mp3@CBR320kbps
*Size: 106MB

Tracklist:
1. Spider Fang 03:08
2. This Sow Is Mine 04:08
3. Grand Experiment 04:49
4. Spirit Cooker 06:11
5. Black Omens 05:02
6. Vomitorium 05:23
7. Wheel of Misfortune 04:11
8. If I Only Had a Brain 04:52
9. Destroyer of Hearts 03:47
******************************
Total playing time: 41:31


Preview 2

[more=Extended info]----- WEB-D/L -----
===================== Audio =====================
Format : MPEG Audio
Formatversion : Version 1
Formatprofile : Layer 3
Mode : Joint stereo
Bit rate mode : Constant
Bit rate : 320 Kbps
Channel(s) : 2 channels
Sampling rate : 44.1 KHz
Compression mode : Lossy
Writing library : LAME3.99
Encoding settings : -m j -V 4 -q 3 -lowpass 20.5



______
released March 12, 2022

Copyright 2022 Razor to Wrist Records. All rights reserved
All Songs performed by Dog Fashion Disco
Published by Mature Audiences Only ASCAP
www.razortowrist.com www.dogfashiondisco.com

Todd Smith: Vocals
Jasan Stepp: Guitar, Cello
Tim Swanson: Piano, Organ, Keyboards
Brian White: Bass
John Ensminger: Drums

Additional Musicians:
Nick Reider: Trumpet
Russell Kirk: Saxaphone

Recorded at Wright Way Studio, Baltimore, MD
Produced by: Steve Wright and Dog Fashion Disco
Engineered by: Steve Wright
Additional Engineering by: Jasan Stepp, Tim Swanson, Drew Lamond
Mastered By: Anthony Eichler at Gold Tone Master Works
Tim Swanson Appears courtesy of Rotten Records
Original Cover Art: D.S. Edwards
Additional Art & Layout: Patrick Lamond
Indiemerch A&R: Rob Schultz
__________________
5% Recovery Record[/more]

[more=Technical info]
Input File: 05 - Black Omens.mp3
Channels : 2
Sample Rate : 44100
Precision : 16-bit
Duration : 00:05:02.41 = 13336413 samples = 22681 CDDA sectors
File Size : 12.6M
Bit Rate : 334k
Sample Encoding: MPEG audio (layer I, II or III)
Comments :
Title=Black Omens
Artist=Dog Fashion Disco
Album=Cult Classic
Tracknumber=05/09
Year=2022
Discnumber=1/1

[/more]

Register
(21) artscald, caro, csgmnk, Dante_D, exile, Forest, Grev, grimoir, judaz, Kasper969, metala, MMMMM, Olethros, Ostinato, p4B10, SatanicPanzer, scorn33, wreak, yuratroll, Zhelezjaka, скептик,

23 Pages V   1 2 3 > » 
- Lo-Fi Version Support form
Copyrights and abuse reports form
Time is now: 29th May 2022 - 12:16:10