Welcome Guest ( Log In | Register )

История благодарностей участнику folker ::: Спасибо сказали: 290 раз(а)
Дата поста: В теме: За сообщение: Спасибо сказали:
Jan 24 2017, 11:40:41 GreyAblaze - GreyAblaze (2016)
Типовий харківський атмоблек. Добротно, однак не чіпляє. Після кількох прослуховувань нічого не запам'яталося. smile2.gif
(1) krotovich,
Oct 25 2016, 20:34:07 Просто Горыныч - Горит Изба (2016)
ЦИТАТА(vosmidesijatye @ Oct 25 2016, 22:05:37) *
Как и 90% фолк метала.


ммм, думаю не больше 80% smile1.gif
(1) vosmidesijatye,
Oct 20 2016, 00:55:37 Ancient - Back To The Land Of The Dead (2016)
так себе возрождение
(1) vosmidesijatye,
Oct 10 2016, 23:50:52 Skinhate - НеЯкУсі (2016)


*Artist: Skinhate
*Album: НеЯкУсі
*Year: 2016
*Genre: Hardcore
*Country: Ukraine
*Format: mp3@CBR320kbps
*Size: 95MB

Tracklist:
1-32
2-Як Усі
3-Саме Зараз
4-Здатен
5-НеЯкУсі
6-Братан
7-Не Треба
8-Війна - ІІІ
9-Гасло
10-Що Дня
11-Вона (ft. Yuri, Эbola)
12-ЯZИЧNИК (Бонус Трек)
******************************
Total playing time: 55:13



[more=Technical info]
Input File: 01. 32.mp3
Channels : 2
Sample Rate : 44100
Precision : 16-bit
Duration : 00:04:15.27 = 11257319 samples = 19145.1 CDDA sectors
File Size : 10.3M
Bit Rate : 323k
Sample Encoding: MPEG audio (layer I, II or III)
Comments :
Title=32
Artist=Skinhate
Album=НеЯкУсі
Tracknumber=1
Year=2016
Genre=9

[/more]

Register
(1) Konst,
Oct 10 2016, 12:32:27 Svirnath - Il Regno Della Natura (2016)
обложка красивая, а музыка без откровений.
(1) Razorbladeswaltz,
Jun 11 2016, 21:53:31 Fausttophel - ...Sancta Simplicitas... (2016)
і все ж таки розчарування... очікував кращого
(1) Storky,
Apr 22 2016, 19:52:12 Vindland - Hanter Savet (2016)
Приятно, но ненадолго.
(1) Dmitry1977,
Apr 8 2016, 22:36:17 Боянов Гимн - Полуночный Край (2016)
Я бы вдул!
(1) vosmidesijatye,
Mar 27 2016, 12:38:58 Hadean - On Fading (2015)


*Artist: Hadean
*Album: On Fading
*Year: 2015
*Genre: Progressive/Post-Metal
*Country: United States
*Format: mp3@CBR320kbps
*Size: 99MB

Tracklist:
1. Noise Reduction Impulse
2. New Lows
3. Inertia
4. Saudade
5. New Lows (Redux.)
6. On Fading
******************************
Total playing time: 42:31



[more=Extended info]HADEAN is:
Zak Bowditch: Vocals
Brian Fox: Drums
Dan R. Howard: Piano, Synthesizers, Electronics
Billy Mullen: Bass Guitar
David Parnell: Guitar, Lyrics, Vocals, Noise
Andrew Sullivan: Alto Saxophone, Noise

Guest Musicians:
Tyler Carden: Tenor Saxophone (Track 6)
Kelly Figueiredo: Clarinet (Track 6)
Aaron Galego: Trumpet (Track 6)
Jarrod Russell: Trombone (Track 6)[/more]

[more=Technical info]
Input File: HADEAN - On Fading - 01 Noise Reduction Impulse.mp3
Channels : 2
Sample Rate : 44100
Precision : 16-bit
Duration : 00:05:41.24 = 15048816 samples = 25593.2 CDDA sectors
File Size : 13.7M
Bit Rate : 321k
Sample Encoding: MPEG audio (layer I, II or III)
Comments :
Title=Noise Reduction Impulse
Artist=HADEAN
Album=On Fading
Tracknumber=1
Year=2015

[/more]

Register
(5) Buregon, Rosen, varlam4, wreak, yuratroll,
Mar 26 2016, 00:16:37 Dirty Shirt - Dirtylicious (2015)


*Artist: Dirty Shirt
*Album: Dirtylicious
*Year: 2015
*Genre: Folk Metal
*Country: Romania
*Format: mp3@CBR320kbps
*Size: 84MB

Tracklist:
01. Ciocarlia
02. Moneyocracy
03. Mental Csardas
04. Maramu'
05. Balkanique
06. Dulce-i vinu'
07. Cobzar
08. Hotii
09. Dirtylicious
10. My Art
11. Calusarii
******************************
Total playing time: 36:22



[more=Extended info]Dirty Shirt is one of the most appreciated Romanian rock bands, recently winner of the second place at the international final of Wacken Metal Battle 2014, and awarded as "Best Romanian Act Metal" at Maximum Rock Awards 2014 and "Best Romanian Rock Ambassador" at Metalhead Awards 2014. The new album, "Dirtylicious", promises to be one of the most interesting and groundbreaking releases on the European metal stage. The band managed to build a completely new musical vocabulary, based on a sonic skeleton made up of Dirty Shirt's unique blend of genres. The album is entirely inspired by East European traditional music, and the studio sessions were done with artists who are masters of traditional instruments, like violin, clarinet, accordion, dulcimer and many more (Transylvanian Folkcore Orchestra)[/more]

[more=Technical info]
Input File: 01 Ciocarlia.mp3
Channels : 2
Sample Rate : 44100
Precision : 16-bit
Duration : 00:02:02.66 = 5409262 samples = 9199.43 CDDA sectors
File Size : 4.99M
Bit Rate : 325k
Sample Encoding: MPEG audio (layer I, II or III)
Comments :
Title=Ciocarlia
Artist=Dirty Shirt
Album=Dirtylicious
Tracknumber=1
Year=2015
Genre=Folk / Alt. Metal

[/more]

Register
(15) artscald, Buregon, Cartman223, fabriziomagno, gwar, igorzz, infiltrator, ironyserg, morbidangelo, Rosen, talismanFS, tont, v.v.m, varlam4, zolotoiskatel,
Feb 8 2016, 13:21:52 Varg - Das Ende Aller Lügen (2016)
Какой то Caliban + DAR. Еще и на инглише запели. Совсем продались.
(1) neoatheist,
Jan 17 2016, 14:11:11 Rhapsody Of Fire - Into The Legend (2016)
После ухода Luca Turilli - здесь ничего толкового не ожидал.
(1) Reverend,
Jan 14 2016, 17:47:52 Untrop - Pale Illusions Of Life (2015)
ЦИТАТА(KVRT @ Jan 12 2016, 11:39:41) *
то є завжди привід для еякуляції...


Авжеж, разок цвирконути можна smile1.gif
(1) aserius,
Dec 18 2015, 15:31:11 Bucovina - Nestrămutat (2015)
ЦИТАТА(MeatWolf @ Dec 12 2015, 00:47:26) *
Вот какого фига у них такие короткие альбомы? 13.gif


Хорошего понемножку.
(1) suseka,
Dec 7 2015, 10:36:30 KZOHH - Rye. Fleas. Chrismon. (2015)
Атмосферно, магічно, пафосно, майстерно але не чіпляє. smile2.gif
(2) infiltrator, vosmidesijatye,
Nov 11 2015, 10:54:54 Raventale - Dark Substance Of Dharma (2015)
ЦИТАТА(Nitaraz @ Oct 6 2015, 22:01:15) *
там кстате не только Бетховен ее юзал но и итальянцы,австрийцы....
относительно заимствования. сильно сомневаюсь шо предки наши колесили по Европе и миру выискивая интересные мелодии.

кстате относительно американцев. в 40-50 х. в штатах была очень популярна песня "Yes, My Darling Daughter" которую исполнила впервые известная певица Дина Шор. так вот песня эта адаптированный вариант "Ой не ходи Грицю".
ну а про "Summertime", которую пели все кому не лень от Фицджеральд до Армстронга, знают наверно многие. за основу была взята колыбельная "Ой ходить сон коло вікон". ))


Файний музлікбез зарядив! Красава!
Oct 21 2015, 06:41:59 Elforg - Elforg (2015)
Есть парочка неплохих тем, но в целом сыро.
(1) neoatheist,
Jul 3 2015, 17:20:06 Horytnica - Pod Znakiem Miecza (2015)


*Artist: Horytnica
*Album: Pod Znakiem Miecza
*Year: 2015
*Genre: Folk Rock/Heavy Metal
*Country: Poland
*Format: mp3@CBR192kbps
*Size: 100MB

Tracklist:
01. Znak Miecza (Prolog)
02. Lwowscy Bracia
03. Skrzydla Chwaly
04. Roj
05. Plomienni Kochankowie (Milosc I Wojna Cz.2)
06. Wyznawcy Orla
07. Reduta Ordona
08. Wolyn 1943
09. Zywe Tarcze
10. Jaszczurkowcy
11. Dab
12. Krzyz Walecznych
13. Wykleci
14. Listonosz
15. Wolnosc Zorza Plonie (Epilog)
******************************
Total playing time: 1:17:22

Register
(14) Buregon, Cartman223, csgmnk, fabriziomagno, Goatrex, gwynnbleid, morbidangelo, Orkkh, Rosen, stone88, trib, v.v.m, waryag, wreak,
Jun 30 2015, 20:44:50 Impius Mundi - Diese Nacht... (2013)


*Artist: Impius Mundi
*Album: Diese Nacht...
*Year: 2013
*Genre: Folk Metal
*Country: Germany
*Format: mp3@CBR192kbps
*Size: 67MB

Tracklist:
01. Auf das Leben
02. Scharlatan
03. Zeit, Teufel und Tod
04. Die alten Fehler
05. Mit dem Nebel
06. Herr Rossi
07. Ewig Allein
08. Aus deinem Reiche
09. Die Götter sind uns wohlgewogen
10. All Voll
11. Diese Nacht
******************************
Total playing time: 48:29

[more=Extended info]official page[/more]

Register
(15) blacky66, Buregon, Cartman223, csgmnk, gwar, gwynnbleid, morbidangelo, oldvarg, Rosen, Saalingurth, talismanFS, tont, varlam4, wreak, xxdarkmanxx,
Jun 25 2015, 22:14:11 Earthmother - Earthmother (2015)
хмм. че за диковинка? стоящая?

скуштував - смакота!
(1) KoreanGringo,
Jun 17 2015, 10:27:13 Percival Schuttenbach - Mniejsze Zło (2015)
ЦИТАТА(Arseniy @ Jun 17 2015, 12:07:02) *
Ну как раз «Медуница» может поспорить со всякими «Гой, роде», на самом деле. Но это не минус в принципе, хотя и звучит немного комично. Но баланс всё-таки группа хорошо держит, не скатывается в откровенный кокошник-металл. Плюс голос у здешней женщины очень мощный, отлично поёт. Жаль, что крякающий рядом мужик гора-а-аздо хуже.


Кажется, поющих женщин здесь аж 3, они даже на крайнем альбоме Cruadalach гостевали. Ну, а мужик - это, конечно, на любителя smile1.gif
(1) fabriziomagno,
Jun 15 2015, 20:48:00 Morphine Suffering - Пам'ятай Хто Є Ти (2015)


*Artist: Morphine Suffering
*Album: Пам'ятай Хто Є Ти
*Year: 2015
*Genre: Metalcore/Electronic
*Country: Ukraine
*Format: mp3@CBR320kbps
*Size: 101MB

Tracklist:
01. Небо Пробачить 3:53
02. Звір 4:47
03. Тільки Ти 4:24
04. Останній Крок 4:13
05. Миллениум 4:34
06. Мои Слова Станут Пулей 4:22
07. Поет 4:27
08. Этой Ночью 3:40
09. Прощавай 4:17
******************************
Total playing time: 38:37

[more=Extended info][youtube]UrePuRu_z9Q[/youtube][/more]

[more=Technical info]
Input File: 01 - Небо Пробачить.mp3
Channels : 2
Sample Rate : 44100
Precision : 16-bit
Duration : 00:03:53.88 = 10313976 samples = 17540.8 CDDA sectors
File Size : 12.1M
Bit Rate : 413k
Sample Encoding: MPEG audio (layer I, II or III)
Comments :
Title=Небо Пробачить
Artist=Morphine Suffering
Album=Пам'ятай Хто Є Ти
Tracknumber=1
Year=2015
Genre=Metalcore

[/more]

Register
(5) bka, gwar, gwynnbleid, Rosen, topknot,
Jun 10 2015, 07:28:15 Опричь - Ветра Пьяный Мёд [ep] (2014)
мммм. Должно быть вкусный мед! Вставляет?
(1) Aresson,
May 13 2015, 11:08:04 Paganland - Fatherland (2015)
ЦИТАТА(Old Vyaine @ May 13 2015, 01:26:00) *
Вы же по-русски умеете?


так то оно так smile1.gif , але ж як заповідав Кобзар:
"Наша дума, наша пісня
Не вмре, не загине...
От де, люде, наша слава,
Слава України!..."
May 12 2015, 15:55:35 Paganland - Fatherland (2015)
ЦИТАТА(Nitaraz @ May 8 2015, 17:40:47) *
по факту всего лишь привел имена "более эстрадной" музыки которая якобы "капец",хотя абсолютно такой не является.
насчет "смешивать" я вроде нигде ничего не предлагал,это ты уже приплел свои домыслы к моим словам.
а вообще,приятно удивляет что москвич знает такие имена как Бобул,Левко Дурко,Юрченко.


Так вот москвич оказался хохлом smile1.gif

а тепер лікбез щодо укрестради - відповідь із вікі:
- Пісні виконувалися в основному під оркестр (естрадний, естрадно-симфонічний, народних інструментів, іноді камерний), також їх часто виконували хорові колективи.
- Саме народна пісня була основним поштовхом до написання власних пісень. Композитори естрадного напрямку практично не піддалися іноземному (західному) впливу

Ну, і щоб добре відчути відмінність естради від попси: послухайте щось із класики 60-80-х: Смерічку, Кобзу, Арніку і т.д.

7 Pages V  < 1 2 3 4 > » 
- Lo-Fi Version Support form
Copyrights and abuse reports form
Time is now: 25th June 2021 - 12:14:20