Welcome Guest ( Log In | Register )

История благодарностей участнику SABRAX ::: Спасибо сказали: 8727 раз(а)
Дата поста: В теме: За сообщение: Спасибо сказали:
Jun 14 2019, 21:10:05 Tenebra Arcana - Martiri Dell'odio (2019)


*Artist: Tenebra Arcana
*Album: Martiri Dell'odio
*Year: 2019
*Genre: Symphonic Black Metal
*Country: Italy
*Format: mp3@CBR320kbps
*Size: 102MB

Tracklist:
1. Martyrium Principium 02:07
2. Martiri dell'odio 05:58
3. La stirpe dell'uomo 05:37
4. Il Calvario 05:06
5. Senza alcun dio 04:36
6. Santa Morte 07:15
7. Funerale 04:45
8. Dolor Aeternum 06:09
9. In Fine Martyrium 02:21
******************************
Total playing time: 43:54



[more=Technical info]
Input File: 02 - Martiri Dell\'Odio.mp3
Channels : 2
Sample Rate : 44100
Precision : 16-bit
Duration : 00:05:58.84 = 15824712 samples = 26912.8 CDDA sectors
File Size : 14.5M
Bit Rate : 322k
Sample Encoding: MPEG audio (layer I, II or III)
Comments :
Title=Martiri Dell’Odio
Artist=Tenebra Arcana
Album=Martiri Dell' Odio
Tracknumber=2
Year=2019
Genre=Symphonic Black Metal

[/more]

Register
(13) 1968_janeart, bestmen, legion01, metala, metalwoman, Rosen, sergsazan, TeamatSE, thenecromancer, umnaxtet, vasiljev_sergej, zhol, Сварог Барг,
Jun 14 2019, 14:48:02 Carnifex - No Light Shall Save Us [single] (2019)


*Artist: Carnifex
*Album: No Light Shall Save Us [single]
*Year: 2019
*Genre: Deathcore
*Country: United States
*Format: mp3@CBR320kbps
*Size: 11MB

Tracklist:
1. No Light Shall Save Us 4:49
******************************
Total playing time: 4:49



[more=Technical info]
Input File: Carnifex_-_No_Light_Shall_Save_Usfeaturing_Alissa_White-Gluz.mp3
Channels : 2
Sample Rate : 44100
Precision : 16-bit
Duration : 00:04:47.89 = 12695861 samples = 21591.6 CDDA sectors
File Size : 11.6M
Bit Rate : 322k
Sample Encoding: MPEG audio (layer I, II or III)
Comments :
Title=No Light Shall Save Us(featuring Alissa White-Gluz)
Artist=Carnifex

[/more]

Register
(8) artscald, boardd, GorAtheist, Hell_Is_Here, Olethros, Rosen, wreak, Xron,
Jun 13 2019, 19:59:43 Decayer - Decayer [ep] (2017)


*Artist: Decayer
*Album: Decayer [ep]
*Year: 2017
*Genre: Deathcore
*Country: United States
*Format: mp3@CBR320kbps
*Size: 34MB

Tracklist:
01. Death Tolerance 1:22
02. Dog-Whistle 2:59
03. Blasphemers 3:15
04. Hate Chancellor 3:00
05. Attainment Ladder 3:22
******************************
Total playing time: 13:58



[more=Technical info]
Input File: 02 Dog-Whistle.mp3
Channels : 2
Sample Rate : 44100
Precision : 16-bit
Duration : 00:02:58.58 = 7875466 samples = 13393.6 CDDA sectors
File Size : 7.24M
Bit Rate : 324k
Sample Encoding: MPEG audio (layer I, II or III)
Comments :
Title=Dog-Whistle
Artist=Decayer
Album=Decayer
Tracknumber=2
Year=2017

[/more]

Register
(4) artscald, Olethros, Rosen, wreak,
Jun 13 2019, 19:45:44 Shxttered - Fleshless King (2019)


*Artist: Shxttered
*Album: Fleshless King
*Year: 2019
*Genre: Deathcore
*Country: United States
*Format: mp3@CBR320kbps
*Size: 64MB

Tracklist:
01. Purge 3:14
02. Gnashing of Teeth (Ft. Cj McCreery Of Lorna Shore) 2:48
03. Grave Planet 3:27
04. Soul Harvest 2:09
05. Intermission // Innermission 1:20
06. Toll the Dead 2:31
07. The Cycle 3:12
08. Transcendence 3:17
09. Dark World (Ft. Chris Whited) (Bonus Track) 2:38
******************************
Total playing time: 24:36

Preview 1

[more=Technical info]
Input File: Shxttered - Fleshless King - 01. Purge.mp3
Channels : 2
Sample Rate : 44100
Precision : 16-bit
Duration : 00:03:13.22 = 8520782 samples = 14491.1 CDDA sectors
File Size : 8.34M
Bit Rate : 345k
Sample Encoding: MPEG audio (layer I, II or III)
Comments :
Title=Purge
Artist=Shxttered
Album=Fleshless King
Tracknumber=01
Year=2019
Genre=Metal

[/more]

Register
(5) artscald, GorAtheist, Olethros, Rosen, wreak,
Jun 13 2019, 16:11:05 Thy Art Is Murder - Death Squad Anthem [single] (2019)


*Artist: Thy Art Is Murder
*Album: Death Squad Anthem [single]
*Year: 2019
*Genre: Deathcore
*Country: Australia
*Format: mp3@CBR320kbps
*Size: 9MB

Tracklist:
01. Death Squad Anthem 3:13
******************************
Total playing time: 3:13

[more=Technical info]
Input File: 01. Death Squad Anthem.mp3
Channels : 2
Sample Rate : 44100
Precision : 16-bit
Duration : 00:03:13.19 = 8519503 samples = 14489 CDDA sectors
File Size : 8.59M
Bit Rate : 356k
Sample Encoding: MPEG audio (layer I, II or III)
Comments :
Title=Death Squad Anthem
Artist=Thy Art Is Murder
Album=Human Target
Tracknumber=03
Year=2019
Genre=Deathcore

[/more]

Register
(3) artscald, Olethros, zhol,
Jun 13 2019, 11:31:41 Decayer - The Agony Cycle [ep] (2018)


*Artist: Decayer
*Album: The Agony Cycle [ep]
*Year: 2018
*Genre: Deathcore
*Country: United States
*Format: mp3@CBR320kbps
*Size: 41MB

Tracklist:
1. 16 Roses 3:53
2. Agony 3:34
3. Bastard 3:54
4. Grieve 2:56
5. Monocratic 2:37
6. TCB 1:19
******************************
Total playing time: 18:13



[more=Technical info]
Input File: 01. 16 Roses.mp3
Channels : 2
Sample Rate : 44100
Precision : 16-bit
Duration : 00:00:00.23 = 10231 samples = 17.3997 CDDA sectors
File Size : 9.36M
Bit Rate : 323M
Sample Encoding: MPEG audio (layer I, II or III)
Comments :
Title=16 Roses
Artist=Decayer
Album=The Agony Cycle - EP
Tracknumber=1/6
Year=2018-18-20
Genre=Deathcore, Metalcore
Discnumber=1/1

[/more]

Register
(5) artscald, GorAtheist, Olethros, Rosen, wreak,
May 23 2019, 20:09:08 Stormlord - Far (2019)
Made in Italy bye.gif
(2) Reverend, westwall,
Dec 2 2018, 21:30:01 Diabolic Phantasma - Invasion Of Amorphous Trepidation [single] (2017)


*Artist: Diabolic Phantasma
*Album: Invasion Of Amorphous Trepidation [single]
*Year: 2017
*Genre: Symphonic Black Metal
*Country: Japan
*Format: mp3@CBR192kbps
*Size: 10MB

Tracklist:
01. Invasion of Amorphous Trepidation 6:48
******************************
Total playing time: 6:48

[more=Technical info]
Input File: 1. Invasion of Amorphous Trepidation.mp3
Channels : 2
Sample Rate : 44100
Precision : 16-bit
Duration : 00:06:47.08 = 17952140 samples = 30530.9 CDDA sectors
File Size : 9.77M
Bit Rate : 192k
Sample Encoding: MPEG audio (layer I, II or III)
Comments :
Title=Invasion of Amorphous Trepidation
Artist=Diabolic Phantasma
Album=Invasion of Amorphous Trepidation
Tracknumber=2
Year=2017-01-01
Genre=メタル

[/more]

Register
(7) artscald, Olethros, pain, ratoandy, Rosen, varlam4, vasiljev_sergej,
Dec 2 2018, 21:24:34 Diabolic Phantasma - Abaddon's 5th Chord (2016)


*Artist: Diabolic Phantasma
*Album: Abaddon's 5th Chord
*Year: 2016
*Genre: Symphonic Black Metal
*Country: Japan
*Format: mp3@VBR231kbps
*Size: 59MB

Tracklist:
01. And Then There Were None…
02. Abaddon’s 5th Chord
03. I Kill You.
04. Trinitarian Symphony
05. Daydream In the Dead of Night
06. Moonlight Adjudicator (with TES)
07. Puckish Visions
08. Liberation
******************************
Total playing time: 35:01

[more=Technical info]
Input File: 02. Abaddon’s 5th Chord.mp3
Channels : 2
Sample Rate : 44100
Precision : 16-bit
Duration : 00:04:15.03 = 11246955 samples = 19127.5 CDDA sectors
File Size : 7.19M
Bit Rate : 225k
Sample Encoding: MPEG audio (layer I, II or III)
Comments :
Title=Abaddon’s 5th Chord
Artist=Diabolic Phantasma
Album=Abaddon`s 5th Chord
Tracknumber=02/8
Year=2016
Discnumber=1/1

[/more]

Register
(8) artscald, gwar, metala, ratoandy, Rosen, varlam4, vasiljev_sergej, zhol,
Sep 23 2016, 10:20:41 Lunatic Affliction - Im Bannkreis Der Götter (2016)


*Artist: Lunatic Affliction
*Album: Im Bannkreis Der Götter
*Year: 2016
*Genre: Melodic Black/Death Metal
*Country: Germany
*Format: mp3@CBR256kbps
*Size: 76MB

Tracklist:
1.Part I - Die Höllenfahrt der Ischtar 05:17
2.Part II - Die 7 Pforten von Kurnugi 04:59
3.Part III - Im Totenreich der Erschkigal 04:31
4.Part IV - Excitare Namtaru 05:28
5.Part V - Eclipse 02:37
6.Part VI - Im Bannkreis der Götter 03:02
7.Part VII - Aus tiefster Finsternis entflammt 04:42
8.Part VIII - Nergal Dominator Crudelis 03:15
9.Part IX - Phönixschwinge 06:16
******************************
Total playing time: 40:07



Register
(22) An225, demonosz, DenisKov, gwynnbleid, Korpse, MeatWolf, metala, Mogozoz, morbidangelo, neoatheist, Ostinato, rom666, Rosen, satanist666, suseka, SymbyoticEntity, V1nterch, VALERY, varg-38ru, varlam4, vasiljev_sergej, ZambuL,
Sep 22 2016, 11:58:31 Diabolic Phantasma - Daydream In The Dead Of Night [ep] (2015)


*Artist: Diabolic Phantasma
*Album: Daydream In The Dead Of Night [ep]
*Year: 2015
*Genre: Symphonic Black Metal
*Country: Japan
*Format: mp3@CBR320kbps
*Size: 49MB

Tracklist:
1. Daydream In The Dead Of Night 5:54
2. Eyes Seeing Phantasma 4:20
3. Rain Ridicules My Inferiority Sorrow 4:04
4. Resonance Saga 5:14
******************************
Total playing time: 19:32



[more=Technical info]
Input File: 01 Daydream In The Dead of Night.mp3
Channels : 2
Sample Rate : 44100
Precision : 16-bit
Duration : 00:05:53.59 = 15593143 samples = 26519 CDDA sectors
File Size : 15.9M
Bit Rate : 359k
Sample Encoding: MPEG audio (layer I, II or III)
Comments :
Title=Daydream In the Dead of Night
Artist=Diabolic Phantasma
Album=Daydream In the Dead of Night
Tracknumber=1

[/more]

Register
(13) artscald, blacky66, Buregon, gwynnbleid, kim666, morbidangelo, Orgasmik, Rosen, SymbyoticEntity, tont, VALERY, varlam4, vasiljev_sergej,
Dec 3 2015, 19:56:32 Tridentifer - Path Of The Damned Souls (2015)


*Artist: Tridentifer
*Album: Path Of The Damned Souls
*Year: 2015
*Genre: Death Metal
*Country: Germany
*Format: mp3@CBR320kbps
*Size: 113MB

Tracklist:
1.Into Darkness 01:45
2.As Skies Turn Black 03:14
3.Carnifex Salutation 03:08
4.Insidious 03:28
5.Revelation Of Doom 04:42
6.Ripping Cancer 04:40
7.Days Of Thunder 03:37
8.Torture & Agony 04:28
9.Path Of The Damned Souls 04:43
10.Death To Those Who Decline 04:27
11.Bloody Execution 03:19
12.Of Days To Come 04:33
13.The Rise Of The Apocalypse 04:46
******************************
Total playing time: 50:50




[more=Technical info]
Input File: 02 - As Skies Turn Black.mp3
Channels : 2
Sample Rate : 44100
Precision : 16-bit
Duration : 00:03:14.74 = 8587946 samples = 14605.4 CDDA sectors
File Size : 7.86M
Bit Rate : 323k
Sample Encoding: MPEG audio (layer I, II or III)
Comments :
Title=As Skies Turn Black
Artist=Tridentifer
Album=Path Of The Damned Souls
Tracknumber=02
Year=2015
Genre=Death Metal

[/more]

Register
(6) andreikun, fishish, metala, MMMMM, Rosen, THROWER666,
Nov 5 2015, 20:34:08 Grumo - Fallimento (2015)


*Artist: Grumo
*Album: Fallimento
*Year: 2015
*Genre: Grindcore/Death Metal
*Country: Italy
*Format: mp3@CBR320kbps
*Size: 83MB

Tracklist:
1.Intro 02:08
2.Blood Spilling 03:21
3.Nothing To Declare 02:36
4.Cani Sciolti 03:05
5.Fallimento 03:57
6.Fucking Business 02:01
7.Animo In Rivolta 02:47
8.Solo Morte E Miseria 02:57
9.Viewers Of The End 02:22
10.Vendetta Animale 01:49
11.Alienation 05:24
12.Suffer The Children (Napalm Death Cover) 04:29
******************************
Total playing time: 36:56




[more=Technical info]
Input File: 02 - Blood Spilling.mp3
Channels : 2
Sample Rate : 44100
Precision : 16-bit
Duration : 00:03:20.51 = 8842535 samples = 15038.3 CDDA sectors
File Size : 8.11M
Bit Rate : 324k
Sample Encoding: MPEG audio (layer I, II or III)
Comments :
Title=Blood Spilling
Artist=Grumo
Album=Fallimento
Tracknumber=02
Year=2015
Genre=Deathgrind

[/more]

Register
(2) marilin, Rosen,
Nov 4 2015, 20:07:40 Power Fuel - Tribute To Slayer (2015)


*Artist: Power Fuel
*Album: Tribute To Slayer
*Year: 2015
*Genre: Death/Thrash Metal
*Country: France
*Format: mp3@CBR320kbps
*Size: 94MB

Tracklist:
1.South Of Heaven 04:28
2.The Antichrist 02:46
3.Seasons In The Abyss 06:26
4.Hate Worldwide 02:52
5.Spirit In Black 04:09
6.World Painted Blood 06:07
7.Behind The Crooked Cross 03:23
8.Expendable Youth 04:09
9.Angel Of Death 04:51
10.Raining Blood 03:30
******************************
Total playing time: 42:41



[more=Technical info]
Input File: 1. South Of Heaven ( Cover Slayer ).mp3
Channels : 2
Sample Rate : 44100
Precision : 16-bit
Duration : 00:04:29.01 = 11863385 samples = 20175.8 CDDA sectors
File Size : 10.8M
Bit Rate : 322k
Sample Encoding: MPEG audio (layer I, II or III)
Comments :
Title=1 south of heaven ( SLAYER cover )
Artist=Power Fuel
Album=Tribute to SLAYER
Year=2015
Genre=Death Metal

[/more]

Register
(10) Genuine Thrashiac, metala, METALHUNTER, morbidangelo, Rosen, varlam4, vosmidesijatye, vyacheslav, wreak, Герб,
Nov 4 2015, 19:45:22 Gore Obsessed - Watch Me As I Kill! [ep] (2015)


*Artist: Gore Obsessed
*Album: Watch Me As I Kill! [ep]
*Year: 2015
*Genre: Death Metal
*Country: Netherlands
*Format: mp3@CBR320kbps
*Size: 14MB

Tracklist:
1.Just Your Average Inbred, Hillbilly, Cannibal Family 01:13
2.Blade of the Ripper (Black Leather Gloves pt3) 01:18
3.Sloppy Entrail Blues 01:29
4.Boneyard (Impetigo cover) 02:23
******************************
Total playing time: 6:23




[more=Technical info]
Input File: Gore Obsessed - Watch Me As I Kill! (EP) - 01 Just Your Average Inbred, Hillbilly, Cannibal Family.mp3
Channels : 2
Sample Rate : 44100
Precision : 16-bit
Duration : 00:01:13.59 = 3245451 samples = 5519.47 CDDA sectors
File Size : 2.94M
Bit Rate : 320k
Sample Encoding: MPEG audio (layer I, II or III)
Comments :
Title=Just Your Average Inbred, Hillbilly, Cannibal Family
Artist=Gore Obsessed
Album=Watch Me As I Kill! (EP)
Tracknumber=01
Year=2015
Genre=Deathgrind

[/more]

Register
(9) Hell_Is_Here, MeathookSeed, Moonshtook, morbidangelo, VALERY, varlam4, wreak, zotyo1975, Герб,
Nov 4 2015, 19:38:33 Murdered - Demonic Gorefication [ep] (2015)


*Artist: Murdered
*Album: Demonic Gorefication [ep]
*Year: 2015
*Genre: Slamming Brutal Death Metal
*Country: United States
*Format: mp3@CBR320kbps
*Size: 44MB

Tracklist:
1. Corroded Hacksaw Dismemberment 04:07
2. Psychotic Defication 03:49
3. Full Of Bile 03:11
4. Mephitic Embodiment 03:55
******************************
Total playing time: 15:02



[more=Technical info]
Input File: 01 Corroded Hacksaw Dismemberment.mp3
Channels : 2
Sample Rate : 44100
Precision : 16-bit
Duration : 00:04:06.20 = 10857464 samples = 18465.1 CDDA sectors
File Size : 12.4M
Bit Rate : 404k
Sample Encoding: MPEG audio (layer I, II or III)
Comments :
Title=Corroded Hacksaw Dismemberment
Artist=Murdered
Album=Demonic Gorefication - EP
Tracknumber=01/04
Year=2015
Genre=Slamming Brutal Death Metal

[/more]

Register
(12) Dwole, Hell_Is_Here, logunarm, MikkeFFF, Moonshtook, morbidangelo, Rosen, sacrut, varlam4, vyacheslav, wreak, Герб,
Nov 4 2015, 19:30:26 Muntah Kawat - Metal Medan (2014)


*Artist: Muntah Kawat
*Album: Metal Medan
*Year: 2014
*Genre: Death Metal/Grindcore
*Country: Indonesia
*Format: mp3@CBR320kbps
*Size: 61MB

Tracklist:
1.Burn in Hell 03:54
2.Hanya Menanti 03:44
3.Kau Bukan Tuhan 02:38
4.Penjilat 03:16
5.Keparat Penghianat 02:53
6.Metal Medan 04:06
7.Keparat Penghianat (acoustic version) 02:55
8.Keparat Penghianat (karaoke version) 02:54
******************************
Total playing time: 26:20



[more=Technical info]
Input File: 1. Burn In Hell.mp3
Channels : 2
Sample Rate : 44100
Precision : 16-bit
Duration : 00:03:54.44 = 10338980 samples = 17583.3 CDDA sectors
File Size : 9.58M
Bit Rate : 327k
Sample Encoding: MPEG audio (layer I, II or III)
Comments :
Title=Burn In Hell
Artist=Muntah Kawat
Album=Metal Medan
Tracknumber=01
Year=2014
Genre=Death Metal

[/more]

Register
(7) andreikun, morbidangelo, Rosen, varlam4, vyacheslav, wreak, Герб,
Nov 1 2015, 14:33:12 Age Of Astrea - The Agony [ep] (2015)


*Artist: Age Of Astrea
*Album: The Agony [ep]
*Year: 2015
*Genre: Death Metal/Deathcore
*Country: Russian Federation
*Format: mp3@CBR320kbps
*Size: 51MB

Tracklist:
1. Abyss 00:40
2. The Agony 03:43
3. Infinite Curse 03:36
4. The Fateful (Feat. Danil Orlov From Ease Of Disgust) 03:14
5. Fatum 02:31
6. Blood Of Titans (Feat. Johnny Skies From Ash & Skies) 03:18
******************************
Total playing time: 17:02



[more=Technical info]
Input File: 02. The Agony.mp3
Channels : 2
Sample Rate : 44100
Precision : 16-bit
Duration : 00:03:42.80 = 9825348 samples = 16709.8 CDDA sectors
File Size : 8.94M
Bit Rate : 321k
Sample Encoding: MPEG audio (layer I, II or III)
Comments :
Title=The Agony
Artist=Age of Astrea
Album=The Agony EP
Tracknumber=2
Year=2015
Genre=Deathcore, Death Metal

[/more]

Register
(3) respect, Rosen, varlam4,
Oct 29 2015, 06:34:01 Praetoria - The New Reign [ep] (2011)


*Artist: Praetoria
*Album: The New Reign [ep]
*Year: 2011
*Genre: Death Metal/Deathcore
*Country: France
*Format: mp3@CBR160kbps
*Size: 24MB

Tracklist:
1. The New Reign 04:24
2. From Honor To Fury 03:05
3. Conquer 03:00
4. Contagion 03:45
5. Harvest Of Blood 04:20
******************************
Total playing time: 18:34



Register
(2) Rosen, varlam4,
Oct 28 2015, 22:31:43 A World Without Mercy - The Hated Ones (2015)


*Artist: A World Without Mercy
*Album: The Hated Ones
*Year: 2015
*Genre: Death Metal/Deathcore
*Country: United States
*Format: mp3@CBR128kbps
*Size: 35MB

Tracklist:
1. The Hated Ones 01:10
2. Abhorrence 04:01
3. Tremors Of The Unknown 04:09
4. Eviscerator 02:54
5. Inner Evil 03:16
6. Anatomical 02:01
7. Renowned 04:20
8. Parallel Form 03:47
9. Larcenist 03:18
10. Shed The Light 04:07
******************************
Total playing time: 33:03



Register
(1) Rosen,
Oct 28 2015, 20:38:43 Cannibal Grandpa - Feed Your Food (2015)


*Artist: Cannibal Grandpa
*Album: Feed Your Food
*Year: 2015
*Genre: Deathcore
*Country: Spain
*Format: mp3@CBR320kbps
*Size: 73MB

Tracklist:
1. Albert Fish (Feat. Alfon From Fear My Intentions) 03:08
2. Dear Diary 03:55
3. Gray Man 03:07
4. Where Is Your God 05:26
5. Wysteria (Feat. Rivas From Dremenuart) 04:28
6. Face To Face 04:30
7. Legacy 05:40
******************************
Total playing time: 30:14



[more=Technical info]
Input File: Cannibal Grandpa - Feed Your Food - 01 Albert Fish (ft. Alfon from Fear My Intentions).mp3
Channels : 2
Sample Rate : 44100
Precision : 16-bit
Duration : 00:03:07.99 = 8290535 samples = 14099.5 CDDA sectors
File Size : 7.62M
Bit Rate : 324k
Sample Encoding: MPEG audio (layer I, II or III)
Comments :
Title=Albert Fish (ft. Alfon from Fear My Intentions)
Artist=Cannibal Grandpa
Album=Feed Your Food
Tracknumber=1
Year=2015

[/more]

Register
(2) Rosen, varlam4,
Oct 28 2015, 20:16:03 Manipulation - Ecstasy (2015)


*Artist: Manipulation
*Album: Ecstasy
*Year: 2015
*Genre: Death Metal
*Country: Poland
*Format: mp3@CBR128kbps
*Size: 45MB

Tracklist:
1.Insomnia 03:48
2.Sic Itur Ad Astra 04:27
3.Lifetime 04:02
4.Bad Boy 03:35
5.The Paradigm Of Existence 04:17
6.Sunset Over Vatican 05:32
7.Temples Of Vanity 03:59
8.Burn Motherfuckers! 06:38
9.Dźwięk Upadku 04:05
10.Ecstasy 03:48
******************************
Total playing time: 44:11





Register
(4) metala, neoatheist, vov7609, wgs73,
Jun 7 2015, 09:03:14 Kaos Vortex - Seeds Of Decay (2015)


*Artist: Kaos Vortex
*Album: Seeds Of Decay
*Year: 2015
*Genre: Death Metal
*Country: Germany
*Format: mp3@CBR128kbps
*Size: 50MB

Tracklist:
1. No Future For Your Past 05:17
2. Tomb Of The Undying 05:16
3. Through Death And Despair 05:24
4. Terrorizer 05:08
5. Legions Of Shemsu-Heru 04:52
6. In Disguise 04:22
7. Sickness 03:57
8. Evolution 04:46
9. When Paranoia Awakens 05:49
10. Dehumanized 04:30
******************************
Total playing time: 49:21




Register
(13) Diflock, jollo, KVRT, metala, MMMMM, respect, rom666, Rosen, samokot, TeamatSE, wgs73, Варонъ, Герб,
May 24 2015, 21:19:23 Torture Division - Evighetens Dårar [best of/compilation] (2010)
ЦИТАТА(Typhoid @ May 24 2015, 22:54:06) *
ну ведь могёте!!!

Нет смысла, держи. Компиляция состоит из трёх демок 2009, 2010 и 2010
Register
(1) Typhoid,
May 24 2015, 20:07:56 The Denied - Burning The Past [ep] (2015)


*Artist: The Denied
*Album: Burning The Past [ep]
*Year: 2015
*Genre: Deathcore
*Country: Russian Federation
*Format: mp3@CBR320kbps
*Size: 45MB

Tracklist:
1. Intro 01:06
2. Sparta 03:01
3. Cry Of The Storm 03:27
4. Fall Of The Icarus 03:12
5. Olympus 02:22
6. The Last Day Of Pompeii 02:04
******************************
Total playing time: 15:12

[more=Technical info]
Input File: 02. Sparta.mp3
Channels : 2
Sample Rate : 44100
Precision : 16-bit
Duration : 00:03:00.73 = 7969973 samples = 13554.4 CDDA sectors
File Size : 8.82M
Bit Rate : 390k
Sample Encoding: MPEG audio (layer I, II or III)
Comments :
Title=Sparta
Artist=The Denied
Album=Burning the Past [EP]
Tracknumber=2
Year=2015
Genre=Deathcore

[/more]

Register
(2) respect, Rosen,

39 Pages V   1 2 3 > » 
- Lo-Fi Version Support form
Copyrights and abuse reports form
Time is now: 11th May 2021 - 08:38:12