Welcome Guest ( Log In | Register )

История благодарностей участнику as71 ::: Спасибо сказали: 2482 раз(а)
Дата поста: В теме: За сообщение: Спасибо сказали:
Yesterday, 09:10:26 Necrok.I.L.L.Dozer - Misunderstood & Outpouring Of Reasons Sterility [compilation] (2018)
Хороший материал, ознакомился с интересом, ранее не слышал. На демке, конечно, какчество хромает, но ипиха вообще хороша, умели же раньше искреннюю музыку делать, да и сейчас слушается очень достойно.
(1) spazm,
Oct 19 2021, 15:04:17 Новости Death Metal направления
ЦИТАТА(vosmidesijatye @ 19th October 2021 - 16:43:21) *
Размышляя о грядущем альбоме, Томми добавил: "’Firescorched’, пожалуй, самый экстремальный, скоростной и при этом экспериментальный альбом за всю карьеру Sadist. Возможность иметь на нашей стороне отличную команду определенно делает нас чрезвычайно счастливыми".

Вот хоть раз бы кто-то из таких заявителей сказал что-нибудь другое; но нет, всегда у них грядущий альбом будет самым тяжелым, быстрым, экстремальным, прогрессивным, да что там - просто лучшим. Сказанное потом сбывается очень редко, вот и в случае с Садистом в такие слова верится слабо.
(1) maxmagmas,
Oct 19 2021, 11:11:57 Extreme Cold Winter - World Exit (2021)
ЦИТАТА(asog @ 19th October 2021 - 13:04:35) *
Мне вот интересно сподобится ли Ed Warby на ещё один альбом THE 11TH HOUR.

Он бы лучше еще на один альбом Горефест сподобился бы.
(1) maxmagmas,
Oct 18 2021, 17:18:43 Necromantia - To The Depths We Descend... (2021)
ЦИТАТА(Deze @ 18th October 2021 - 16:03:13) *
Но Некромантия всегда была нарочито простоватой группой

Что-то альбом 95-го года мне отнюдь не казался простоватым. А у ДМ как раз 98 год наиболее простой и доступный, если уж на то пошло. Так я вижу.
(2) Alexis The Best, MikkeFFF,
Oct 12 2021, 06:02:08 Hybernoid - Advanced Technology (1998)
Поднимем битрейт до 320:
Register
(4) kim666, spazm, stumpheavyrock, thenecromancer,
Oct 10 2021, 14:27:03 G36 & Jk Flesh - Disintegration Dubs [split] (2021)


*Artist: G36 & Jk Flesh
*Album: Disintegration Dubs [split]
*Year: 2021
*Genre: Dub/Techno/Noise/Industrial | Dub/Techno/Noise/Industrial
*Country: Japan | United Kingdom
*Format: mp3@CBR320kbps
*Size: 137MB

Tracklist:
01. G36 - Wrong Place, Wrong Time 03:53
02. G36 - Sulfer 03:27
03. JK Flesh - Dosshouse 06:31
04. G36 - Body Crusher 03:46
05. G36 - Annihilation 04:06
06. JK Flesh - Jack Palance 06:02
07. G36 - Head Deep In Shit 04:38
08. G36 - Meat Grinder Dub 03:27
09. JK Flesh - Puppeteer 08:15
10. G36 - Good Vs Evil 04:39
11. G36 - Ghengis 03:17
12. JK Flesh - Precinct 06:44
******************************
Total playing time: 58:45



[more=Extended info]Heavy as f-ck and deep as hell, this devastating split album gleefully corrupts and corrodes Dub’s sunshine reflections. Celebrating rhythm & noise in its dank echo chamber, these demolition dub tracks are built from obsessive studies in distortion, overdrive and seriously ruff textures, amongst an absolutely insane amount of sub-bass level.[/more]

[more=Technical info]
Input File: 01 - G36 - Wrong Place, Wrong Time.mp3
Channels : 2
Sample Rate : 44100
Precision : 16-bit
Duration : 00:03:52.71 = 10262687 samples = 17453.5 CDDA sectors
File Size : 9.31M
Bit Rate : 320k
Sample Encoding: MPEG audio (layer I, II or III)
Comments :
Title=G36 - Wrong Place, Wrong Time
Artist=G36 vs JK Flesh
Album=Disintegration Dubs
Tracknumber=01
Year=2021
Genre=Dub/Techno/Noise/Industrial

[/more]

Register
(8) A.L.Rapsod, DHS, FUDEDOR, Hell_Is_Here, KKK1488, Lanceatum, popen13, Zhelezjaka,
Oct 9 2021, 19:50:14 Infaust - Muster (1997)


*Artist: Infaust
*Album: Muster
*Year: 1997
*Genre: Industrial Metal
*Country: Germany
*Format: mp3@CBR320kbps
*Size: 118MB

Tracklist:
01. Schlaft Weiter 05:08
02. Arschgeburt 04:52
03. Abschied 04:35
04. Muster 06:52
05. Treiben 08:07
06. Faith 04:25
07. Release 04:24
08. Rausch 07:48
09. Midi-File 05:00
******************************
Total playing time: 51:11



[more=Extended info]Единственный полноформатный альбом, скорее всего, давно уже не существующей группы из Ганновера - можно сказать, раритет, в сети живых ссылок почти не осталось. В качестве ближайших ориентиров назывались Godflesh "Streetcleaner" и Neurosis "Enemy Of The Sun"; лично я заметного сходства не услышал, но вещь небезынтересная, стОит ознакомиться.[/more]

[more=Technical info]
Input File: 02 - Arschgeburt.mp3
Channels : 2
Sample Rate : 44100
Precision : 16-bit
Duration : 00:04:51.74 = 12865866 samples = 21880.7 CDDA sectors
File Size : 11.7M
Bit Rate : 320k
Sample Encoding: MPEG audio (layer I, II or III)
Comments :
Title=Arschgeburt
Artist=Infaust
Album=Muster
Tracknumber=02
Year=1997
Genre=Industrial Metal

[/more]

Register
(5) FUDEDOR, gwar, Hell_Is_Here, KKK1488, Olethros,
Oct 6 2021, 08:04:44 Alchemy Of Flesh - Ageless Abominations (2021)
Оказалось не хуже последнего творения самого МА, а если еще учесть, что сочинено и сыграно все это в одиночку, так вообще круто получилось.
(1) Storky,
Oct 4 2021, 15:59:52 Dimmu Borgir's Albums
Наверное, дело по большей части было все-таки в ортодоксальности фанатов восьмидесятых, такой вот у них запрос был в те времена - чтоб было тяжело и быстро, а шаг влево или вправо - это уже или попса, или заумь какая-то непонятная или еще чего-нибудь не то. Потому что если попытаться охватить все ответвления современного блэка, то чего там только не будет, уже и от блэка-то первородного вообще ничего не осталось, ан нет, все равно блэком считается, добавят правда приставочку - avantgarde black, experimental black или post-black и все нормально, аудитория всегда находится у подобного. Казалось бы, ну почему не могло такое же разнообразие возникнуть, но на основе трэша? Тем не менее не возникло, возможно дело в том, что сам этот стиль из экстремальных стилей музыки возник первым еще в середине 80-х, и на массовое экспериментаторство отважились только его последователи, у которых были уже несколько иные слушатели, среди которых было много таких, которым тесновато стало в рамках только ортодоксальных стилей.
(2) Exorcist, paganheart,
Sep 27 2021, 09:14:37 Carcass - Torn Arteries (2021)
ЦИТАТА(BleedingSun @ 26th September 2021 - 20:07:56) *
А так - выражу самое банальное мнение, наверное, но уж как есть: искусство ничего б не потеряло, не выпусти они после Свансонг вообще ничего.

А как ты ответишь на вопрос - потеряло ли что-нибудь искусство, не выпусти Бенедикшн в прошлом году свой крайний альбом? Думаю, немало найдется тех, кто ответит на него отрицательно, а тем не менее, этот альбом по итогам здешнего голосования был признан альбомом года. Я бы как раз ответил 'нет', несмотря на то, что голосовал в финале именно за него.
(1) BleedingSun,
Sep 24 2021, 11:14:22 Carcass - Torn Arteries (2021)
Понравился альбом, хотя и не с первого раза. Очень продуманный, чувствуется, что музыканты прямо-таки отшлифовали свои идеи, а не впопыхах его слепили и выпустили. От Heartwork здесь совсем немного, а вот от Swansong - хоть отбавляй, правда, вышел он не таким хуковым, но зато с массой всяких интересных фишек, есть что внимательно порасслушивать.
(1) Shub,
Sep 22 2021, 06:09:24 Mick Harris - Hednod Nine [ep] (2021)


*Artist: Mick Harris
*Album: HedNod Nine [ep]
*Year: 2021
*Genre: Industrial/Illbient/Dub
*Country: United Kingdom
*Format: mp3@CBR320kbps
*Size: 56MB

Tracklist:
01. Tat Man 05:06
02. Pallet 04:35
03. Pallet In & Out V 02:19
04. From Home 05:17
05. Matron 04:25
06. Matron Exercise Bike V 02:24
******************************
Total playing time: 24:05



[more=Technical info]
Input File: 01 - Tat Man.mp3
Channels : 2
Sample Rate : 44100
Precision : 16-bit
Duration : 00:05:05.97 = 13493101 samples = 22947.5 CDDA sectors
File Size : 12.2M
Bit Rate : 320k
Sample Encoding: MPEG audio (layer I, II or III)
Comments :
Title=Tat Man
Artist=Mick Harris
Album=HedNod Nine (EP)
Tracknumber=01
Year=2021
Genre=Industrial/Illbient/Dub

[/more]

Register
(5) FUDEDOR, Hell_Is_Here, Infidel, Olethros, Zhelezjaka,
Sep 21 2021, 14:14:51 Delirium - Zzooouhh [compilation] (2016)
Заценил я сабж, только в неремастерированном, оригинальном варианте. Действительно, весьма примечательный альбомчик, содержащий примерно поровну олдскульного дэт/дума и просто неторопливого дэта. С одной стороны, сейчас такой материал воспринимается очень архаичным, но с другой - звучит он, как правильно написано, именно "лампово и атмосферно", и в этом его огромный плюс, прямо навеяло воспоминания о тех далеких временах, когда дэт метал только делал первые шаги. Звук очень порадовал - послушаю потом, что там на ремастере, но на оригинале все как надо, никаких тебе перегрузов, компрессии и прочих безобразий, наоборот, все звучит разборчиво и комфортно для ушей.
P.S. Sempiternal Reign на контрасте сабжу проигрывает - медленные и среднетемповые части нормально, а вот все дэт/трэшевые ускорения вообще не понравились.
(2) spazm, Дерсу Узала,
Sep 19 2021, 18:28:01 Hypocrisy - Chemical Whore [single] (2021)
Не понравились ни песня, ни клип. Сама песня - типичная размеренная Хипокриси-стайл вещица, которые неизменно присутствуют на всех альбомах с 96-го года, но очень уж сильно не дотягивающая до той же Roswell 47 или хотя бы End Of Disclosure. Клип убог, типичный образчик современного визуального "искусства" - кричащие яркие краски, пафос и явно не бюджетная стоимость для своего стиля, а по сути же - бездарная лепнина.
(2) 6666666, plfan93,
Sep 16 2021, 14:28:46 Godflesh - New Flesh In Dub Vol. 1 [compilation] (2021)
Отнюдь. Отличная компиляция, переработанные версии в общем-то все хороши, да и новые вещи тоже прекрасные; все как надо - угрюмо, безжалостно и монотонно.
(1) Occultas,
Sep 15 2021, 08:57:18 Carcass - Torn Arteries (2021)
ЦИТАТА(Anarhist815 @ 15th September 2021 - 06:21:19) *
Где жир 1991 года, некротицизма??? Как можно после такого гениального альбома гнать порожняк!!! Уж в 2021 году, имея куда больше денег, чем тогда, и более классную технику, кучу времени, можно было создать еще более быстрый, техничный и грайндовый альбом, чем в 1991 году!

Ты где пребывал-то целых 30 лет? Еще Symphonies Of Sickness вспомни, тоже хороший альбом был.
(3) BleedingSun, cesar, Lux,
Sep 13 2021, 19:19:43 Various Artists - The Metallica Blacklist [compilation] (2021)


*Artist: Various Artists
*Album: The Metallica Blacklist [compilation]
*Year: 2021
*Genre: Rock/Metal/Punk/Pop/Electronic
*Country: International
*Format: mp3@CBR320kbps
*Size: 567MB

Tracklist:
CD1:
01. Alessia Cara & The Warning - Enter Sandman 04:24
02. Mac DeMarco - Enter Sandman 05:46
03. Ghost - Enter Sandman 03:51
04. Juanes - Enter Sandman 04:53
05. Rina Sawayama - Enter Sandman 05:34
06. Weezer - Enter Sandman 05:34
07. Sam Fender - Sad But True (live) 03:51
08. Jason Isbell And The 400 Unit - Sad But True 04:30
09. Mexican Institute Of Sound feat. La Perla & Gera MX & Metallica - Sad But True 04:31
10. Royal Blood - Sad But True 05:29
11. St. Vincent - Sad But True 04:12
12. White Reaper - Sad But True 05:23
13. YB - Sad But True 04:03
CD2:
01. Biffy Clyro - Holier Than Thou 05:10
02. The Chats - Holier Than Thou 02:26
03. OFF! - Holier Than Thou 03:04
04. PUP - Holier Than Thou 03:56
05. Corey Taylor - Holier Than Thou 04:11
06. Cage The Elephant - The Unforgiven 05:54
07. Vishal Dadlani, Divine & Shor Police feat. Metallica - The Unforgiven 04:21
08. Diet Cig - The Unforgiven 04:47
09. Flatbush Zombies feat. DJ Scratch & Metallica - The Unforgiven 04:37
10. Ha*Ash - The Unforgiven 04:06
11. José Madero - The Unforgiven 04:01
12. Moses Sumney - The Unforgiven 05:34
CD3:
01. J Balvin feat. Metallica - Wherever I May Roam 02:39
02. Chase & Status feat. BackRoad Gee & Metallica - Wherever I May Roam 03:07
03. The Neptunes feat. Metallica - Wherever I May Roam 03:57
04. Jon Pardi - Wherever I May Roam 06:45
05. Sebastian feat. Metallica - Don't Tread On Else Matters 05:54
06. Portugal. The Man feat. Aaron Beam - Don't Tread On Me 04:14
07. Volbeat - Don't Tread On Me 03:39
08. The Hu - Through The Never 04:07
09. Tomi Owó - Through The Never 03:06
10. Phoebe Bridgers - Nothing Else Matters 04:35
11. Miley Cyrus feat. Watt, Elton John, Yo-Yo, Ma, Robert Trujillo & Chad Smith - Nothing Else Matters 06:36
12. Dave Gahan - Nothing Else Matters 05:09
13. Mickey Guyton - Nothing Else Matters 04:31
14. Dermot Kennedy - Nothing Else Matters 03:01
15. Mon Laferte - Nothing Else Matters 05:56
CD4:
01. Igor Levit - Nothing Else Matters 05:12
02. My Morning Jacket - Nothing Else Matters 03:26
03. PG Roxette - Nothing Else Matters 03:49
04. Darius Rucker - Nothing Else Matters 06:53
05. Chris Stapleton - Nothing Else Matters 08:15
06. TRESOR - Nothing Else Matters 06:24
07. Goodnight, Texas - Of Wolf And Man 03:24
08. Idles - The God That Failed 03:56
09. Imelda May - The God That Failed 04:04
10. Cherry Glazerr - My Friend Of Misery 03:31
11. Izia - My Friend Of Misery 04:25
12. Kamasi Washington - My Friend Of Misery 06:47
13. Rodrigo Y Gabriela - The Struggle Within 04:00
******************************
Total playing time: 4:05:26



[more=Technical info]
Input File: 01 - Alessia Cara & The Warning - Enter Sandman.mp3
Channels : 2
Sample Rate : 44100
Precision : 16-bit
Duration : 00:04:23.78 = 11632522 samples = 19783.2 CDDA sectors
File Size : 10.6M
Bit Rate : 320k
Sample Encoding: MPEG audio (layer I, II or III)
Comments :
Title=Alessia Cara & The Warning: Enter Sandman
Artist=Compilation
Album=The Metallica Blacklist CD1
Tracknumber=01
Year=2021
Genre=Rock/Metal/Punk/Pop/Electronic

[/more]

Register
(10) Aresson, caro, gwar, Hell_Is_Here, Kasper969, StabWound, VALERY, Wail, wreak, xska,
Sep 9 2021, 20:51:59 Godflesh - New Flesh In Dub Vol. 1 [compilation] (2021)


*Artist: Godflesh
*Album: New Flesh In Dub Vol. 1 [compilation]
*Year: 2021
*Genre: Industrial Metal/Dub
*Country: United Kingdom
*Format: mp3@CBR320kbps
*Size: 149MB

Tracklist:
01. Playing With Fire (Dub) 06:08
02, Ringer (Dub) 07:09
03. Shut Me Down (Version) 06:22
04. New Dark Ages (Dub) 06:26
05. Imperator (Version Dub) 09:19
06. Parasite (Alternative) 04:09
07. The Cyclic End (Dub) 07:08
08. In Your Shadow (JK Flesh Reshape) 06:08
09. Your Nature Your Nurture 05:10
10. Gateway 06:08
******************************
Total playing time: 1:04:09



[more=Extended info]New Flesh In Dub Vol. 1 compiles all the dubs/versions/remixes found on the domestic Japanese CD editions on Daymare Recs of the GODFLESH reformation releases so far; Decline & Fall/A World Lit Only By Fire/Post Self plus 2 exclusive unreleased tracks from the Post Self sessions...[/more]

[more=Technical info]
Input File: 01 - Playing With Fire (Dub).mp3
Channels : 2
Sample Rate : 48000
Precision : 16-bit
Duration : 00:06:08.57 = 17691408 samples ~ 27642.8 CDDA sectors
File Size : 14.8M
Bit Rate : 321k
Sample Encoding: MPEG audio (layer I, II or III)
Comments :
Title=Playing With Fire (Dub)
Artist=Godflesh
Album=New Flesh In Dub Vol. 1 (compilation)
Tracknumber=01
Year=2021
Genre=Industrial Metal/Dub

[/more]

Register
(19) A.L.Rapsod, Demonologist, FUDEDOR, gwar, Hell_Is_Here, HviteGuden, Infidel, kimkayoung, lordbathor, lucifix, METALHUNTER, Occultas, Olethros, popen13, Reverend, spazm, Stutthof, Zhelezjaka, zobero,
Sep 9 2021, 07:53:26 Disgrace - Grey Misery - The Complete Death Metal Years [compilation] (2019)
Кассета польского производства с альбомом "Grey Misery", была приобретена одним из моих знакомых примерно в год выхода альбома. Тогда воспринимал его в большей степени как грайнд, а не как дэт - имхо, есть много общего у этого альбома с Symphonies Of Sickness, только без фирменной каркассовской мелодики.
(1) spazm,
Sep 8 2021, 20:44:42 Disgrace - Grey Misery - The Complete Death Metal Years [compilation] (2019)


*Artist: Disgrace
*Album: Grey Misery - The Complete Death Metal Years [compilation]
*Year: 2019
*Genre: Death Metal
*Country: Finland
*Format: mp3@CBR320kbps
*Size: 184MB

Tracklist:
CD1 - Grey Misery:
01. My Dark Paradise 03:24
02. Unity's Interlude Dyes Blind Tomorrow 03:39
03. Abtruse Myth 03:37
04. Obscurity In The Azure 03:47
05. The Chasm 02:22
06. And Below Lies Eternity 03:05
07. Waves Of Hypocrisy Seas 03:34
08. Debris 04:17
09. Immortality's Open Lake 04:26
10. Transcendental Dimension 03:34

CD2 - Beyond The Inside - The Demo Tapes And More:
01. Beyond The Immortalized Existence 03:06
02. Offering 02:21
03. Deprive My Innermost Soul 04:10
04. Ingrained Reign 03:06
05. Absurd Ascension 02:18
06. Debts Of God 02:17
07. Deprive My Innermost Soul 03:59
08. Incinerate 03:46
09. Offering 02:33
10. The Chasm 02:24
11. Unity's Interlude Dyes Blind Tomorrow 03:44
12. Transcendential Dimension 03:33
13. Waves Of Hypocrisy Seas 03:40
14. Foxy Lady (Jimi Hendrix Cover) 02:23
15. The Day Man Lost (Carnage Cover) 01:25
******************************
Total playing time: 1:20:32

[more=Extended info]CD1:
1992 "Grey Misery"

CD2:
tracks 01-05 - 1990 "Beyond The Immortalized Existence" (demo)
tracks 06-09 - 1990 "Debts Of God" (EP)
tracks 10-13 - 1991 "Inside The Labyrinth Of Depression" (demo)
tracks 24-25 - bonus tracks[/more]

[more=Technical info]
Input File: 02 - Unity\'s Interlude Dyes Blind Tomorrow.mp3
Channels : 2
Sample Rate : 44100
Precision : 16-bit
Duration : 00:03:39.47 = 9678627 samples = 16460.2 CDDA sectors
File Size : 8.78M
Bit Rate : 320k
Sample Encoding: MPEG audio (layer I, II or III)
Comments :
Title=Unity's Interlude Dyes Blind Tomorrow
Artist=Disgrace
Album=Grey Misery - The Complete Death Metal Years CD1: Grey Misery
Tracknumber=02
Year=2019
Genre=Death Metal

[/more]

Register
(27) andreikun, Bitchkiller, caro, dcatagua, FUDEDOR, fuoco, heinz88, hell_armageddon, Hell_Is_Here, kipelov999, METALHUNTER, Mist13Signifier, Olethros, Pinhead666, Reverend, SaintVitus, smysl, spazm, Storky, stumpheavyrock, supremo, thenecromancer, Tino, VALERY, vyacheslav, Wail, wreak,
Sep 8 2021, 19:26:16 Noctiferia - Reforma - Tribute To Laibach (2021)


*Artist: Noctiferia
*Album: Reforma - Tribute To Laibach
*Year: 2021
*Genre: Industrial Death Metal
*Country: Slovenia
*Format: mp3@CBR320kbps
*Size: 69MB

Tracklist:
01. Barbarians Are Coming 00:34
02. Now You Will Pay (feat. David Vincent) 04:33
03. No History 03:31
04. Tanz Mit Laibach (feat. Atilla Csihar) 04:27
05. Eurovision 04:59
06. Smrt Za Smrt 04:10
07. Das Spiel Ist Aus 03:54
08. Nova Akropola (feat. Jørgen Munkeby) 04:03
******************************
Total playing time: 30:11





[more=Technical info]
Input File: 02 - Now You Will Pay (feat. David Vincent).mp3
Channels : 2
Sample Rate : 44100
Precision : 16-bit
Duration : 00:04:33.18 = 12047238 samples = 20488.5 CDDA sectors
File Size : 11.0M
Bit Rate : 321k
Sample Encoding: MPEG audio (layer I, II or III)
Comments :
Title=Now You Will Pay (feat. David Vincent)
Artist=Noctiferia, David Vincent
Album=Reforma - Tribute To Laibach
Tracknumber=02
Year=2021
Genre=Industrial Death Metal

[/more]

Register
(19) alikkon, caro, chipsgott, DarkHorde, gwar, Hell_Is_Here, kimkayoung, mirotvorets, oldvarg, Olethros, popen13, supremo, SyncestrA, VALERY, Vladimir, Wail, wreak, yuratroll, Сварог Барг,
Sep 8 2021, 19:10:48 The Sixth Incubator - Live-Reincarnation: Ground Zero (2002)


*Artist: The Sixth Incubator
*Album: Live-Reincarnation: Ground Zero
*Year: 2002
*Genre: Industrial Death Metal
*Country: Germany
*Format: mp3@VBR131kbps
*Size: 43MB

Tracklist:
01. Back @ 2002 03:15
02. Weihnachten 04:18
03. Burrrrrn 02:06
04. Terrarism 03:05
05. Zourn 02:44
06. Hymn Of Skorragh 03:03
07. Dance-Gore 03:14
08. - - 03:44
09. The Fallen Ones Shall Never Rest 02:08
10. Failed Sorrow!!! 03:20
11. War (Nightmares Ft. Past II) 02:41
12. Western-Puss n'Roll 02:46
13. Blurggghh-Blast 02:05
14. Symphonies Of Spiritual Individualism 05:55
******************************
Total playing time: 44:23

[more=Technical info]
Input File: 02 - Weihnachten.mp3
Channels : 2
Sample Rate : 44100
Precision : 16-bit
Duration : 00:04:17.80 = 11369068 samples = 19335.1 CDDA sectors
File Size : 3.87M
Bit Rate : 120k
Sample Encoding: MPEG audio (layer I, II or III)
Comments :
Title=Weihnachten
Artist=The Sixth Inubator
Album=Live-Reincarnation: Ground Zero
Tracknumber=02
Year=2002
Genre=Industrial Death Metal

[/more]

Register
(7) gwar, kimkayoung, metala, spazm, Svafrlami, SyncestrA, Wail,
Aug 11 2021, 10:56:15 The Sixth Incubator - Inphonoir (2003)
ЦИТАТА(spazm @ 11th August 2021 - 11:50:17) *
Конечно нужно!

В сентябре только смогу залить, раньше не получится.
(1) spazm,
Aug 3 2021, 14:31:14 Crematory - Crematory (1996)
ЦИТАТА(maxmagmas @ 3rd August 2021 - 15:55:17) *
06-Trugbilder
07-Flammen
лучшее, что есть у группы. С 1996-го на постоянном репите.

Этот альбом в те далекие времена прошел мимо меня, не слышал его, а сейчас, наверное, уже и смысла в этом нет, учитывая мое прохладное отношение к группе. Но вот эту вещь - Ist Es Wahr - хорошо помню, на видеокассете клип на нее был; сам клип-то ни о чем, по-моему концертный, а вот песня нравилась, очень запоминающаяся.
(1) Emm Human,
Jul 21 2021, 12:48:31 Emptiness - Vide (2021)
Переслушал... ну, не знаю даже... не очень-то мне по душе такое музицирование, слишком уж какая-то размыто-аморфная субстанция получилась.
(1) ent404,

15 Pages V   1 2 3 > » 
- Lo-Fi Version Support form
Copyrights and abuse reports form
Time is now: 21st October 2021 - 12:23:27