Welcome Guest ( Log In | Register )

История благодарностей участнику as71 ::: Спасибо сказали: 3246 раз(а)
Дата поста: В теме: За сообщение: Спасибо сказали:
Yesterday, 14:37:46 ИСТОРИЯ DEATH METAL
ЦИТАТА(maxmagmas @ 6th July 2022 - 16:11:30) *
Мне вот тоже трудно сказать, кого такого всемирно значимого и известного можно еще запихнуть в "германский легион", где из того легиона только Morgoth и Protector. Последние еще с трешем накрепко завязаны. Дальше имена все помельче и малоизвестней. Fleshcrawl какой-нибудь. Но они звезд с неба особо не хватали. Даже Incubator, как мне кажется, не все знают. Далее совсем уж подземелье. Какое-то изначально мертворожденное направление темы. Ну не оказывал "германский легион", если он вообще был, сколько-нибудь значительного влияния на death metal сцену. Как это не удивительно, ввиду того, что немцы в общем можно назвать "метал-нацией", где тяжелую музыку исторически очень уважают (количество метал групп, движи, концерты, фестивали и т.д.), но с death metalом у них почему то отношения не сложились.

Ну а Atrocity-то как же? Сам лично всегда считал и считаю, что у немцев было две олдскульные дэт-группы мирового уровня: Atrocity и Morgoth; Protector отношу все-таки к трэшу, хотя в 1991-93 годах он у них с дэтом и граничил. А так ведь много у немцев интересных старых коллективов, про которые есть что написать: Incubator (вот тоже замечательная группа, действительно ныне позабытая), Fleshcrawl, Dark Millennium, Lemming Project, Jumpin' Jesus, Obscenity, Eternal Dirge, Lunatic Invasion, Under Black Clouds, Golem, Profanity, Immortalis, Vomiting Corpses, Anasarca, Necrophagist.
(1) avather,
Yesterday, 07:27:48 ИСТОРИЯ DEATH METAL
Помимо Isolated у меня на кассете был еще клип на Sold Baptism с этого же альбома, а с альбома Odium на Under The Surface, он уже поинтереснее был снят. Вообще Morgoth высоко ценился в нашей тусовке в начале девяностых, я же, наоборот, тогда ровно к нему относился. Отношение в лучшую сторону изменил как раз после выхода FSFTF, а там уж и Odium оценил по достоинству, и альбом после реюниона тоже мне понравился, достойное возвращение. Еще из немцев очень уважаем у нас был Atrocity.
По существу - тон заметки совсем на информационно-аналитическую статью не тянет, а именно это вроде бы и предполагает название темы. И потом, чего это вдруг так сразу начинать с Morgoth 1991? Вступление какое-нибудь не помешало бы: в общих чертах осветить состояние немецкой тяжелой сцены в конце 80-х-начале 90-х, рассказать о предпосылках для возникновения стиля, о первых группах, начавших играть дэт, с другими сценами какие-то параллели привести...
(2) Emm Human, xax,
Jul 4 2022, 12:16:17 Me And That Man - Songs Of Love And Death (2017)
ЦИТАТА(plfan93 @ 4th July 2022 - 13:25:25) *
Хорошая песня...у Sentenced

Кстати, да, действительно хорошая и к тому же единственная, которую я с их последнего альбома помню. Но и эта тоже хорошая.
(1) neludz,
Jul 1 2022, 08:22:53 Hypocrisy - Worship (2021)
Относительно недавно решил подвергнуть перепроверке свое положительное отношение к средне-позднему творчеству группы, для чего в плеер было залиты мной несколько альбомов: 1997-2000, 2004, 2009. Сам не ожидал, но отношение к группе изменилось в худшую сторону: если альбомы по 1999 год включительно по-прежнему нравятся (Abducted даже очень), то более поздние вызвали скорее раздражение отсутствием свежих идей и постоянной эксплуатацией одних и тех же приемов, отшлифованных до совершенства на альбомах 1996-99 годов. Да, на каждом из них есть по паре стоящих запоминающихся вещей, но остальное - ни о чем. И с Pain та же беда, очень люблю Rebirth и Nothing Remains The Same, все песни на них нравятся, а дальше - 2-3 хита на альбом и куча проходного материала. Халтурщик этот Петька; конечно, с точки зрения монетизации своих умений он все правильно делает, но как творцу-композитору ему сказать давно уже по большому счету нечего.
(1) Old Vyaine,
Jun 23 2022, 13:44:16 Porcupine Tree - Closure/Continuation (2022)
Ну что ж, отзывы пока обнадеживают. Самому у группы поболее нравится средний период - Stupid Dream/Lighbulb Sun, ну и и еще In Absentia, наверное, хотя в той или иной степени у PT всё интересно.
(1) Yarri,
May 27 2022, 17:50:36 Kajkyt - Krst (2010)
ЦИТАТА(vosmidesijatye @ 27th May 2022 - 19:13:15) *
Что есть такое иллбиент?

Больной эмбиент, если прямо переводить, а вот что на эту тему примерно написано в сети:
Стиль illbient это четко выраженная и сознательно создаваемая городская форма электронной музыки, стремящаяся выразить культурное разнообразие и серый упадок всего окружающего. Поэтому переигранные DJ Spooky (музыкант, определяющий этот стиль), электронные попурри в стиле Illbient в большинстве берут начало из музыки ambient, но могут включать ( в основном) dub, hip-hop и drum'n'bass, плюс иногда этническую музыку, которая может смешиваться со всеми музыкальными стилями и направлениями. Соответствуя настроениям, распространенным в среде развития этого стиля, illbient может быть мрачным и немного зловещим или непредсказуемым и погруженным в шум. Но почти всегда сохраняется его размеренный ритм и минорные вибрации.
В тех релизах, которые выкладывал я, этим тэгом описывается тяжелый, вязкий и мрачный индустриальный даб.
(1) vosmidesijatye,
May 26 2022, 17:53:03 Kajkyt - Krst (2010)


*Artist: Kajkyt
*Album: Krst
*Year: 2010
*Genre: Illbient/Dub/Experimental/Industrial
*Country: Austria
*Format: mp3@CBR320kbps
*Size: 170MB

Tracklist:
01. ...1... 20:53
02. ...2... 23:26
03. ...3... 19:30
04. ...4... 11:50
******************************
Total playing time: 1:15:39



[more=Extended info]Personal purchase[/more]

[more=Technical info]
Input File: 04 - ...4....mp3
Channels : 2
Sample Rate : 44100
Precision : 16-bit
Duration : 00:11:50.18 = 31318982 samples = 53263.6 CDDA sectors
File Size : 28.4M
Bit Rate : 320k
Sample Encoding: MPEG audio (layer I, II or III)
Comments :
Title=...4...
Artist=kajkyt
Album=Krst
Tracknumber=04
Year=2010
Genre=Illbient/Dub

[/more]

Register
(3) Hell_Is_Here, Infidel, Olethros,
May 26 2022, 17:42:13 SIMM - Too Late To Dream (2021)


*Artist: SIMM
*Album: Too Late To Dream
*Year: 2021
*Genre: Illbient/Dub/Industrial
*Country: Italy
*Format: mp3@CBR320kbps
*Size: 103MB

Tracklist:
01. Boxed 04:19
02. Civil War (feat. Flowdan) 02:56
03. Mangled 04:56
04. Too Late To Dream (feat. Flowdan) 03:18
05. Butterfly (feat. Flowdan) 02:55
06. Gqom Squbulo (feat. Phelimuncasi) 04:03
07. The Space I Left 04:51
08. Knives Path (feat. Flowdan) 03:17
09. Too Late To Dream 04:38
10. A Loud Darkness 05:17
11. Hope Spectre 04:17
******************************
Total playing time: 44:47



[more=Technical info]
Input File: 01 - Boxed.mp3
Channels : 2
Sample Rate : 44100
Precision : 16-bit
Duration : 00:04:19.57 = 11447037 samples = 19467.8 CDDA sectors
File Size : 10.5M
Bit Rate : 323k
Sample Encoding: MPEG audio (layer I, II or III)
Comments :
Title=Boxed
Artist=SIMM
Album=Too Late To Dream
Tracknumber=01
Year=2021
Genre=Illbient/Dub/Industrial

[/more]

Register
(6) DJAHAN, Hell_Is_Here, Infidel, mirotvorets, Olethros, Xor,
May 25 2022, 18:33:54 Mercyful Fate - Don't Break The Oath (1984)
Non-remastered CD (1984, USA, Roadrunner Records, RR 9835-2), DR11
Register
(1) Occultas,
May 23 2022, 12:59:31 Sadist - Firescorched (2022)
ЦИТАТА(maxmagmas @ 23rd May 2022 - 14:06:37) *
Оккультизм, сатанизм, антихристианство и прочее подобное. С относительно недавних пор для меня такое слушать и поддерживать стало неприемлемо. Многие группы, в том числе культовые и любимые более 30 лет, посыпались.

Позиция вызывает уважение, но ведь если ей жестко следовать, то мало чего из метал-репертуара останется для прослушивания, 2/3 отвалится, особенно из дэта, блэка.
(1) BleedingSun,
May 23 2022, 12:49:02 Septicflesh - Modern Primitive (2022)
ЦИТАТА(BleedingSun @ 23rd May 2022 - 13:50:21) *
По большому счету - все, что вы написали о сабже - можете применить к любому альбому, начиная с 2008 года.
Вот. Этот альбом как раз очень сильно напомнил мне Комьюнион - все так же красиво, целостно и мощно. И хочется слушать ещё и ещё. Невероятный поток энергии.
Возможно - просто не ваш тип музыки.
Имеете право

Сперва не понял даже, к кому именно ты обращаешься - на "вы" то не надо, я ж еще не настолько стар smile1.gif.
Мне у Септиков нравились Ophidian Wheel и Sumerian Daemons, поменьше Revolution DNA, ну и The Great Mass/Titan чем-то необычным для меня в свое время были. А сейчас я все эти симфонизмы с трудом стал переваривать, что в блэке, что в дэте, что в думе.
(1) BleedingSun,
May 23 2022, 11:45:55 Septicflesh - Modern Primitive (2022)
BleedingSun, вот уж действительно вштырило тебя не по-детски, мне даже как-то неловко свой отзыв после таких восторгов оставлять, но ничего не поделаешь.
Наверное, худшее из прослушанного мной за этот год. Не то, чтобы я чего-то особенного от них ожидал, поэтому к разочарованиям альбом не отнесу, но по факту имеем: невразумительный, вторичный по отношению к самим же себе материал, полное отсутствие свежих идей, зато сверх всякой меры пафоса и напыщенности, вдобавок какие-то совершенно отвратительные блеющие вокалы то тут то там, да еще и записано с чудовищным закомпрессированным звуком. Ужас.
(1) vpetrov,
May 21 2022, 00:24:03 Gardenian - Soulburner (1999)
Gardenian - 1999 Soulburner FLAC (image+cue+scans)
Register
(1) Deni,
May 20 2022, 13:34:11 Sadist - Firescorched (2022)
ЦИТАТА(BleedingSun @ 20th May 2022 - 14:54:48) *
Ну так Садистов старпераами ваще назвать язык не поворачиваеца, ни один альбом не звучит пенсионна и вымученна.

Как раз после выхода предыдущего альбома начали появляться такие мысли и если бы на новом группа продолжила двигаться по нисходящей, то можно было сказать о явном творческом кризисе. Но нет, могут еще, собрались и выдали отличный материал. Хотя я-то вообще ничего хорошего не ждал - посмотрел клип какой-то, он мне не понравился, думал, и альбом будет проходной, а тут сюрприз.
(1) BleedingSun,
May 20 2022, 12:46:31 Sadist - Firescorched (2022)
ЦИТАТА(BleedingSun @ 20th May 2022 - 14:19:29) *
А то что-то местные "корифеи" обе новинки разом "обложили", что Септиков, что сабж hmm.gif

Не читай ты мнения корифеев этих, а лучше послушай сам альбом.
Непосредственно по сабжу: альбом хорош, как говорится - зачот! Специально, дабы оценить его в некоторой ретроспективе, прослушал в один присест 4 крайних альбома Садиста, начиная с весьма понравившегося мне в свое время Season Of Silence (Hyaena и Spellbound не оставили заметных следов в памяти, помню только, что слушал их).
Так вот, скажу, что Hyaena в целом вполне на уровне SIS, может, лишь немного ему уступает, не так изящно звучит и звук похуже, более зажатый. Spellbound - этот уже послабее будет, грубоват для Садиста, как по материалу, так и по звуку, но тоже отнюдь не провальный. Ну а новый неожиданно порадовал - прослушал его, правда, всего один раз, но на данный момент из всей четверки мне лучше всего зашел именно он. То ли новые участники свою роль сыграли, то ли еще что, но звучит не вымученно, как это часто у старперов бывает, а, наоборот, очень свежо. Явно один из лучших альбомов года.
(2) BleedingSun, vosmidesijatye,
May 18 2022, 13:54:08 Golgothan Remains - Adorned In Ruin (2022)
Чисто по-человечески твоя зависть вполне понятна. Нет сомнений, что ты сумел справиться с элементарными математическими расчетами и теперь недоумеваешь, почему при вдвое большем количестве сообщений у тебя в три раза меньше спасибок. Не расстраивайся - усерднее работай над собой, развивайся, и все придет! Удачи!
(1) WOLAND,
May 18 2022, 11:22:31 Golgothan Remains - Adorned In Ruin (2022)
ЦИТАТА(WOLAND @ 9th April 2022 - 14:54:22) *
Заметил у групп в названиях которых есть слово ,,Remains,, нет плохого материала.

Думаю, это опрометчивое утверждение. Вот сколько групп со словом Remains в названии из 131-й по данным МА ты слышал? Я навскидку вспомнил только две: Vital Remains и Skeletal Remains и как минимум у второй, если и не самого плохого, то уж совершенно проходного материала - вагон с верхом, собственно, это вся их дискография, за исключением дебютного альбома. Но этих я послушаю.
(1) Occultas,
May 18 2022, 06:20:53 Blut Aus Nord - Disharmonium - Undreamable Abysses (2022)
ЦИТАТА(AHBAnep @ 17th May 2022 - 22:03:07) *
И кто доказал, что поток хуже звучит, чем флак?
Если и тащу что получше, то чисто ради того, чтоб сомнения не было. Максимализм, мать его.

Вот как раз из-за максимализма я альбом и не послушал, подожду пока. Нонешний рип, несмотря на честные 320, закодирован Xing-ом, а тот, кто давно занимается оцифровкой, знает, что это самый наихудший mp3-кодировщик из всех возможных. Лучший - Lame, затем Fraunghofer, были ещё всякие Gogo, Blade, ну и на последнем месте по всем тестам всегда был Xing, я уж давно не встречал его, но оказалось, до сих пор кто-то пользуется.
(1) Occultas,
May 17 2022, 13:59:42 Blut Aus Nord - Disharmonium - Undreamable Abysses (2022)
Да не услышит обычный человек 20 КГц ни в попе, ни в роке, ни в метале, тем более в том возрасте, в котором пребывает большая часть юзеров МА - если кто-то слышит 16 КГц, то уже респект ему. Настоящий слепой тест все провалят, если только феномен какой-нибудь не отыщется, поэтому не надо переживать на этот счет. А насчет ступеньки на 16-ти интересная информация, но не уверен - посмотрю дома, что-то мне помнится, что я и на проверенных рипах такое встречал.
(1) AHBAnep,
May 11 2022, 07:44:20 Suffocation - Breeding The Spawn (1993)
ЦИТАТА(gobblin @ 9th May 2022 - 17:13:36) *
Переиздание (возможно, неофициальное, не знаю чьё) с самым вменяемым звуком - мощным и читаемым, можно расслышать все детали, все мелочи, участвующие в формировании неповторимости этого альбома, который на порядок сложнее дебютника и лишь немного уступает в изяществе Pierced From Within, хотя и злее их обоих. Чё-то в последнее время в основном его только и слушаю.

Хотел было подвергнуть такой ремастринг жесткой критике за более чем двукратное сужение динамического диапазона в сравнении с исходником, но послушал и... пожалуй, соглашусь с автором - в данном конкретном случае именно такой звук предпочтительнее пересушенного оригинала, альбом зазвучал не в пример жирнее, мясистее и правильнее для этой стилистики.
Непонятно, что это за ремастер: на МА и Дискогсе значится, что в 2018 г. альбом был переиздан только на виниле, плюс на Дискогсе упоминается еще российская реплика и на этом все. А частота дискретизации (48 КГц) соответствует не CD, а винилу или хай-резу, но на винил это точно не похоже, значит, какой-то цифровой вариант.
(2) gobblin, Occultas,
May 9 2022, 22:12:24 Rhys Fulber - Collapsing Empires (2022)


*Artist: Rhys Fulber
*Album: Collapsing Empires
*Year: 2022
*Genre: Industrial/Techno
*Country: Canada
*Format: mp3@CBR320kbps
*Size: 126MB

Tracklist:
01. Concrete Cogitation 05:46
02. Collapsing Empires 07:09
03. Dead Reckon 04:58
04. Glory To Labour 07:30
05. Transfiguration 04:48
06. As Far As Dreams 07:02
07. Dronegail 03:38
08. Palace Of Pioneers 06:23
09. Empire Collapse 06:26
******************************
Total playing time: 53:40



[more=Technical info]
Input File: 01 - Concrete Cogitation.mp3
Channels : 2
Sample Rate : 44100
Precision : 16-bit
Duration : 00:05:46.30 = 15271874 samples = 25972.6 CDDA sectors
File Size : 13.9M
Bit Rate : 320k
Sample Encoding: MPEG audio (layer I, II or III)
Comments :
Title=Concrete Cogitation
Artist=￾Rhys Fulber
Album=Collapsing Empires
Tracknumber=01
Year=2022
Genre=Industrial/Techno

[/more]

Register
(8) BERZERK, Dragonballz, gwar, Haunting, Hell_Is_Here, Jackyl, Olethros, spazm,
May 5 2022, 07:31:46 Rammstein - Zeit (2022)
ЦИТАТА(Ghostb @ 4th May 2022 - 21:26:40) *
Да что-то ругают сильно его, слушабельно? SPECTRE - последний, что мне понравился.

Ругать-то его не за что, это ведь концептуальная работа, в которой смысловое содержание не менее важно, чем музыкальная составляющая. Для меня как раз гораздо привлекательнее их более доступные для восприятия работы - тот же Spectre, WAT, Jesus Christ Superstars, Volk, NATO и т.п., и слушать их крайний альбом, особенно в качестве противопоставления сабжу, я тебе не посоветую, вряд ли понравится.
(1) Ghostb,
May 4 2022, 18:58:35 Anaal Nathrakh - Endarkenment (2020)
CD-rip mp3@320 с японского издания с бонус-трэком (который, к слову, ничего интересного из себя не представляет, т.к. не сильно отличается от оригинала):
Register
(1) Occultas,
May 3 2022, 23:42:27 Metaorganism - I:Baphomet (2008)


*Artist: Metaorganism
*Album: I:Baphomet
*Year: 2008
*Genre: Dark Ambient/Industrial
*Country: Finland
*Format: mp3@CBR320kbps
*Size: 147MB

Tracklist:
01. I:I 13:08
02. I:II 03:24
03. I:III 11:15
04. I:IV 09:40
05. I:V 11:42
06. I:VI 15:19
******************************
Total playing time: 1:04:28



[more=Extended info]Единственный альбом сольного эмбиентно-индустриального проекта вокалиста/клавишника Thergothon.
Рип с оригинального CDR, спектры - уж какие есть, в этом жанре такое не редкость.[/more]

[more=Technical info]
Input File: 04 - I-IV.mp3
Channels : 2
Sample Rate : 44100
Precision : 16-bit
Duration : 00:09:39.61 = 25560977 samples = 43471 CDDA sectors
File Size : 23.2M
Bit Rate : 320k
Sample Encoding: MPEG audio (layer I, II or III)
Comments :
Title=I:IV
Artist=Metaorganism
Album=I:Baphomet
Tracknumber=04
Year=2008
Genre=Dark Ambient/Industrial

[/more]

Register
(2) Hell_Is_Here, Olethros,
May 1 2022, 20:47:16 At The Gates - The Nightmare Of Being (2021)
Для тех, кто не выносит сиплый вокал Томаса Линдберга - инструментальная версия альбома, бонусный CD к делюксовому изданию:
Register
(1) Emm Human,

21 Pages V   1 2 3 > » 
- Lo-Fi Version Support form
Copyrights and abuse reports form
Time is now: 7th July 2022 - 14:33:33