Welcome Guest ( Log In | Register )

Объявления

* gmail.com упорно продолжает считать почту с нас "unsolicited" и отбивает в том числе и письма активации, поэтому просьба использовать альтернативные почтовые ящики.
------------
* gmail.com continues reject all mail from us as "unsolicited" (activation mails too) therefore please use alternate mail servers.
История благодарностей участнику as71 ::: Спасибо сказали: 5313 раз(а)
Дата поста: В теме: За сообщение: Спасибо сказали:
Jun 11 2024, 09:09:54 Babymetal - Metal Galaxy (2019)
Смотрел как-то на ютубе интервью с экс-вокалистом/шоуменом коллектива НОМ Иваном Туристом. В музыкальных паузах между воспоминаниями ведущий крутил песни по заявкам гостя в студии, и Турист, он же Юрий Салтыков, все время просил ставить клипы именно вот этой вот странной группы. До этого я только назвпние ее вроде бы слышал, ну, думаю, вот заодно и ознакомлюсь. Ознакомился - запомнил только, что ни один из этих клипов я не выдержал до конца, перематывая до следующей части беседы. Имхо, просто какая-то муть слегка эпатажная.
(1) RUSP73,
May 28 2024, 23:10:43 Rotting Christ - Pro Xristou (2024)
RC - это, в принципе, проекция Боркнагара на греческую околоблэковую сцену. Лет около двадцати уже непонятно зачем они сцену эту коптят, неспособные выжать из себя что-либо мало-мальски вразумительное. Вот продакшн, реклама, оформление у них очень хорошие, какчественные, это да, но и только лишь.
(2) 6666666, Occultas,
May 26 2024, 19:09:18 Virus - The Black Flux (2008)
Virus - 2008 The Black Flux [CD-rip, mp3@320]
Register
(2) Bannanik, Corpuscul,
May 23 2024, 20:26:15 Leprous Vortex Sun - Шум Небытия (2024)


*Artist: Leprous Vortex Sun
*Album: Шум Небытия
*Year: 2024
*Genre: Dissonant Black Metal
*Country: Belarus
*Format: mp3@CBR320kbps
*Size: 103MB

Tracklist:
01. Бесплодная земля 06:30
02. Яд Бога 06:59
03. Могила 07:02
04. Ось Смерти 08:38
05. Молчание окровавленных ртов 07:00
06/ Непрерывность 08:07
******************************
Total playing time: 44:16



[more=Technical info]
Input File: 01 - Бесплодная земля.mp3
Channels : 2
Sample Rate : 44100
Precision : 16-bit
Duration : 00:06:30.09 = 17202749 samples = 29256.4 CDDA sectors
File Size : 15.7M
Bit Rate : 321k
Sample Encoding: MPEG audio (layer I, II or III)
Comments :
Title=Бесплодная земля
Artist=Leprous Vortex Sun
Album=Шум небытия
Tracknumber=01
Year=2024
Genre=Dissonant Black Metal

[/more]

Register
(18) AlexSmith, Altkiller, artscald, Boozer, Doooomed, HelenVaughan, Hell_Is_Here, kefka, khestanow3001, metala, salamalal, SilentNidhogg, supremo, VALERY, vasiljev_sergej, wreak, yuratroll, Zer0,
May 21 2024, 10:47:16 Christ Denied - Christopsy (2024)
ЦИТАТА(Chasm @ 21st May 2024 - 11:25:02) *
С другой стороны - будто брутал по умолчанию интересней хорошего олдскула. У Авулсд есть лицо музыки, пусть и "ай-на-нэ испанский дэт метол", но мне вот иногда до сих пор катит, больше конечно в ностальгических припадках.

Для меня так вообще не интересней, я брутал в очень малых количествах слушаю. И лицо свое у Авульседа имеется, спору нет, вот только оно чего-то мне почти совсем нравиться перестало, лицо это - если Stabwound Orgasm я еще через силу дослушал, то следующий и до половины не осилил, очень скучно.
(1) Occultas,
May 20 2024, 19:10:48 Christ Denied - Christopsy (2024)
ЦИТАТА(Фо @ 20th May 2024 - 20:34:33) *
Где то у меня есть их весьма давняя уже работа, и, с год назад переслушивал. Ну, это не брутал, а какой то мелодик с прибруталенным вокалом.

Так и Авульсед туда же по-сути, их тоже нередко бруталом называют - ясно, что из-за вокалиста, манера рычания которого действительно более всего к бруталу подходит. Этих плохо помню уже, а вот Авульсед, раз уж они к слову пришлись - команда, для меня совершенно не прошедшая проверку временем: имхо, у них только дебютником и альбомом ремиксов на него можно ограничиться, а остальное и трогать не надо, ибо банально и неинтересно напрочь.
(1) Фо,
May 17 2024, 21:39:18 Ulvtharm - 7 Uthras (2024)
ЦИТАТА(Unforg1ven @ 17th May 2024 - 23:16:06) *
Может FLAC имеется?

У меня пока нет.
(1) Unforg1ven,
May 11 2024, 10:43:46 Burzum - The Land Of Thulê (2024)
ЦИТАТА(Gylve @ 10th May 2024 - 23:20:54) *
One of us has never listened to Black Metal before.

Ага, и я даже знаю, кто именно. Но теперь и ты приобщился, поздравляю.
ЦИТАТА(Victim of fate @ 11th May 2024 - 10:34:10) *
ой болван

Болвана найдешь в зеркале.
(3) 6666666, deamonmotherloveson, SSWolf88,
May 10 2024, 18:40:23 Burzum - The Land Of Thulê (2024)
Нормальный альбом, хороший даже. Точно лучше, чем 90% обсуждаемого здесь блэк-метала, а то и 95%.
(13) 6666666, Bulldozzzzzzer, crevardo, ent404, HelenVaughan, Hexenmeister, Infidel, Kurhan, Moonshtook, paganheart, rominow, SSWolf88, Svetozar,
May 10 2024, 18:23:37 Ulvtharm - 7 Uthras (2024)


*Artist: Ulvtharm
*Album: 7 Uthras
*Year: 2024
*Genre: Industrial
*Country: Sweden
*Format: mp3@CBR320kbps
*Size: 90MB

Tracklist:
01. Plague 05:46
02. Sinners Will Inherit The Earth 05:11
03. New Dawn 04:56
04. All Hail The Serpents 04:52
05. Blvck Daath 05:57
06. Bloodletting Of Magna Mater 04:12
07. The Beginning And The End 07:33
******************************
Total playing time: 38:27



[more=Technical info]
Input File: 01 - Plague.mp3
Channels : 2
Sample Rate : 44100
Precision : 16-bit
Duration : 00:05:45.00 = 15214500 samples = 25875 CDDA sectors
File Size : 13.8M
Bit Rate : 321k
Sample Encoding: MPEG audio (layer I, II or III)
Comments :
Title=Plague
Artist=Ulvtharm
Album=7 Uthras
Tracknumber=01
Year=2024
Genre=Industrial

[/more]

Register
(9) ent404, Grev, gwar, Hell_Is_Here, Infidel, lucifix, Unforg1ven, wtk.412, Волос,
May 9 2024, 18:38:21 Six Feet Under - Killing For Revenge (2024)
ЦИТАТА(vosmidesijatye @ 9th May 2024 - 14:22:34) *
Скучно выдал

А когда в последний раз он нескучно выдавал? Мое имхо таково, что у этой унылой формации кроме первых двух альбомов и слушать-то по большому счету нечего, а поназаписано их уже столько, что и не сосчитаешь. Вот Haunted и Warpath - это да, причем дебютник нравится больше.
(3) 6666666, Chasm, Hexenmeister,
May 5 2024, 17:05:30 Synapscape - Dressur [ep] (2024)


*Artist: Synapscape
*Album: Dressur [ep]
*Year: 2024
*Genre: Industrial/Experimental
*Country: Germany
*Format: mp3@CBR320kbps
*Size: 70MB

Tracklist:
01. Farbenfroh 04:40
02. Gigolo FRH 05:31
03. Ahlerich 05:13
04. Donnerhall 04:13
05. TSF Dalera BB 05:46
06. Rembrandt 05:05
******************************
Total playing time: 30:28



[more=Technical info]
Input File: 01 - Farbenfroh.mp3
Channels : 2
Sample Rate : 44100
Precision : 16-bit
Duration : 00:04:40.08 = 12351396 samples = 21005.8 CDDA sectors
File Size : 11.2M
Bit Rate : 320k
Sample Encoding: MPEG audio (layer I, II or III)
Comments :
Title=Farbenfroh
Artist=Synapscape
Album=Dressur (EP)
Tracknumber=01
Year=2024
Genre=Industrial/Experimental

[/more]

Register
(6) gwar, Hell_Is_Here, Infidel, xax, Xor, Волос,
May 5 2024, 16:58:39 Synapscape - Catwalk Massacre [ep] (2024)


*Artist: Synapscape
*Album: Catwalk Massacre [ep]
*Year: 2024
*Genre: Rhythmic Noise/Industrial
*Country: Germany
*Format: mp3@CBR320kbps
*Size: 70MB

Tracklist:
01. Dress Code Red 05:23
02. Last Night 04:15
03. Haute Couture 05:40
04. Catwalk Massacre 05:26
05. Handsome Boy Modelling School 04:38
06. Mutilated Mannequins 05:00
******************************
Total playing time: 30:21



[more=Technical info]
Input File: 01 - Dress Code Red.mp3
Channels : 2
Sample Rate : 44100
Precision : 16-bit
Duration : 00:05:22.63 = 14228115 samples = 24197.5 CDDA sectors
File Size : 12.9M
Bit Rate : 320k
Sample Encoding: MPEG audio (layer I, II or III)
Comments :
Title=Dress Code Red
Artist=Synapscape
Album=Catwalk Massacre (EP)
Tracknumber=01
Year=2024
Genre=Rhythmic Noise/Industrial

[/more]

Register
(4) Hell_Is_Here, Infidel, xax, Волос,
May 5 2024, 16:50:52 Imperial Triumphant - Vile Luxury (2018)
Imperial Triumphant - 2018 Vile Luxury (redux 1924)
Register

Remixed & remastered 2024 by Colin Marston
(1) kimkayoung,
Apr 30 2024, 21:00:13 Flint Glass & Ah Cama-Sotz - Wakan Tanka [collaboration] (2024)


*Artist: Flint Glass & Ah Cama-Sotz
*Album: Wakan Tanka [collaboration]
*Year: 2024
*Genre: Industrial/Electronic/Tribal/Dark Ambient | Industrial/Electronic/Tribal/Dark Ambient
*Country: France | Belgium
*Format: mp3@CBR320kbps
*Size: 154MB

Tracklist:
01. Anishinaabe 07:44
02. Kaxinawá 07:28
03. Aymara 06:26
04. Menegokre 05:57
05. Irã-Ã-Mray-Me 06:15
06. Munduruku 05:31
07. Kamayura 06:02
08. Pirpkura 06:00
09. Odawaa 06:24
10. Nuu-Chah-Nulth 08:12
******************************
Total playing time: 1:05:59



[more=Technical info]
Input File: 01 - Anishinaabe.mp3
Channels : 2
Sample Rate : 44100
Precision : 16-bit
Duration : 00:07:44.00 = 20462400 samples = 34800 CDDA sectors
File Size : 18.6M
Bit Rate : 320k
Sample Encoding: MPEG audio (layer I, II or III)
Comments :
Title=Anishinaabe
Artist=Flint Glass & Ah Cama-Sotz
Album=Wakan Tanka
Tracknumber=01
Year=2024
Genre=Industrial/Electronic/Tribal/Dark Ambient

[/more]

Register
(5) deamonmotherloveson, Grev, Hell_Is_Here, Infidel, ZamanFu,
Apr 27 2024, 18:00:20 Deicide - Banished By Sin (2024)
ЦИТАТА(judaz @ 25th April 2024 - 21:41:32) *
Последний всплеск вдохновения был в 2006, после чего все пошло по нисходящей. Этот альбом не выделяется из вышедших за последние 15 лет ровно ничем и так же быстро забудется.

Имхо, слишком мелодичный он, а Deicide таким быть не должен, небольшой же всплеск замечен был чуть позже, в 2013 году.
Такое наблюдение имею: в начале 90-х в дэт-метале наиболее брутальными, тяжелыми, жестокими и во всех смыслах (музыкальных и лирических) радикальными считались в общем и целом два коллектива - Cannibal Corpse и Deicide. И вот, спустя три десятка с небольшим лет именно эти две группы, оставаясь безусловно узнаваемыми, являют собой, наверное, олицетворение всего самого мейнстримового, стерильного и вегетариански-беззубого, что есть в дэте. Как так вышло?
П.С. Альбом, вообще-то неплохой, слушать можно, но и высокую оценку не за что ставить.
(5) aesteticvice, judaz, Nerevar, Razorbladeswaltz, Samaritianin,
Apr 25 2024, 20:01:48 Darkthrone - It Beckons Us All....... (2024)
Чего уж там, нормальный альбом, для старперов самое то; понятное дело, что никакое не откровение, а оно от DT нам надо? На CF по звучанию кое-где похоже, но по духу нет, не он.
(1) Brann,
Apr 25 2024, 19:54:04 Pestilence - Levels Of Perception (2024)
Удивительный пример того, как (и, главное, зачем?) убогим звуком можно практически полностью уничтожить все положительные впечатление от музыки. Не знаю, что и сказать... впечатление, что слушаешь моно-запись (хотя это не так) - полностью утеряны панорамность, глубина, объем - попросту неприятно такое слушать. И это, между прочим, при высоком DD (именно поэтому мне не нравится звучание некоторых пластинок), но здесь-то ведь цифра. Остаюсь в недоумении...
(1) realexxx75,
Apr 18 2024, 18:27:30 Minotaur Head - Minotaur Head (2016)
Трудно отрицать похожесть на Asphyx, только это ж небо и земля, слушать сабж и один-то раз было попросту скучно, не то что переслушивать. Рогга в очередной раз подтвердил, что он тот еще композитор.
(1) wanderer73,
Apr 10 2024, 18:46:26 Fabricant - Drudge To The Thicket (2023)
Fabricant - 2023 Drudge To The Thicket (mp3@320)
Register
(1) Dante_D,
Apr 7 2024, 18:37:16 Prurient - Electronic Storms (2024)


*Artist: Prurient
*Album: Electronic Storms
*Year: 2024
*Genre: Industrial/Power Electronics/Dark Ambient
*Country: United States
*Format: mp3@CBR320kbps
*Size: 107MB

Tracklist:
01. Electronic Storms 1 - Rumors 28:44
02. Electronic Storms 2 - Buckets Of Paint 19:40
******************************
Total playing time: 48:23



[more=Technical info]
Input File: 01 - Electronic Storms 1 - Rumors.mp3
Channels : 2
Sample Rate : 44100
Precision : 16-bit
Duration : 00:28:43.00 = 75984300 samples = 129225 CDDA sectors
File Size : 68.9M
Bit Rate : 320k
Sample Encoding: MPEG audio (layer I, II or III)
Comments :
Title=Electronic Storms 1 - Rumors
Artist=Prurient
Album=Electronic Storms
Tracknumber=01
Year=2024
Genre=Industrial/Power Electronics/Dark Ambient

[/more]

Register
(7) Grev, Hell_Is_Here, nemx, Raw1488, Wail, ZamanFu, Волос,
Apr 6 2024, 19:40:35 Einstürzende Neubauten - Rampen (APM: Alien Pop Music) (2024)


*Artist: Einstürzende Neubauten
*Album: Rampen (APM: Alien Pop Music)
*Year: 2024
*Genre: Industrial/Experimental
*Country: Germany
*Format: mp3@CBR320kbps
*Size: 175MB

Tracklist:
01. Wie Lange Noch? 05:16
02. Ist Ist 03:49
03. Pestalozzi 05:10
04. Es Könnte Sein 03:21
05. Before I Go 04:19
06. Isso Isso 04:55
07. Besser Isses 04:49
08. Everything Will Be Fine 04:50
09. The Pit Of Language 04:31
10. Planet Umbra 08:45
11. Tar & Feathers 05:15
12. Aus Den Zeiten 05:13
13. Ick Wees Nich (Noch Nich) 03:13
14. Trilobiten 06:16
15. Gesundbrunnen 05:13
******************************
Total playing time: 1:14:54



[more=Technical info]
Input File: 01 - Wie Lange Noch.mp3
Channels : 2
Sample Rate : 44100
Precision : 16-bit
Duration : 00:05:15.00 = 13891500 samples = 23625 CDDA sectors
File Size : 12.6M
Bit Rate : 321k
Sample Encoding: MPEG audio (layer I, II or III)
Comments :
Title=Wie Lange Noch?
Artist=Einstürzende Neubauten
Album=Rampen (APM: Alien Pop Music)
Tracknumber=01
Year=2024
Genre=Industrial/Experimental

[/more]

Register
(9) AndreFrancis, Boozer, Emhyr var Emreis, ent404, Ghostb, Grev, gwar, Hell_Is_Here, metaljosue,
Apr 6 2024, 19:10:12 Theophonos - Ashes In The Huron River (2024)
Theophonos - 2024 Ashes In The Huron River (mp3@320)
Register
(1) Razorbladeswaltz,
Mar 26 2024, 20:20:42 Suffer - Grand Canvas Of The Aesthete (2024)
ЦИТАТА(DarkHorde @ 26th March 2024 - 05:12:42) *
Здесь смесь Bloodbath, Morbid Angel, Behemoth в современной, модерновой интерпретации.

Я бы сказал, что скорее Морбидов и каркассовского некротицизма; неплохо, жаль только, что записано действительно "современно" в худшем смысле этого слова.
(2) METALHUNTER, Occultas,
Mar 21 2024, 18:28:04 Various Artists - Storm Of Damnation-Polish Tyrants-Tribute To Bathory (2022)
ЦИТАТА(wendigo @ 15th March 2024 - 21:57:38) *
Unfortunately upconvert from the original VBR262kbps.

Чушь собачья, закодировано в mp3 мной лично тоже FLAC Scene CD Rip-a, только из FLAC-а разумеется. Перед разглядыванием спектров в шапке темы и в Adobe Audition неплохо было бы привести их к одному масштабу по оси X. Так что никаких анфортунейтли.
(2) Occultas, Wail,

37 Pages V   1 2 3 > » 
- Lo-Fi Version Support form
Copyrights and abuse reports form
Time is now: 24th June 2024 - 05:53:21