Welcome Guest ( Log In | Register )

История благодарностей участнику as71 ::: Спасибо сказали: 2239 раз(а)
Дата поста: В теме: За сообщение: Спасибо сказали:
May 14 2021, 21:10:14 Deeds Of Flesh - Nucleus (2020)
Кто жаловался на плохой звук, попробуйте рип с винила, по-моему гораздо лучше звучит, звук не зажатый, даже материал стал лучше восприниматься:
Register
(2) Metalass, xax,
May 14 2021, 13:01:30 Grave Miasma - Abyss Of Wrathful Deities (2021)
ЦИТАТА(WOLAND @ 13th May 2021 - 15:21:59) *
Спасибо:
(4) 6666666, ent404,
judaz, ФО.

Спасибо должно быть курсивом написано и более мелким шрифтом, а имена поблагодаривших - более мелким шрифтом и в одну строку. И все это в самом низу, под подписью, а не над ней.
(4) 6666666, ent404, FullofHate, WOLAND,
May 13 2021, 17:12:54 Uratsakidogi - Black Hop. Epos (2021)
ЦИТАТА(Shub @ 13th May 2021 - 18:43:43) *
А что тут стебного-то, собственно? Петросянщина-с. Причем, весьма запоздалая.

Вот-вот, как с языка снял, именно это и хотел написать, но ты меня опередил. Хотя с другой стороны, целый зал ведь сидит и со смеху покатывается, значит нравится людям... впрочем, у Ваганыча и то, наверное, посмешнее шутки будут, чем такой вот "стёб".
(1) BleedingSun,
May 12 2021, 08:24:06 Abigor - Supreme Immortal Art (1998)
Хорошо написано, эмоционально! А вот скажите, коллега, что вы думаете по поводу нижесказанного?
Существуют три основных стиля экстремальной музыки, в основе которых лежат гитарные риффы и ритмические конструкциями - трэш, дэт и блэк, и в двух из них есть отдельные направления, в которых техника игры и сложность композиций поставлены во главу угла, именуемые, соответственно, техно-трэш и техно-дэт. В блэке же, во-первых, отсутствует даже сам такой термин, а во-вторых, термин термином, но как-то не особо вспоминаются мне коллективы, про которые можно сказать, что они играют техно-блэк. Что довольно странно, ибо уж как раз блэк является наиболее пластичным экстремальным стилем, подверженным самым разным инфлюенциям, и уж такой его подвид, казалось бы, непременно должен иметь место. Понятно, что изначально блэк был совсем не про техничность, но много воды с тех пор утекло, и какие только самые причудливые всходы на этом поле не взошли.
В общем, это я к чему в данной теме - как считаешь, применимо ли определение техно-блэк, хотя бы опосредованно, к альбомам сабжевого коллектива, допустим, среднего периода? Если не по букве, то хотя бы по существу, ибо замороченные гитарные партии и замысловатая ритмика ведь присутствуют.
(3) Karnstein, mirotvorets, troll_swamp,
May 11 2021, 21:36:14 Universally Estranged - Reared Up In Spectral Predation (2021)
Неожиданно понравилось - глючный такой дэт метал, записано глуховато, но для такого материала это даже плюс, да еще местами есть что-то от Морбидов.
(1) Occultas,
May 10 2021, 14:57:28 __________, или Голосовалка за лучший альбом 2020 года, ИТОГИ
ЦИТАТА(Exorcist @ 10th May 2021 - 16:33:40) *
Ты же не будешь оспаривать, что Death, Brutality или Monstrosity играли более сложный, музыкально богатый и вариативный death metal в первой половине 1990-х?

Нет, не буду, конечно. Просто сложность, вариативность и насыщенность музыки какими-то фишками может и не кореллировать с моим ее восприятием. Т.е. мне может нравиться как альбом, сыгранный очень просто (не хочу использовать термин "примитивно"), так и какой-нибудь навороченный альбом; при этом другой сложный и вроде бы музыкально интересный альбом может совсем не нравиться. Только "нравится" или "не нравится", а уж это не знаю от чего зависит. Разумеется, всех перечисленных тоже ценю и уважаю, но как раз вот и пример - у Death, помимо ранних, сильно люблю альбомы 95 и 98 годов, а вот 93 не нравится, и в год выхода он мне сразу не понравился. При этом он отличный, считаю, что вполне заслуженно победил в голосовалке, но не шибко мне нравится его слушать.
(4) Deze, Exorcist, infiltrator, Lux,
May 10 2021, 14:39:44 Kilgore Trout - Kilgore Trout (1995)


*Artist: Kilgore Trout
*Album: Kilgore Trout
*Year: 1995
*Genre: Avant-Prog/Jazz-Rock
*Country: United Kingdom
*Format: mp3@CBR320kbps
*Size: 136MB

Tracklist:
01. Al Harsh 03:38
02. Lizard Dog Suite 10:23
03. ABSTA 04:34
04. Hey Manchild, Can I Get A Five Count? 05:57
05. Electro-Convulsion Therapy (ECT) 10:03
06. Incision 05:24
07. Ode To Thingy 00:43
08. Thingy 04:39
09. Ice Cold Burger Pop 09:26
10. Mechémish 04:37
******************************
Total playing time: 59:23

[more=Extended info]Steven Linder - bass
Stephen Ferraro - saxophone
Bryan Sorum - trumpet, flugelhorn
Niall Bloom - guitars
Daniel Moore - drums, percussion[/more]

[more=Technical info]
Input File: 04 - Hey Manchild, Can I Get A Five Count.mp3
Channels : 2
Sample Rate : 44100
Precision : 16-bit
Duration : 00:05:56.70 = 15730382 samples = 26752.4 CDDA sectors
File Size : 14.4M
Bit Rate : 323k
Sample Encoding: MPEG audio (layer I, II or III)
Comments :
Title=Hey Manchild, Can I Get A Five Count?
Artist=Kilgore Trout
Album=Kilgore Trout
Tracknumber=04
Year=1995
Genre=Avant-Prog/Jazz-Rock

[/more]

Register
(4) A.L.Rapsod, infiltrator, kimkayoung, marilin,
May 10 2021, 14:18:49 __________, или Голосовалка за лучший альбом 2020 года, ИТОГИ
ЦИТАТА(Old Vyaine @ 10th May 2021 - 15:45:42) *
Предельно прозрачно. Игра была равна, играли два говна. Нет, я не котировал никогда ни Бенедикшн, ни болтов. Скучный, примитивный, некачовый дэт. И заявления о том, что якобы Громовержец что-то там размалывает в пыль мощью и гусеничными траками несостоятельны полностью, записывались они всегда довольно уныло.

Скучно, примитивно, некачово - это всего лишь вопрос индивидуального восприятия, и многие в отношении них выскажут совершенно противоположные эпитеты, я же буду где-то посередине, вот только с некачовостью не соглашусь - качают ведь, да еще как. Болты у меня уж точно не относятся и никогда не относились к числу любимых команд, но с тем, что им удалось задать целое направление в дэте, трудно спорить; Бенедикшн же нравился гораздо поболее. Вообще, формирование отношения к определенной музыке/группам сильно зависит в т.ч. и от того, когда именно ты ее/их услышал, что слышал из подобного ранее и т.п. Ты, видимо, хотя бы в силу возраста, услышал ранние работы этой парочки все же несколько позже, к тому же слушал их наряду с альбомами иных групп уже вполне сформировавшегося тогда стиля, я же ознакамливался с ними, начиная с конца 80-х непосредственно по мере их выхода, поэтому и воспринимаю их совсем иначе.
(3) Alexis The Best, hammer, infiltrator,
May 10 2021, 10:58:34 __________, или Голосовалка за лучший альбом 2020 года, ИТОГИ
ЦИТАТА(as71 @ 10th May 2021 - 12:55:28) *
Дебютник Benediction издавался не на Мелодии.

Да, там же не Мелодия была. Если память не изменяет, были выпущены еще Pungent Stench "For God Your Soul... For Me Your Flesh", Autopsy "Mental Funeral" и вроде бы какой-то Paradise Lost.
(2) infiltrator, vam1972,
May 10 2021, 10:55:28 __________, или Голосовалка за лучший альбом 2020 года, ИТОГИ
Вообще, всегда считал Бенедикшн очень значимой командой в дэт-метале, они наряду с Болт Тровером были двумя ведущими британскими именно дэт-металлическими командами на фоне всего остального английского многообразия. Первый альбом выпустили рано - в 90-м, а уже на втором - в 91 году - сформировали свой узнаваемое звучание, которое ни с кем было не перепутать. В 90-х всегда записывал или покупал кассеты с очередным альбомом группы.
(4) Alexis The Best, infiltrator, Lux, neoatheist,
May 10 2021, 10:49:02 __________, или Голосовалка за лучший альбом 2020 года, ИТОГИ
Это не важно, как он там орал, к тому же на первом альбоме Бенедикшна он все же именно рычал, а важно что ND были очень известны в узких кругах уже во второй половине 80-х, поэтому появление там вокалиста из Бенедикшн не могло не привлечь внимание к группе на волне набирающего популярность дэт-метала.
(3) infiltrator, SAPOGi, vam1972,
May 10 2021, 10:34:33 __________, или Голосовалка за лучший альбом 2020 года, ИТОГИ
Ну уж не из-за винила он в основном был популярен, а из-за Барни Гринуэя, рычавшего на этом самом первом альбоме и привлекшим внимание к группе.
(2) infiltrator, vam1972,
May 8 2021, 11:15:33 Sturmgeist & The Fall Of Rome - Kald Krig (2015)


*Artist: Sturmgeist & The Fall Of Rome
*Album: Kald Krig
*Year: 2015
*Genre: Synth/Noise
*Country: Norway
*Format: mp3@CBR320kbps
*Size: 196MB

Tracklist:
01. Soler For Vår Tid - Åndsmenneske 17:39
02. Anselm Kiefer 1969 05:03
03. Søner Av Anarkiet 07:17
04. D-Dag - Berlin I Kosmopolis 08:48
05. Rienzi - Raseri - Vald 10:07
06. Einsamgangar 09:04
07. Guds Flammer - Der Sturm 25:21
******************************
Total playing time: 1:23:20



[more=Extended info]Cornelius Jakhelln (Solefald, Sturmgeist)
Jørgen Identitveit (Noisestar & The Fall Of Rome)
Kybermensch (Noisestar & The Fall Of Rome)



Sturmgeist & The Fall Of Rome is a poetic synth/noise assault unit based in Oslo and Berlin. They started playing together in the fall of 2010. The band merges the histories of extreme metal act Sturmgeist and underground Oslo noise act Noisestar & The Fall Of Rome, fusing vocal violence with filthy noise atmospheres.

Буквально вчера наткнулся на любопытный проект Корнелиуса из Солефальд и еще каких-то двух персонажей. Мне понравилось, но очень на любителя, музыкально ничего общего с известным Sturmgeist не имеет.[/more]

[more=Technical info]
Input File: 02 - Anselm Kiefer 1969.mp3
Channels : 2
Sample Rate : 44100
Precision : 16-bit
Duration : 00:05:03.54 = 13385938 samples = 22765.2 CDDA sectors
File Size : 12.3M
Bit Rate : 323k
Sample Encoding: MPEG audio (layer I, II or III)
Comments :
Title=Anselm Kiefer 1969
Artist=Sturmgeist & The Fall Of Rome
Album=Kald Krig
Tracknumber=02
Year=2015
Genre=Synth/Noise

[/more]

Register
(3) infiltrator, Olethros, popen13,
May 8 2021, 10:01:21 __________, или Голосовалка за лучший альбом 2020 года, ФИНАЛ
ЦИТАТА(Deze @ 8th May 2021 - 11:06:55) *
До этого же твой голос за Бенедикшн аннулируется. За пиzдёжь.

Ну это ты зря, требование сатисфакции это одно, а голос-то тут причем?
(1) скептик,
May 7 2021, 17:59:23 __________, или Голосовалка за лучший альбом 2020 года, ФИНАЛ
ЦИТАТА(Exorcist @ 7th May 2021 - 19:26:15) *
Что ж, могу только повторить, что в финале не место им обоим.

Вот с этим соглашусь, особенно если представить себе масштаб замысла - выбираем ведь альбом года, не недели, не месяца, а целого года! Причем из примерно девяти тысяч претендентов, и при этом такая пара в финале - альбомы хорошие, но не настолько же.
(3) Exorcist, infiltrator, plfan93,
May 6 2021, 14:35:36 __________, или Голосовалка за лучший альбом 2020 года, ФИНАЛ
Запощу и я свой топ тяжеляка за 1996 год:
Amorphis "Elegy"
Anathema "Eternity"
Arcturus "Aspera Hiems Symfonia"
Atrocity "Willenskraft"
Diabolical Masquerade "Ravendusk In My Heart"
Edge Of Sanity "Crimson"
Godflesh "Songs Of Love And Hate"
Gorefest "Soul Survivor"
Hypocrisy "Abducted"
In Flames "The Jester Race"
Katatonia "Brave Murder Day"
Laibach "Jesus Christ Superstars"
Ministry "Filth Pig"
Morgoth "Feel Sorry Fot The Fanatic"
Moonspell "Irreligious"
My Dying Bride "Like Gods Of The Sun"
Neurosis "Through Silver In Blood"
Nightingale "The Closing Chronicles"
Occult "The Enemy Within"
Opeth "Morningrise"
Orphanage "By Time Alone"
Orphande Land "El Norra Alila"
Pan.Thy.Monium "Khaooohs & Kon-fus-ion"
Sadist "Tribe"
Samael "Passage"
Satyricon "Nemesis Divina"
Sentenced "Down"
Sepultura "Roots"
Sirrah "Acme"
The Blood Divine "Awaken"
The Nefilim "Zoon"
Theatre Of Tragedy "Velvet Darkness They Fear"
Therion "Theli"
Type O Negative "October Rust"
Under Black Clouds "As Darkness Falls"
35 штук получилось, начал выделять особо нравящееся, но бросил - все равно бОльшая часть на 10/10, до двадцатки не знаю, как и сократить. Laibach и Ministry включил, ибо именно на этих альбомах вполне себе сплав индустриальной и металлической музыки у них получился.
(3) Deze, infiltrator, mirotvorets,
May 5 2021, 16:00:26 __________, или Голосовалка за лучший альбом 2020 года, ФИНАЛ
ЦИТАТА(Exorcist @ 4th May 2021 - 14:09:01) *
И да, Satyricon не выпускали альбомов в 1993-м.

Ошибочка вышла smile1.gif Это еще с кассетных времен идет - Dark Medieval Times был датирован на купленной кассете 93-м годом, а The Shadowthrone - 94-м, так и путаю тех пор.
(2) Exorcist, infiltrator,
May 3 2021, 20:30:08 __________, или Голосовалка за лучший альбом 2020 года, ФИНАЛ
Я вот сейчас посмотрел специально результаты голосовалок за 93, 95 и 98 годы (период лучшей, так сказать, формы Бенедикшн), и похоже на то, что в этих голосовалках его даже близко ни к каким финалам не было. За 93-й год не ручаюсь, увидел только двоих финалистов, но в 95-м Бенедикшна в пятерке сильнейших не было, а в 98-м так и в двадцатке. И что же это - прошлогодний альбом настолько крут или, как говорится на безрыбье?
(2) Emm Human, infiltrator,
May 3 2021, 14:32:42 __________, или Голосовалка за лучший альбом 2020 года, ФИНАЛ
Что один альбом, что другой как-то не очень тянут на звание альбома года, как говорится - не по Сеньке шапка, но что-то выбрать нужно, поэтому голос свой отдаю в пользу Benediction.
(5) Alexis The Best, infiltrator, maxmagmas, sabr, Thrashman,
May 3 2021, 11:20:44 Trauma - Acrimony [ep] (2021)
Сам не вполне понимаю за какие заслуги, но котирую эту банду повыше среднестатистического вейдеро-бегемотоподобного польского болота; вроде бы плюс-минус то же самое играют, но как-то у них почетче да позабористей это получается. Прошлогодний полноформатник мимо проскочил (надо бы переслушать), а вот этот миник зашел бодренько, плюс дополнительный респект за кавер на моих любимых Горефест. Вот, кстати, еще одна загадка для меня. Раньше развлекался собирательством каверов на песни разных метал-групп, но на Горефест практически ничего найти не удалось, не каверят его и все тут. Хотя, казалось бы, в 90-х была очень заметная команда и вещи-то у них самые что ни на есть подходящие для этого дела - не просто дэтовое нарезалово, а именно хорошо запоминающиеся композиции, которые напевать можно. И вот в результате у меня собрано, не считая трибьютов и вещей на альбомах из коллекции: на Death - 110 каверов, на Морбидов - 70, на Entombed - 34, а на Gorefest - 1! Взять хотя бы голландцев тех же самых значимых - на Пестиленс собирались отдельный трибьют выпускать, жаль не срослось, но каверы записывали, на Синистер тоже попадались, а на Горефест - почти ничего. Несправедливо!
(1) beast666,
Apr 30 2021, 21:08:14 CHVE - 10910 (2016)


*Artist: CHVE
*Album: 10910
*Year: 2016
*Genre: Ambient/Drone/Experimental
*Country: Belgium
*Format: mp3@CBR320kbps
*Size: 62MB

Tracklist:
01. 10910 26:30
******************************
Total playing time: 26:30



[more=Extended info]Colin H. Van Eeckhout (Amenra)[/more]

[more=Technical info]
Input File: 01 - 10910.mp3
Channels : 2
Sample Rate : 44100
Precision : 16-bit
Duration : 00:26:29.83 = 70111283 samples = 119237 CDDA sectors
File Size : 63.6M
Bit Rate : 320k
Sample Encoding: MPEG audio (layer I, II or III)
Comments :
Title=10910
Artist=CHVE
Album=10910
Tracknumber=01
Year=2016
Genre=Ambient/Drone/Experimental

[/more]

Register
(6) gena, infiltrator, lux6, marilin, Olethros, Ostinato,
Apr 30 2021, 21:04:18 CHVE - Rasa (2015)


*Artist: CHVE
*Album: Rasa
*Year: 2015
*Genre: Ambient/Drone/Experimental
*Country: Belgium
*Format: mp3@CBR320kbps
*Size: 68MB

Tracklist:
01. Rasa 29:34
******************************
Total playing time: 29:34



[more=Extended info]Colin H. Van Eeckhout (Amenra)[/more]

[more=Technical info]
Input File: 01 - Rasa.mp3
Channels : 2
Sample Rate : 44100
Precision : 16-bit
Duration : 00:29:34.26 = 78244822 samples = 133069 CDDA sectors
File Size : 71.0M
Bit Rate : 320k
Sample Encoding: MPEG audio (layer I, II or III)
Comments :
Title=Rasa
Artist=CHVE
Album=Rasa
Tracknumber=01
Year=2015
Genre=Ambient/Drone/Experimental

[/more]

Register
(6) gena, infiltrator, lux6, marilin, Olethros, Ostinato,
Apr 30 2021, 19:57:59 НОМ - Малгил (2021)


*Artist: НОМ
*Album: Малгил
*Year: 2021
*Genre: Rock
*Country: Russian Federation
*Format: mp3@CBR320kbps
*Size: 97MB

Tracklist:
01. Пробуждение элементов 02:58
02. Смерть героя 05:49
03. Жил мельник 05:06
04. Котяты 03:12
05. В повышенном горе 04:53
06. Страшно жить на этом свете 06:13
07. Один старик 04:02
08. Значенье моря 04:26
09. Прощание с друзьями 04:25
******************************
Total playing time: 41:04

[more=Extended info]Новую пластинку музыканты посвятили ОБЭРИУ – Объединению Реального Искусства, существовавшему в конце 20-х и начале 30-х годов в Ленинграде. В альбоме звучат песни на стихи Даниила Хармса, Николая Олейникова, Константина Вагинова и других поэтов.[/more]

[more=Technical info]
Input File: 03 - Жил мельник.mp3
Channels : 2
Sample Rate : 44100
Precision : 16-bit
Duration : 00:05:05.50 = 13472550 samples = 22912.5 CDDA sectors
File Size : 12.3M
Bit Rate : 321k
Sample Encoding: MPEG audio (layer I, II or III)
Comments :
Title=Жил мельник
Artist=НОМ
Album=МАЛГИЛ
Tracknumber=03
Year=2021
Genre=Rock

[/more]

Register
(9) A.L.Rapsod, Aresson, Ash_1980, DMIYUR, infiltrator, Old Vyaine, Olethros, vosmidesijatye, zobero,
Apr 30 2021, 19:13:59 Uratsakidogi - Black Hop. Epos (2021)
Блин, ну какая же чушь, как такое вообще слушать можно? Сейчас-то я хип-хоп нечасто слушаю, в основном что-нибудь из проверенного, но в свое время переслушал его очень даже немало, в основном, правда, во всяких абстрактных, экспериментальных и индустриальных формах. Так вот это, имхо, одно из его самых худших и убогих воплощений, что по музыке, что по текстам.
(7) ent404, hammer, ingram, Okultista, rominow, RotAnus, Shub,
Apr 29 2021, 15:39:28 Cannibal Corpse - Violence Unimagined (2021)
Я ответил, что нелепо пытаться свести весь довольно-таки громадный уже пласт дэт метала-а к этим трем альбомам (кстати, ты сам до такого додумался или прочел где-нибудь? смутно припоминаю, что нечто подобное я уже когда-то слышал), самобытных групп было и есть не так уж и мало.
(2) Exorcist, infiltrator,

14 Pages V   1 2 3 > » 
- Lo-Fi Version Support form
Copyrights and abuse reports form
Time is now: 18th May 2021 - 02:29:38