Welcome Guest ( Log In | Register )

История благодарностей участнику as71 ::: Спасибо сказали: 3821 раз(а)
Дата поста: В теме: За сообщение: Спасибо сказали:
Jan 26 2023, 12:12:44 Riverside - Id.Entity (2023)
При всей своей нереволюционности и неукоснительном следовании канонам утяжеленного прог-рока, это, считаю, пока лучший альбом года. Музыка, действительно, очень добротная и качественная.
(1) Ghostb,
Jan 25 2023, 15:52:57 Misanthrope - Les Déclinistes (2023)
ЦИТАТА(Amadeus @ 25th January 2023 - 17:34:15) *
К стыду - никогда ранее не слышал об этой группе, что ещё порекомендуете?

20+ лет назад нравились три альбома, их однозначно могу порекомендовать, очень хорошие:
1997 Visionnaire
1999 Libertine Humiliations
2000 Immortal Misanthrope
Коллектив сильно отличался от других мелодик дэт групп того времени прогрессивностью и красивыми богатыми аранжировками. Ну и плюс французский язык, конечно.
(1) Amadeus,
Jan 24 2023, 20:34:06 The Angelic Process - We All Die Laughing [compilation] (2017)


*Artist: The Angelic Process
*Album: We All Die Laughing [compilation]
*Year: 2017
*Genre: Drone/Doom/Post-Metal/Shoegaze
*Country: United States
*Format: mp3@CBR320kbps
*Size: 581MB

Tracklist:
2001 ...And Your Blood Is Full Of Honey
01. Welcome To Oblivion 06:07
02. Mouvement - Humble Man 01:29
03. Worried Man 04:41
04. ...And Your Blood Is Full Of Honey 04:20
05. Mouvement - The Body In It's Space 01:03
06. The Ruined Life Of Someone Better 08:50
07. Hang Him Higher 04:27
08. Cages Of Blood And Bone 04:36
2003 Coma Waering
09. My Blood Still Whispers 04:27
10. The Sun In Braids 04:46
11. Mouvement - The Flesh Is Weak 01:59
12. Crippled Healing 06:58
13. Coma Waering 09:19
14. Mouvement - The Rest Of The World 02:25
15. Rid The Past By Dying 07:06
16. Mouvement - Shielded By Death 03:58
2006 Sigh (EP)
17. Sigh 10:15
18. Trance To The Sun 06:49
19. Mouvement With Mountains Of Blood 01:12
20. The Black Ark 05:37
2006 We All Die Laughing
21. We All Die Laughing 05:59
22. Bleedbeliever 05:16
23. Mouvement - Soleil Et Noir 01:04
24. The Resonance Of Goodbye 05:13
25. How To Build A Time Machine 05:34
26. Mouvement - Every City Is A Prison 02:33
2007 Weighing Souls With Sand
27. The Promise Of Snakes 09:32
28. Million Year Summer 03:52
29. The Resonance Of Goodbye 05:15
30. We All Die Laughing 06:05
31. Dying In A-Minor 08:20
32. Weighing Souls With Sand 05:20
33. Mouvement - World Deafening Eclipse 02:00
34. Burning In The Undertow 06:47
35. Mouvement - The Smoke Of Her Burning 04:16
36. How To Built A Time Machine 05:45
37. Sleepwritten (vinyl bonus track) 10:54
2003 Solipsistic
38. Mouvement - Prepare To Evacuate Soul 00:38
39. Solipsistic 05:50
40. Deep Calls To Deep 06:37
41. Tragedy De' Ovair 06:48
42. Mouvement - Sympathy Interrupts My Blood 01:23
43. My Blood Still Whispers 01:27
44. Dismembered Antonella 07:09
45. Mouvement - Crippled Healing 03:22
46. Missing The Space Around You 06:43
47. Nothing But Self Exists 03:59
48. Mouvement - Solipsistic Darkness 00:36
49. Consciousness (Showered In Afterwhile) 03:47
50. Self Portrait In Water 08:41
******************************
Total playing time: 4:11:10



[more=Extended info]Переиздание полной дискографии группы[/more]

[more=Technical info]
Input File: 01 - Welcome To Oblivion.mp3
Channels : 2
Sample Rate : 44100
Precision : 16-bit
Duration : 00:06:06.63 = 16168163 samples = 27496.9 CDDA sectors
File Size : 14.8M
Bit Rate : 323k
Sample Encoding: MPEG audio (layer I, II or III)
Comments :
Title=Welcome To Oblivion
Artist=The Angelic Process
Album=We All Die Laughing / 2001 "...And Your Blood Is Full Of Honey"
Tracknumber=01
Year=2017
Genre=Drone/Doom/Post-Metal/Shoegaze

[/more]

Register
(8) artscald, ent404, Grev, murayne, regorgitated, Semargl2010, supremo, wreak,
Jan 23 2023, 14:13:37 MMXX - Sacred Cargo (2022)
ЦИТАТА(6666666 @ 23rd January 2023 - 15:34:38) *
Что-то мне расхотелось сабж качать.

Это, конечно, прискорбно. Но не имеем права настаивать, не качай.
(1) Alexis The Best,
Jan 23 2023, 12:42:46 MMXX - Sacred Cargo (2022)
ЦИТАТА(Faust_Vulkan_16 @ 23rd January 2023 - 13:25:31) *
Там сравнили это альбом с крайней Кататонией...странное сравнение.
Даже близко ничего нет.

Не писал, что они похожи, тем более с поздней Кататонией; имелось в виду, что сабж есть смысл послушать тем, кому нравится атмосфера, создаваемая К. Ведь есть же у этой группы настроение, нотки депрессии, роднящие её с К. и такими, например, группами, как October Tide, Novembre, Daylight Dies, разве нет?
(2) BleedingSun, Faust_Vulkan_16,
Jan 22 2023, 16:09:03 Katatonia - Sky Void Of Stars (2023)
BleedingSun, а ты вот эту вещь слышал?
MMXX - Sacred Cargo (2022)
Не сказать, что прямо в духе современной Кататонии, да и не совсем современной тоже, но явно где-то на смежном поле играют. Буквально недавно послушал и на фоне унылого в плохом смысле сабжа понравилось. Думаю, тебе тоже должно такое зайти, качай, если пропустил; музыканты, между прочим, из Daylight Dies.
(2) BleedingSun, Ghostb,
Jan 22 2023, 15:54:55 Gånglîå - The Beginnings [compilation] (2006)


*Artist: Gånglîå
*Album: The Beginnings [compilation]
*Year: 2006
*Genre: Cybergrind/Grindcore/Gabber/Noise/Experimental
*Country: United States
*Format: mp3@CBR320kbps
*Size: 170MB

Tracklist:
01. unHappy 01:09
02. Crowd Pleaser 00:23
03. Vampire Violence 00:58
04. Human Cocoons 01:02
05. Destroyer 44 00:53
06. unAuthorized Amputation 00:34
07. Blood Thirst 00:27
08. When Flesh & Heart Fail 01:03
09. Bear Trap 00:31
10. Why Try 00:30
11. Alien Lawn Mower 00:29
12. Eye Socket Snot 00:30
13. Suddenly Destroyed 01:19
14. Eye Gouger 00:46
15. Intermezzi 01:48
16. Open Wound 00:27
17. Cursed 01:01
18. OSG (Old School Ganglia) 00:17
19. Hit List 00:34
20. Hollow Horns 00:39
21. Synthetic Humans 00:45
22. Guntlia I 01:07
23. Guntlia II 02:54
24. Primates Dance Too 00:38
25. To Be A Gangsta 01:18
26. I Can't Remember Waking Up This Morning 00:48
27. When Science Fails 01:59
28. Keep Running & Don't Look Back 02:05
29. Rigor Mortis III 01:43
30. ex0tt0tt 01:50
31. Murderous Hearts 01:13
32. Perpendicular Phraseology 01:37
33. Maelstrom Attack 00:37
34. The Borgs Revolt 01:07
35. Acceptance 00:17
36. Nonexistent God I 00:50
37. Right Hand Conspiracy 00:58
38. Licehead 00:46
39. The Vegetable Lie Choke 00:09
40. The Vegetable Lie 00:35
41. Juggernaut 01:06
42. Blasphemous Christmas 00:16
43. DYEKWGi? 00:56
44. Nonexistent God II 00:18
45. Slayer 02:19
46. Snaps 00:12
47. Humans Are Funny 00:27
48. Nostril Meat 00:22
49. Ripper 00:34
50. You Talk Too Much 00:19
51. Jinx 00:59
52. No Utopia 01:06
53. Spinner 00:35
54. Scrap 01:02
55. Despair/The Emo Conspiracy/No Fluff No Cheese Please 01:27
56. 666 Is A Joke In Your Town/Bury Your Dead/Eye Die 00:49
57. Grow Up/Never/Festering 01:02
58. Crack Baby/8345 Aborted Babies Flushed Down The Toilet/Get The Plunger/Anti Smoke (Trilogy) 00:57
59. Your Momma's Underweight/Deception Is Yours/I Eat Demons 4 Breakfast 00:43
60. If I Was An Atheist I'd Jump Out Of A Plane Without A Parachute/Death Wish/Who's The Judge 01:18
61. The Ever Growing Emo Hit List/Go Complain To Grandma/Psychic Solutions 00:43
62. Sick/Stop Emo/Feathery Flow 00:36
63. Snort/Spit On Myself/Atheist 00:56
64. Satan Is Weak & Feeble/All This Chaos Is Making Me Thirsty/Silent Witness 01:11
65. Tired Of Your Negativity/Ganglia Is Gore/Talent? 01:05
66. The Need For Change/Crying Emo/Ganglia Is Ganglia 01:04
67. Kamikaze Attack 00:25
68. Painful Predicament 01:45
69. Coffin Caste 02:29
70. Rigor Mortis 02:01
71. In A Madman's Dream 01:45
72. Psycho Chaotic 02:40
73. Judgment Day 02:05
74. An Atheist's Burden 01:34
75. 777 BPM Mega Mix 02:47
76. I Eat Demons For Breakfast (live)/Stop Emo (live) 00:28
******************************
Total playing time: 1:19:00

[more=Extended info]+ scans[/more]

[more=Technical info]
Input File: 03 - Vampire Violence.mp3
Channels : 2
Sample Rate : 44100
Precision : 16-bit
Duration : 00:00:58.57 = 2583025 samples = 4392.9 CDDA sectors
File Size : 2.34M
Bit Rate : 320k
Sample Encoding: MPEG audio (layer I, II or III)
Comments :
Title=Vampire Violence
Artist=Gånglîå
Album=The Beginnings (compilation)
Tracknumber=03
Year=2006
Genre=Cybergrind/Grindcore/Gabber/Noise/Experimental

[/more]

Register
(7) artscald, Carcharoth, Dante_D, heinz88, Hell_Is_Here, supremo, wreak,
Jan 22 2023, 15:18:51 Alien Deviant Circus - En To Pan Omegas (2010)
Alien Deviant Circus - 2010 Eν To Παν Oμεγασ (mp3@320, 165 MB)
Register
(1) dermarsoran,
Jan 21 2023, 11:41:32 Katatonia - Sky Void Of Stars (2023)
ЦИТАТА(Krosis @ 21st January 2023 - 11:12:38) *
Абстрагируйтесь уже от думцового прошлого. Ну попсовый, что ж теперь.

Да уж четверть века как абстрагировались. Дело ведь не в попсовости, пусть бы и вообще поп-рок заиграли, но о какой популярности может идти речь, когда группа практически утратила способность к внятному сочинительству, не способна создать, условно назову его так, хит? Упомянутые выше Хост и Анафема на две головы выше этого, тут уж даже и прошлый альбом помянешь добрым словом.
(1) plfan93,
Jan 19 2023, 19:25:47 Atrocity - Okkult III (2023)
ЦИТАТА(BleedingSun @ 19th January 2023 - 21:09:15) *
О, третьесорт от дэта))

Не надо так! Когда-то, в начале-середине 1990-х, это был самый что ни на есть первый, даже высший сорт: Hallucinations, BLUT, Willenscraft, вот это вот всё. А сейчас да, к сожалению, имеем то, что имеем, что ж, и Алекс Крулл не может оставаться вечно молодым. Впрочем, сам альбом я еще не слушал.
(1) mardak666,
Jan 16 2023, 20:25:49 Høstsol - Länge Leve Döden (2023)
Мне и одного раза вполне хватит, неинтересно, немногочисленные атмосферно-эмбиентные вставки дело не спасают. Даже удивительно, как такой состав умудрился столь блёклое творение выдать.
(4) apries, gobblin, judaz, sabr,
Jan 15 2023, 11:12:10 Кто какие альбомы ждёт? Albums you are waiting for
ЦИТАТА(avather @ 15th January 2023 - 01:21:40) *
тупая долботня?

Что-то типа того, миллион раз уже слышанная мелодичная долботня.
(1) judaz,
Jan 15 2023, 11:10:49 Кто какие альбомы ждёт? Albums you are waiting for
ЦИТАТА(Daale @ 14th January 2023 - 14:02:14) *
as71, Они еще с прошлого альбома встали на путь просто очень хорошего, выверенного мелоблэка

Да, я помню. Жаль, что продолжили двигаться по этому пути - хорошего мелоблэка хоть [мат->бан]ой ешь, а ...And Oceans были уникальны.
(2) Deze, judaz,
Jan 14 2023, 18:37:59 Malignancy - Sickness Of Society (1996)
Спасибо за заливку, собираю я такие раритеты из девяностых. Но сама музыка, к сожалению, по одному прослушиванию не понравилась, не услышал тяжести/скорости/злобы или техники/прогрессивности, да и вообще какой-то внятной концепции, короче, не понял я, что именно хотели донести до слушателей музыканты.
(1) Proteus_666,
Jan 14 2023, 09:39:46 Кто какие альбомы ждёт? Albums you are waiting for
ЦИТАТА(Daale @ 14th January 2023 - 11:31:39) *
...and Oceans — As in Gardens, So in Tombs

Посмотрел я 1 или 2 клипа с песнями с грядущего альбома - ой, чего-то не порадовали, такое впечатление, что растеряли ребята свои фирменные фишки, которые выделяли группу из общей массы, и осталась только традиционная для блэка составляющая.
(1) zyklon,
Jan 13 2023, 11:47:03 Ville Valo - Neon Noir (2023)
ЦИТАТА(Krosis @ 13th January 2023 - 13:03:21) *
Похож на Линдеманна)

Осунувшегося и растерянного...
(1) Aresson,
Jan 11 2023, 15:00:08 Obituary - Dying Of Everything (2023)
ЦИТАТА(FullofHate @ 11th January 2023 - 16:26:54) *
Понимаю твою любовь к Асфиксу, но последние релизы подсчитать достаточно легко.
Т.к. количество виниловых копий указывается, а диски можно подсчитать по средней.
Условный Necroceros имеет тираж порядка 3000 штук в виниле (500 де-люксов, 1000 черных и цветные карамельки по 200-100 штук на цвет), который до сих пор не распродан.
Ну и дисков 2500 +/- и издания для экзотических стран.
О десяткке тысяч можно говорить разве что в случае двух первых ранних альбомов, львиная доля которых издавалась полуофициально. Хотя у меня два издания Rack - диджибук и двойной винил. Хочу еще до кучи взять японца, но это уже личные больные пристрастия.

За инфу спасибо, интересно, а так-то я не то чтобы большой любитель Asphyx, уважение есть, это да, но из голландцев гораздо более котирую Pestilence и Gorefest.
Сейчас, наверное, о реальных продажах еще сложнее говорить, чем раньше, многое приобретается в цифре.
(1) Occultas,
Jan 10 2023, 18:44:37 Biosphere - Shortwave Memories (2022)


*Artist: Biosphere
*Album: Shortwave Memories
*Year: 2022
*Genre: Electronic/Techno/Ambient
*Country: Norway
*Format: mp3@CBR320kbps
*Size: 128MB

Tracklist:
01. Tanß 05:41
02. Interval Signal 06:23
03. Night Shift 06:03
04. Formanta 04:10
05. Shortwave Memories 07:47
06. Infinium 08:34
07. Shruthi-12 03:36
08. Transfigured Express 14:18
******************************
Total playing time: 56:31



[more=Technical info]
Input File: 02 - Interval Signal.mp3
Channels : 2
Sample Rate : 44100
Precision : 16-bit
Duration : 00:06:23.08 = 16893960 samples = 28731.2 CDDA sectors
File Size : 15.4M
Bit Rate : 322k
Sample Encoding: MPEG audio (layer I, II or III)
Comments :
Title=Interval Signal
Artist=Biosphere
Album=Shortwave Memories
Tracknumber=02
Year=2022
Genre=Electronic/Techno/Ambient

[/more]

Register
(5) Emhyr var Emreis, Infidel, Occultas, veselchak_u, ZamanFu,
Jan 10 2023, 18:37:53 Laibach - The Future [single] (2022)


*Artist: Laibach
*Album: The Future [single]
*Year: 2022
*Genre: Industrial/Electronic
*Country: Slovenia
*Format: mp3@CBR320kbps
*Size: 48MB

Tracklist:
01. The Future 06:41
02. The Future (Alternate Mix) 07:04
03. The Future (Blast From The Past Remix) 07:01
******************************
Total playing time: 20:46




[more=Extended info]LAIBACH pay tribute to Leonard Cohen (1934-2016) with a reinterpretation of Cohen’s pre-apocalyptic track, ‘The Future’. This Laibachian version of the track, originally on Cohen’s 1992 studio album of the same name, makes it abundantly clear that the future Cohen predicted is very much our present.
(c) Laibach[/more]

[more=Technical info]
Input File: 01 - The Future.mp3
Channels : 2
Sample Rate : 44100
Precision : 16-bit
Duration : 00:06:41.42 = 17702710 samples = 30106.6 CDDA sectors
File Size : 16.5M
Bit Rate : 329k
Sample Encoding: MPEG audio (layer I, II or III)
Comments :
Title=The Future
Artist=Laibach
Album=The Future (single)
Tracknumber=01
Year=2022
Genre=Industrial/Electronic

[/more]

Register
(5) Emhyr var Emreis, gwar, Hell_Is_Here, Reverend, Xor,
Jan 10 2023, 08:15:23 Obituary - Dying Of Everything (2023)
Складывается впечатление, что стоявшие у самых истоков дэта группы с хорошо узнаваемым уникальным звучанием, играющие преимущественно среднетемповую музыку, разделены на два лагеря. В одном, например, Bolt Thrower и Asphyx - они считаются безусловно уважаемыми, при выходе новых альбомов их в целом нахваливают, отмечая как плюс следование традициям, отсутствие экспериментов и т.п. Obituary же не повезло оказаться в другом лагере - ощущается явное пренебрежение к группе, на альбомы преобладают отрицательные отзывы, в упрек ставится как раз то, за что других хвалят, только достоинства теперь уже оказываются недостатками: отсутствие развития, сколько можно одно и то же играть, сделали бы хоть что-то новое и пр. При этом у Obituary хоть и давно, но некоторые эксперименты все же были (World Demise), а у других упомянутых я и этого не припомню. Отчего такая несправедливость?
(6) BERZERK, Chasm, DrStein, Lux, nausea-69, Occultas,
Jan 8 2023, 10:08:31 Obituary - Dying Of Everything (2023)
ЦИТАТА(lafuma @ 8th January 2023 - 11:51:49) *
хотя и считаются классиками жанра. Хз почему так случилось.

А чего бы им не считаться классиками? Стартовали с полноформатным альбомом еще в конце 80-х, звучание одно из самых узнаваемых, с лейблом (продажами, раскруткой, концертами) повезло, поэтому ничего удивительного.
У группы выделю Cause Of Death и World Demise с индустриальными фишечками, дебютник и The End Complete не понравились, еще Back From The Dead довольно много слушал, а остальное вообще не помню.
(1) Hexenmeister,
Jan 5 2023, 21:00:25 Наихудший релиз(ы) от выдающихся музыкантов, который(ые) вам встречался.
ЦИТАТА(xax @ 5th January 2023 - 20:39:15) *
morbid angel - illud divinum insanus

Хороший альбом. Разумеется, никак не лучше тех, что были по 2000 год включительно, но хороший, люблю его.
Тем не менее, 2 неудачных альбома у Морбидов (и именно для Морбидов) были - Еретик и последний, на котором вообще ничего от духа группы не осталось. Но и они не заслуживают упоминания в этой теме.
(2) 6666666, mirotvorets,
Dec 30 2022, 17:26:31 Elitaria - Widescreen Satanas [ep] (2014)


*Artist: Elitaria
*Album: Widescreen Satanas [ep]
*Year: 2014
*Genre: Industrial Black Metal
*Country: Italy
*Format: mp3@CBR320kbps
*Size: 76MB

Tracklist:
01. Intro 02:25
02. Widescreen Satanas Part I - Hail To The Emperor 06:05
03. Widescreen Satanas Part II - Horobi No Shito 06:23
04. Ragnaroek Propaganda - The End Of Things To Come 04:58
05. Dawn Of Mecha - Rise The Age Of Machine 05:01
06. Mithocondrion - Black Soul Rising Part II 04:39
07. Outro 02:20
******************************
Total playing time: 31:51



[more=Technical info]
Input File: 02 - Widescreen Satanas Part I - Hail To The Emperor.mp3
Channels : 2
Sample Rate : 44100
Precision : 16-bit
Duration : 00:06:05.37 = 16112905 samples = 27402.9 CDDA sectors
File Size : 14.8M
Bit Rate : 323k
Sample Encoding: MPEG audio (layer I, II or III)
Comments :
Title=Widescreen Satanas Part I - Hail To The Emperor
Artist=Elitaria
Album=Widescreen Satanas (EP)
Tracknumber=02
Year=2014
Genre=Industrial Black Metal

[/more]

Register
(15) AlexSmith, artscald, Dante_D, Emhyr var Emreis, Grev, Hell_Is_Here, metala, randumbum, SilentNidhogg, stormhatt, supremo, VALERY, vasiljev_sergej, wreak, yuratroll,
Dec 25 2022, 19:42:12 Dusk - The Hermit (2021)


*Artist: Dusk
*Album: The Hermit
*Year: 2021
*Genre: Industrial Black Metal
*Country: Costa Rica
*Format: mp3@CBR320kbps
*Size: 102MB

Tracklist:
01. Hermit I 04:39
02. Desolation I 02:32
03. Hermit II 05:14
04. Desolation II 01:46
05. Hermit III 08:37
06. Desolation III 02:33
07. Hermit IV 05:28
08. Desolation IV 02:33
09. Hermit V 06:47
10. Desolation V 03:02
******************************
Total playing time: 43:11



[more=Technical info]
Input File: 01 - Hermit I.mp3
Channels : 2
Sample Rate : 44100
Precision : 16-bit
Duration : 00:04:38.88 = 12298388 samples = 20915.6 CDDA sectors
File Size : 11.3M
Bit Rate : 323k
Sample Encoding: MPEG audio (layer I, II or III)
Comments :
Title=Hermit I
Artist=Dusk
Album=The Hermit
Tracknumber=01
Year=2021
Genre=Industrial Black Metal

[/more]

Register
(19) AlexSmith, artscald, Emhyr var Emreis, Hell_Is_Here, kim666, metala, randumbum, Reverend, Shadechaser, SilentNidhogg, spazm, stormhatt, supremo, symphonicadiction, VALERY, varlam4, vasiljev_sergej, wreak, xariton,
Dec 24 2022, 20:50:09 Godflesh - Long Live The New Flesh [compilation] (2022)


*Artist: Godflesh
*Album: Long Live The New Flesh [compilation]
*Year: 2022
*Genre: Industrial Metal
*Country: United Kingdom
*Format: mp3@CBR320kbps
*Size: 429MB

Tracklist:
CD1 - A World Lit Only By Fire
01. New Dark Ages 04:52
02. Deadend 05:08
03. Shut Me Down 04:26
04. Life Giver Life Taker 05:28
05. Obeyed 05:35
06. Curse Us All 03:47
07. Carrion 06:05
08. Imperator 04:27
09. Towers Of Emptiness 06:34
10. Forgive Our Fathers 07:42
CD2 - Post Self
01. Post Self 04:29
02. No Body 03:40
03. Parasite 03:49
04. Mirror Of Finite Light 04:23
05. Be God 05:09
06. The Cyclic End 04:51
07. Pre Self 05:08
08. Mortality Sorrow 04:46
09. In Your Shadow 05:08
10. The Infinite End 05:18
CD3 - Decline & Fall +
01. Ringer 06:24
02. Dogbite 03:52
03. Playing With Fire 06:01
04. Decline & Fall 04:17
05. Playing With Fire (Dub) 06:08
06. Ringer (Dub) 07:10
07. Shut Me Down (Version) 06:22
08. New Dark Ages (Dub) 06:29
09. Imperator (Version Dub) 09:21
CD4 - Post Self +
01. Parasite (Alternative) 04:10
02. The Cyclic End (Dub) 07:08
03. In Your Shadow (JK Flesh Reshape) 06:09
04. Your Nature Your Nurture 05:10
05. Gateway 06:10
******************************
Total playing time: 3:05:36

[more=Technical info]
Input File: 01 - New Dark Ages.mp3
Channels : 2
Sample Rate : 44100
Precision : 16-bit
Duration : 00:04:51.75 = 12866351 samples = 21881.5 CDDA sectors
File Size : 11.7M
Bit Rate : 320k
Sample Encoding: MPEG audio (layer I, II or III)
Comments :
Title=New Dark Ages
Artist=Godflesh
Album=Long Live The New Flesh CD1: A World Lit Only By Fire
Tracknumber=01
Year=2022
Genre=Industrial Metal

[/more]

Register
(11) A.L.Rapsod, Deamon38yearsold, Emhyr var Emreis, ENDSMOUTH, gwar, Hell_Is_Here, lucifix, Occultas, popen13, Reverend, Zhelezjaka,

26 Pages V   1 2 3 > » 
- Lo-Fi Version Support form
Copyrights and abuse reports form
Time is now: 31st January 2023 - 17:49:28