Welcome Guest ( Log In | Register )

История благодарностей участнику as71 ::: Спасибо сказали: 647 раз(а)
Дата поста: В теме: За сообщение: Спасибо сказали:
Mar 26 2020, 08:35:13 My Dying Bride - The Ghost Of Orion (2020)
ЦИТАТА(BrutalHero @ 25th March 2020 - 22:14:43) *
Хз, в 90-е группа была ярко выраженным вторым эшелоном, на фоне Парадасов так вообще не угадывалась, это помимо огромного количества культовых групп, записавших ну пару эпих например... Если их знать и прослушать... На их фоне Невеста как-то не угадывается и попросту не нужна. Сегодня слушал Энигматик, например, они явно лучше в разы.

Извини, конечно, но это полный бред. Как раз-таки в самом начале 90-х из британских групп именно четверка Paradise Lost/My Dying Bride/Anathema/Cathedral (91-й год) и была самым что ни на есть первым эшелоном дум/дэта, первее просто некуда.
(5) Alexis The Best, Faust_Vulkan_16, Lux, paganheart, Язва,
Mar 23 2020, 17:53:18 Various Artists - Entombed Left Hand Path: The Cvlt Nation Sessions [compilation] (2020)


*Artist: Various Artists
*Album: Entombed Left Hand Path: The Cvlt Nation Sessions [compilation]
*Year: 2020
*Genre: Death Metal
*Country: Many
*Format: mp3@CBR320kbps
*Size: 100MB

Tracklist:
01. Cruor Vexillum - Left Hand Path 07:53
02. Disburial - Drowned 04:44
03. Muscipula - Revel In Flesh 03:51
04. Whipstriker - When Life Has Ceased 04:02
05. Neolithic - Supposed To Rot 01:58
06. Grave Infestation - But Life Goes On 03:13
07. Insineratehymn - Bitter Loss 04:09
08. Frozen Soul - Morbid Devourment 05:06
09. Pigs Blood - Abnormally Deceased 03:04
10. Grinding Fear - The Truth Beyond 03:30
******************************
Total playing time: 41:30



[more=Technical info]
Input File: 03 - Muscipula - Revel In Flesh.mp3
Channels : 2
Sample Rate : 44100
Precision : 16-bit
Duration : 00:03:50.81 = 10178589 samples = 17310.5 CDDA sectors
File Size : 9.48M
Bit Rate : 329k
Sample Encoding: MPEG audio (layer I, II or III)
Comments :
Title=Muscipula: Revel In Flesh
Artist=Compilation
Album=ENTOMBED Left Hand Path: The CVLT Nation Sessions
Tracknumber=03
Year=2020
Genre=Death Metal

[/more]

Register
(14) chipsgott, cist, craP_cillA, infiltrator, Leshiy666, marilin, morbidangelo, Ostinato, popen13, SadistikSlayer, VALERY, varlam4, wanderer73, wolverine,
Mar 23 2020, 17:14:28 Khost - Buried Steel (2020)


*Artist: Khost
*Album: Buried Steel
*Year: 2020
*Genre: Industrial Metal
*Country: United Kingdom
*Format: mp3@CBR320kbps
*Size: 122MB

Tracklist:
01. We Will Win 04:06
02. Blood Gutters 6x4x1 04:48
03. Intravener 02:58
04. Yellow Light 01:54
05. Last Furnace 05:34
06. Night Air 04:08
07. Judgement Is Infallible 01:48
08. Kent House 01:17
09. December Bureau 05:27
10. Vandals 01:58
11. Dog Unit 04:14
12. Two 01:19
13. A Non Temporal Crawlspace 04:18
14. Intravener In Dub (Mothboy Remix) 08:123
******************************
Total playing time: 52:02



[more=Technical info]
Input File: 01 - We Will Win.mp3
Channels : 2
Sample Rate : 44100
Precision : 16-bit
Duration : 00:04:06.48 = 10869856 samples = 18486.1 CDDA sectors
File Size : 9.91M
Bit Rate : 322k
Sample Encoding: MPEG audio (layer I, II or III)
Comments :
Title=We Will Win
Artist=Khost
Album=Buried Steel
Tracknumber=01
Year=2020
Genre=Industrial Metal

[/more]

Register
(4) Buregon, gwar, infiltrator, Olethros,
Mar 3 2020, 18:49:07 Necessary - Voldsløkka (2010)


*Artist: Necessary
*Album: Voldsløkka
*Year: 2010
*Genre: Dub
*Country: Norway
*Format: mp3@CBR320kbps
*Size: 152MB

Tracklist:
01. Chinnamasta 09:32
02. Sov Godt 05:56
03. Grimm Og Gru 07:18
04. Peshawar 06:29
05. Voldsløkka 06:25
06. Syltetøy 08:17
07. Slukker Lyset 07:59
08. Helvete Ser På Deg 07:46
09. Lord B 09:30
******************************
Total playing time: 1:09:12



[more=Extended info]A large unit live dub group, Necessary come armed with former Swans/Prong/Godflesh drummer Ted Parsons, and Oslo musicians Matti Hansen, Markus O. Klyve, Andreas Mork, UK based DJ Tony F. Wilson, and Salvador Sanchez. The album's sonic imagery spans the globe, from Scandinavian jazz to distort bass dub to music inspired by faraway lands.

Musicians: Matti Hansen, Markus O. Klyve, Andreas Mork, Tony F. Wilson, Salvador Sanchez, Ted Parsons
Production, Arrangement, Mix: Justin K. Broadrick[/more]

[more=Technical info]
Input File: 01 - Chinnamasta.mp3
Channels : 2
Sample Rate : 44100
Precision : 16-bit
Duration : 00:09:32.51 = 25247603 samples = 42938.1 CDDA sectors
File Size : 22.9M
Bit Rate : 320k
Sample Encoding: MPEG audio (layer I, II or III)
Comments :
Title=Chinnamasta
Artist=Necessary
Album=Voldsløkka
Tracknumber=01
Year=2010
Genre=Dub

[/more]

Register
(7) A.L.Rapsod, Angry_Chair, cancer1974, FUDEDOR, infiltrator, Olethros, xska,
Feb 29 2020, 11:59:15 Atrium Carceri & Cities Last Broadcast & God Body Disconnect - Miles To Midnight [collaboration] (2018)


*Artist: Atrium Carceri & Cities Last Broadcast & God Body Disconnect
*Album: Miles To Midnight [collaboration]
*Year: 2018
*Genre: Dark Ambient/Dark Jazz | Dark Ambient/Dark Jazz | Dark Ambient/Dark Jazz
*Country: Sweden | Sweden | United States
*Format: mp3@CBR320kbps
*Size: 95MB

Tracklist:
01. Miles To Midnight 05:56
02. A Thousand Empty Rooms 06:20
03. Scene Of The Crime 05:04
04. Floor 6, Please 03:00
05. The Other Lobby 05:56
06. Sorry Sir, You Are In The Wrong Room 02:39
07. The Sleep Ensemble 05:21
08. Quiet Days On Earth 07:44
******************************
Total playing time: 42:00



[more=Extended info]Atrium Carceri, Cities Last Broadcast and God Body Disconnect collaborates on this foggy noir album.
Miles To Midnight is a dark jazz ambient album with a Lynchian noir feel: A hotel trapped between two worlds and a detective with a traumatized past.
God Body Disconnect's live jazz drums and cinematic wall-of-sound builds the foundation of the mysterious hotel. Cities Last Broadcast brings ghostly tape loops and melodies stuck in time. Atrium Carceri dusts off his old pianos and shatters reality with low bass rumbles and brings you into the other side of the hotel. For lovers of smokey soundtracks to unwritten movies.[/more]

[more=Technical info]
Input File: 01 - Miles To Midnight.mp3
Channels : 2
Sample Rate : 44100
Precision : 16-bit
Duration : 00:05:55.86 = 15693514 samples = 26689.6 CDDA sectors
File Size : 14.2M
Bit Rate : 320k
Sample Encoding: MPEG audio (layer I, II or III)
Comments :
Title=Miles To Midnight
Artist=Atrium Carceri, Cities Last Broadcast, God Body Disconnect
Album=Miles To Midnight
Tracknumber=01
Year=2018
Genre=Dark Ambient/Dark Jazz

[/more]

Register
(8) A.L.Rapsod, emogrinder, gena, Hell_Is_Here, infiltrator, recber, tOmV, wtk.412,
Feb 27 2020, 22:57:32 Flint Glass & Collapsar - Deus Irae [collaboration] (2015)


*Artist: Flint Glass & Collapsar
*Album: Deus Irae [collaboration]
*Year: 2015
*Genre: Dark Ambient/Industrial | Dark Ambient/Industrial
*Country: France | France
*Format: mp3@CBR320kbps
*Size: 173MB

Tracklist:
01. The Servants Of Wrath Part I 21:35
02. The Servants Of Wrath Part II 26:22
03. The Servants Of Wrath (Closed_Universe Mix by Spherical Disrupted) 07:10
04. The Servants Of Wrath (Deep Immersion Mix by Hologram_) 04:53
05. The Servants Of Wrath (Opening Of Wrath Mix by Sylvgheist Maëlström) 05:15
06. The Servants Of Wrath (The Anger Of The Gods Mix by Ah Cama-Sotz) 04:42
07. The Servants Of Wrath (Olden Wrath Of The Great Ones Mix by Iszoloscope) 06:18
******************************
Total playing time: 1:16:13



[more=Extended info]Dystopian futurist soundscapes meets cinematic collapsed drones. A mystical sensory journey into the depths of a post apocalyptic world, inspired by Philip K. Dick & R. Zelazny novel.[/more]

[more=Technical info]
Input File: 05 - The Servants Of Wrath (Opening Of Wrath Mix by Sylvgheist Maëlström).mp3
Channels : 2
Sample Rate : 44100
Precision : 16-bit
Duration : 00:05:14.59 = 13873287 samples = 23594 CDDA sectors
File Size : 12.8M
Bit Rate : 326k
Sample Encoding: MPEG audio (layer I, II or III)
Comments :
Title=The Servants Of Wrath (Opening Of Wrath Mix by Sylvgheist Maëlström)
Artist=Flint Glass & Collapsar
Album=Deus Irae
Tracknumber=05
Year=2015
Genre=Dark Ambient/Industrial/Experimental/IDM/Glitch

[/more]

Register
(7) A.L.Rapsod, Angry_Chair, FUDEDOR, gena, Hell_Is_Here, Indstrlfrppl, infiltrator,
Feb 26 2020, 18:01:00 Gutenberg - Unnecessary Bronze (2019)


*Artist: Gutenberg
*Album: Unnecessary Bronze
*Year: 2019
*Genre: Industrial/Illbient/Experimental
*Country: Japan
*Format: mp3@CBR320kbps
*Size: 138MB

Tracklist:
01. Black Cloak Oracle 04:58
02. Hydraulic Labor Force (Instrumental Version) 06:24
03. Guy's Kitchen 05:26
04. Cape Style 08:10
05. People, Singing Voice, Iron Pile 07:50
06. Inspired From Dje 05:29
07. Sky Layer 05:30
08. Vested Rights & Interests 06:38
09. Doze A Pace 09:41
******************************
Total playing time: 1:00:06



[more=Extended info]Gutenberg is the techno/industrial solo project of Shouji Sakurai. Hailing from Aichi, Japan, Gutenberg has the gift to turn clashing junk metal sounds, fat synthesized beats, fragile electronics and ambient drones into a dark all-encompassing circle of dense intoxication.[/more]

[more=Technical info]
Input File: 01 - Black Cloak Oracle.mp3
Channels : 2
Sample Rate : 44100
Precision : 16-bit
Duration : 00:04:58.00 = 13141712 samples = 22349.9 CDDA sectors
File Size : 11.9M
Bit Rate : 320k
Sample Encoding: MPEG audio (layer I, II or III)
Comments :
Title=Black Cloak Oracle
Artist=Gutenberg
Album=Unnecessary Bronze
Tracknumber=01
Year=2019
Genre=Industrial/Illbient/Experimental

[/more]

Register
(4) Angry_Chair, FUDEDOR, Olethros, spiritualdecay666,
Feb 26 2020, 17:53:52 Atomine Elektrine - The Antikythera Mechanism (2019)


*Artist: Atomine Elektrine
*Album: The Antikythera Mechanism
*Year: 2019
*Genre: Dark Ambient/Electronic
*Country: Sweden
*Format: mp3@CBR320kbps
*Size: 139MB

Tracklist:
01. Arcturus Alpha Boo 10:34
02. Metonic Spiral 10:02
03. The Exeligmos Pointer 09:37
04. Time Dislocated In The Mechanism 09:52
05. Epicylic Gearing 10:07
06. Fragment F 10:40
******************************
Total playing time: 1:00:52



[more=Technical info]
Input File: 01 - Arcturus Alpha Boo.mp3
Channels : 2
Sample Rate : 44100
Precision : 16-bit
Duration : 00:10:34.08 = 27963016 samples = 47556.1 CDDA sectors
File Size : 25.4M
Bit Rate : 320k
Sample Encoding: MPEG audio (layer I, II or III)
Comments :
Title=Arcturus Alpha Boo
Artist=Atomine Elektrine
Album=The Antikythera Mechanism
Tracknumber=01
Year=2019
Genre=Dark Ambient/Electronic

[/more]

Register
(10) A.L.Rapsod, Angry_Chair, Der_Hexer, gena, Hell_Is_Here, Infidel, Occultas, spiritualdecay666, Un4given, wtk.412,
Feb 24 2020, 17:46:17 Bogus Blimp - Rdtr (2004)
Register
(2) infiltrator, KKK1488,
Feb 24 2020, 17:45:30 Bogus Blimp - Men-Mic (1999)
Register
(2) infiltrator, KKK1488,
Feb 24 2020, 16:29:35 The Young Gods - Data Mirage Tangram (2019) (2) infiltrator, KKK1488,
Feb 24 2020, 16:26:59 Bogus Blimp - Cords.Wires (2000)
Register
(2) infiltrator, KKK1488,
Feb 23 2020, 21:25:58 The Young Gods - Data Mirage Tangram (2019)


*Artist: The Young Gods
*Album: Data Mirage Tangram
*Year: 2019
*Genre: Industrial Rock
*Country: Switzerland
*Format: mp3@CBR320kbps
*Size: 122MB

Tracklist:
01. Entre En Matière 07:14
02. Tear Up The Red Sky 07:28
03. Figure Sans Nom 06:10
04. Moon Above 06:02
05. All My Skin Standing 11:11
06. You Gave Me A Name 08:00
07. Everythem 07:33
******************************
Total playing time: 53:39



[more=Technical info]
Input File: 02 - Tear Up The Red Sky.mp3
Channels : 2
Sample Rate : 44100
Precision : 16-bit
Duration : 00:07:28.21 = 19766061 samples = 33615.8 CDDA sectors
File Size : 18.0M
Bit Rate : 321k
Sample Encoding: MPEG audio (layer I, II or III)
Comments :
Title=Tear Up The Red Sky
Artist=The Young Gods
Album=Data Mirage Tangram
Tracknumber=02
Year=2019
Genre=Industrial Rock

[/more]

Register
(5) FUDEDOR, gwar, infiltrator, KKK1488, Olethros,
Feb 23 2020, 10:16:37 Soulstorm - Fall Of The Rebel Angels (2012)


*Artist: Soulstorm
*Album: Fall Of The Rebel Angels
*Year: 2012
*Genre: Industrial Death Metal
*Country: Canada
*Format: mp3@CBR320kbps
*Size: 249MB

Tracklist:
01. Soulless 03:33
02. Interwoven (2016) 04:16
03. Fall Of The Rebel Angels 03:42
04. Kingdom Of Rats 05:48
05. Control (2016) 06:23
06. Descent Into Desolation 05:28
07. Nihilism Quotient (feat. Rob Urbinati) 04:40
08. Plauge Of The North Winds 04:28
09. Residual Traces (2016) 04:10
10. Catalyst Rising 08:04
11. Fall Of The Rebel Angels (Codex Factoria Remix by Seventh Image) 05:58
12. Interwoven (Re-Threaded by iForani) 05:33
13. Kingdom Of Rats (Valvegod Mix) 04:32
14. Residual Traces (I Am The Master Remix by Seventh Image) 07:21
15. Fall Of The Rebel Angels (Schizoid Mix) 03:57
16. Interwoven (Corrodesion Glitch Mix) 07:16
17. Residual Traces (Erosion Cycle Ambient Mix) 18:20
18. Fall Of The Rebel Angels (The Sun Sets On Satan Remix by Seventh Image) 04:56
******************************
Total playing time: 1:48:25



[more=Extended info]Originally released Sept. 6th, 2012, this is Soulstorm's third full length CD. 10 new tracks, dark and raw. Recorded, Produced and Mixed by Nick Sagias, this CD is a return to the original sound that Soulstorm is known for. Includes guest vocals and guitar by Rob Urbinati from Sacrifice.[/more]

[more=Technical info]
Input File: 01 - Soulless.mp3
Channels : 2
Sample Rate : 44100
Precision : 16-bit
Duration : 00:03:33.51 = 9415923 samples = 16013.5 CDDA sectors
File Size : 8.68M
Bit Rate : 325k
Sample Encoding: MPEG audio (layer I, II or III)
Comments :
Title=Soulless
Artist=Soulstorm
Album=Fall Of The Rebel Angels (redux 2016)
Tracknumber=01
Year=2012
Genre=Industrial Death Metal

[/more]

Register
(18) ASkyThatBurns, caro, exorcist1969, Hell_Is_Here, infiltrator, jollo, kimkayoung, mirotvorets, Olethros, Rosen, Shadechaser, soulflesh, stumpheavyrock, tamerz, Tino, Vladimir, wreak, Сварог Барг,
Feb 22 2020, 23:12:35 Bogus Blimp - Men-Mic (1999)


*Artist: Bogus Blimp
*Album: Men-Mic
*Year: 1999
*Genre: Experimental/Noir/Rock
*Country: Norway
*Format: mp3@CBR320kbps
*Size: 57MB

Tracklist:
01. Jazz/Speech 02:07
02. Sweets & Love 03:25
03. Hush Now 04:04
04. In/Exhale 02:46
05. Brains 03:41
06. Even More 03:42
07. 891 01:27
08. Inside Here 03:23
******************************
Total playing time: 24:34

[more=Technical info]
Input File: 04 - In - Exhale.mp3
Channels : 2
Sample Rate : 44100
Precision : 16-bit
Duration : 00:02:45.99 = 7320335 samples = 12449.5 CDDA sectors
File Size : 6.64M
Bit Rate : 320k
Sample Encoding: MPEG audio (layer I, II or III)
Comments :
Title=In/Exhale
Artist=Bogus Blimp
Album=Men-Mic
Tracknumber=04
Year=1999
Genre=Experimental/Noir/Rock

[/more]

Register
(6) Angry_Chair, dma-09, infiltrator, Olethros, yuratroll, zoog,
Feb 22 2020, 23:05:52 Bogus Blimp - Rdtr (2004)


*Artist: Bogus Blimp
*Album: Rdtr
*Year: 2004
*Genre: Experimental/Noir/Ambient
*Country: Norway
*Format: mp3@CBR320kbps
*Size: 97MB

Tracklist:
01. Sci-Fi City 05:05
02. Automated Bathroom 03:37
03, Down The Tunnel 00:17
04. Mama Mother 01:29
05. Leisure A Go-Go 04:08
06. Police Chasing Police 02:14
07. Ministry Of Police Affairs 03:24
08. Going Commercial 04:34
09. The Solitude Of Space 04:52
10. Stellar Epilogue 03:51
11. [untitled] 06:14
12. [untitled] 02:29
******************************
Total playing time: 42:15

[more=Technical info]
Input File: 09 - The Solitude Of Space.mp3
Channels : 2
Sample Rate : 44100
Precision : 16-bit
Duration : 00:04:52.17 = 12884785 samples = 21912.9 CDDA sectors
File Size : 11.7M
Bit Rate : 320k
Sample Encoding: MPEG audio (layer I, II or III)
Comments :
Title=The Solitude Of Space
Artist=Bogus Blimp
Album=Rdtr
Tracknumber=09
Year=2004
Genre=Experimental/Noir/Ambient

[/more]

Register
(5) Angry_Chair, dma-09, infiltrator, KKK1488, Olethros,
Feb 20 2020, 23:31:36 Mlada Fronta - No Trespassing (2018)


*Artist: Mlada Fronta
*Album: No Trespassing
*Year: 2018
*Genre: Synthwave/Retrowave/Dark Synth
*Country: France
*Format: mp3@CBR320kbps
*Size: 104MB

Tracklist:
01. Deathdreams 04:01
02. The Warriors 04:57
03. No Trespassing 04:35
04. Magnus The Avenger 05:12
05. From Hell 04:08
06. Faceless Man 04:45
07. Arcade Rider 04:50
08. The Night Hunter 04:33
09. Dead Or Alive 04:23
10. Imminent Danger 03:36
******************************
Total playing time: 45:01



[more=Extended info]Remy Pelleschi aka Mlada Fronta на стыке тысячелетий выпустил несколько отличных электро-индустриальных альбомов, а несколько лет назад внезапно сменил стилистику и заиграл набиравший популярность синтвейв.[/more]

[more=Technical info]
Input File: 01 - Deathdreams.mp3
Channels : 2
Sample Rate : 44100
Precision : 16-bit
Duration : 00:04:01.57 = 10653237 samples = 18117.8 CDDA sectors
File Size : 9.66M
Bit Rate : 320k
Sample Encoding: MPEG audio (layer I, II or III)
Comments :
Title=Deathdreams
Artist=Mlada Fronta
Album=No Trespassing
Tracknumber=01
Year=2018
Genre=Electro/Synthwave/Dark Synth

[/more]

Register
(7) A.L.Rapsod, acerbus, Brann, FUDEDOR, gwar, infiltrator, Olethros,
Feb 20 2020, 18:59:36 Bogus Blimp - Cords.Wires (2000)


*Artist: Bogus Blimp
*Album: Cords.Wires
*Year: 2000
*Genre: Experimental/Noir/Rock
*Country: Norway
*Format: mp3@CBR320kbps
*Size: 108MB

Tracklist:
01. Hello World 00:50
02. Brothers Of Space 04:01
03. No Cords. No Wires 03:40
04. Marching To Rome 00:38
05. By Five O'Clock Tea 02:58
06. King Inst. King 04:48
07. The End Of The World 03:18
08. Under The Sea 05:23
09. Oxygen XX 01:21
10. Sugar And Fear 03:20
11. Making Room For God 05:48
12. Flight To The Future 08:02
13. Things To Come 03:11
******************************
Total playing time: 47:19



[more=Extended info]Норвежская экспериментальная группа, давно уже не существующая, выпустила три альбома на лейбле Kristoffer-а Rygg-а, Jester Records; это ее второй альбом. Музыка очень странная, не знаю даже, с чем сравнить можно, иногда вроде что-то похожее на ульверовские эксперименты проскакивает, но только на уровне ощущений, музыка разная.[/more]

[more=Technical info]
Input File: 02 - Brothers Of Space.mp3
Channels : 2
Sample Rate : 44100
Precision : 16-bit
Duration : 00:04:01.44 = 10647504 samples = 18108 CDDA sectors
File Size : 9.66M
Bit Rate : 320k
Sample Encoding: MPEG audio (layer I, II or III)
Comments :
Title=Brothers Of Space
Artist=Bogus Blimp
Album=Cords.wires
Tracknumber=02
Year=2000
Genre=Experimental/Noir/Rock

[/more]

Register
(10) A.L.Rapsod, atom72, Daale, dma-09, infiltrator, metala, Olethros, Rosen, yuratroll, zoog,
Feb 19 2020, 18:04:08 Ulver - Russian Doll [single] (2020)
Конечно, не синтвейв это, ну а если кто вдруг еще не слышал, как звучит синтвейв с ульверовским вокалом, но хочет услышать, то сейчас на модерации как раз лежит альбом Carpenter Brut, так там на втором треке Гарм поет. Послушайте и сравните.
(3) Baudolino, Daale, infiltrator,
Feb 19 2020, 17:56:08 Carpenter Brut - Leather Teeth (2018)


*Artist: Carpenter Brut
*Album: Leather Teeth
*Year: 2018
*Genre: Synthwave/Retrowave/Dark Synth
*Country: France
*Format: mp3@CBR320kbps
*Size: 79MB

Tracklist:
01. Leather Teeth 03:53
02. Cheerleader Effect (feat. Kristoffer Rygg) 03:38
03. Sunday Lunch 03:15
04. Monday Hunt 02:56
05. Inferno Galore 03:49
06. Beware The Beast (feat. Mat McNerney) 03:46
07. Hairspray Hurricane 05:32
08. End Titles 05:23
******************************
Total playing time: 32:12



[more=Technical info]
Input File: 01 - Leather Teeth.mp3
Channels : 2
Sample Rate : 44100
Precision : 16-bit
Duration : 00:03:53.03 = 10276535 samples = 17477.1 CDDA sectors
File Size : 9.32M
Bit Rate : 320k
Sample Encoding: MPEG audio (layer I, II or III)
Comments :
Title=Leather Teeth
Artist=Carpenter Brut
Album=Leather Teeth
Tracknumber=01
Year=2018
Genre=Synthwave/Retrowave/Dark Synth

[/more]

Register
(9) Brann, Daale, Dragonballz, FUDEDOR, gwar, infiltrator, Olethros, plfan93, xska,
Feb 19 2020, 17:49:11 Sigillum S - Astronomic Horror (2016)


*Artist: Sigillum S
*Album: Astronomic Horror
*Year: 2016
*Genre: Industrial/Dark Ambient/Noise/Experimental
*Country: Italy
*Format: mp3@CBR320kbps
*Size: 87MB

Tracklist:
01. Flawless Brothels Behind Fake Moon Crust 03:34
02. Illogical Punishment From Universal Laws 04:05
03. Do They Reap Dissected Bodies On Aborted Space Missions 02:59
04. A Liquefied Craft Crossing Occult Land Among Dimensions 03:39
05. Resonating On Black Death Teeth 04:35
06. Angels Burning Wings On Mercury's White Side 04:44
07. Erogenous Vacuum In Heretic Sciences 04:08
08. Pathological Particles Through Infected Planets 03:36
09. Re-Arranged Futures And Geography From Exploded Systems 02:52
10. Inorganica Suprema 02:52
******************************
Total playing time: 37:05

[more=Technical info]
Input File: 02 - Illogical Punishment From Universal Laws.mp3
Channels : 2
Sample Rate : 48000
Precision : 16-bit
Duration : 00:04:05.33 = 11775888 samples ~ 18399.8 CDDA sectors
File Size : 9.95M
Bit Rate : 325k
Sample Encoding: MPEG audio (layer I, II or III)
Comments :
Title=Illogical Punishment From Universal Laws
Artist=Sigillum S
Album=Astronomic Horror
Tracknumber=02
Year=2016
Genre=Industrial/Dark Ambient/Noise/Experimental

[/more]

Register
(6) Angry_Chair, FUDEDOR, Hell_Is_Here, infiltrator, Olethros, Ostinato,
Feb 18 2020, 22:21:04 Sigillum S - The Irresistible Art Of Space Colonization And Its Mutation Implications (2018)


*Artist: Sigillum S
*Album: The Irresistible Art Of Space Colonization And Its Mutation Implications
*Year: 2018
*Genre: Industrial/Electronic/Dark Ambient/Experimental
*Country: Italy
*Format: mp3@CBR320kbps
*Size: 111MB

Tracklist:
01. Occult Storage For Pan-Dronic Glossalia 04:05
02. Wrong Proto - Matter Gravitation 04:56
03. Genetically-Engineered Insects 06:46
04. When Comets Become Organic Households 04:36
05. Through The Endless Streams Of Satellite Euphoria 07:27
06. Immortality 04:26
07. Deep Void Plantations 04:33
08. Let Ghosts And Floating Bodies Invade You 03:28
09. Celestial Heliocentric Cultures 07:41
******************************
Total playing time: 47:58



[more=Extended info]Крайний альбом заслуженного итальянского индустриального коллектива. В составе многостаночник Eraldo Bernocchi (SIMM, Equations Of Eternity, Ashes, Metallic Taste Of Blood, Obake, Black Engine, etc.).[/more]

[more=Technical info]
Input File: 02 - Wrong Proto - Matter Gravitation.mp3
Channels : 2
Sample Rate : 44100
Precision : 16-bit
Duration : 00:04:56.42 = 13072078 samples = 22231.4 CDDA sectors
File Size : 11.9M
Bit Rate : 320k
Sample Encoding: MPEG audio (layer I, II or III)
Comments :
Title=Wrong Proto - Matter Gravitation
Artist=Sigillum S
Album=The Irresistible Art Of Space Colonization And Its Mutation Implications
Tracknumber=02
Year=2018
Genre=Industrial/Electronic/Dark Ambient/Experimental

[/more]

Register
(9) Angry_Chair, Boozer, FUDEDOR, Hell_Is_Here, Infidel, infiltrator, Olethros, popen13, thenecromancer,
Feb 17 2020, 20:13:24 Vatican Shadow - American Flesh For Violence (2019)


*Artist: Vatican Shadow
*Album: American Flesh For Violence
*Year: 2019
*Genre: Techno/Industrial/Experimental
*Country: United States
*Format: mp3@CBR320kbps
*Size: 138MB

Tracklist:
01. The Base In The Land Of The Two Rivers (Al Farooq) 05:43
02. Hardened Garage (The Have And Have Nots) 04:41
03. Inherit The Ruins 05:03
04. Desert Father (Return To Desert Storm) 06:07
05. Peace Means Violence 03:55
06. They Always Fight The Last War 03:57
07. Unknown To The Peacock The Serpent And Scorpion Conspire (Alessandro Cortini Remix) 05:06
08. Take Vows (Ancient Methods Remix) 05:12
09. The House Of The Followers (JK Flesh) 05:41
10. Jordanian Descent (Sharia Law) (CUB Remix) 14:38
******************************
Total playing time: 1:00:04



[more=Extended info]As part of the series of the 9th anniversary of the project arrives "American Flesh For Violence", featuring both moody and dense unreleased tracks from the archives as well as a companion of remixes throughout the projects history featuring: Alessandro Cortini, Ancient Methods, CUB, and JK Flesh.[/more]

[more=Technical info]
Input File: 01 - The Base In The Land Of The Two Rivers (Al Farooq).mp3
Channels : 2
Sample Rate : 44100
Precision : 16-bit
Duration : 00:05:43.51 = 15148615 samples = 25763 CDDA sectors
File Size : 13.9M
Bit Rate : 324k
Sample Encoding: MPEG audio (layer I, II or III)
Comments :
Title=The Base In The Land Of The Two Rivers (Al Farooq)
Artist=Vatican Shadow
Album=American Flesh For Violence
Tracknumber=01
Year=2019
Genre=Techno/Industrial/Experimental

[/more]

Register
(9) abob, Angry_Chair, Der_Hexer, FUDEDOR, Infidel, infiltrator, Olethros, popen13, xska,
Feb 15 2020, 00:10:43 Ulver - Russian Doll [single] (2020)


*Artist: Ulver
*Album: Russian Doll [single]
*Year: 2020
*Genre: Synthpop
*Country: Norway
*Format: mp3@CBR320kbps
*Size: 9MB

Tracklist:
01. Russian Doll 03:57
******************************
Total playing time: 3:57



[more=Technical info]
Input File: 01 - Russian Doll.mp3
Channels : 2
Sample Rate : 44100
Precision : 16-bit
Duration : 00:03:57.08 = 10455096 samples = 17780.8 CDDA sectors
File Size : 9.51M
Bit Rate : 321k
Sample Encoding: MPEG audio (layer I, II or III)
Comments :
Title=Russian Doll
Artist=Ulver
Album=Russian Doll (single)
Tracknumber=01
Year=2020
Genre=Synthpop

[/more]

Register
(21) Aresson, atom72, DarkYantar, EvgeniusLongus, FUDEDOR, garml2, gena, Grev, gwar, hellbibber, Hell_Is_Here, helvetestoner, infiltrator, mad, nadin85, Olethros, Stutthof, Sylvi, Thunderbird, wtk.412, xska,
Feb 14 2020, 21:12:21 300 000 V.K. - Peter Paradox (2019)


*Artist: 300 000 V.K.
*Album: Peter Paradox
*Year: 2019
*Genre: Industrial/Electronic/Experimental
*Country: Slovenia
*Format: mp3@CBR320kbps
*Size: 98MB

Tracklist:
01. Das Schöne, Das Gute, Das Wahre 03:20
02. Paradosso Misterioso 04:30
03. S+C 06:19
04. La Consolazione 04:33
05. Smisel 05:36
06. Carnales Nihilismus 04:07
07. Zona Erogena 03:26
08. Beyond Death 05:47
09. Dobro 04:50
******************************
Total playing time: 42:29



[more=Extended info]Новый альбом проекта Dejan Knez, бывшего участника Laibach, первый после 14-летнего перерыва. В отличие от предыдущих записей, местами как раз Laibach и напоминает.[/more]

[more=Technical info]
Input File: 02 - Paradosso Misterioso.mp3
Channels : 2
Sample Rate : 44100
Precision : 16-bit
Duration : 00:04:30.25 = 11918201 samples = 20269 CDDA sectors
File Size : 10.8M
Bit Rate : 320k
Sample Encoding: MPEG audio (layer I, II or III)
Comments :
Title=Paradosso Misterioso
Artist=300 000 V.K.
Album=Peter Paradox
Tracknumber=02
Year=2019
Genre=Industrial/Electronic

[/more]

Register
(7) infiltrator, lucifix, Olethros, popen13, Stutthof, Wolfera, wtk.412,

5 Pages V   1 2 3 > » 
- Lo-Fi Version Support form
Copyrights and abuse reports form
Time is now: 30th March 2020 - 05:33:16