Welcome Guest ( Log In | Register )

История благодарностей участнику as71 ::: Спасибо сказали: 798 раз(а)
Дата поста: В теме: За сообщение: Спасибо сказали:
May 16 2020, 10:09:06 Dust To Dearth & Lysergene - The Death Of The Sun [split] (2010)


*Artist: Dust To Dearth & Lysergene
*Album: The Death Of The Sun [split]
*Year: 2010
*Genre: Dark Ambient/Industrial | Dark Ambient
*Country: Australia | United Kingdom
*Format: mp3@CBR320kbps
*Size: 159MB

Tracklist:
Dust To Dearth:
1. The Death Of The Sun 08:04
2. Winter 11:22
3. It Is Dark 06:03
4. Dearth 03:43
5. The Last 11:10
Lysergene:
6. Mourning Sun 07:41
7. Nebula 07:14
8. Black Whole 15:03
******************************
Total playing time: 1:10:19

[more=Extended info]Dust To Dearth: Mandy Murkrat (The Slow Death, Crone)
Lysergene: Gordon Bicknell (Esoteric)[/more]

[more=Technical info]
Input File: 01 - Dust To Dearth - The Death Of The Sun.mp3
Channels : 2
Sample Rate : 44100
Precision : 16-bit
Duration : 00:08:03.79 = 21335183 samples = 36284.3 CDDA sectors
File Size : 19.4M
Bit Rate : 320k
Sample Encoding: MPEG audio (layer I, II or III)
Comments :
Title=Dust To Dearth: The Death Of The Sun
Artist=Dust To Dearth/Lysergene
Album=The Death Of The Sun (split)
Tracknumber=01
Year=2010
Genre=Dark Ambient/Industrial

[/more]

Register
(6) gena, Hell_Is_Here, infiltrator, Lanceatum, Rodin, sethurius,
May 15 2020, 21:01:29 Einstürzende Neubauten - Alles In Allem (Deluxe Edition) (2020)


*Artist: Einstürzende Neubauten
*Album: Alles In Allem (Deluxe Edition)
*Year: 2020
*Genre: Industrial/Experimental
*Country: Germany
*Format: mp3@CBR320kbps
*Size: 170MB

Tracklist:
CD1:
01. Ten Grand Goldie 05:21
02. Am Landwehrkanal 03:03
03. Möbliertes Lied 04:30
04. Zivilisatorisches Missgeschick 04:02
05. Taschen 04:43
06. Seven Screws 03:55
07. Alles In Allem 04:18
08. Grazer Damm 06:27
09. Wedding 04:26
10. Tempelhof 03:22

CD2 (Phase IV: Additional Tracks & Alternative Versions):
01. Si Takka Lumi 04:50
02. Zuckerstimme 03:48
03. Grazer Damm (Version Mit Streichern) 06:28
04. Wedding Dress (First Vocal) 03:41
05. La Guillotine De Magritte 03:43
06. Zivilisatorisches Missgesch (Coda Version) 04:34
07. Count Into Existence 01:33
******************************
Total playing time: 1:12:44



[more=Technical info]
Input File: 01 - Ten Grand Goldie.mp3
Channels : 2
Sample Rate : 48000
Precision : 16-bit
Duration : 00:05:21.22 = 15418512 samples ~ 24091.4 CDDA sectors
File Size : 12.9M
Bit Rate : 321k
Sample Encoding: MPEG audio (layer I, II or III)
Comments :
Title=Ten Grand Goldie
Artist=Einstürzende Neubauten
Album=Alles In Allem
Tracknumber=01
Year=2020
Genre=Industrial/Experimental

[/more]

Register
(17) Angmar, Boozer, Branis, dma-09, garmonbozia, gwar, Hell_Is_Here, infiltrator, ji-ji, judaz, LazarShadow, metaljosue, mirotvorets, oldvarg, Olethros, plugawy, Sjelekval,
May 13 2020, 14:49:09 Шесть Мёртвых Болгар - Типы Архангельской Губернии (2010)
ЦИТАТА(atom72 @ 13th May 2020 - 15:54:07) *
as71, я ничего плохого о Cyclotimia не могу сказать кроме разве что того что мне не хватает шумности и агрессивности в их звучании как у Sal Solaris и Reutoff, поэтому наверное я совсем нейтрален к этому проекту, если бы ты про него не вспомнил, я наверное из своей памяти это название никогда бы не выудил, хотя я слышал их Celestis.

У них есть совсем разные альбомы и Celestis явно нельзя назвать показательным. Лучше послушать Wastelend или E$chaton, шумности не обещаю, но они точно отличаются от Celestis в сторону если не агрессивности, то уж точно гораздо большей депрессивности, что для меня плюс.
(1) atom72,
May 7 2020, 09:26:10 Lysergene - Critical Mass (2008)
Очень хороший альбом, давно имеется. Если кто не слышал, то рекомендую заценить этот проект гитариста/клавишника Esoteric.
(4) atom72, infiltrator, mirotvorets, sethurius,
Apr 30 2020, 18:36:30 Nikola Cvetkovic - Nikola Cvetkovic Plays Katatonia (Vol. 2) | Piano Works (2020)


*Artist: Nikola Cvetkovic
*Album: Nikola Cvetkovic Plays Katatonia (Vol. 2) | Piano Works
*Year: 2020
*Genre: Modern Classical
*Country: Serbia
*Format: mp3@CBR320kbps
*Size: 150MB

Tracklist:
01. For My Demons (Tonight's Decision) 06:53
02. Liberation (Night Is The New Day) 04:07
03. Chrome (Last Fair Deal Gone Down) 04:56
04. Day (Brave Murder Day) 04:31
05. Soil's Song (The Great Cold Distance) 04:12
06. One Year From Now (Viva Emptiness) 03:52
07. Quiet World (Discouraged Ones) 04:39
08. Right Into The Bliss (Tonight's Decision) 04:58
09. Undo You (Dead End Kings) 04:43
10. Lachesis (City Burials) 01:47
11. Murder (Brave Murder Day) 04:32
12. Shifts (The Fall Of Hearts) 05:07
13. Teargas (Last Fair Deal Gone Down) 03:21
14. Untrodden (City Burials) 04:25
15. Elohim Meth (Dance Of December Souls) 01:53
******************************
Total playing time: 1:03:57



[more=Technical info]
Input File: 02 - Liberation (Night Is The New Day).mp3
Channels : 2
Sample Rate : 44100
Precision : 16-bit
Duration : 00:04:07.47 = 10913603 samples = 18560.5 CDDA sectors
File Size : 9.96M
Bit Rate : 322k
Sample Encoding: MPEG audio (layer I, II or III)
Comments :
Title=Liberation (Night Is The New Day)
Artist=Nikola Cvetkovic
Album=Nikola Cvetkovic Plays Katatonia (Vol. 2) | Piano Works
Tracknumber=02
Year=2020
Genre=Modern Classical

[/more]

Register
(9) Dragonballz, dunkelvarg, Flowergatherer, garml2, gena, KKK1488, Kowalewski909, Olethros, popen13,
Apr 25 2020, 23:10:22 Jaga Jazzist - Pyramid (2020)
ЦИТАТА(atom72 @ 25th April 2020 - 23:56:36) *
превращение в бюджетную копию 30 секунд до марса это слишком для таких музыкантов

30 секунд до Марса не слышал и не собираюсь, а к последнему альбом Шайнинга отношение у меня в целом положительное, если ты о нем. Хотя у Шайнинга и разные другие альбомы есть. Но это неважно, я ж его просто как известную в определенных кругах личность упомянул. А сабжу-то как оказалось даже не 20 лет, а целых 26!
(1) gena,
Apr 25 2020, 15:33:10 Jaga Jazzist - Pyramid (2020)
ЦИТАТА(atom72 @ 25th April 2020 - 13:57:38) *
Это скорее приджазованный электронный лаунж.

В принципе, так оно и есть. Приятная, легко слушающаяся смесь джаза и электронной музыки, я давно не слушал их альбомы и этот после перерыва прямо хорошо зашел. А узнал я об этой группе уже давно и совершенно случайно: на альбоме-сборнике переделок ульверовских вещей 1993-2003: 1st Decade In The Machines присутствовала композиция в исполнении некого Martin Horntveth, которая мне зело понравилась, и этот человек оказался барабанщиком Jaga Jazzist. Вообще группе лет 20 уже есть, в составе 8 человек, а уж сколько там народу засветилось... среди них, кстати, есть еще одно знакомое имя - Jorgen Munkeby, который из норвежского Shining.
(2) Ghostb, infiltrator,
Apr 24 2020, 17:40:26 Katatonia - City Burials (2020)
А вот и окончательный вариант - CD-рип (320) с лимитированного издания с двумя бонусами Closing Of The Sky и Fighters.
Register
(31) Aresson, BERZERK, BleedingSun, Buregon, Demonologist, dm_372761, Evjenne, Femto, Flowergatherer, garmonbozia, Ghostb, Hell_Is_Here, Jester, kimkayoung, Kodel, kupiszcze, leks, Metalass, metaljosue, nadin85, Old Vyaine, Painkiller, quicksand, SAPOGi, satanist666, Shadechaser, Shub, smes, supremo, trabantfan, yuratroll,
Apr 24 2020, 11:30:26 Jaga Jazzist - Pyramid (2020)


*Artist: Jaga Jazzist
*Album: Pyramid
*Year: 2020
*Genre: Jazz/Electronic
*Country: Norway
*Format: mp3@CBR320kbps
*Size: 92MB

Tracklist:
01. Tomita 13:47
02. Spiral Era 08:09
03. The Shrine 09:07
04. Apex 08:09
******************************
Total playing time: 39:13



[more=Extended info]Jaga Jazzist return with their new album “Pyramid” on 24 April 2020, where the legendary Norwegian eight-piece takes a deep dive into post-rock, jazz and psychedelia influences.[/more]

[more=Technical info]
Input File: 02 - Spiral Era.mp3
Channels : 2
Sample Rate : 44100
Precision : 16-bit
Duration : 00:08:09.49 = 21586333 samples = 36711.5 CDDA sectors
File Size : 19.6M
Bit Rate : 321k
Sample Encoding: MPEG audio (layer I, II or III)
Comments :
Title=Spiral Era
Artist=Jaga Jazzist
Album=Pyramid
Tracknumber=02
Year=2020
Genre=Jazz/Electronic

[/more]

Register
(13) BlackTroll, demogogron, dma-09, Forest, garmonbozia, gena, gwar, infiltrator, kimkayoung, Occultas, xska, yuratroll, скептик,
Apr 23 2020, 13:55:37 Katatonia - City Burials (2020)
320 from FLAC (with bonus track "Fighters")
Register
(11) 6666666, Aresson, BleedingSun, Buregon, cancer1974, Ghostb, kimkayoung, mardak666, metaljosue, Moonlover, ripper33,
Apr 10 2020, 20:30:35 Prurient - Casablanca Flamethrower (2020)
Рип с бэндкамповского флака (mp3@320):
Register
(3) Ghostb, kimkayoung, LazarShadow,
Apr 8 2020, 19:09:26 Чудодейственные свойства гомеопатии, или Голосовалка за лучший альбом 2019 года, Тур 2, Плэй-офф
ЦИТАТА(Old Vyaine @ 8th April 2020 - 20:34:45) *
QUOTE(as71 @ 8th April 2020 - 20:32:50) *
Borknagar - True North -2


Серьёзно? Аж кушать не можешь?

Вполне серьёзно, какие уж тут шутки. Кушать-то я могу, а вот тов. Фо выше все очень хорошо расписал по поводу этой супергруппы вообще, и данного конкретного альбома в частности; полностью с ним солидарен.
(2) infiltrator, Фо,
Apr 5 2020, 20:04:46 Scorn - Live In Nijdrop, Opwijk, Belgium 1994 [bootleg] (1994)


*Artist: Scorn
*Album: Live In Nijdrop, Opwijk, Belgium 1994 [bootleg]
*Year: 1994
*Genre: Industrial/Ambient Dub/Illbient
*Country: United Kingdom
*Format: mp3@CBR320kbps
*Size: 127MB

Tracklist:
01. Intro 02:30
02. Silver Rain Fell 07:41
03. Light Trap 06:23
04. Scorpionic 04:25
05. Interlude 1 03:50
06. Dreamspace 08:10
07. Exodus 07:58
08. Night Tide 05:23
09. Interlude 2 03:32
10. Almost Human 08:36
******************************
Total playing time: 58:28

[more=Extended info]Mick Harris, Nick Bullen, James Plotkin[/more]

[more=Technical info]
Input File: 04 - Scorpionic.mp3
Channels : 1
Sample Rate : 44100
Precision : 16-bit
Duration : 00:04:25.34 = 11701626 samples = 19900.7 CDDA sectors
File Size : 10.6M
Bit Rate : 320k
Sample Encoding: MPEG audio (layer I, II or III)
Comments :
Title=Scorpionic
Artist=Scorn
Album=Live In Nijdrop, Opwijk, Belgium 1994
Tracknumber=04
Year=1994
Genre=Industrial/Ambient Dub/Illbient

[/more]

Register
(7) FUDEDOR, Hell_Is_Here, infiltrator, Olethros, Sanctus, thenecromancer, Torolv,
Apr 4 2020, 14:39:09 Prurient - Casablanca Flamethrower (2020)


*Artist: Prurient
*Album: Casablanca Flamethrower
*Year: 2020
*Genre: Industrial/Noise/Power Electronics/Experimental
*Country: United States
*Format: mp3@VBR227kbps
*Size: 124MB

Tracklist:
01. Black Iceberg 05:05
02. Peace And Bread Humiliation 02:39
03. D-Day Rape 07:58
04. Normandy Reaper - Now On The Atlantic 04:21
05. Fucked By Tracers 04:58
06. Beneath The Wheels Of The Black Raven 06:34
07. Most Cannibals Were Women 06:12
08. Dead You Are Already 05:10
09. Corn Cop Pipe Butcher 05:02
10. Guadalcanal Necrophilia 03:00
11. The Thrust Of The Spear 09:02
12. Sphere From Christ's Side 05:19
13. Directionless World 09:48
******************************
Total playing time: 1:15:07



[more=Technical info]
Input File: 09 - Corn Cop Pipe Butcher.mp3
Channels : 2
Sample Rate : 44100
Precision : 16-bit
Duration : 00:05:02.24 = 13328608 samples = 22667.7 CDDA sectors
File Size : 9.36M
Bit Rate : 248k
Sample Encoding: MPEG audio (layer I, II or III)
Comments :
Title=Corn Cop Pipe Butcher
Artist=Prurient
Album=Casablanca Flamethrower
Tracknumber=09
Year=2020
Genre=Industrial/Noise/Power Electronics/Experimental

[/more]

Register
(11) abob, Angry_Chair, atom72, Belial73, DJAHAN, FUDEDOR, Haunting, Infidel, infiltrator, Olethros, POMAHOB,
Mar 26 2020, 08:35:13 My Dying Bride - The Ghost Of Orion (2020)
ЦИТАТА(BrutalHero @ 25th March 2020 - 22:14:43) *
Хз, в 90-е группа была ярко выраженным вторым эшелоном, на фоне Парадасов так вообще не угадывалась, это помимо огромного количества культовых групп, записавших ну пару эпих например... Если их знать и прослушать... На их фоне Невеста как-то не угадывается и попросту не нужна. Сегодня слушал Энигматик, например, они явно лучше в разы.

Извини, конечно, но это полный бред. Как раз-таки в самом начале 90-х из британских групп именно четверка Paradise Lost/My Dying Bride/Anathema/Cathedral (91-й год) и была самым что ни на есть первым эшелоном дум/дэта, первее просто некуда.
(9) 6666666, Alexis The Best, Deze, Emm Human, Faust_Vulkan_16, Lux, mirotvorets, paganheart, Язва,
Mar 23 2020, 17:53:18 Various Artists - Entombed Left Hand Path: The Cvlt Nation Sessions [compilation] (2020)


*Artist: Various Artists
*Album: Entombed Left Hand Path: The Cvlt Nation Sessions [compilation]
*Year: 2020
*Genre: Death Metal
*Country: Many
*Format: mp3@CBR320kbps
*Size: 100MB

Tracklist:
01. Cruor Vexillum - Left Hand Path 07:53
02. Disburial - Drowned 04:44
03. Muscipula - Revel In Flesh 03:51
04. Whipstriker - When Life Has Ceased 04:02
05. Neolithic - Supposed To Rot 01:58
06. Grave Infestation - But Life Goes On 03:13
07. Insineratehymn - Bitter Loss 04:09
08. Frozen Soul - Morbid Devourment 05:06
09. Pigs Blood - Abnormally Deceased 03:04
10. Grinding Fear - The Truth Beyond 03:30
******************************
Total playing time: 41:30



[more=Technical info]
Input File: 03 - Muscipula - Revel In Flesh.mp3
Channels : 2
Sample Rate : 44100
Precision : 16-bit
Duration : 00:03:50.81 = 10178589 samples = 17310.5 CDDA sectors
File Size : 9.48M
Bit Rate : 329k
Sample Encoding: MPEG audio (layer I, II or III)
Comments :
Title=Muscipula: Revel In Flesh
Artist=Compilation
Album=ENTOMBED Left Hand Path: The CVLT Nation Sessions
Tracknumber=03
Year=2020
Genre=Death Metal

[/more]

Register
(15) chipsgott, cist, craP_cillA, Hell_Is_Here, infiltrator, Leshiy666, marilin, morbidangelo, Ostinato, popen13, SadistikSlayer, VALERY, varlam4, wanderer73, wolverine,
Mar 23 2020, 17:14:28 Khost - Buried Steel (2020)


*Artist: Khost
*Album: Buried Steel
*Year: 2020
*Genre: Industrial Metal
*Country: United Kingdom
*Format: mp3@CBR320kbps
*Size: 122MB

Tracklist:
01. We Will Win 04:06
02. Blood Gutters 6x4x1 04:48
03. Intravener 02:58
04. Yellow Light 01:54
05. Last Furnace 05:34
06. Night Air 04:08
07. Judgement Is Infallible 01:48
08. Kent House 01:17
09. December Bureau 05:27
10. Vandals 01:58
11. Dog Unit 04:14
12. Two 01:19
13. A Non Temporal Crawlspace 04:18
14. Intravener In Dub (Mothboy Remix) 08:123
******************************
Total playing time: 52:02



[more=Technical info]
Input File: 01 - We Will Win.mp3
Channels : 2
Sample Rate : 44100
Precision : 16-bit
Duration : 00:04:06.48 = 10869856 samples = 18486.1 CDDA sectors
File Size : 9.91M
Bit Rate : 322k
Sample Encoding: MPEG audio (layer I, II or III)
Comments :
Title=We Will Win
Artist=Khost
Album=Buried Steel
Tracknumber=01
Year=2020
Genre=Industrial Metal

[/more]

Register
(7) atom72, Buregon, Deathconnect, gwar, Hell_Is_Here, infiltrator, Olethros,
Mar 3 2020, 18:49:07 Necessary - Voldsløkka (2010)


*Artist: Necessary
*Album: Voldsløkka
*Year: 2010
*Genre: Dub
*Country: Norway
*Format: mp3@CBR320kbps
*Size: 152MB

Tracklist:
01. Chinnamasta 09:32
02. Sov Godt 05:56
03. Grimm Og Gru 07:18
04. Peshawar 06:29
05. Voldsløkka 06:25
06. Syltetøy 08:17
07. Slukker Lyset 07:59
08. Helvete Ser På Deg 07:46
09. Lord B 09:30
******************************
Total playing time: 1:09:12



[more=Extended info]A large unit live dub group, Necessary come armed with former Swans/Prong/Godflesh drummer Ted Parsons, and Oslo musicians Matti Hansen, Markus O. Klyve, Andreas Mork, UK based DJ Tony F. Wilson, and Salvador Sanchez. The album's sonic imagery spans the globe, from Scandinavian jazz to distort bass dub to music inspired by faraway lands.

Musicians: Matti Hansen, Markus O. Klyve, Andreas Mork, Tony F. Wilson, Salvador Sanchez, Ted Parsons
Production, Arrangement, Mix: Justin K. Broadrick[/more]

[more=Technical info]
Input File: 01 - Chinnamasta.mp3
Channels : 2
Sample Rate : 44100
Precision : 16-bit
Duration : 00:09:32.51 = 25247603 samples = 42938.1 CDDA sectors
File Size : 22.9M
Bit Rate : 320k
Sample Encoding: MPEG audio (layer I, II or III)
Comments :
Title=Chinnamasta
Artist=Necessary
Album=Voldsløkka
Tracknumber=01
Year=2010
Genre=Dub

[/more]

Register
(7) A.L.Rapsod, Angry_Chair, cancer1974, FUDEDOR, infiltrator, Olethros, xska,
Mar 3 2020, 07:50:43 Intronaut - Fluid Existential Inversions (2020)
В целом впечатление от альбома положительное. Действительно, есть схожесть с The Ocean, и вокал местами раздражает, но тем не менее весьма приятственно и работа барабанщика замечательна. Попробую теперь предыдущий.
(1) Ghostb,
Feb 29 2020, 11:59:15 Atrium Carceri & Cities Last Broadcast & God Body Disconnect - Miles To Midnight [collaboration] (2018)


*Artist: Atrium Carceri & Cities Last Broadcast & God Body Disconnect
*Album: Miles To Midnight [collaboration]
*Year: 2018
*Genre: Dark Ambient/Dark Jazz | Dark Ambient/Dark Jazz | Dark Ambient/Dark Jazz
*Country: Sweden | Sweden | United States
*Format: mp3@CBR320kbps
*Size: 95MB

Tracklist:
01. Miles To Midnight 05:56
02. A Thousand Empty Rooms 06:20
03. Scene Of The Crime 05:04
04. Floor 6, Please 03:00
05. The Other Lobby 05:56
06. Sorry Sir, You Are In The Wrong Room 02:39
07. The Sleep Ensemble 05:21
08. Quiet Days On Earth 07:44
******************************
Total playing time: 42:00



[more=Extended info]Atrium Carceri, Cities Last Broadcast and God Body Disconnect collaborates on this foggy noir album.
Miles To Midnight is a dark jazz ambient album with a Lynchian noir feel: A hotel trapped between two worlds and a detective with a traumatized past.
God Body Disconnect's live jazz drums and cinematic wall-of-sound builds the foundation of the mysterious hotel. Cities Last Broadcast brings ghostly tape loops and melodies stuck in time. Atrium Carceri dusts off his old pianos and shatters reality with low bass rumbles and brings you into the other side of the hotel. For lovers of smokey soundtracks to unwritten movies.[/more]

[more=Technical info]
Input File: 01 - Miles To Midnight.mp3
Channels : 2
Sample Rate : 44100
Precision : 16-bit
Duration : 00:05:55.86 = 15693514 samples = 26689.6 CDDA sectors
File Size : 14.2M
Bit Rate : 320k
Sample Encoding: MPEG audio (layer I, II or III)
Comments :
Title=Miles To Midnight
Artist=Atrium Carceri, Cities Last Broadcast, God Body Disconnect
Album=Miles To Midnight
Tracknumber=01
Year=2018
Genre=Dark Ambient/Dark Jazz

[/more]

Register
(8) A.L.Rapsod, emogrinder, gena, Hell_Is_Here, infiltrator, recber, tOmV, wtk.412,
Feb 27 2020, 22:57:32 Flint Glass & Collapsar - Deus Irae [collaboration] (2015)


*Artist: Flint Glass & Collapsar
*Album: Deus Irae [collaboration]
*Year: 2015
*Genre: Dark Ambient/Industrial | Dark Ambient/Industrial
*Country: France | France
*Format: mp3@CBR320kbps
*Size: 173MB

Tracklist:
01. The Servants Of Wrath Part I 21:35
02. The Servants Of Wrath Part II 26:22
03. The Servants Of Wrath (Closed_Universe Mix by Spherical Disrupted) 07:10
04. The Servants Of Wrath (Deep Immersion Mix by Hologram_) 04:53
05. The Servants Of Wrath (Opening Of Wrath Mix by Sylvgheist Maëlström) 05:15
06. The Servants Of Wrath (The Anger Of The Gods Mix by Ah Cama-Sotz) 04:42
07. The Servants Of Wrath (Olden Wrath Of The Great Ones Mix by Iszoloscope) 06:18
******************************
Total playing time: 1:16:13



[more=Extended info]Dystopian futurist soundscapes meets cinematic collapsed drones. A mystical sensory journey into the depths of a post apocalyptic world, inspired by Philip K. Dick & R. Zelazny novel.[/more]

[more=Technical info]
Input File: 05 - The Servants Of Wrath (Opening Of Wrath Mix by Sylvgheist Maëlström).mp3
Channels : 2
Sample Rate : 44100
Precision : 16-bit
Duration : 00:05:14.59 = 13873287 samples = 23594 CDDA sectors
File Size : 12.8M
Bit Rate : 326k
Sample Encoding: MPEG audio (layer I, II or III)
Comments :
Title=The Servants Of Wrath (Opening Of Wrath Mix by Sylvgheist Maëlström)
Artist=Flint Glass & Collapsar
Album=Deus Irae
Tracknumber=05
Year=2015
Genre=Dark Ambient/Industrial/Experimental/IDM/Glitch

[/more]

Register
(7) A.L.Rapsod, Angry_Chair, FUDEDOR, gena, Hell_Is_Here, Indstrlfrppl, infiltrator,
Feb 26 2020, 18:01:00 Gutenberg - Unnecessary Bronze (2019)


*Artist: Gutenberg
*Album: Unnecessary Bronze
*Year: 2019
*Genre: Industrial/Illbient/Experimental
*Country: Japan
*Format: mp3@CBR320kbps
*Size: 138MB

Tracklist:
01. Black Cloak Oracle 04:58
02. Hydraulic Labor Force (Instrumental Version) 06:24
03. Guy's Kitchen 05:26
04. Cape Style 08:10
05. People, Singing Voice, Iron Pile 07:50
06. Inspired From Dje 05:29
07. Sky Layer 05:30
08. Vested Rights & Interests 06:38
09. Doze A Pace 09:41
******************************
Total playing time: 1:00:06



[more=Extended info]Gutenberg is the techno/industrial solo project of Shouji Sakurai. Hailing from Aichi, Japan, Gutenberg has the gift to turn clashing junk metal sounds, fat synthesized beats, fragile electronics and ambient drones into a dark all-encompassing circle of dense intoxication.[/more]

[more=Technical info]
Input File: 01 - Black Cloak Oracle.mp3
Channels : 2
Sample Rate : 44100
Precision : 16-bit
Duration : 00:04:58.00 = 13141712 samples = 22349.9 CDDA sectors
File Size : 11.9M
Bit Rate : 320k
Sample Encoding: MPEG audio (layer I, II or III)
Comments :
Title=Black Cloak Oracle
Artist=Gutenberg
Album=Unnecessary Bronze
Tracknumber=01
Year=2019
Genre=Industrial/Illbient/Experimental

[/more]

Register
(5) Angry_Chair, atom72, FUDEDOR, Olethros, spiritualdecay666,
Feb 26 2020, 17:53:52 Atomine Elektrine - The Antikythera Mechanism (2019)


*Artist: Atomine Elektrine
*Album: The Antikythera Mechanism
*Year: 2019
*Genre: Dark Ambient/Electronic
*Country: Sweden
*Format: mp3@CBR320kbps
*Size: 139MB

Tracklist:
01. Arcturus Alpha Boo 10:34
02. Metonic Spiral 10:02
03. The Exeligmos Pointer 09:37
04. Time Dislocated In The Mechanism 09:52
05. Epicylic Gearing 10:07
06. Fragment F 10:40
******************************
Total playing time: 1:00:52



[more=Technical info]
Input File: 01 - Arcturus Alpha Boo.mp3
Channels : 2
Sample Rate : 44100
Precision : 16-bit
Duration : 00:10:34.08 = 27963016 samples = 47556.1 CDDA sectors
File Size : 25.4M
Bit Rate : 320k
Sample Encoding: MPEG audio (layer I, II or III)
Comments :
Title=Arcturus Alpha Boo
Artist=Atomine Elektrine
Album=The Antikythera Mechanism
Tracknumber=01
Year=2019
Genre=Dark Ambient/Electronic

[/more]

Register
(11) A.L.Rapsod, Angry_Chair, Der_Hexer, gena, Hell_Is_Here, Infidel, Nadja, Occultas, spiritualdecay666, Un4given, wtk.412,
Feb 24 2020, 17:46:17 Bogus Blimp - Rdtr (2004)
Register
(2) infiltrator, KKK1488,
Feb 24 2020, 17:45:30 Bogus Blimp - Men-Mic (1999)
Register
(2) infiltrator, KKK1488,

5 Pages V   1 2 3 > » 
- Lo-Fi Version Support form
Copyrights and abuse reports form
Time is now: 10th July 2020 - 13:38:07