Welcome Guest ( Log In | Register )

История благодарностей участнику as71 ::: Спасибо сказали: 792 раз(а)
Дата поста: В теме: За сообщение: Спасибо сказали:
Jan 22 2020, 05:34:22 Oceansize - Effloresce (2003)
ЦИТАТА(Ghostb @ 22nd January 2020 - 02:58:48) *
Здесь и прогрессивные моменты имеются. Приятный диск, лучший у группы. Длинные треки ближе к концу особенно нравятся.

Всё так. Приобрел себе этот альбом и следующий, так тот вообще ни о чём, а этот очень понравился.
(2) Ghostb, infiltrator,
Jan 15 2020, 21:00:34 Distel - Wapens (2018)


*Artist: Distel
*Album: Wapens
*Year: 2018
*Genre: Industrial/Experimental/Angst Pop/Power Electronics
*Country: Netherlands
*Format: mp3@CBR320kbps
*Size: 102MB

Tracklist:
01. Alpha 03:57
02. Wapens 04:20
03. Majestik 03:18
04. Anima 04:17
05. Ultra 03:55
06. Creole 03:48
07. Adem 04:22
08. Nachtland 06:55
09. Maskers 03:44
10. Advent 05:28
******************************
Total playing time: 44:04




[more=Extended info]"...Мистическая шумовая электроника, базирующаяся на минималистичных структурах, приглушённый зловещий вокал, атмосфера чего-то необъяснимо тревожного, парадоксального и инопланетного. Проект примечателен тем, что избегая экстремальных приёмов в плане саунда и визуальной эстетики, создает уникальный психоделический образ, в котором чувствуется особенное, только самим авторам до конца понятное отчаяние. Их последний релиз "Wapens", изданный культовым немецким лейблом Ant-Zen, не стал исключением из общего правила; напротив, оригинальная сюрреал-стилистика, присутствовавшая на предыдущих альбомах, в контексте актуального материала оказалась отшлифована до блеска, если так можно говорить о жанре ангст-поп..."

Из ближайших ориентиров, наверное, Haus Arafna.[/more]

[more=Technical info]
Input File: 01 - Alpha.mp3
Channels : 2
Sample Rate : 44100
Precision : 16-bit
Duration : 00:03:57.65 = 10480453 samples = 17823.9 CDDA sectors
File Size : 9.51M
Bit Rate : 320k
Sample Encoding: MPEG audio (layer I, II or III)
Comments :
Title=Alpha
Artist=Distel
Album=Wapens
Tracknumber=01
Year=2018
Genre=Industrial/Experimental/Angst Pop/Power Electronics

[/more]

Register
(6) Angry_Chair, DJAHAN, garmonbozia, infiltrator, Olethros, sludge666,
Jan 14 2020, 19:22:15 Neutral - The World Of Disbelief (2019)


*Artist: Neutral
*Album: The World Of Disbelief
*Year: 2019
*Genre: Dark Folk
*Country: Russian Federation
*Format: mp3@VBR261kbps
*Size: 82MB

Tracklist:
01. The World Of Disbelief 05:50
02. Ghost Of All Wars 03:58
03. In The Wastelands Of Mine 04:43
04. Carvings In Stone 05:53
05. Beyond The Emptiness (Playroom II) 05:19
06. Bury 04:44
07. Unholy Day 06:08
08. When The Story Ends 05:57
******************************
Total playing time: 42:33



[more=Extended info]Не очень много альбомов слушал в данном стиле, а понравилось так и совсем мало что, но вот этот недавно прослушанный альбом как-то сразу зацепил.[/more]

[more=Technical info]
Input File: 01 - The World Of Disbelief.mp3
Channels : 2
Sample Rate : 44100
Precision : 16-bit
Duration : 00:05:50.43 = 15454051 samples = 26282.4 CDDA sectors
File Size : 11.4M
Bit Rate : 261k
Sample Encoding: MPEG audio (layer I, II or III)
Comments :
Title=The World Of Disbelief
Artist=Neutral
Album=The World Of Disbelief
Tracknumber=01
Year=2019
Genre=Dark Folk

[/more]

Register
(11) A.L.Rapsod, atom72, Cartman223, Druidir, gwar, infiltrator, lucifix, MAYH, oldvarg, Olethros, tOmV,
Jan 12 2020, 18:41:36 Oceansize - Effloresce (2003)


*Artist: Oceansize
*Album: Effloresce
*Year: 2003
*Genre: Alternative Rock
*Country: United Kingdom
*Format: mp3@CBR320kbps
*Size: 173MB

Tracklist:
01. I Am The Morning 04:18
02. Catalyst 06:40
03. One Day All This Could Be Yours 04:20
04. Massive Bereavement 09:59
05. Rinsed 03:58
06. You Wish 06:00
07. Remember Where You Are 05:22
08. Amputee 05:33
09. Unravel 02:50
10. Women Who Love Men Who Love Drugs 08:30
11. Saturday Morning Breakfast Show 09:04
12. Long Forgotten 08:58
******************************
Total playing time: 1:15:32



[more=Extended info]Не знаю, как правильно определить стиль, в котором играет группа, есть и весьма тяжелые фрагменты, а местами похоже на пост-рок... пусть будет альтернативный рок. Альбом отличный.[/more]

[more=Technical info]
Input File: 02 - Catalyst.mp3
Channels : 2
Sample Rate : 44100
Precision : 16-bit
Duration : 00:06:40.12 = 17645116 samples = 30008.7 CDDA sectors
File Size : 16.0M
Bit Rate : 320k
Sample Encoding: MPEG audio (layer I, II or III)
Comments :
Title=Catalyst
Artist=Oceansize
Album=Effloresce (Russian edition)
Tracknumber=02
Year=2003
Genre=Alternative Rock

[/more]

Register
(3) Ghostb, infiltrator, Olethros,
Jan 12 2020, 17:37:01 Depressor - Burn The Illusion [demo] (1996)
Спасибо за наводку, по ссылке на бэндкампе качнул альбом и сборник. Люблю такие окологодфлешевские вещи, а вот этой команды не знал.
(2) infiltrator, Proteus_666,
Jan 12 2020, 17:24:30 Nordvargr - Daath (2019)


*Artist: Nordvargr
*Album: Daath
*Year: 2019
*Genre: Industrial/Dark Ambient
*Country: Sweden
*Format: mp3@CBR320kbps
*Size: 85MB

Tracklist:
01. Inner Monarch Awakened 02:40
02. The Horsemen Ride Out On Foaming Steeds 04:41
03. Tabernakelvisa - The Redeemer And The Secret 03:49
04. Death Closes The Gates Of Time And Opens Those Of Eternity 04:38
05. Invocation Of The Unseen 04:20
06. As King, As Queen - When Kingdom Collide 05:13
07. The Light Of The Lord And The Black Sun Behind The Sun 06:16
08. Where There Is Word There Is Enlightenment 05:25
******************************
Total playing time: 37:01



[more=Technical info]
Input File: 02 - The Horsemen Ride Out On Foaming Steeds.mp3
Channels : 2
Sample Rate : 44100
Precision : 16-bit
Duration : 00:04:40.73 = 12380193 samples = 21054.8 CDDA sectors
File Size : 12.6M
Bit Rate : 360k
Sample Encoding: MPEG audio (layer I, II or III)
Comments :
Title=The Horsemen Ride Out On Foaming Steeds
Artist=Nordvargr
Album=Daath
Tracknumber=02
Year=2019
Genre=Industrial/Dark Ambient

[/more]

Register
(17) doomTemplar, emogrinder, FUDEDOR, gena, Infidel, infiltrator, LazarShadow, mirotvorets, NOMIDIMON, Olethros, RUSP73, sethurius, stone88, thenecromancer, tOmV, wolverine, wtk.412,
Jan 11 2020, 20:04:34 Aural Blasphemy - Catharsis (2000)


*Artist: Aural Blasphemy
*Album: Catharsis
*Year: 2000
*Genre: Rhythmic Noise/Industrial
*Country: United States
*Format: mp3@CBR320kbps
*Size: 133MB

Tracklist:
01. Nucleus 05:20
02. Iconoclast 06:16
03. Crisis 04:13
04. Sonomech V2 04:53
05. Prolapse 03:12
06. Sledge 04:40
07. Descent 03:10
08. Movement 05:57
09. Transcend 05:37
10. Betrayal 05:41
11. Schiz 04:46
12. Suffocation 03:43
******************************
Total playing time: 57:28



[more=Technical info]
Input File: 03 - Crisis.mp3
Channels : 2
Sample Rate : 44100
Precision : 16-bit
Duration : 00:04:13.22 = 11167090 samples = 18991.6 CDDA sectors
File Size : 10.1M
Bit Rate : 320k
Sample Encoding: MPEG audio (layer I, II or III)
Comments :
Title=Crisis
Artist=Aural Blasphemy
Album=Catharsis
Tracknumber=03
Year=2000
Genre=Rhythmic Noise/Industrial

[/more]

Register
(6) A.L.Rapsod, FUDEDOR, Hell_Is_Here, infiltrator, Olethros, volostakoeto,
Jan 11 2020, 19:49:19 Quoit - Properties (2001)


*Artist: Quoit
*Album: Properties
*Year: 2001
*Genre: Drum & Bass/Industrial
*Country: United Kingdom
*Format: mp3@CBR320kbps
*Size: 121MB

Tracklist:
01. Going After 07:26
02. Clang 07:32
03. Cells 07:38
04. Trek 06:34
05. Close Season 09:10
06. Detour 07:23
07. Lurker 07:01
******************************
Total playing time: 52:44



[more=Extended info]2-й альбом проекта Мика Харриса[/more]

[more=Technical info]
Input File: 01 - Going After.mp3
Channels : 2
Sample Rate : 44100
Precision : 16-bit
Duration : 00:07:25.73 = 19656649 samples = 33429.7 CDDA sectors
File Size : 17.8M
Bit Rate : 320k
Sample Encoding: MPEG audio (layer I, II or III)
Comments :
Title=Going After
Artist=Quoit
Album=Properties
Tracknumber=01
Year=2001
Genre=Drum & Bass/Industrial

[/more]

Register
(6) Branis, DJAHAN, FUDEDOR, gwar, Infidel, infiltrator,
Jan 11 2020, 12:15:38 Quoit - Lounge (1996)


*Artist: Quoit
*Album: Lounge
*Year: 1996
*Genre: Drum & Bass/Illbient/Industrial
*Country: United Kingdom
*Format: mp3@CBR320kbps
*Size: 130MB

Tracklist:
01. Phoner 07:04
02. Chase 07:11
03. Wandering 08:24
04. That Way 07:02
05. Stranger 05:38
06. Set Up 05:47
07. Habit 08:27
08. Last Exit 07:42
******************************
Total playing time: 57:16



[more=Extended info]Еще один из проектов Мика Харриса, на этот раз драм'н'бэйсовой направленности.[/more]

[more=Technical info]
Input File: 01 - Phoner.mp3
Channels : 2
Sample Rate : 44100
Precision : 16-bit
Duration : 00:07:04.12 = 18703868 samples = 31809.3 CDDA sectors
File Size : 17.0M
Bit Rate : 320k
Sample Encoding: MPEG audio (layer I, II or III)
Comments :
Title=Phoner
Artist=Quoit
Album=Lounge
Tracknumber=01
Year=1996
Genre=Industrial/Illbient/Drum & Bass

[/more]

Register
(7) Branis, Cruor, DJAHAN, FUDEDOR, gwar, Infidel, infiltrator,
Jan 7 2020, 19:17:09 Down Elevator - The Sequence: 2012​-​2019 [compilation] (2019)


*Artist: Down Elevator
*Album: The Sequence: 2012​-​2019 [compilation]
*Year: 2019
*Genre: Industrial Metal/Industrial Rock
*Country: Russian Federation
*Format: mp3@CBR320kbps
*Size: 94MB

Tracklist:
01. Noway 04:39
02. Crush That Bones 04:12
03. Someday 03:56
05. New World 04:24
05. Break On Through 04:57
06. Signal 04:39
07. Radience 05:24
08. Rampage II 04:21
09. Farewell 06:14
******************************
Total playing time: 42:44



[more=Extended info]Moscow industrial project (Sobaki Tabaka member). Inspiration by Godflesh, Killing Joke, Sonic Violence, Test Dept, GOD, O.L.D., Cable Regime, The Young Gods, Ministry, Revolting Cocks, Loop, Alboth!, Scorn, Slab etc.

Явно слышно влияние Crunch, Godflesh и Killing Joke.[/more]

[more=Technical info]
Input File: 01 - Noway.mp3
Channels : 2
Sample Rate : 44100
Precision : 16-bit
Duration : 00:04:38.80 = 12294948 samples = 20909.8 CDDA sectors
File Size : 11.2M
Bit Rate : 320k
Sample Encoding: MPEG audio (layer I, II or III)
Comments :
Title=Noway
Artist=Down Elevator
Album=The Sequence: 2012-2019 (compilation)
Tracknumber=01
Year=2019
Genre=Industrial Metal/Industrial Rock

[/more]

Register
(4) gwar, infiltrator, Olethros, popen13,
Jan 7 2020, 18:57:32 Blackmole - Ghost (2017)


*Artist: Blackmole
*Album: Ghost
*Year: 2017
*Genre: Dark Jazz
*Country: Russian Federation
*Format: mp3@CBR320kbps
*Size: 118MB

Tracklist:
01. It's All In The Past 03:01
02. Failure 04:10
03. Desolation 06:02
04. Drowning 02:52
05. Disengaged 04:36
06. Refuse 03:50
07. Interlude I 01:51
08. Anxiety 06:12
09. Withering 03:34
10. Weakling 03:39
11. Interlude II 02:13
12. Nowhere 04:26
13. Ghost 03:28
******************************
Total playing time: 49:55




[more=Extended info]recorded in 2012 - 2017[/more]

[more=Technical info]
Input File: 02 - Failure.mp3
Channels : 2
Sample Rate : 44100
Precision : 16-bit
Duration : 00:04:10.48 = 11046124 samples = 18785.9 CDDA sectors
File Size : 10.1M
Bit Rate : 324k
Sample Encoding: MPEG audio (layer I, II or III)
Comments :
Title=Failure
Artist=Blackmole
Album=Ghost
Tracknumber=02
Year=2017
Genre=Dark Jazz

[/more]

Register
(6) A.L.Rapsod, Angry_Chair, Flowergatherer, garmonbozia, infiltrator, Konst,
Jan 7 2020, 16:09:43 Joel Fausto & Illusion Orchestra - Illusion Orchestra At The Gloomy Club (2013)


*Artist: Joel Fausto & Illusion Orchestra
*Album: Illusion Orchestra At The Gloomy Club
*Year: 2013
*Genre: Dark Jazz
*Country: Portugal
*Format: mp3@CBR320kbps
*Size: 135MB

Tracklist:
01. Smoke Night 09:35
02. Radio Silence 06:31
03. Someone Sang And Slowly Danced 06:15
04. Hearing Weird Noises In The Back Room 05:25
05. Dark Smooth Chord 07:00
06. Wicked White Dress 05:24
07. Gin & Tonic 05:39
08. Drunk Lady Licking Her Hand 03:53
09. Gloomy Club 11:10
******************************
Total playing time: 1:00:51




[more=Technical info]
Input File: 01 - Smoke Night.mp3
Channels : 2
Sample Rate : 44100
Precision : 16-bit
Duration : 00:09:35.07 = 25360499 samples = 43130.1 CDDA sectors
File Size : 23.1M
Bit Rate : 321k
Sample Encoding: MPEG audio (layer I, II or III)
Comments :
Title=Smoke Night
Artist=Joel Fausto & Illusion Orchestra
Album=Illusion Orchestra At The Gloomy Club
Tracknumber=01
Year=2013
Genre=Dark Jazz

[/more]

Register
(8) A.L.Rapsod, Angry_Chair, garmonbozia, gena, Hell_Is_Here, infiltrator, Konst, ZloY_GreY,
Jan 7 2020, 11:15:03 Simm - Welcome (1996)


*Artist: Simm
*Album: Welcome
*Year: 1996
*Genre: Illbient/Ambient Dub/Industrial
*Country: Italy
*Format: mp3@CBR320kbps
*Size: 146MB

Tracklist:
01. Clown 05:09
02. Some Silences 07:43
03. Hollow 05:35
04. Frozen Chances 06:26
05. The Crawl Space 07:12
06. These Days (Stalker Mix) 06:58
07. Pillhead 04:58
08. Crash 05:42
09. Welcome 05:35
10. Him (bonus track) 03:53
11. Backstage Sonic (bonus track) 05:41
******************************
Total playing time: 1:04:53



[more=Extended info]Eraldo Bernocchi (Sigillum S, Equations Of Eternity, Black Engine, Metallic Taste Of Blood, Obake, etc.)[/more]

[more=Technical info]
Input File: 01 - Clown.mp3
Channels : 2
Sample Rate : 44100
Precision : 16-bit
Duration : 00:05:08.92 = 13623284 samples = 23168.9 CDDA sectors
File Size : 12.4M
Bit Rate : 320k
Sample Encoding: MPEG audio (layer I, II or III)
Comments :
Title=Clown
Artist=SIMM
Album=Welcome (reissue 1998)
Tracknumber=01
Year=1996
Genre=Industrial/Ambient Dub/Illbient

[/more]

Register
(6) A.L.Rapsod, Angry_Chair, Branis, FUDEDOR, Infidel, Olethros,
Dec 30 2019, 18:02:44 Côte Déserte - Dale Cooper's Case [ep] (2011)


*Artist: Côte Déserte
*Album: Dale Cooper's Case [ep]
*Year: 2011
*Genre: Dark Jazz
*Country: Russian Federation
*Format: mp3@CBR320kbps
*Size: 75MB

Tracklist:
01. Dale Cooper's Theme 06:11
02. In The Red Room 05:20
03. The Red Room Revisited 06:34
04. The Owls Are Not What They Seem 05:06
05. Dale Cooper's Theme (Ilia Belorukov Remix) 05:51
06. Dale Cooper's Theme (Dmitriy Krotevich Rework) 03:46
******************************
Total playing time: 32:47




[more=Technical info]
Input File: 01 - Dale Cooper\'s Theme.mp3
Channels : 2
Sample Rate : 44100
Precision : 16-bit
Duration : 00:06:10.60 = 16343284 samples = 27794.7 CDDA sectors
File Size : 14.8M
Bit Rate : 320k
Sample Encoding: MPEG audio (layer I, II or III)
Comments :
Title=Dale Cooper's Theme
Artist=Côte Déserte
Album=Dale Cooper's Case
Tracknumber=01
Year=2011
Genre=Dark Jazz

[/more]

Register
(4) dromord, Evilded, gena, Konst,
Dec 30 2019, 17:52:58 Simm - Visitor (2013)


*Artist: Simm
*Album: Visitor
*Year: 2013
*Genre: Illbient/Dub/Industrial
*Country: Italy
*Format: mp3@CBR320kbps
*Size: 128MB

Tracklist:
01. Leatherface 05:39
02. Visitor 05:58
03. The Wind Is Blowing 06:28
04. Crematorium 05:42
05. Revenge Is Faith 04:22
06. The Sadness Of Things 06:00
07. Herezie 04:56
08. Retribution 05:28
09. Sky Eater 06:08
10. Sparse Ashes 05:17
******************************
Total playing time: 56:03



[more=Extended info]Отличный illbient/ambient dub от известнейшего итальянского индустриальщика Eraldo Bernocchi. В духе Scorn, Equations Of Eternity и прочих дабовых проектов Мика Харриса, но со своей изюминкой.[/more]

[more=Technical info]
Input File: 01 - Leatherface.mp3
Channels : 2
Sample Rate : 44100
Precision : 16-bit
Duration : 00:05:39.51 = 14972347 samples = 25463.2 CDDA sectors
File Size : 13.6M
Bit Rate : 320k
Sample Encoding: MPEG audio (layer I, II or III)
Comments :
Title=Leatherface
Artist=SIMM
Album=Visitor
Tracknumber=01
Year=2013
Genre=Industrial/Ambient Dub/Illbient

[/more]

Register
(7) Angry_Chair, atom72, Branis, chipsgott, FUDEDOR, Infidel, Olethros,
Dec 27 2019, 19:40:39 Strikkeklubben - Filtered Sonics (2015)


*Artist: Strikkeklubben
*Album: Filtered Sonics
*Year: 2015
*Genre: Dark Jazz
*Country: Denmark
*Format: mp3@CBR320kbps
*Size: 114MB

Tracklist:
01. Blowout 04:45
02. Stort Set 05:49
03. Stuck 05:32
04. They Sang For Her 06:51
05. Den Eftermiddag 03:12
06. Fragile Thoughts 05:00
07. Train Ride In Spring 05:42
08. Stóra Dímón 05:08
09. Here It Ends 06:41
******************************
Total playing time: 48:38



[more=Technical info]
Input File: 01 - Blowout.mp3
Channels : 2
Sample Rate : 44100
Precision : 16-bit
Duration : 00:04:44.65 = 12553021 samples = 21348.7 CDDA sectors
File Size : 11.4M
Bit Rate : 321k
Sample Encoding: MPEG audio (layer I, II or III)
Comments :
Title=Blowout
Artist=Strikkeklubben
Album=Filtered Sonics
Tracknumber=01
Year=2015
Genre=Dark Jazz

[/more]

Register
(10) A.L.Rapsod, Angry_Chair, Brann, dromord, garmonbozia, gena, Konst, sludge666, ZloY_GreY, zoog,
Dec 26 2019, 21:50:24 Vatican Shadow - Byzantine Private Cia [compilation] (2019)


*Artist: Vatican Shadow
*Album: Byzantine Private Cia [compilation]
*Year: 2019
*Genre: Experimental/Techno/Industrial
*Country: United States
*Format: mp3@CBR320kbps
*Size: 98MB

Tracklist:
01. Deny Military Involvement 04:38
02. Archbishop 911 04:55
03. Cairo Sword Unsheathed 05:09
04. Gunmen With Silencer 05:14
05. Schwarzkopf Arc Of Triumph 04:39
06. Saddam Statue Conspiracy 02:42
07. USM1A1 Abrams Exhaust Rises Between The Hands Of Victory 02:37
08. Shadow War In Yemen 06:14
09. Asymmetric Warfare Studies Group Double Game 06:21
******************************
Total playing time: 42:28




[more=Extended info]FIrst three Vatican cassettes including Byzantine Private CIA, Mural of Saddam, and Yemeni Commandos remastered. Part of a series of releases for the 9 year anniversary of the project.[/more]

[more=Technical info]
Input File: 06 - Saddam Statue Conspiracy.mp3
Channels : 2
Sample Rate : 44100
Precision : 16-bit
Duration : 00:02:41.58 = 7125634 samples = 12118.4 CDDA sectors
File Size : 6.61M
Bit Rate : 327k
Sample Encoding: MPEG audio (layer I, II or III)
Comments :
Title=Saddam Statue Conspiracy
Artist=Vatican Shadow
Album=Byzantine Private CIA (compilation)
Tracknumber=06
Year=2019
Genre=Industrial/Ambient/Techno/Experimental

[/more]

Register
(11) A.L.Rapsod, acerbus, atom72, FUDEDOR, garmonbozia, gwar, Infidel, kimkayoung, Luctus, Olethros, xska,
Dec 25 2019, 22:34:42 Vatican Shadow - Media In The Service Of Terror (2016)


*Artist: Vatican Shadow
*Album: Media In The Service Of Terror
*Year: 2016
*Genre: Techno/Industrial
*Country: United States
*Format: mp3@CBR320kbps
*Size: 88MB

Tracklist:
01. Ziad Jarrah Studied Mathematics 04:51
02. More Of The Same 05:44
03. Take Vows 06:08
04. Wherever There Is Money There Is Unforgiveness 03:23
05. Interrogation Mosaic 07:35
06. Take Vows (The Inevitable Bitterness Of Life) 06:42
07. More Of The Same (Tunisia) 04:21
******************************
Total playing time: 38:44



[more=Technical info]
Input File: 01 - Ziad Jarrah Studied Mathematics.mp3
Channels : 2
Sample Rate : 44100
Precision : 16-bit
Duration : 00:04:50.79 = 12823751 samples = 21809.1 CDDA sectors
File Size : 11.9M
Bit Rate : 326k
Sample Encoding: MPEG audio (layer I, II or III)
Comments :
Title=Ziad Jarrah Studied Mathematics
Artist=Vatican Shadow
Album=Media In The Service Of Terror
Tracknumber=01
Year=2016
Genre=Techno/Industrial/Ambient

[/more]

Register
(3) FUDEDOR, gwar, Olethros,
Dec 25 2019, 21:14:22 Fret - Over Depth (2017)


*Artist: Fret
*Album: Over Depth
*Year: 2017
*Genre: Industrial/Illbient
*Country: United Kingdom
*Format: mp3@CBR320kbps
*Size: 134MB

Tracklist:
01. Lift Method 05:38
02. The Waiting Room 06:49
03. Meadow Taken Back 05:53
04. Murderous Weight 05:30
05. LO30 05:41
06. Stuck In The Track At Salford Priors 04:57
07. Etched Beaked Point 05:13
08. Lifford Res 05:46
09. B14 05:15
10. No Rain 05:43
******************************
Total playing time: 56:24




[more=Extended info]Mick Harris returns after several years of hiatus with ten tracks of blasting landmine bass and interlocking shrapnel rhythms.

Personal purchaise.[/more]

[more=Technical info]
Input File: 01 - Lift Method.mp3
Channels : 2
Sample Rate : 44100
Precision : 16-bit
Duration : 00:05:38.46 = 14926262 samples = 25384.8 CDDA sectors
File Size : 13.7M
Bit Rate : 323k
Sample Encoding: MPEG audio (layer I, II or III)
Comments :
Title=Lift Method
Artist=Fret
Album=Over Depth
Tracknumber=01
Year=2017
Genre=Industrial/Illbient/Experimental

[/more]

Register
(4) Angry_Chair, FUDEDOR, Infidel, Olethros,
Dec 24 2019, 20:28:01 Fogh Depot - Fogh Depot (2015)


*Artist: Fogh Depot
*Album: Fogh Depot
*Year: 2015
*Genre: Dark Jazz/Electronic/Experimental
*Country: Russian Federation
*Format: mp3@CBR320kbps
*Size: 90MB

Tracklist:
01. Anticyclone 06:51
02. Mining (BTC) 05:12
03. Nevalyashka 04:08
04. Sagittarius 04:15
05. Orphan Drug 04:37
06. Tattoo 04:04
07. Dark Side Of The Monk 06:00
08. Burning Beard 04:17
******************************
Total playing time: 39:23




[more=Extended info]Fogh Depot conjoin the unconjoinable, combining distorted low resolution samples with pure, atmospheric piano chords, multilayered drones with bebop changes, four-to-the-floor beat with polyrhythm, simple, easy-to-remember tunes with sophisticated effects for woodwinds, springy bass grooves with timeless ambient soundscapes.

Скачивал в свое время из-за тэга 'dark jazz', но оказалось, что его на альбоме не так уж и много, а тот, что есть, не похож на классический dark, типа Bohren & Der Club Of Gore, кроме, может быть, предпоследней темы. Но замес из джаза и экспериментальной электроники, тем не менее, весьма интересен.[/more]

[more=Technical info]
Input File: 07 - Dark Side Of The Monk.mp3
Channels : 2
Sample Rate : 44100
Precision : 16-bit
Duration : 00:06:00.15 = 15882483 samples = 27011 CDDA sectors
File Size : 14.4M
Bit Rate : 320k
Sample Encoding: MPEG audio (layer I, II or III)
Comments :
Title=Dark Side Of The Monk
Artist=Fogh Depot
Album=Fogh Depot
Tracknumber=07
Year=2015
Genre=Dark Jazz/Electronic/Experimental

[/more]

Register
(3) Brann, gena, ZloY_GreY,
Dec 23 2019, 06:03:20 Equations Of Eternity - Vevè (2018)


*Artist: Equations Of Eternity
*Album: Vevè
*Year: 2018
*Genre: Illbient/Dub/Industrial
*Country: International
*Format: mp3@CBR320kbps
*Size: 128MB

Tracklist:
01. Baron Samedi 06:36
02. Magamat 06:23
03. Kurukulla 06:22
04. Luk Krok 06:36
05. Set Rising 05:27
06. Aether 06:40
07. Madre De Agua 05:41
08. Yama 05:40
09. Maka 06:55
******************************
Total playing time: 56:19



[more=Extended info]Mick Harris, Bill Laswell, Eraldo Bernocchi[/more]

[more=Technical info]
Input File: 05 - Set Rising.mp3
Channels : 2
Sample Rate : 44100
Precision : 16-bit
Duration : 00:05:27.23 = 14430887 samples = 24542.3 CDDA sectors
File Size : 13.1M
Bit Rate : 320k
Sample Encoding: MPEG audio (layer I, II or III)
Comments :
Title=Set Rising
Artist=Equations Of Eternity
Album=Vevè
Tracknumber=05
Year=1998
Genre=Illbient/Ambient Dub/Industrial

[/more]

Register
(4) Angry_Chair, FUDEDOR, gwar, Olethros,
Dec 23 2019, 05:56:36 Vainoras And The Altar Of The Drill - Life, Love, Doomjazz. (2019)


*Artist: Vainoras And The Altar Of The Drill
*Album: Life, Love, Doomjazz.
*Year: 2019
*Genre: Dark Jazz
*Country: Australia
*Format: mp3@CBR320kbps
*Size: 100MB

Tracklist:
01. Dire Straights And Narrow 07:14
02. Low Levels Of Daily Despair 07:33
03. Effortless Rockbottom 02:44
04. Bitter Suites 03:55
05. Fear And Dread In Neon 03:44
06. Golden Silence 06:56
07. Hurt People Hurt People 05:26
08. Weeping And Gnashing Of The Grave Teeth 05:04
******************************
Total playing time: 42:36



[more=Extended info]Doom ridden jazz music from Melbourne, Australia.[/more]

[more=Technical info]
Input File: 04 - Bitter Suite.mp3
Channels : 2
Sample Rate : 44100
Precision : 16-bit
Duration : 00:03:54.80 = 10354856 samples = 17610.3 CDDA sectors
File Size : 9.47M
Bit Rate : 322k
Sample Encoding: MPEG audio (layer I, II or III)
Comments :
Title=Bitter Suite
Artist=Vainoras And The Altar Of The Drill
Album=Life, Love, Doomjazz.
Tracknumber=04
Year=2019
Genre=Dark Jazz

[/more]

Register
(7) Angry_Chair, Dooomerrr, dromord, Konst, sludge666, tOmV, ZloY_GreY,
Dec 22 2019, 15:16:25 Equations Of Eternity - Equations Of Eternity (1996)


*Artist: Equations Of Eternity
*Album: Equations Of Eternity
*Year: 1996
*Genre: Illbient/Dub/Industrial
*Country: International
*Format: mp3@CBR320kbps
*Size: 123MB

Tracklist:
01. The Collector 06:49
02. Eons Geography 05:51
03. 5th Element 05:35
04. Loa 06:32
05. Stream 05:52
06. Shadow Sewer 07:44
07. Fifty Gates 04:34
08. Descent 05:47
09. Slow Bleed 05:52
******************************
Total playing time: 54:37



[more=Extended info]Mick Harris, Bill Laswell, Eraldo Bernocchi[/more]

[more=Technical info]
Input File: 01 - The Collector.mp3
Channels : 2
Sample Rate : 44100
Precision : 16-bit
Duration : 00:06:48.87 = 18031079 samples = 30665.1 CDDA sectors
File Size : 16.4M
Bit Rate : 320k
Sample Encoding: MPEG audio (layer I, II or III)
Comments :
Title=The Collector
Artist=Equations Of Eternity
Album=Equations Of Eternity
Tracknumber=01
Year=1996
Genre=Illbient/Ambient Dub/Industrial

[/more]

Register
(5) Angry_Chair, FUDEDOR, gwar, Olethros, wtk.412,
Dec 21 2019, 12:35:13 The Bug Vs Earth - Boa/Cold [single] (2014)


*Artist: The Bug Vs Earth
*Album: Boa/Cold [single]
*Year: 2014
*Genre: Illbient/Experimental/Industrial
*Country: International
*Format: mp3@CBR320kbps
*Size: 29MB

Tracklist:
01. Boa 07:25
02. Cold 05:16
******************************
Total playing time: 12:41




[more=Extended info]Kevin Martin (The Bug, Techno Animal, Ice etc.), Dylan Carlson (Earth)[/more]

[more=Technical info]
Input File: 02 - Cold.mp3
Channels : 2
Sample Rate : 44100
Precision : 16-bit
Duration : 00:05:15.84 = 13928588 samples = 23688.1 CDDA sectors
File Size : 12.6M
Bit Rate : 320k
Sample Encoding: MPEG audio (layer I, II or III)
Comments :
Title=Cold
Artist=The Bug vs Earth
Album=Boa/Cold (single)
Tracknumber=02
Year=2014
Genre=Illbient/Experimental/Industrial

[/more]

Register
(2) FUDEDOR, Olethros,
Dec 20 2019, 23:14:46 Vatican Shadow - September Cell [ep] (2012)


*Artist: Vatican Shadow
*Album: September Cell [ep]
*Year: 2012
*Genre: Techno/Industrial
*Country: United States
*Format: mp3@CBR320kbps
*Size: 49MB

Tracklist:
01. September Cell (The Storm) 04:53
02. September Cell (The Punishment) 04:51
03. Cairo Is A Haunted City 07:43
04. One Day He Heard The Call 03:40
******************************
Total playing time: 21:07



[more=Technical info]
Input File: 01 - September Cell (The Storm).mp3
Channels : 2
Sample Rate : 44100
Precision : 16-bit
Duration : 00:04:52.88 = 12915920 samples = 21965.9 CDDA sectors
File Size : 12.0M
Bit Rate : 327k
Sample Encoding: MPEG audio (layer I, II or III)
Comments :
Title=September Cell (The Storm)
Artist=Vatican Shadow
Album=September Cell (EP)
Tracknumber=01
Year=2012
Genre=Dark Ambient/Industrial/Power Electronics

[/more]

Register
(4) Angry_Chair, FUDEDOR, gwar, Olethros,

5 Pages V  < 1 2 3 4 5 >
- Lo-Fi Version Support form
Copyrights and abuse reports form
Time is now: 5th June 2020 - 00:38:22