Welcome Guest ( Log In | Register )

История благодарностей участнику aesteticvice ::: Спасибо сказали: 363284 раз(а)
Дата поста: В теме: За сообщение: Спасибо сказали:
Feb 20 2019, 10:10:34 Canticum Diaboli - De Flammis Et Dei Ruina (2019)


*Artist: Canticum Diaboli
*Album: De Flammis Et Dei Ruina
*Year: 2019
*Genre: Melodic Black Metal
*Country: Italy
*Format: mp3@CBR320kbps
*Size: 91MB

Tracklist:
1. Dies Irae 04:51
2. Canticum Diaboli 03:41
3. Vae Victis 04:05
4. Misantropia 04:42
5. Nox Profana 02:59
6. Alba nera 03:25
7. Tempesta 04:58
8. Laus Ultima 09:17
******************************
Total playing time: 37:58



[more=Extended info]Laevus - Guitars (lead) (2014-present)
Apostata - Guitars (rhythm) (2014-present)
Cernunnos - Bass (2016-present), Vocals (2016-present) See also: Barbarossa, ex-Vereor Nox
Impudicus - Drums (2017-present)
[youtube]ZaF08e8O03s[/youtube][/more]

[more=Technical info]
Input File: 02 - Canticum Diaboli.mp3
Channels : 2
Sample Rate : 44100
Precision : 16-bit
Duration : 00:03:41.09 = 9750025 samples = 16581.7 CDDA sectors
File Size : 9.39M
Bit Rate : 340k
Sample Encoding: MPEG audio (layer I, II or III)
Comments :
Title=Canticum Diaboli
Artist=Canticum Diaboli
Album=De Flammis et Dei Ruina
Tracknumber=2
Year=2019
Genre=Black Metal
Discnumber=1

[/more]

Register
(22) AHBAnep, artscald, DenisKov, gwynnbleid, kim666, kimkayoung, MMMMM, Mogozoz, obituarydark, oldvarg, Olethros, Ostinato, Rosen, satanist666, Shadechaser, SilentNidhogg, talismanFS, VALERY, varlam4, vasiljev_sergej, wreak, zhol,
Feb 20 2019, 08:57:30 Ethereal Darkness - Smoke And Shadows (2019)
mirror
Register

[youtube]gAl9IlABtVY[/youtube]
(3) --AK--, Ostinato, RUDACHUR,
Feb 20 2019, 04:33:59 Ethereal Darkness - Smoke And Shadows (2019)


*Artist: Ethereal Darkness
*Album: Smoke And Shadows
*Year: 2019
*Genre: Melodic Death/Doom Metal
*Country: Belgium
*Format: mp3@CBR320kbps
*Size: 118MB

Tracklist:
1. Rivers 02:44
2. The Dreaming Soul 06:07
3. Forgotten Shadows 06:15
4. The Light That Fades 06:30
5. Apocalypse in Your Mind 05:32
6. Shrouded in Mourn 06:34
7. Time 07:34
8. Flow into the Sea 10:18
******************************
Total playing time: 51:34




[more=Extended info][youtube]quy3pXQE4sM[/youtube][/more]

[more=Technical info]
Input File: 02 - The Dreaming Soul.mp3
Channels : 2
Sample Rate : 44100
Precision : 16-bit
Duration : 00:06:07.54 = 16208514 samples = 27565.5 CDDA sectors
File Size : 14.7M
Bit Rate : 320k
Sample Encoding: MPEG audio (layer I, II or III)
Comments :
Title=The Dreaming Soul
Artist=Ethereal Darkness
Album=Smoke and Shadows
Tracknumber=2
Year=2019
Genre=Death Metal
Discnumber=1

[/more]

Register
(41) artscald, cesar, cuimit1349, dalek, doomTemplar, gav-gafi, GuldenDraak, Hell_Is_Here, Ice Gnoll, Indamage, KVRT, LEGION69, libertine, Maximvs, MeatWolf, metala, metalwoman, MMMMM, Mogozoz, morbidangelo, oldvarg, Olethros, pfk505, ripper33, Rosen, russ777, sadmannn, SatanicPanzer, satanist666, sergsazan, Shadechaser, TeamatSE, THROWER666, toly1917, tOmV, VALERY, Woosad, wreak, zhol, Герб, Сатаник,
Feb 20 2019, 03:53:58 Oldd Wvrms - Codex Tenebris (2019)
MIRROR
Register

[youtube]f2j5Hsc9C-0[/youtube]
(2) denver, Ostinato,
Feb 20 2019, 03:53:06 Starmaker - Immortal (2019)
[youtube]ufVn0-jH9ME[/youtube]
(1) Woosad,
Feb 20 2019, 03:51:21 Evnen - Act. II (2019)
MIRROR
Register

[youtube]FrqGyD5RylQ[/youtube]
(2) Ostinato, Victim of fate,
Feb 20 2019, 03:50:04 Melancholy - Branches And Hooks (2019)
MIRROR
Register
(2) kimkayoung, Reverend,
Feb 19 2019, 21:46:56 Magnabolt - Magnabolt (2019)


*Artist: Magnabolt
*Album: Magnabolt
*Year: 2019
*Genre: Heavy/Thrash/Power Metal
*Country: United States
*Format: mp3@CBR320kbps
*Size: 105MB

Tracklist:
1. Surveillance 06:04
2. The Thunder Breaks 05:39
3. Master of the Cosmos 05:45
4. Don't Question the Master 04:47
5. Tongue of Fire 05:00
6. Knocknasheega 05:00
7. The Fox Chase 01:22
8. Power Squelch 04:23
9. Art of War 07:42
******************************
Total playing time: 45:42




[more=Extended info]ОЛДСКУЛ

Andrew Sylvia - Bass (Alpha Viper, Demon's Bell, Leathürbitch, ex-White Lightning, ex-Excruciator)
Matt Fitzgerald - Drums (ex-White Lightning)
Alex Ponder - Guitars (Weresquatch, ex-Headless Pez)
Peter Sylvia - Guitars, Vocals (Last Empire, ex-White Lightning)

[youtube]vzRpcp4K4CU[/youtube][/more]

[more=Technical info]
Input File: Magnabolt - Magnabolt - 04 Don't Question the Master.mp3
Channels : 2
Sample Rate : 44100
Precision : 16-bit
Duration : 00:04:47.52 = 12679588 samples = 21563.9 CDDA sectors
File Size : 11.6M
Bit Rate : 322k
Sample Encoding: MPEG audio (layer I, II or III)
Comments :
Title=Don't Question the Master
Artist=Magnabolt
Album=Magnabolt
Tracknumber=4
Year=2019

[/more]

Register
(15) artscald, boby9052, cecilb, ExeThrash, helvetestoner, Herrant, HMHamster, metala, METALHUNTER, Mogozoz, Olethros, Rosen, Rover, Spunkynut, wreak,
Feb 19 2019, 21:26:52 Candlemass - The Door To Doom (2019)
ЦИТАТА(Ghostb @ Feb 19 2019, 20:04:49) *
Это же самый первый их вокалист, еще на дебютнике пел)

с тех пор он сильно постарел, он тогда еще был слабоват, там сам материал вытягивал ну и молодой задор
(1) Ghostb,
Feb 19 2019, 21:16:53 Oldd Wvrms - Codex Tenebris (2019)


*Artist: Oldd Wvrms
*Album: Codex Tenebris
*Year: 2019
*Genre: Occult Doom Metal/Sludge
*Country: Belgium
*Format: mp3@CBR320kbps
*Size: 117MB

Tracklist:
1. Ténèbres 10:22
2. A L'or, Aux Ombres et Aux Abîmes 07:11
3. Misère & Corde 09:57
4. La Vallée Des Tombes 10:54
5. Fléau Est Son Âme 15:21
******************************
Total playing time: 53:45




[more=Extended info]В этот раз парни решили погрузить слушателя в инструментальные ритуальные действа, это все тот же мрачный жирный сладж дум остов с оккультно-постовыми венами.
Drawing his inspiration from ancient tales of witchcraft and forgotten rituals.
Their music is brewed in a dark cauldron, blending doom/sludge/black and post-metal, including samples, drones & lithurgic chants into a more hypnotic and intoxicating level.
Cho : Drums
Oli : Bass
Ben : Guitar
[/more]

[more=Technical info]
Input File: 02-oldd_wvrms-a_lor_aux_ombres_et_aux_abimes-39bc83bf.mp3
Channels : 2
Sample Rate : 44100
Precision : 16-bit
Duration : 00:07:11.60 = 19033384 samples = 32369.7 CDDA sectors
File Size : 17.4M
Bit Rate : 323k
Sample Encoding: MPEG audio (layer I, II or III)
Comments :
Title=A l'or, aux ombres et aux abîmes
Artist=Oldd Wvrms
Album=Codex tenebris
Tracknumber=2/5
Year=2019
Genre=Metal

[/more]

Register
(13) artscald, denver, Emhyr var Emreis, HMHamster, marilin, Morthal, Olethros, Ostinato, Rosen, SatanicPanzer, stub888, VALERY, wreak,
Feb 19 2019, 20:44:11 Dyecrest - The Stage Is Set [ep] (2019)


*Artist: Dyecrest
*Album: The Stage Is Set [ep]
*Year: 2019
*Genre: Melodic Heavy/Power Metal
*Country: Finland
*Format: mp3@CBR320kbps
*Size: 50MB

Tracklist:
01. The Stage Is Set
02. Truce
03. Winterblood (Acoustic Version)
04. First Born Angel (Janne Oksanen Version)
05. Where the Light Was Born (Kimmo Blom Version)
******************************
Total playing time: 23:26



[more=Extended info]The EP was mixed by Miitri Aaltonen (Mokoma, Stam1na etc.) and mastered by Mika Jussila (Nightwish, Stratovarius etc.)

Mikael Salo: Lead Vocals
Henri Arola: Guitar, Backing Vocals
Matti Pasanen: Guitar, Backing Vocals
Pirkka Ohlis: Guitar, Keyboards, Backing Vocals
Jukka Matilainen: Bass
Niko Takala: Drums

[youtube]mLDs2La9lOg[/youtube][/more]

[more=Technical info]
Input File: 02. Truce.mp3
Channels : 2
Sample Rate : 44100
Precision : 16-bit
Duration : 00:03:22.10 = 8912478 samples = 15157.3 CDDA sectors
File Size : 8.14M
Bit Rate : 322k
Sample Encoding: MPEG audio (layer I, II or III)
Comments :
Title=Truce
Artist=Dyecrest
Album=The Stage Is Set
Tracknumber=2
Year=2019
Discnumber=1

[/more]

Register
(12) artscald, aviacademy, finmetal, metalwoman, Mogozoz, Olethros, Rosen, Rover, satanist666, sergsazan, wreak, zhol,
Feb 19 2019, 20:28:45 Gets Worse - Snubbed (2019)


*Artist: Gets Worse
*Album: Snubbed
*Year: 2019
*Genre: Grindcore
*Country: United Kingdom
*Format: mp3@CBR320kbps
*Size: 61MB

Tracklist:
01. Empty Tank
02. Attendance Report
03. Hamster Food
04. Awkwardly Close
05. Dernard vs Drenrad
06. Crushed
07. El Belcho
08. Panic Shredder
09. Carlton Negged
10. Neck Vein
11. Fun Borrower
12. Shwoe Is Me
13. Redundant
14. Kool Brewster
15. 20 Gigaherpz
16. Mumbloid
17. Doppelkinda
18. Heart Leaker
19. Flies
20. Rest in Schromph
******************************
Total playing time: 27:05




[more=Extended info]Benj - Guitar // Vox
Paul - Bass // Vox
Rich - Drums // Vox
Tom - Guitar // Vox
[youtube]701bKDEHkRo[/youtube]
[youtube]H8P_a62uauI[/youtube]
[youtube]t9rmSDOgqXY[/youtube][/more]

[more=Technical info]
Input File: 03. Hamster Food.mp3
Channels : 2
Sample Rate : 44100
Precision : 16-bit
Duration : 00:00:53.03 = 2338799 samples = 3977.55 CDDA sectors
File Size : 2.26M
Bit Rate : 341k
Sample Encoding: MPEG audio (layer I, II or III)
Comments :
Title=Hamster Food
Artist=Gets Worse
Album=Snubbed
Tracknumber=3
Year=2019
Discnumber=1

[/more]

Register
(11) A.L.Rapsod, carnegrinder, FUDEDOR, KoreanGringo, METALHUNTER, morbidangelo, Olethros, Rosen, satanist666, wreak, Герб,
Feb 19 2019, 20:15:01 Melancholy - Branches And Hooks (2019)


*Artist: Melancholy
*Album: Branches And Hooks
*Year: 2019
*Genre: Progressive/Melodic Death/Doom Metal
*Country: Russian Federation
*Format: mp3@CBR320kbps
*Size: 95MB

Tracklist:
1. Dead Paradigm 04:55
2. Gladiator's Field 06:26
3. Mucus 04:34
4. Goat Mantra 03:50
5. Phantasm 06:24
6. Tentacles 05:05
7. Space Face 06:57
8. Reincarnation 05:53
******************************
Total playing time: 44:04



[more=Extended info]Roos Beast : Guitar, Voice, Key
Den Marino : Guitar, Voice
Levon : Bass

Guest musicians:
Andrey Ischenko - Drums
Max Rigel - Drums
Alex Kozlovsky - Cello
Eugeniy Ilin – Clarinet, Sax, Fluite
Boris Pronin - Trombon
[youtube]XeVEQ8Fs5Vs[/youtube]
[youtube]Pe8YJlQIsyk[/youtube][/more]

[more=Technical info]
Input File: 04. Goat Mantra.mp3
Channels : 2
Sample Rate : 44100
Precision : 16-bit
Duration : 00:03:50.36 = 10159008 samples = 17277.2 CDDA sectors
File Size : 9.32M
Bit Rate : 324k
Sample Encoding: MPEG audio (layer I, II or III)
Comments :
Title=Goat Mantra
Artist=Melancholy
Album=Branches and Hooks
Tracknumber=4
Year=2019
Discnumber=1

[/more]

Register
(14) Alpha_Prime, artscald, DenisKov, Emhyr var Emreis, kipelov999, metala, Mogozoz, oldvarg, Olethros, Paradayz, Rosen, SatanicPanzer, VALERY, wreak,
Feb 19 2019, 19:58:36 Evnen - Act. II (2019)


*Artist: Evnen
*Album: Act. II
*Year: 2019
*Genre: Black/Death Metal
*Country: Spain
*Format: mp3@CBR320kbps
*Size: 75MB

Tracklist:
01. Perfidia
02. Falling Into Darkness
03. Angelus Infernalis
04. Thousand Tears
05. Eternal Kingdom
06. Beyond the Dark Light
07. Signati
******************************
Total playing time: 34:56




[more=Extended info]Jonathan Plaza - Vocals
Daniel Aparicio - Bass guitar
Diego Pérez - Guitars
Jordy Rodriguez - Guitars
Yann Amarok - Drums[/more]

[more=Technical info]
Input File: 01. Perfidia.mp3
Channels : 2
Sample Rate : 44100
Precision : 16-bit
Duration : 00:04:07.19 = 10900947 samples = 18539 CDDA sectors
File Size : 9.98M
Bit Rate : 323k
Sample Encoding: MPEG audio (layer I, II or III)
Comments :
Title=Perfidia
Artist=Evnen
Album=Act. II
Tracknumber=1
Year=2019
Discnumber=1

[/more]

Register
(20) artscald, Emhyr var Emreis, marilin, MaXL, metala, Olethros, Ostinato, ripper33, Rosen, satanist666, Shadechaser, SilentNidhogg, Tino, VALERY, varg-38ru, varlam4, vasiljev_sergej, Victim of fate, vov7609, wreak,
Feb 19 2019, 19:41:45 Phrymerial - Xenomorphic Creation (2019)
ЦИТАТА(yorsh @ Feb 19 2019, 18:24:46) *
Инопланетяне стали популярной темой в жанрах с приставкой 'тэкникал'.
Или мне кажется?

возможно, но сабж не техникал, прибруталенный дэткор, тупой и прямой как палка с перерывами на слэмминг и брэйкдауны
(1) AHBAnep,
Feb 19 2019, 19:20:59 Starmaker - Immortal (2019)


*Artist: Starmaker
*Album: Immortal
*Year: 2019
*Genre: Melodic Power Metal
*Country: Mexico
*Format: mp3@CBR320kbps
*Size: 70MB

Tracklist:
1. Prelude in D Minor 01:46
2. Immortal 03:50
3. The Call 04:14
4. Tomorrow Comes 06:52
5. Quartermain 03:28
6. Elementos 04:02
7. To Live Forever 03:52
8. Oceans of Light 03:27
******************************
Total playing time: 31:31




[more=Extended info]Eduardo Alapisco - Bass, Vocals (lead) See also: Sky Wanderer
Christian del Toro - Drums See also: Silent Devotion
Fernando C. Farías - Guitars (lead), Vocals (backing) See also: Sky Wanderer
Manuel Mava - Guitars (lead), Vocals (backing)
Paulina Siordia - Vocals[/more]

[more=Technical info]
Input File: 02. Immortal.mp3
Channels : 2
Sample Rate : 44100
Precision : 16-bit
Duration : 00:03:50.05 = 10145205 samples = 17253.8 CDDA sectors
File Size : 9.32M
Bit Rate : 324k
Sample Encoding: MPEG audio (layer I, II or III)
Comments :
Title=Immortal
Artist=Starmaker
Album=Immortal
Tracknumber=2
Year=2019
Discnumber=1

[/more]

Register
(13) artscald, aviacademy, Herrant, metala, Mogozoz, Olethros, Rosen, Rover, satanist666, sergsazan, tupec2, wn129aa, wreak,
Feb 19 2019, 18:28:10 Spirits Of Fire - Spirits Of Fire (2019)
Tim Owens (ex-Judas Priest, ex-Iced Earth) – Lead and Background Vocals
Chris Caffery (Savatage, Trans-Siberian Orchestra) – Lead, Rhythm and acoustic guitars, Background vocals
Steve DiGiorgio (Testament, Death, etc.) – Bass Guitars
Mark Zonder (ex-Fates Warning, Warlord) – Drums


159MB/320
Register

Register

[youtube]Cg1gzFPAhcM[/youtube]
[youtube]9mUkTfutQso[/youtube]
(8) ace73pq, acundof, AHBAnep, Beazth, djsema4, metaljosue, MеtalHead, stumpheavyrock,
Feb 19 2019, 18:27:31 Iron Savior - Kill Or Get Killed (2019)
crazy.gif Heavy/Power Metal

116MB/320
Register

Register

[youtube]vYcxJbz4fUI[/youtube]
[youtube]dsDYvuWbrI4[/youtube]
(19) ace73pq, AHBAnep, Beazth, boby9052, dimitriusk, Emhyr var Emreis, Fess, forgersky, Hedgehog666, katalin, Metalass, MеtalHead, recber, Reverend, SpeedThrasher, StoneTemple, stumpheavyrock, v.v.m, wn129aa,
Feb 19 2019, 17:45:01 Crimson Carnage - Memoirs (2019)


*Artist: Crimson Carnage
*Album: Memoirs
*Year: 2019
*Genre: Melodic Death Metal
*Country: Sweden
*Format: mp3@CBR320kbps
*Size: 114MB

Tracklist:
01. Origin
02. Memoirs
03. Built by Rage
04. What They Say
05. The Blackening Heart
06. Pre Paper
07. Hate Pain Misery
08. Is Frost
09. Carry On
10. Flee or Fight
11. Righteous
12. The Lies
13. Desolation
******************************
Total playing time: 50:02

Preview 1

[more=Extended info]кодек GoGo
[youtube]wToPYdUbEtE[/youtube]
[youtube]NXvNHtzlh_g[/youtube]
[youtube]F3UYz9M_wjo[/youtube][/more]

[more=Technical info]
Input File: 06 - Pre Paper.mp3
Channels : 2
Sample Rate : 44100
Precision : 16-bit
Duration : 00:03:58.80 = 10531124 samples = 17910.1 CDDA sectors
File Size : 9.55M
Bit Rate : 320k
Sample Encoding: MPEG audio (layer I, II or III)
Comments :
Title=Pre Paper
Artist=Crimson Carnage
Album=Memoirs
Tracknumber=6
Year=2019
Genre=Death Metal
Discnumber=1

[/more]

Register
(11) artscald, BugEyes, HMHamster, Mogozoz, Olethros, Rosen, sadmannn, sergsazan, VALERY, wreak, zhol,
Feb 19 2019, 09:19:48 Aeon Bridge - Revelations (2019)


*Artist: Aeon Bridge
*Album: Revelations
*Year: 2019
*Genre: Neo-Classical/Progressive Thrash Metal
*Country: United States
*Format: mp3@CBR320kbps
*Size: 112MB

Tracklist:
01. Lightning Strikes Twice 05:17
02. Lord Renegade 05:32
03. Moonlight Sonata, Movement I 05:34
04. Moonlight Sonata, Movement III 06:14
05. The Maelstrom 01:15
06. Allegro Inizio Redux 03:20
07. Aeon Eternal (Love Song for the Anxious) 04:01
08. Pictures at an Exhibition No. 9 - The Hut of Baba Yaga 03:47
09. Time-Shift 04:25
10. Inferno 04:45
11. Inferno (Instrumental) 04:45
******************************
Total playing time: 48:55



[more=Extended info]Track 1 guest solo: Jacob Rabin
Track 2 guest monologue: The Mars Advance; features excerpts of "Bouree In E Minor," composed by Johann Sebastian Bach, and "Eine Kleine Nachtmusik," composed by Wolfgang Amadeus Mozart
Track 3 composed by Ludwig van Beethoven; arranged by Aeon Bridge; guest solo: Jacob Rabin
Track 4 originally released on "The Bard's Reprisal"; composed by Ludwig van Beethoven; arranged by Aeon Bridge; guest solo: Jacob Rabin
Track 6 originally released on "The Bard's Reprisal"; features excerpt of "Caprice No. 5," composed by Niccolò Paganini
Track 8 composed by Modest Mussorgsky; arranged by Aeon Bridge
Track 10 vocals: Jacob Rabin; guest solos (in order): Dylan Meldrum, Eva Sanchez, Jacob Rabin

[youtube]bJ6yxvt0k38[/youtube]
[youtube]J1vjFbEdARI[/youtube]
[youtube]eqseF4hpss8[/youtube][/more]

[more=Technical info]
Input File: 06 - Allegro Inizio Redux (Redux).mp3
Channels : 2
Sample Rate : 44100
Precision : 16-bit
Duration : 00:03:20.19 = 8828379 samples = 15014.2 CDDA sectors
File Size : 8.01M
Bit Rate : 320k
Sample Encoding: MPEG audio (layer I, II or III)
Comments :
Title=Allegro Inizio Redux (Redux)
Artist=Aeon Bridge
Album=Revelations
Tracknumber=6
Year=2019
Genre=Metal
Discnumber=1

[/more]

Register
(14) artscald, boby9052, csgmnk, HMHamster, metala, METALHUNTER, Mogozoz, Niknne, Olethros, Rosen, sadmannn, tOmV, varlam4, wreak,
Feb 19 2019, 08:19:33 Abyssic - High The Memory (2019)


*Artist: Abyssic
*Album: High The Memory
*Year: 2019
*Genre: Doom/Death Metal
*Country: Norway
*Format: mp3@CBR128kbps
*Size: 71MB

Tracklist:
1. Adornation
2. High The Memory
3. Transition Consent
4. Where My Pain Lies
5. Dreams Become Flesh
******************************
Total playing time: 1:17:21



[more=Extended info]80 minutes of epic orchestral doom/ death metal from musicians known from such acts as Susperia, Dimmu Borgir, Sirenia and Funeral.

Abyssic convey sombre funeral doom draped in Norwegian black metal majesty and sophisticated 70's progressive rock.

Low-tuned sinister riffs and discerning orchestration for fans of Septic Flesh, My Dying Bride and Shape Of Despair.

Double LP gatefold with awesome artwork from Mitchell Nolte

Abyssic have received awesome reactions to their liveshows with a mosaic of visual semblance on stage like Contrabass, Mellotron and Moog.[/more]

[more=Technical info]
Input File: 03. Transition Consent.MP3
Channels : 2
Sample Rate : 44100
Precision : 16-bit
Duration : 00:12:38.78 = 33462154 samples = 56908.4 CDDA sectors
File Size : 12.1M
Bit Rate : 128k
Sample Encoding: MPEG audio (layer I, II or III)
Comments :
Title=Transition Consent
Artist=Abyssic
Album=High The Memory
Tracknumber=3
Year=2019

[/more]

Register
(4) marilin, nikolay81, raattent, VALERY,
Feb 19 2019, 07:56:49 Tartarus Hymn - Remedy (2019)


*Artist: Tartarus Hymn
*Album: Remedy
*Year: 2019
*Genre: Melodic Death/Thrash/Black Metal
*Country: United States
*Format: mp3@CBR320kbps
*Size: 101MB

Tracklist:
1. Cataclysmic Cosmic Storm 04:05
2. The Soul Leaves The Eyes 04:45
3. The Serpentine Seafarer 05:01
4. Immortal Cerebration 04:32
5. Dark Star 05:33
6. Eternity Finite 06:02
7. Remedy 04:16
8. Cosmic Veneration 05:03
9. Violet 03:36
******************************
Total playing time: 42:53



[more=Extended info]Multi Genre metal band from Texas.[/more]

[more=Technical info]
Input File: Tartarus Hymn - Remedy - 07 Remedy.mp3
Channels : 2
Sample Rate : 44100
Precision : 16-bit
Duration : 00:04:16.07 = 11292511 samples = 19205 CDDA sectors
File Size : 10.4M
Bit Rate : 325k
Sample Encoding: MPEG audio (layer I, II or III)
Comments :
Title=Remedy
Artist=Tartarus Hymn
Album=Remedy
Tracknumber=7
Year=2019

[/more]

Register
(11) artscald, boby9052, BugEyes, METALHUNTER, Mogozoz, Olethros, Rosen, satanist666, varlam4, Whitefish, wreak,
Feb 19 2019, 07:55:47 Tartarus Hymn - Tartarus Hymn (2018)


*Artist: Tartarus Hymn
*Album: Tartarus Hymn
*Year: 2018
*Genre: Melodic Death/Thrash/Black Metal
*Country: United States
*Format: mp3@CBR320kbps
*Size: 103MB

Tracklist:
01. Iron Corpse 04:00
02. Inner Apocalypse 04:13
03. Death by Drillbit 03:30
04. Eye to Eye 05:17
05. Abyss of Squalor 03:54
06. Cryxtal 04:07
07. Expectation of Death 05:24
08. Bleeding Existence 03:40
09. Gravity Sighs 04:43
10. Flowing in the Arctic Artery 05:08
******************************
Total playing time: 43:56



[more=Extended info]Multi Genre metal band from Texas.
[youtube]1mm527Vr8pg[/youtube]
[youtube]jmYz3qiEsbw[/youtube]
[youtube]5bsPxLgj3gM[/youtube][/more]

[more=Technical info]
Input File: Tartarus Hymn - Tartarus Hymn - 03 Death by Drillbit.mp3
Channels : 2
Sample Rate : 44100
Precision : 16-bit
Duration : 00:03:30.11 = 9266027 samples = 15758.5 CDDA sectors
File Size : 8.59M
Bit Rate : 327k
Sample Encoding: MPEG audio (layer I, II or III)
Comments :
Title=Death by Drillbit
Artist=Tartarus Hymn
Album=Tartarus Hymn
Tracknumber=3
Year=2018

[/more]

Register
(12) artscald, boby9052, kimkayoung, METALHUNTER, Mogozoz, Olethros, Rosen, satanist666, varlam4, wn129aa, wreak, zhol,
Feb 19 2019, 07:32:57 Calacorm - Calacormic Visions [demo] (2019)


*Artist: Calacorm
*Album: Calacormic Visions [demo]
*Year: 2019
*Genre: Atmospheric Black Metal
*Country: Australia
*Format: mp3@CBR320kbps
*Size: 75MB

Tracklist:
1. Zagor's Skull 03:06
2. Aromatic Raids 03:40
3. Champaque 03:28
4. A Rat Man's Axe 01:39
5. Dark Elf Dreaming of a Gnome Funeral 05:55
6. Calacormic Visions 03:12
7. Forest of Doom 02:30
8. Like an Ever-Flowing Drape 08:12
******************************
Total playing time: 31:42



[more=Extended info]Left Head: Guitar, Bass, Vocals
Right Head: Drums, Synth, Vocals[/more]

[more=Technical info]
Input File: Calacorm - Calacormic Visions Demo - 03 Champaque.mp3
Channels : 2
Sample Rate : 44100
Precision : 16-bit
Duration : 00:03:28.18 = 9180782 samples = 15613.6 CDDA sectors
File Size : 8.56M
Bit Rate : 329k
Sample Encoding: MPEG audio (layer I, II or III)
Comments :
Title=Champaque
Artist=Calacorm
Album=Calacormic Visions Demo
Tracknumber=3
Year=2019

[/more]

Register
(15) 1968_janeart, artscald, Daale, dsword, kim666, Olethros, Rosen, satanist666, SilentNidhogg, stub888, VALERY, varg-38ru, varlam4, Velmi, wreak,
Feb 19 2019, 06:46:49 Crial - Kohti Kaaosta (2018)
mirror
Register
(3) CORPSEMIXA, ExeThrash, spiritualdecay666,

1181 Pages V  < 1 2 3 4 5 > » 
- Lo-Fi Version Support form
Copyrights and abuse reports form
Time is now: 11th December 2019 - 21:06:03