Welcome Guest ( Log In | Register )

История благодарностей участнику Ice Gnoll ::: Спасибо сказали: 1023 раз(а)
Дата поста: В теме: За сообщение: Спасибо сказали:
May 22 2022, 10:27:02 Famyne - II: The Ground Below (2022)
Отличный релиз. Мелодично, медитативно, запоминающиеся мелодии. Прекрасный симбиоз вокалиста с музыкальным полотном. Одним словом - Красавцы! 20.gif
(1) Un4given,
Apr 12 2022, 10:21:32 Nazgul Rising - Orietur In Tenebris Lux Tua (2014)
cbr 320 kbps
Register
(3) Ingvar, kim666, kimkayoung,
Apr 7 2022, 17:28:00 Desoluna - Rejection Of Rejoice [ep] (2019)


*Artist: Desoluna
*Album: Rejection Of Rejoice [ep]
*Year: 2019
*Genre: Gothic/Doom Metal
*Country: Sweden
*Format: mp3@CBR320kbps
*Size: 63MB

Tracklist:
01. Lost In Mind 09:06
02. Rejection Of Rejoice 06:33
03. Night 06:08
04. Chill Of Summer 05:57
******************************
Total playing time: 27:44



[more=Extended info]Patrick Shadowland - Guitars, Vocals, Lyrics
Nadia Montes - Vocals (lead)
Olle Andreasson - Drums
Michael Levin - Bass[/more]

[more=Technical info]
Input File: 02. Rejection Of Rejoice.mp3
Channels : 2
Sample Rate : 44100
Precision : 16-bit
Duration : 00:06:33.48 = 17352380 samples = 29510.9 CDDA sectors
File Size : 15.8M
Bit Rate : 321k
Sample Encoding: MPEG audio (layer I, II or III)
Comments :
Title=Rejection Of Rejoice
Artist=Desoluna
Album=Rejection Of Rejoice (EP)
Tracknumber=02
Year=2019
Genre=Gothic/Doom Metal

[/more]

Register
(15) artscald, caro, Cartman223, chipsgott, gwynnbleid, infozahist, kluval, Mogozoz, Olethros, quarantine, sergsazan, Shadechaser, Taakeferd, VALERY, wreak,
Apr 7 2022, 17:09:40 Desoluna - The Desolate Years [demo] (2013)


*Artist: Desoluna
*Album: The Desolate Years [demo]
*Year: 2013
*Genre: Gothic/Doom Metal
*Country: Sweden
*Format: mp3@CBR192kbps
*Size: 43MB

Tracklist:
01. Dismal Thoughts 05:17
02. Walking In Desolation 06:24
03. Broken Harmony 07:13
04. Mortal Heartlessness 07:15
05. Cold Blood, Dying Soul 05:50
******************************
Total playing time: 31:59

[more=Extended info]Patrick Lundberg - Guitars (lead), Vocals, Songwriting, Lyrics
Nadia Montes - Vocals (female), Songwriting, Lyrics[/more]

[more=Technical info]
Input File: 05. Cold Blood, Dying Soul.mp3
Channels : 2
Sample Rate : 44100
Precision : 16-bit
Duration : 00:05:50.05 = 15437293 samples = 26253.9 CDDA sectors
File Size : 8.42M
Bit Rate : 192k
Sample Encoding: MPEG audio (layer I, II or III)
Comments :
Title=Cold Blood, Dying Soul
Artist=Desoluna
Album=The Desolate Years (Demo)
Tracknumber=05
Year=2013
Genre=Gothic/Doom Metal

[/more]

Register
(5) Cartman223, infozahist, quarantine, thenecromancer, VALERY,
Apr 6 2022, 11:43:54 Carttada - Recharged (2022)
Идейные наследники Motorhead. И звук, и вокал, и внешний вид. Вполне приятно.
(1) Phlebotomized,
Mar 9 2022, 16:04:07 Crowbar - Zero And Below (2022)
Несмотря на действительно хороший звук - скучно и нудно, до засыпания и падания со стула. 14.gif
(1) SaintVitus,
Feb 15 2022, 12:33:04 Arioch - Bathos [ep] (2021)


*Artist: Arioch
*Album: Bathos [ep]
*Year: 2021
*Genre: Death Metal
*Country: United States
*Format: mp3@CBR320kbps
*Size: 44MB

Tracklist:
01. Legion Of The Vortex 04:36
02. Ravenous/Merciless 03:41
03. The Darkest Hour Before Dawn 05:35
04. The Pendulum Swings 03:55
******************************
Total playing time: 17:47


 i 

2.4
 




[more=Extended info]United States, Nashville, Tennessee

Joe Littler Guitars (lead)
Elijah Hyde Guitars (rhythm), Bass, Lyrics
Nicholas Henry Bartel Vocals[/more]

[more=Technical info]
Input File: 01. Legion Of The Vortex.mp3
Channels : 2
Sample Rate : 44100
Precision : 16-bit
Duration : 00:04:36.91 = 12211511 samples = 20767.9 CDDA sectors
File Size : 11.1M
Bit Rate : 321k
Sample Encoding: MPEG audio (layer I, II or III)
Comments :
Title=Legion Of The Vortex
Artist=Arioch
Album=Bathos (EP)
Tracknumber=01
Year=2021
Genre=Death Metal

[/more]

Register
(1) TeamatSE,
Jan 29 2022, 14:24:58 Coronatus - Atmosphere (2021)
320. This is not my link.
Register
(2) deathic, gwynnbleid,
Jan 28 2022, 16:30:24 Lady Luna And The Devil - His Blessed Book (2020)


*Artist: Lady Luna And The Devil
*Album: His Blessed Book
*Year: 2020
*Genre: Doom Metal
*Country: United States
*Format: mp3@CBR320kbps
*Size: 83MB

Tracklist:
01. Doom To The World (Of Men) 04:02
02. 3:07 Am 03:56
03. Ancient Witch 04:52
04. Sister Starla 03:47
05. Circle Of Cherubs 00:57
06. Dripping With Red 05:13
07. Blackcoat's Ballad 05:15
08. His Blessed Book 04:24
09. Come Little Children (John Debney Cover) (Bonus Track) 03:11
******************************
Total playing time: 38:44



[more=Extended info]Band members
Lady Luna - Vocals, Keyboards
The Devil - Guitars, Bass
DJ Bones - Drums
Guest/Session
Tony Piccoli - Guitars (lead) (track 7)[/more]

[more=Technical info]
Input File: 05. Circle Of Cherubs.mp3
Channels : 2
Sample Rate : 44100
Precision : 16-bit
Duration : 00:00:58.00 = 2557624 samples = 4349.7 CDDA sectors
File Size : 2.40M
Bit Rate : 332k
Sample Encoding: MPEG audio (layer I, II or III)
Comments :
Title=Circle Of Cherubs
Artist=Lady Luna And The Devil
Album=His Blessed Book
Tracknumber=05
Year=2020
Genre=Doom Metal

[/more]

Register
(18) aleon, artscald, caro, chipsgott, HMHamster, marilin, metala, Mogozoz, oldvarg, Olethros, quarantine, sergsazan, stumpheavyrock, supremo, VALERY, Vitael, vosmidesijatye, wreak,
Jan 23 2022, 11:54:54 Qntal - VI Translucida (2008)
320 (Limited Edition, +4 tracks)
Register
(2) kimkayoung, MEmethuselah,
Jan 23 2022, 07:21:28 Chains - Musica Macabra (2021)
flac
Register
(5) AndreFrancis, denver, Olethros, wreak, Xtohar,
Jan 22 2022, 13:47:00 Chains - Musica Macabra (2021)


*Artist: Chains
*Album: Musica Macabra
*Year: 2021
*Genre: Doom Metal
*Country: Slovenia
*Format: mp3@CBR320kbps
*Size: 91MB

Tracklist:
01. Into The March Of The Forgotten 02:29
02. Apocalyptic Fear 02:54
03. Hexenight 06:19
04. Ritual Smokers 05:23
05. Dancing With My Demont 04:16
06. In Death Of Death 03:23
07. Garmonobozia 05:09
******************************
Total playing time: 29:53



[more=Extended info]Etienne von Chelleri - Vocals, Guitars
Matz Sick - Drums[/more]

[more=Technical info]
Input File: 07. Garmonbozia.mp3
Channels : 2
Sample Rate : 44100
Precision : 16-bit
Duration : 00:05:09.98 = 13669986 samples = 23248.3 CDDA sectors
File Size : 15.6M
Bit Rate : 402k
Sample Encoding: MPEG audio (layer I, II or III)
Comments :
Title=Garmonbozia
Artist=Chains
Album=Musica Macabra
Tracknumber=07
Year=2021
Genre=Doom Metal

[/more]

Register
(13) artscald, caro, denver, metala, Mogozoz, oldvarg, Olethros, quarantine, sergsazan, stumpheavyrock, supremo, VALERY, wreak,
Jan 22 2022, 12:01:54 The Gnashing - Grim Tides [ep] (2022)


*Artist: The Gnashing
*Album: Grim Tides [ep]
*Year: 2022
*Genre: Atmospheric Black/Doom Metal
*Country: Canada
*Format: mp3@CBR320kbps
*Size: 57MB

Tracklist:
01. Wretched Self 03:08
02. Forging A Bond With The Grave 04:22
03. Loss Of The Will To Resist 03:51
04. Vermiform 07:08
05. We Build In Silence 05:14
******************************
Total playing time: 23:43



[more=Technical info]
Input File: 01. Wretched Self.mp3
Channels : 2
Sample Rate : 48000
Precision : 16-bit
Duration : 00:03:08.50 = 9047952 samples ~ 14137.4 CDDA sectors
File Size : 7.57M
Bit Rate : 321k
Sample Encoding: MPEG audio (layer I, II or III)
Comments :
Title=Wretched Self
Artist=The Gnashing
Album=Grim Tides (EP)
Tracknumber=01
Year=2022
Genre=Atmospheric Black / Doom Metal

[/more]

Register
(14) artscald, caro, csgmnk, Olethros, quarantine, robertho777, sergsazan, Shadechaser, SilentNidhogg, stormhatt, VALERY, vasiljev_sergej, vlad74, wreak,
Jan 22 2022, 11:55:27 The Gnashing - Traitor's Gate [ep] (2021)


*Artist: The Gnashing
*Album: Traitor's Gate [ep]
*Year: 2021
*Genre: Atmospheric Black/Doom Metal
*Country: Canada
*Format: mp3@CBR320kbps
*Size: 24MB

Tracklist:
01. Further The Fall 03:40
02. Akeldama 01:45
03. Traitor's Gate 05:19
******************************
Total playing time: 10:44



[more=Technical info]
Input File: 01. Further The Fall.mp3
Channels : 2
Sample Rate : 48000
Precision : 16-bit
Duration : 00:03:40.30 = 10574352 samples ~ 16522.4 CDDA sectors
File Size : 8.84M
Bit Rate : 321k
Sample Encoding: MPEG audio (layer I, II or III)
Comments :
Title=Further The Fall
Artist=The Gnashing
Album=Traitor's Gate (EP)
Tracknumber=01
Year=2021
Genre=Atmospheric Black / Doom Metal

[/more]

Register
(14) artscald, caro, csgmnk, denver, Olethros, quarantine, robertho777, sergsazan, Shadechaser, SilentNidhogg, stormhatt, VALERY, vasiljev_sergej, wreak,
Jan 22 2022, 11:48:45 The Gnashing - The Wik [ep] (2020)


*Artist: The Gnashing
*Album: The Wik [ep]
*Year: 2020
*Genre: Instrumental Heavy/Doom Metal
*Country: Canada
*Format: mp3@CBR320kbps
*Size: 32MB

Tracklist:
01. Dungeon Dweller 06:31
02. The Wik 06:05
******************************
Total playing time: 12:36



[more=Technical info]
Input File: 02. The Wik.mp3
Channels : 2
Sample Rate : 48000
Precision : 16-bit
Duration : 00:06:05.93 = 17564688 samples ~ 27444.8 CDDA sectors
File Size : 14.7M
Bit Rate : 321k
Sample Encoding: MPEG audio (layer I, II or III)
Comments :
Title=The Wik
Artist=The Gnashing
Album=The Wik (EP)
Tracknumber=02
Year=2020
Genre=Instrumental Heavy / Doom Metal

[/more]

Register
(11) artscald, caro, csgmnk, Olethros, quarantine, sergsazan, stumpheavyrock, VALERY, vasiljev_sergej, vlad74, wreak,
Jan 18 2022, 16:44:51 Artrosis - Con Trust (2006)
flac
Register

320
Register
(1) wreak,
Jan 18 2022, 13:59:14 Dir En Grey - Withering To Death (2005)
New Link:
Register
(1) wreak,
Jan 18 2022, 11:20:15 Qntal - Silver Swan (2006)
320, Limited Edition (+5 tracks)
Register
(1) kimkayoung,
Jan 18 2022, 09:39:59 Sempiternal Deathreign - Creepshow [demo] (1988)
new link:
Register
(6) Carcharoth, hell_armageddon, quarantine, varlam4, wreak, Xtohar,
Jan 16 2022, 10:07:46 Influence - Negative [ep] (2014)


*Artist: Influence
*Album: Negative [ep]
*Year: 2014
*Genre: Sludge/Punk
*Country: New Zealand
*Format: mp3@CBR320kbps
*Size: 38MB

Tracklist:
01. Autopsy Performing (Kilslug Cover) 02:36
02. The Fun Is Over 02:40
03. You Got Nailed 02:42
04. Getting The Brush (Fear Cover) 03:11
05. Ineffectual 01:41
06. Time To Go 03:27
******************************
Total playing time: 16:17



[more=Extended info]FLAC Rip[/more]

[more=Technical info]
Input File: 03. You Got Nailed.mp3
Channels : 2
Sample Rate : 44100
Precision : 16-bit
Duration : 00:02:42.04 = 7146096 samples = 12153.2 CDDA sectors
File Size : 6.55M
Bit Rate : 323k
Sample Encoding: MPEG audio (layer I, II or III)
Comments :
Title=You Got Nailed
Artist=Influence
Album=Negative (EP)
Tracknumber=03
Year=2014
Genre=Sludge Metal/Punk

[/more]

Register
(5) artscald, caro, Olethros, varlam4, wreak,
Jan 16 2022, 09:50:19 Influence - Influence (2013)


*Artist: Influence
*Album: Influence
*Year: 2013
*Genre: Sludge Metal/Punk
*Country: New Zealand
*Format: mp3@CBR320kbps
*Size: 66MB

Tracklist:
01. Burning Pages 03:31
02. Life Is A Problem 01:47
03. Down The Street 01:35
04. Shrinking Man 03:07
05. Life 03:50
06. Acid Brainwash 03:08
07. Bastard Begot 02:00
08. Standing In A Line Waiting 01:58
09. Grave City 03:23
10. Genetic Law 03:54
******************************
Total playing time: 28:13



[more=Extended info]FLAC Rip[/more]

[more=Technical info]
Input File: 01. Burning Pages.mp3
Channels : 2
Sample Rate : 44100
Precision : 16-bit
Duration : 00:03:31.13 = 9310745 samples = 15834.6 CDDA sectors
File Size : 8.53M
Bit Rate : 323k
Sample Encoding: MPEG audio (layer I, II or III)
Comments :
Title=Burning Pages
Artist=Influence
Album=Influence
Tracknumber=01
Year=2013
Genre=Sludge Metal/Punk

[/more]

Register
(5) artscald, caro, Olethros, varlam4, wreak,
Jan 12 2022, 10:36:25 Qntal - Illuminate (2005)
320 kbps
Register
(1) kimkayoung,
Jan 11 2022, 13:41:47 Lords Of The North - Lords Of The North [demo] (2008)
320 kbps
Register
(3) gena, thenecromancer, wreak,
Jan 11 2022, 11:23:47 Elisaday - Auftakt [ep] (2021)


*Artist: Elisaday
*Album: Auftakt [ep]
*Year: 2021
*Genre: Symphonic Metal
*Country: Russian Federation
*Format: mp3@CBR320kbps
*Size: 57MB

Tracklist:
01. Inner War 04:31
02. Fire Or Ice 04:24
03. Poison Ring 05:47
04. Hear Me 09:56
******************************
Total playing time: 24:38



[more=Extended info]Denis Geit - Bass
Dmitry Popov - Guitars
Ivan Kaiser - Keyboards
Lyubov Dunaeva - Vocals, Lyrics
Igor Borodin - Drums[/more]

[more=Technical info]
Input File: 02. Fire Or Ice.mp3
Channels : 2
Sample Rate : 44100
Precision : 16-bit
Duration : 00:04:24.87 = 11680767 samples = 19865.2 CDDA sectors
File Size : 10.6M
Bit Rate : 320k
Sample Encoding: MPEG audio (layer I, II or III)
Comments :
Title=Fire Or Ice
Artist=ElisaDay
Album=Auftakt (EP)
Tracknumber=02
Year=2021
Genre=Symphonic Metal

[/more]

Register
(11) AHBAnep, artscald, caro, Cartman223, chipsgott, csgmnk, gwar, Olethros, valera2010, varlam4, wreak,
Jan 11 2022, 11:05:54 Elisaday - Never Be The Same [ep] (2017)


*Artist: Elisaday
*Album: Never Be The Same [ep]
*Year: 2017
*Genre: Symphonic Metal
*Country: Russian Federation
*Format: mp3@CBR320kbps
*Size: 71MB

Tracklist:
01. Never Be The Same 04:07
02. Fight For Your Dreams 04:22
03. Dance All The Night 03:25
04. The Letter 03:28
05. Never Be The Same (Instrumental) 04:07
06. Fight For Your Dreams (Instrumental) 04:22
07. Dance All The Night (Instrumental) 03:25
08. The Letter (Instrumental) 03:28
******************************
Total playing time: 30:44



[more=Extended info]Денис Гейт - Bass
Дмитрий Попов - Guitars
Иван Кайзер - Keyboards
Любовь Дунаева - Vocals (female)
Игорь Бородин - Drums[/more]

[more=Technical info]
Input File: 02. Fight For Your Dreams.mp3
Channels : 2
Sample Rate : 44100
Precision : 16-bit
Duration : 00:04:22.60 = 11580528 samples = 19694.8 CDDA sectors
File Size : 10.5M
Bit Rate : 321k
Sample Encoding: MPEG audio (layer I, II or III)
Comments :
Title=Fight For Your Dreams
Artist=ElisaDay
Album=Never Be The Same (EP)
Tracknumber=02
Year=2017
Genre=Symphonic Metal

[/more]

Register
(10) AHBAnep, artscald, caro, Cartman223, chipsgott, gwar, Mogozoz, Olethros, varlam4, wreak,

13 Pages V   1 2 3 > » 
- Lo-Fi Version Support form
Copyrights and abuse reports form
Time is now: 25th May 2022 - 04:51:44