Welcome Guest ( Log In | Register )

История благодарностей участнику Ice Gnoll ::: Спасибо сказали: 1114 раз(а)
Дата поста: В теме: За сообщение: Спасибо сказали:
Today, 06:42:47 Alchemist - Architecture Of Humanity [ep] (2023)
ЦИТАТА(Kaphiel @ Feb 5 2023, 00:26:25) *
А это не тот самый Алхимик, у которого был альбом Organasm когда-то давным-давно?

Не тот. Те австралопитеки были. А цэ европа.
(2) Kaphiel, thenecromancer,
Jan 29 2023, 09:42:43 Dismal - Dionisiaca [ep] (2001)
cbr 320 kbps
Register
(2) quarantine, thenecromancer,
Jan 27 2023, 09:38:34 Dismal - Our Sad Saga [demo] (1996)
cbr320kbps
Register
(3) Proteus_666, stumpheavyrock, thenecromancer,
Jan 12 2023, 08:01:56 Crom - The Era Of Darkness (2023)
ЦИТАТА(Kvlt @ Jan 11 2023, 22:40:22) *
Why is no one writing anywhere when a song is a cover version. "The Last Unicorn" here from Crom and "Mourning Palace" from Walg aren't the first songs where it's neither here nor in the tags of the MP3s named. Are you mass uploaders expecting us downloaders to suggest?

It's just that mass uploaders sometimes have no time to do this. And, if the information that this is a cover is not initially in the tags, then they do not pay attention to it. Or they may simply not know that it is a cover. There's nothing to be angry about, but you can just write it in the tags yourself, if necessary.
(1) kefka,
Jan 8 2023, 14:26:36 Obituary - Dying Of Everything (2023)
Не являясь поклонником группы и не ожидая от нее каких-то откровений, пару раз с удовольствием послушал альбом. От души потряс башкой, пока разбирал утренние рабочие моменты. Люблю их как раз за вокал и ненапряжность. Фоном группу очень здорово слушать. Спасибо.
(1) EvgeniusLongus,
Dec 4 2022, 12:05:10 Andaja - Atvaras (2017)


*Artist: Andaja
*Album: Atvaras
*Year: 2017
*Genre: Folk Rock
*Country: Lithuania
*Format: mp3@CBR320kbps
*Size: 110MB

Tracklist:
01. Atvaras 05:25
02. Saulės Rauda 07:21
03. Varnas 05:08
04. Perkūno Kariauna 06:29
05. Kovai 06:08
06. Užkalbėjimas Gyvatai 06:19
07. Maumas 05:17
08. Ugnies Pataluos 06:12
******************************
Total playing time: 48:19



[more=Technical info]
Input File: 04. Perkūno Kariauna.mp3
Channels : 2
Sample Rate : 44100
Precision : 16-bit
Duration : 00:06:29.95 = 17196839 samples = 29246.3 CDDA sectors
File Size : 15.7M
Bit Rate : 321k
Sample Encoding: MPEG audio (layer I, II or III)
Comments :
Title=Perkūno Kariauna
Artist=Andaja
Album=Atvaras
Tracknumber=04
Year=2017
Genre=Folk Rock

[/more]

Register
(7) Bruce, Cartman223, gwar, Raw1488, varlam4, zoog, дивин,
Oct 8 2022, 10:10:27 The Crest - Vain City Chronicles (2005)
Register
(1) deathic,
Oct 8 2022, 10:09:56 The Crest - Letters From Fire (2002)
Register
(1) deathic,
Sep 30 2022, 07:52:15 Lunar Mercia - Leaving The Fragile Space (2022)
(1) GorAtheist,
Sep 29 2022, 15:03:48 Quadrivium - Adversus (2008)
Register
(3) Carcharoth, kimkayoung, sTerLingaz,
Sep 25 2022, 11:03:25 In Autumn - Reborn (2013)
Register
(2) Ingvar, quarantine,
Sep 24 2022, 09:28:49 The Gnashing - My Ruin [single] (2022)


*Artist: The Gnashing
*Album: My Ruin [single]
*Year: 2022
*Genre: Atmospheric Black/Doom Metal/Acoustic
*Country: Canada
*Format: mp3@CBR320kbps
*Size: 21MB

Tracklist:
01. My Ruin 05:23
02. A Song Of Solitude (Instrumental) 03:24
******************************
Total playing time: 8:47



[more=Extended info]Bandcamp free download[/more]

[more=Technical info]
Input File: 01. My Ruin.mp3
Channels : 2
Sample Rate : 48000
Precision : 16-bit
Duration : 00:05:23.74 = 15539472 samples ~ 24280.4 CDDA sectors
File Size : 13.0M
Bit Rate : 321k
Sample Encoding: MPEG audio (layer I, II or III)
Comments :
Title=My Ruin
Artist=The Gnashing
Album=My Ruin (Single)
Tracknumber=01
Year=2022
Genre=Atmospheric Black/Doom Metal

[/more]

Register
(9) amirhossien1371, artscald, caro, dermarsoran, stormhatt, VALERY, vasiljev_sergej, vlad74, wreak,
Aug 31 2022, 07:07:58 Thy Cold Embrace - A Splendorous Place (Is Not A Dream) (1997)
Link from web. 128 kbps
Register
(3) Carcharoth, kimkayoung, thenecromancer,
Aug 26 2022, 06:59:07 Child Of Caesar - Spirit & Liberation (2022)
Поглазел превью на ютубе. Я конечно не специалист, но всё же... necroscum, а вы ничего не напутали с жанром?
(2) + ATheisT +, SaintVitus,
Aug 23 2022, 07:45:15 Candlemass - Scandinavian Gods [single] (2022)
Как-то не очень... 13.gif
(2) Lux, plfan93,
Aug 17 2022, 09:36:42 Panzer - Al Pie Del Cañón (1982)
cbr 320 kbps
Mega
Register

Cloud.Mail.ru
Register
(1) andersonj8,
Jun 29 2022, 07:00:09 Heléh - Heléh (2022)
Послушал на Bandcamp первый трек. Ну очень достойно. Спасибо, качаю.
(2) Lux, nsk2008,
May 22 2022, 10:27:02 Famyne - II: The Ground Below (2022)
Отличный релиз. Мелодично, медитативно, запоминающиеся мелодии. Прекрасный симбиоз вокалиста с музыкальным полотном. Одним словом - Красавцы! 20.gif
(1) Un4given,
Apr 12 2022, 10:21:32 Nazgul Rising - Orietur In Tenebris Lux Tua (2014)
cbr 320 kbps
Register
(6) AlexSmith, Buregon, Ingvar, kim666, kimkayoung, varlam4,
Apr 7 2022, 17:28:00 Desoluna - Rejection Of Rejoice [ep] (2019)


*Artist: Desoluna
*Album: Rejection Of Rejoice [ep]
*Year: 2019
*Genre: Gothic/Doom Metal
*Country: Sweden
*Format: mp3@CBR320kbps
*Size: 63MB

Tracklist:
01. Lost In Mind 09:06
02. Rejection Of Rejoice 06:33
03. Night 06:08
04. Chill Of Summer 05:57
******************************
Total playing time: 27:44



[more=Extended info]Patrick Shadowland - Guitars, Vocals, Lyrics
Nadia Montes - Vocals (lead)
Olle Andreasson - Drums
Michael Levin - Bass[/more]

[more=Technical info]
Input File: 02. Rejection Of Rejoice.mp3
Channels : 2
Sample Rate : 44100
Precision : 16-bit
Duration : 00:06:33.48 = 17352380 samples = 29510.9 CDDA sectors
File Size : 15.8M
Bit Rate : 321k
Sample Encoding: MPEG audio (layer I, II or III)
Comments :
Title=Rejection Of Rejoice
Artist=Desoluna
Album=Rejection Of Rejoice (EP)
Tracknumber=02
Year=2019
Genre=Gothic/Doom Metal

[/more]

Register
(16) artscald, caro, Cartman223, chipsgott, gwynnbleid, infozahist, kluval, Mogozoz, Olethros, quarantine, sergsazan, Shadechaser, Taakeferd, VALERY, varlam4, wreak,
Apr 7 2022, 17:09:40 Desoluna - The Desolate Years [demo] (2013)


*Artist: Desoluna
*Album: The Desolate Years [demo]
*Year: 2013
*Genre: Gothic/Doom Metal
*Country: Sweden
*Format: mp3@CBR192kbps
*Size: 43MB

Tracklist:
01. Dismal Thoughts 05:17
02. Walking In Desolation 06:24
03. Broken Harmony 07:13
04. Mortal Heartlessness 07:15
05. Cold Blood, Dying Soul 05:50
******************************
Total playing time: 31:59

[more=Extended info]Patrick Lundberg - Guitars (lead), Vocals, Songwriting, Lyrics
Nadia Montes - Vocals (female), Songwriting, Lyrics[/more]

[more=Technical info]
Input File: 05. Cold Blood, Dying Soul.mp3
Channels : 2
Sample Rate : 44100
Precision : 16-bit
Duration : 00:05:50.05 = 15437293 samples = 26253.9 CDDA sectors
File Size : 8.42M
Bit Rate : 192k
Sample Encoding: MPEG audio (layer I, II or III)
Comments :
Title=Cold Blood, Dying Soul
Artist=Desoluna
Album=The Desolate Years (Demo)
Tracknumber=05
Year=2013
Genre=Gothic/Doom Metal

[/more]

Register
(6) Cartman223, infozahist, quarantine, thenecromancer, VALERY, varlam4,
Apr 6 2022, 11:43:54 Carttada - Recharged (2022)
Идейные наследники Motorhead. И звук, и вокал, и внешний вид. Вполне приятно.
(1) Phlebotomized,
Mar 9 2022, 16:04:07 Crowbar - Zero And Below (2022)
Несмотря на действительно хороший звук - скучно и нудно, до засыпания и падания со стула. 14.gif
(2) Ash_1980, SaintVitus,
Feb 15 2022, 12:33:04 Arioch - Bathos [ep] (2021)


*Artist: Arioch
*Album: Bathos [ep]
*Year: 2021
*Genre: Death Metal
*Country: United States
*Format: mp3@CBR320kbps
*Size: 44MB

Tracklist:
01. Legion Of The Vortex 04:36
02. Ravenous/Merciless 03:41
03. The Darkest Hour Before Dawn 05:35
04. The Pendulum Swings 03:55
******************************
Total playing time: 17:47


 i 

2.4
 




[more=Extended info]United States, Nashville, Tennessee

Joe Littler Guitars (lead)
Elijah Hyde Guitars (rhythm), Bass, Lyrics
Nicholas Henry Bartel Vocals[/more]

[more=Technical info]
Input File: 01. Legion Of The Vortex.mp3
Channels : 2
Sample Rate : 44100
Precision : 16-bit
Duration : 00:04:36.91 = 12211511 samples = 20767.9 CDDA sectors
File Size : 11.1M
Bit Rate : 321k
Sample Encoding: MPEG audio (layer I, II or III)
Comments :
Title=Legion Of The Vortex
Artist=Arioch
Album=Bathos (EP)
Tracknumber=01
Year=2021
Genre=Death Metal

[/more]

Register
(1) TeamatSE,
Jan 29 2022, 14:24:58 Coronatus - Atmosphere (2021)
320. This is not my link.
Register
(2) deathic, gwynnbleid,

14 Pages V   1 2 3 > » 
- Lo-Fi Version Support form
Copyrights and abuse reports form
Time is now: 5th February 2023 - 18:13:55