Welcome Guest ( Log In | Register )

История благодарностей участнику chickenfucker ::: Спасибо сказали: 143 раз(а)
Дата поста: В теме: За сообщение: Спасибо сказали:
Aug 11 2016, 11:41:13 Nocturnal Winds - Of Art And Suffering (2001) (1) Дерсу Узала,
Apr 21 2015, 08:15:29 Mister Dickson - Sold His Balls To The Devil For The Witch Cunt (2015)


*Artist: Mister Dickson
*Album: Sold His Balls To The Devil For The Witch Cunt
*Year: 2015
*Genre: Hard Rock/Stoner Rock
*Country: Russian Federation
*Format: mp3@CBR320kbps
*Size: 89MB

Tracklist:
1. Down Through The Sky 3:12
2. Nothing Left In My Head 7:02
3. Fuck You Space Invaders 01:48
4. Nailed To The Cross 03:54
5. God's Creature 03:31
6. Hang By The Neck 04:08
7. Bull's Eye 04:25
8. I Command 07:13
9. Highway 55 04:02
******************************
Total playing time: 39:15



[more=Technical info]
Input File: 07. Bull\\\'s Eye.mp3
Channels : 2
Sample Rate : 48000
Precision : 16-bit
Duration : 00:04:25.15 = 12727440 samples ~ 19886.6 CDDA sectors
File Size : 10.6M
Bit Rate : 320k
Sample Encoding: MPEG audio (layer I, II or III)
Comments :
Title=Bull's Eye
Artist=Mister Dickson
Album=Sold His Balls To The Devil
Tracknumber=7/9
Year=2015

[/more]

Register
(2) marilin, VALERY,
Jul 12 2014, 08:54:24 Automorphism - Demo 2x19x53 [demo] (2014)


*Artist: Automorphism
*Album: Demo 2x19x53 [demo]
*Year: 2014
*Genre: Grindcore/Crustgrind
*Country: Russian Federation
*Format: mp3@CBR320kbps
*Size: 24MB

Tracklist:
01. Sylow Theorems 01:53
02. Finite-Dimensional Space 02:37
03. Local Isometry Of Boundaries In The Relative Metrics 02:36
04. Symmetric Transformation 01:26
05. The Definition Of Operation 02:01
******************************
Total playing time: 10:33



[more=Technical info]
Input File: 04. Symmetric Transformation.mp3
Channels : 2
Sample Rate : 44100
Precision : 16-bit
Duration : 00:01:26.60 = 3819192 samples = 6495.22 CDDA sectors
File Size : 3.47M
Bit Rate : 320k
Sample Encoding: MPEG audio (layer I, II or III)
Comments :
Title=Symmetric Transformation
Artist=Automorphism
Album=Demo 2x19x53
Tracknumber=4
Year=2014

[/more]

Register
(4) morbidangelo, Rosen, wreak, Герб,
Jun 25 2014, 02:19:45 YURODIVIYE - YURODIVIYE [ep] (2014)


*Artist: YURODIVIYE
*Album: YURODIVIYE [ep]
*Year: 2014
*Genre: Crust/Death Metal
*Country: Russian Federation
*Format: mp3@CBR320kbps
*Size: 60MB

Tracklist:
1. 1 03:31
2. 2 02:11
3. 3 04:04
4. 4+5 03:31
5. 6 03:13
6. 7 04:14
7. 8 04:12
******************************
Total playing time: 24:56



[more=Technical info]
Input File: 02. 2.mp3
Channels : 2
Sample Rate : 44100
Precision : 16-bit
Duration : 00:02:11.85 = 5814673 samples = 9888.9 CDDA sectors
File Size : 5.50M
Bit Rate : 334k
Sample Encoding: MPEG audio (layer I, II or III)
Comments :
Title=2
Artist=YURODIVIYE
Album=YURODIVIYE
Tracknumber=2
Year=2014

[/more]

Register
(8) abob, Boozer, fishish, killingod, old, Rosen, wreak, Герб,
Nov 24 2013, 07:49:59 Вѣстникъ Европы - Предвкушение (2013)


*Artist: Вѣстникъ Европы
*Album: Предвкушение
*Year: 2013
*Genre: Post-Metal/Sludge
*Country: Russian Federation
*Format: mp3@CBR320kbps
*Size: 73MB

Tracklist:
01. Начало 02:54
02. Духовные Помыслы 03:54
03. Кости Народов 04:04
04. Называя Вещи Своими Именами 08:09
05. Девятое Мая 04:46
06. Цикличность 08:14
07. Конец 08:32
******************************
Total playing time: 40:33

[more=Technical info]
Input File: 03. Кости Народов.mp3
Channels : 2
Sample Rate : 32000
Precision : 16-bit
Duration : 00:04:04.34 = 7818720 samples ~ 18325.1 CDDA sectors
File Size : 9.92M
Bit Rate : 325k
Sample Encoding: MPEG audio (layer I, II or III)
Comments :
Title=Êîñòè Íàðîäîâ
Artist=Â?ñòíèêú Åâðîïû
Album=Ïðåäâêóøåíèå
Tracknumber=3
Year=2013

[/more]

Register
(13) Andr, caro, Daale, dead can dance, Emhyr var Emreis, Kwaad, old, SatanicPanzer, supremo, Synthaeon, ugly, VALERY, wreak,
May 23 2013, 08:10:15 Dirk Diggler - Dirk Diggler (2010)


*Artist: Dirk Diggler
*Album: Dirk Diggler
*Year: 2010
*Genre: Grindcore
*Country: Israel
*Format: mp3@CBR320kbps
*Size: 45MB

Tracklist:
1 Shir She'ho Kolo Ani 1:18
2 Ha'gehenom Magia Be'mitog Me'hadash 0:50
3 Bli Bgadim At Lo Nir'et Datia 1:39
4 Geometria Frektalit 1:11
5 Masa Retzach Le'taer Et Hiochech 0:49
6 Ha'kol Ha'metaftef Tzahar 1:22
7 Itzmi Et Ha'eynaim (Pitchi Et Ha'pe) 3:37
8 Kitmei Dam Al Tmonot Yom Holedet 0:48
9 Zro'ot Tmanon 1:04
10 Sandy Bar 0:57
11 Or (Me'shaker Le'atzmo) 2:03
12 Rochev Amiti Rochev Gam Al Pony 0:31
13 Ha'yamim Ha'rishonim Shel Yanuhar 2:29
14 Nitzba! 1:25
******************************
Total playing time: 20:03



[more=Technical info]
Input File: 04. Geometria Frektalit.mp3
Channels : 2
Sample Rate : 44100
Precision : 16-bit
Duration : 00:01:11.06 = 3133834 samples = 5329.65 CDDA sectors
File Size : 2.84M
Bit Rate : 320k
Sample Encoding: MPEG audio (layer I, II or III)
Comments :
Title=Geometria Frektalit
Artist=Dirk Diggler
Album=Dirk Diggler
Tracknumber=4
Year=2010
Genre=Grindcore

[/more]

Register
(2) IllInTheHead, wreak,
May 23 2013, 07:32:57 Mary Bell - Mary Bell (2007)
Register
(3) denver, Sylvi, VALERY,
Mar 29 2013, 05:21:16 Regarde Les Hommes Tomber - Regarde Les Hommes Tomber (2013)
пост-металл в духе time to burn, celeste и им подобных, мне понравилось
(2) BioMax, sarcophagus,
Mar 13 2013, 15:46:53 Devastator - Fragile Messiah (2013)
жаль, не тот devastator, который хотелось бы
(1) Boozer,
Feb 14 2013, 12:55:17 Thou - Tyrant (2007)
Register
(4) AngelSlayerSoul, kolar666, varlam4, Вентилятор,
Feb 14 2013, 07:29:36 Земфира - Жить в твоей голове (2013)


*Artist: Земфира
*Album: Жить в твоей голове
*Year: 2013
*Genre: Rock
*Country: Russian Federation
*Format: mp3@CBR320kbps
*Size: 87MB

Tracklist:
1. Жить в твоей голове 05:24
2. Без шансов 02:46
3. Деньги 03:56
4. Кофевино 03:33
5. Чайка 03:24
6. Если бы 03:43
7. Похоронила 3:28
8. Река 03:24
9. Кувырок 3:36
10. Гора 05:17
******************************
Total playing time: 38:31

[more=Extended info]


Input File: 02_Без шансов.mp3
Channels : 2
Sample Rate : 44100
Precision : 16-bit
Duration : 00:02:46.31 = 7334447 samples = 12473.5 CDDA sectors
File Size : 6.97M
Bit Rate : 335k
Sample Encoding: MPEG audio (layer I, II or III)
Comments :
Title=Без шансов
Artist=Земфира
Album=Жить в твоей голове
Tracknumber=2/10
Year=2013
Genre=Rock
Discnumber=NR 0313 CDp

[/more]

Register
(7) avkruchinin, crackedbrain, ghostWhite, Lanceatum, Mplast, Old Vyaine, VALERY,
Jan 2 2013, 08:26:30 Nightwish - Trials Of Imaginaerum [ep] (2012)
добейся сночало metaler.gif
(1) Emhyr var Emreis,
Dec 17 2012, 06:26:22 A Veil Of Water - Reminder (2011)
если тут все такое же, как и в ссылке на ютуб, то где собственно рок?
(1) BioMax,
Nov 30 2012, 18:47:44 Crime Against Humanity - Aether [ep] (2012)


*Artist: Crime Against Humanity
*Album: Aether [ep]
*Year: 2012
*Genre: Progressive Deathcore/Metalcore
*Country: Russian Federation
*Format: mp3@CBR320kbps
*Size: 56MB

Tracklist:
1. Aether 0:54
2. Только Смерть Осталась С Тобой 4:48
3. Их Лица 5:03
4. Да Взовьется Пепел 4:48
5. Восхождение 5:19
6. На Третий День..... 5:18
******************************
Total playing time: 26:10



[more=Extended info]


Input File: 02 Только Смерть Осталась С Тобой.mp3
Channels : 2
Sample Rate : 44100
Precision : 16-bit
Duration : 00:04:48.63 = 12728627 samples = 21647.3 CDDA sectors
File Size : 11.5M
Bit Rate : 320k
Sample Encoding: MPEG audio (layer I, II or III)
Comments :
Title=Òîëüêî Ñìåðòü Îñòàëàñü Ñ Òîáîé
Artist=Crime Against Humanity
Album=Aether
Tracknumber=2
Year=2012

[/more]

Register
(3) Fetus_In_Fetu, respect, varlam4,
Nov 30 2012, 18:29:50 Fire To Fields - Products (2012)


*Artist: Fire To Fields
*Album: Products
*Year: 2012
*Genre: Doom/Industrial Metal/Sludge
*Country: Russian Federation
*Format: mp3@CBR320kbps
*Size: 127MB

Tracklist:
1. From Illness Into Sickness 7:08
2. Manufacturing Corpse 10:44
3. Fat 12:22
4. Superstore Fodder 11:19
5. Fire To Fields 6:19
6. Depress 7:49
******************************
Total playing time: 55:41



[more=Extended info]


Input File: 01. From Illness Into Sickness.mp3
Channels : 2
Sample Rate : 44100
Precision : 16-bit
Duration : 00:07:08.29 = 18887765 samples = 32122 CDDA sectors
File Size : 17.1M
Bit Rate : 320k
Sample Encoding: MPEG audio (layer I, II or III)
Comments :
Title=From Illness Into Sickness
Artist=Fire To Fields
Album=Products
Tracknumber=01/06
Year=2012
Genre=Sludge

[/more]
Register
(5) Hell_Is_Here, metala, VALERY, varlam4, wreak,
Nov 16 2012, 09:02:05 Sonance - Like Ghosts (2012)
и где в фейсбуке ткнуть чтоб послушать?

а, ну да
(2) BioMax, MeatKnife,
Nov 13 2012, 12:37:37 Svartidauði - Flesh Cathedral (2012)
мне лично плевать кто они, хоть говнари, хоть хипстеры, хоть голубые
материал мне очень понравился, буду слушать
(3) aesteticvice, Black Cat, Абигор,
Sep 19 2012, 17:37:34 Cannibal Corpse - Gore Obsessed (2002)
последний их альбом, который мне нравится
(2) Emm Human, infiltrator,
Sep 11 2012, 16:13:22 Forsaken - Anima Mundi (2004)
Register
(6) GAS, Jurmagund, muskatnuss, sanan22, Un4given, VALERY,
Sep 6 2012, 15:23:58 Netra - Sørbyen (2012)
не дико и не дрянь, просто электронщина какая-то
мне не вкатило
(2) 1984, as71,
Aug 27 2012, 19:24:55 Eliminator - Krieg Thrash (2012)
кто-нибудь вместо графиков музыку слушал вообще?
(1) 4ereppaha,
Aug 16 2012, 19:28:31 Dopethrone - III (2012)
в любом жанре можно играть интересно
эти ребята кроме зевоты лично у меня ничего не вызывают
(1) Дерсу Узала,
Aug 16 2012, 07:01:19 Dopethrone - III (2012)
вторичная группа, этот даже слушать не буду, уверен - ничего интересного
(1) Дерсу Узала,
Aug 14 2012, 16:11:42 Benighted In Sodom - A Premonition Of Miracles Undone (2012)
мне побоку, кто там этот матрон, не зайди я на металарею скачать какой-то релиз, и не узнал бы, что он возможно педик
кто там кого в очко шпили-вили, как то даже не интеренсо
сабжевые релизы мне всегда нравились

и как линк на ютуб-поеботу, парой постов выше, связан с сабжем? я должен был восхитится остроумием и находчивостью эпистолярного словоблуда?
(3) m00n1ight, shitsic, vosmidesijatye,
Aug 2 2012, 06:48:57 Gebrechlichkeit - Glanz Und Elend (2012)
блэк метал, германия. что еще надо, чтобы пройти мимо?

3 Pages V   1 2 3 >
- Lo-Fi Version Support form
Copyrights and abuse reports form
Time is now: 23rd June 2021 - 22:22:27