Welcome Guest ( Log In | Register )

История благодарностей участнику Moonshtook ::: Спасибо сказали: 548 раз(а)
Дата поста: В теме: За сообщение: Спасибо сказали:
Jul 3 2019, 17:22:25 Abbath - Outstrider (2019)
ЦИТАТА(xax @ Jul 3 2019, 11:03:16) *
Альбом мог бы быть хорошим, но испортили плохим сведением и чрезмерно выделенным плохим вокалом, приглушающим всю музыку.

Это Блэк. Плохое сведение - фишка. Сыро, злобно, грязно. Крутые хэви-соляки. Примерно на уровне последнего иммортала, уж точно не хуже, но лучше первого сольника Аббата
(2) infiltrator, suseka,
Mar 10 2019, 20:37:25 Nokturnal Mortum - Істина (2017)
ЦИТАТА(Metalass @ Mar 10 2019, 21:22:59) *
Альбом показался хуже предшественника. Как-то все очень (относительно) просто аранжированно. Спецом сравнил с прошлым.
Тем не менее, альбом все равно очень крутой, т.к. группа иных и не делает.

Это потому что Saturious ушёл. Очень грамотный аранжировщик.
(5) dalex, infiltrator, Metalass, neoatheist, suseka,
Mar 10 2019, 11:10:46 Brymir - Wings Of Fire (2019)
New Wave of Modern Power Metal
(1) Andrew,
Mar 5 2019, 20:43:37 Misery Index - Rituals Of Power (2019)
ЦИТАТА(FullofHate @ Mar 5 2019, 22:38:59) *
Странно заявлен жанр Old School Death Metal, в то время как группа-то смотрит в сторону модерна сколько мы их знаем...

[youtube]p3eh7uDhg2A[/youtube]

Видимо новое поколение школоло подросло, для которых это олдскул 21.gif
(2) boby9052, infiltrator,
Mar 5 2019, 09:45:02 Nekrokrist SS - Neljän Käärmeen Veljeskunta (2018)
Альбом супер классный! Хотя риффы и вторичные, но сути не меняет!
(2) Daale, sethurius,
Feb 12 2019, 14:14:16 Rotting Christ - The Heretics (2019)
Послушал, наконец, до конца. Альбом вымученный, шо капец. Ссанина и гомосятина. Другого Блэка у меня для вас нет. Да и не Блэк это. Эмпайя - файя, и так весь альбом. Тупые тексты. Только на пафосе своем выезжают.
(3) BleedingSun, CRUNCH, infiltrator,
Feb 12 2019, 07:41:37 Rotting Christ - The Heretics (2019)
ЦИТАТА(BleedingSun @ Feb 12 2019, 09:36:30) *
Текст - мощь! Фая-дизая - на месте, что главное. Третий класс, вторая четверть - какой слог, какая мысль! Аплодирую лёжа pray.gif Пушкин одобряет)

Тексты, конечно, уровня качков из Manowar. Примитив. Хоть бы уже про древнюю Грецию пели или оккультизм
(2) BleedingSun, infiltrator,
Feb 12 2019, 07:02:03 Rotting Christ - The Heretics (2019)
ЦИТАТА(BleedingSun @ Feb 12 2019, 08:56:51) *
Ты в "живой" речи так разговариваешь?) Хлеб белый (а не белый хлеб) дайте мне! Ветры злые (а не злые ветры) дуют из окна. Трава не кошена, брюки не глажены, сапоги не чищены. Самому не смешно?)

С литературным языком совсем не знакомы? Поэзию BBH можете почитать, там и не такое встречается. Или у того же Immortal - блаширкхи, рэйвендарки. Это Блэк метал, тут такое норма.
(3) infiltrator, krotovich, suseka,
Jan 29 2019, 10:56:44 Seges Findere - Atrocious Decimation (2019)
ЦИТАТА(RUSP73 @ Jan 29 2019, 09:27:11) *
Достаточно бестолковая наци банда, выпустившая кучу релизов и так не научившаяся играть...

А в козлометалле особо уметь играть и не нужно
(1) Occultas,
Jan 21 2019, 20:11:27 Frosthardr - Frosthardr (2018)
это чё, хрюсы? unblack?
(1) SSWolf88,
Dec 28 2018, 17:18:17 Dross Delnoch - In The Vortex Of Centuries (2018)
Сильнейший материал. Радует гостевой участие Дмитрия из Asmund
(1) tormoz,
Dec 12 2018, 09:59:25 Croc Noir - Mort (2018)
sethurius, ты кого помойкой назвал?
(1) nunim,
Nov 29 2018, 14:45:40 Wulkanaz - Wulkanaz (2018)
Блэк- это панк
(3) suseka, vosmidesijatye, Фо,
Nov 15 2018, 13:31:54 Січгарт - Честь Та Кров (2018)
Трэш всегда был с около-милитари лирикой, достаточно тот же Slayer, Sodom вспомнить. Ханнеман вообще по 3-му Рейху коллекционировал всё. Так что все нормально
(2) neoatheist, vosmidesijatye,
Nov 14 2018, 10:31:13 Січгарт - Честь Та Кров (2018)
ЦИТАТА(aesteticvice @ Nov 14 2018, 12:18:28) *
да тут вообще весь альбом про воинов света и священную войну в поддержку не буду говорить кого против сил зла, все знают каких, не понимаю, зачем такое вбрасывать не в Украинском форуме, мне такое неприятно, облога вообще жесть normal_Homerdisgust3s.png зачистка не буду говорить какого города 21.gif

Это антитеррористическая операция
(9) Antiscum, DMIYUR, iconium, Kisser, Nattfodd, russ777, Tarelka, Tular, Visitor,
Nov 5 2018, 18:21:13 Вывороть - Отребье (2018)


*Artist: Вывороть
*Album: Отребье
*Year: 2018
*Genre: Black Metal
*Country: Belarus
*Format: mp3@VBR270kbps
*Size: 85MB

Tracklist:
1. Я Жду Вас В Своих Сновидениях
2. Да Придёт Стихия!
3. Бесье
4. Богохульство
5. К Самоубийце!
6. Волчий Вызов
7. Усопшая Планета
8. Светопреставление
9. Добро Пожаловать в Преисподнюю!
10. Замкнутость
******************************
Total playing time: 47:13



[more=Technical info]
Input File: 1. ВЫВОРОТЬ - Я Жду Вас В Своих Сновидениях.mp3
Channels : 2
Sample Rate : 48000
Precision : 16-bit
Duration : 00:05:23.47 = 15526656 samples ~ 24260.4 CDDA sectors
File Size : 11.0M
Bit Rate : 273k
Sample Encoding: MPEG audio (layer I, II or III)
Comments :
Title=Я Жду Вас В Своих Сновидениях
Artist=Вывороть
Album=Отребье
Tracknumber=1/10
Year=2018
Genre=Black Metal

[/more]

Register
(12) 1968_janeart, Aresson, artscald, judaz, Korpse, Krosis, Rosen, sethurius, thenecromancer, VALERY, varlam4, vasiljev_sergej,
Nov 5 2018, 17:41:22 Wolftomb - Autumn Of Our Lives (2018)
ЦИТАТА(Hroedmar @ Nov 5 2018, 16:22:02) *
Ну да, сейчас бы в очередной раз ранний Друдх поворшипить...

Друдха мало не бывает
(1) dagger666,
Oct 28 2018, 09:12:53 Sjukdom - Stridshymner Og Dødssalmer (2018)
О! Ждал такое. Получше последнего Marduk
(1) nsk2008,
Oct 14 2018, 08:41:53 Bestial Invasion - Memories. The Аrchitect Of The Universe [single] (2018)
По моему скромному мнению - лучший техникал из СНГ. Если б не знал, что это metal priest, то подумал бы что это какая-нибудь немецкая банда.
(1) Луч,
Oct 5 2018, 18:26:43 Lividity - Perverseverance (2018)
Среди тонн современного безликого дэтха и слэма, как бальзам на душу!
(2) neoatheist, Samaritianin,
Sep 3 2018, 18:32:43 Groza - Unified In Void (2018)
MGLA worshippers
(1) sethurius,
Aug 8 2018, 20:07:58 Aryan Gangbang - Being A Nazi Is Gay [ep] (2018)
Boston cocksuckers do another shit of crappy poor sound like grindcore. Better 2 go 2 listen AxCx
(1) Goatrex,
Jul 2 2018, 07:14:30 Phasma - Phasma (2018)
Меня одного эти триггерные барабаны вымораживают?
(1) nunim,
Jul 2 2018, 07:12:58 Immortal - Northern Chaos Gods (2018)
ЦИТАТА(Chasm @ Jul 1 2018, 23:14:18) *
Раз Клоун, значит батя. 1488.gif

Клоун ушел как раз таки
(4) Goatrex, infiltrator, mardak666, Svetozar,
Jul 1 2018, 20:06:33 Immortal - Northern Chaos Gods (2018)
Ну, мардуки то поняли наконец, кто здесь БАТЯ!
(1) aserius,

10 Pages V  < 1 2 3 4 > » 
- Lo-Fi Version Support form
Copyrights and abuse reports form
Time is now: 18th June 2021 - 02:51:20