Welcome Guest ( Log In | Register )

История благодарностей участнику Cruor ::: Спасибо сказали: 1687 раз(а)
Дата поста: В теме: За сообщение: Спасибо сказали:
Sep 22 2012, 17:10:22 3D House Of Beef - 3D House Of Beef (1996)
VBR 248 kbps. 102 mb.
Register
(4) brutal23, crackedbrain, VALERY, wreak,
Sep 22 2012, 16:22:12 Invdrs - Electric Church (2010)
cbr 320 kbps. 118 mb.
Register
(2) ent404, MEmethuselah,
Aug 11 2012, 22:47:34 Electric Wizard - Electric Wizard (1995)
Electric Wizard (1995 original). cbr 320 kbps. 109 mb.
Register

(10) Aresson, cancer1974, dimitriusk, Golfzilla, Mencae77, muskatnuss, Sonnekonige, stub888, triton, uckingoullyer,
Aug 9 2012, 22:00:18 Syphilitic Vaginas - Complete Studio Collection [best of/compilation] (2008)
А вот и 320.
cbr 320 kbps. 184 mb.
Register
(8) abob, artscald, Fryz, Genuine Thrashiac, kauyumari, varlam4, wgs73, wreak,
Jul 30 2012, 20:29:23 Troum - Grote Mandrenke (2012)


*Artist: Troum
*Album: Grote Mandrenke
*Year: 2012
*Genre: Drone Ambient
*Country: Germany
*Format: mp3@CBR320kbps
*Size: 104MB

Tracklist:
01. Grote Mandrenke 44:02
******************************
Total playing time: 44:02

[more=Extended info]20го июня на лейбле Beta-lactam Ring Records выходит новый альбом Troum под названием "Grote Mandrenke". Название пластинки отсылает нас к чудовищному атлантическому шторму, случившемуся в середине 14го века, жертвами которого стали свыше 25 тысяч европейцев.
Из пресс-релиза : "Grote Mandrenke” is cinematic and melancholy; anthemic and brooding, and distinctly shoegaze, but in a way that you can look up, and you still see shoes. And bodies, floating in a foamy miasma of silted water and fish guts. In fact, this should be on a label called 5AD, because this is one awesomer. Buzzsaw ambience and measured percussive breaths comprise a perfect soundtrack for nature's dominion over man."

Flac-rip + scans


Input File: 01. Grote Mandrenke_CUT.mp3
Channels : 2
Sample Rate : 44100
Precision : 16-bit
Duration : 00:04:36.01 = 12171997 samples = 20700.7 CDDA sectors
File Size : 11.0M
Bit Rate : 320k
Sample Encoding: MPEG audio (layer I, II or III)
Comment : 'Tracknumber=1'

[/more]
Register
(26) 666BlackDeath, Boozer, Caliph Vathek, dagger666, Eichmann, gikaki, HA7tur, Hell_Is_Here, Impaled, InFestus, Infidel, nsmetalhead, PoohCunt, qpMM, raincatz, RUSP73, sarcophagus, satanath, spiritualdecay666, SSBandera, Un4given, Vertigo, veselchak_u, wtk.412, Zomboth, Госпромнадзор,
Jul 30 2012, 20:14:29 Mange - Disillusioned (1998)
flac-rip cbr 320 kbps + scans. 164 mb
Register

(6) Blackknot86, crackedbrain, Doooomed, Mist13Signifier, nbhfy, warrr,
Jul 7 2012, 21:08:33 Bushfire - Black Ash Sunday (2010)
Действительно, релиз замечательный.
Register
(2) crestfallen999, SatanicPanzer,
Jun 21 2012, 11:07:14 Spineless Fuckers - It Is Just A Real One (2010)
cbr 320 kbps. + scans 88 mb.
Register
(4) DarkHorde, Metalhead21, satanist666, varlam4,
May 29 2012, 18:49:17 King Travolta - Kill Fuck Metal (2006)
cbr 192 kbps. 73 mb.
Register
(4) crackedbrain, marilin, Ugly13, varlam4,
May 25 2012, 14:36:04 Unholy - Demo [demo] (1990)
cbr 192 kbps. 30 mb.
Register
(4) brunodiaz, infiltrator, marilin, serhio,
May 18 2012, 18:31:05 Cough & The Wounded Kings - An Introduction To The Black Arts [split] (2010)
cbr 192 kbps. 47 mb.
Register
(4) AHBAnep, BENbenBEN, old, varlam4,
May 12 2012, 08:50:46 Grief - ...and Man Will Become The Hunted(2000)
cbr 320 kbps. 116 mb.
Register

(5) Black Cat, marilin, Un4given, vosmidesijatye, Yorker,
May 12 2012, 08:49:53 Grief - Torso (1998)
cbr 320 kbps. 145 mb.
Register

(10) Black Cat, cidarstewart, crackedbrain, gobblin, kolar666, marilin, SileniusLegard, Un4given, vosmidesijatye, Yorker,
May 12 2012, 08:48:39 Grief - Miserably Ever After (1996)
cbr 320 kbps. 159 mb.
Register

(8) Black Cat, crackedbrain, kolar666, marilin, muskatnuss, SileniusLegard, Un4given, vosmidesijatye,
May 7 2012, 15:03:29 Unholy - Rapture (1998)
cbr 320 kbps. 158 mb.
Register

(9) Hell_Is_Here, jorgeguldur, kolar666, kryptor, marilin, qpMM, souldeathtoxic, THROWER666, uckingoullyer,
May 7 2012, 15:03:17 Thou - Rendon Singles [best of/compilation] (2010)
cbr 320 kbps. 170 mb.
Register

(3) Hroedmar, kolar666, Vertigo,
Apr 9 2012, 18:02:59 Accept Death - Accept Death (2006)
cbr 320 kbps. 105 mb.
Register


+
Unpublished tracks (Bonus CD)
cbr 320 kbps. 60 mb.
Register
(13) abob, AndreFrancis, AvantKitty1, Black Cat, crackedbrain, fishish, Galactus, K-61082, Megafagg, qpMM, SameMan, stub888, Ulfhethnaar,
Apr 8 2012, 16:53:45 Солярис72 - Space Blues [single] (2010)
cbr 320 kbps. 19 mb.
Register
(3) drbutcher, Old Vyaine, Therion665,
Mar 30 2012, 16:22:05 Рудак Михаил Анатольевич - Personality Degradation (2012)
ЦИТАТА
Никонов Дмитрий Альбертович
?
(5) noxbc, Rusty Knight, spazm, Typhon88, Vertigo,
Mar 22 2012, 18:46:44 Boris - Amplifier Worship [2003 Re-issue] (1998)
cbr 320 kbps. 149 mb.
Register
(6) abob, korovakaska, muskatnuss, Synthaeon, VALERY, Vertigo,
Mar 18 2012, 13:43:31 Thou - Summit (2010)
cbr 320 kbps. 118 mb.
Register
(9) abob, AngelSlayerSoul, kolar666, marrtins, MEmethuselah, Mencae77, muskatnuss, ripper33, Vertigo,
Mar 14 2012, 15:13:23 Morbosidad & Perversor - Invocaciones Demoniacas [split] (2010)
VBR217kbps. 44MB
Register

(3) Disgorge666, Necreoforos616, Sepulchreal,
Mar 11 2012, 15:56:29 Nailbomb - Point Blank (1994)
Прямой наводкой по говнообменникам: flac-rip cbr 320 kbps + scans. 156 mb
Register
(7) bm666l, crackedbrain, dead can dance, ent404, hammer, triton, Winter Funeral,
Mar 11 2012, 15:50:51 Reino Ermitaño - Brujas Del Mar (2006)
flac-rip cbr 320 kbps + scans. 164 mb
Register
(4) gongshow, kauyumari, marilin, vosmidesijatye,
Feb 5 2012, 11:05:41 Swami LatePlate - Doom Jazz (2007)
320 kbps. 125 mb.
Register
(4) e2_81, ent404, nbhfy, Vertigo,

11 Pages V  < 1 2 3 4 > » 
- Lo-Fi Version Support form
Copyrights and abuse reports form
Time is now: 24th February 2024 - 09:56:16