Welcome Guest ( Log In | Register )

История благодарностей участнику Alpha_Prime ::: Спасибо сказали: 4373 раз(а)
Дата поста: В теме: За сообщение: Спасибо сказали:
Mar 1 2020, 09:23:23 Lust for Oblivion - Black Moon (Demo) (2009)
https://www.metal-archives.com/albums/Lust_...ack_Moon/298867
Нигде не могу найти даже хотя бы один трек с этой демки. Если у кого есть - выложите, пожалуйста, буду очень благодарна.
(1) thenecromancer,
Feb 24 2020, 19:36:35 Disdained - Longing For Serenity [ep] (2009)
Перезалито:
Register
(2) Svafrlami, Veggr,
Feb 15 2020, 12:05:11 Alia Tempora - Dragonfly Effect (2019)


*Artist: Alia Tempora
*Album: Dragonfly Effect
*Year: 2019
*Genre: Symphonic Metal
*Country: Czech Republic
*Format: mp3@CBR320kbps
*Size: 107MB

Tracklist:
1. Dragonfly Effect
2. Bark on Me
3. Black 'N' White
4. Asking (feat. Mario Del Rio Escobedo)
5. Humanity
6. Ready, Hun?
7. Haul of Fame
8. Get Well Soon
9. Loser Like Me
10. Crossroads (100 Fan Voices)
11. Por Siempre (feat. Mario Del Rio Escobedo)
12. Crossroads (Piano)
******************************
Total playing time: 46:42



[more=Technical info]
Input File: 01. Dragonfly Effect.mp3
Channels : 2
Sample Rate : 44100
Precision : 16-bit
Duration : 00:05:10.33 = 13685597 samples = 23274.8 CDDA sectors
File Size : 12.4M
Bit Rate : 320k
Sample Encoding: MPEG audio (layer I, II or III)
Comments :
Title=Dragonfly Effect
Artist=Alia Tempora
Album=Dragonfly Effect
Tracknumber=1/12
Year=2019
Genre=17
Discnumber=1/1

[/more]

Register
(17) ace73pq, ASkyThatBurns, aviacademy, Cartman223, djsema4, gwar, gwynnbleid, infiltrator, Ludwig Hagen, Mogozoz, Rosen, Rover, senecazm, sergsazan, talismanFS, varlam4, wreak,
Feb 1 2020, 09:39:33 Dying Wish - Tükörország (2016)
Нашла сама:
Register
(2) infiltrator, varlam4,
Jan 19 2020, 16:02:12 Epica - The Acoustic Universe [ep] (2019)


*Artist: Epica
*Album: The Acoustic Universe [ep]
*Year: 2019
*Genre: Acoustic
*Country: Netherlands
*Format: mp3@CBR320kbps
*Size: 64MB

Tracklist:
1. Burn to a Cinder (Acoustic Version)
2. Our Destiny (Acoustic Version)
3. Unleashed (Acoustic Version)
4. Martyr of the Free Word (Acoustic Version)
5. Design Your Universe (Acoustic Version)
******************************
Total playing time: 27:52




[more=Technical info]
Input File: 01 - Burn to a Cinder (Acoustic version).mp3
Channels : 2
Sample Rate : 44100
Precision : 16-bit
Duration : 00:05:29.71 = 14540343 samples = 24728.5 CDDA sectors
File Size : 13.2M
Bit Rate : 320k
Sample Encoding: MPEG audio (layer I, II or III)
Comments :
Title=Burn to a Cinder (Acoustic version)
Artist=Epica
Album=The Acoustic Universe
Tracknumber=1
Year=2019
Genre=99

[/more]

Register
(7) Cartman223, Diflock, gwar, infiltrator, Olethros, Paradayz, Shadechaser,
Jan 4 2020, 09:30:10 W.E.B. - Tartarus (2017)
Перезалито:
Register
(2) Ice Gnoll, infiltrator,
Dec 31 2019, 10:28:54 Lacuna Coil - Bad Things [single] (2019)


*Artist: Lacuna Coil
*Album: Bad Things [single]
*Year: 2019
*Genre: Alternative/Gothic Metal
*Country: Italy
*Format: mp3@CBR320kbps
*Size: 8MB

Tracklist:
1. Bad Things (Amazon Original)
******************************
Total playing time: 3:13




[more=Technical info]
Input File: 01. Bad Things (Amazon Original).mp3
Channels : 2
Sample Rate : 44100
Precision : 16-bit
Duration : 00:03:13.10 = 8515534 samples = 14482.2 CDDA sectors
File Size : 7.76M
Bit Rate : 321k
Sample Encoding: MPEG audio (layer I, II or III)
Comments :
Title=Bad Things
Artist=Lacuna Coil
Album=Bad Things (Amazon Original)
Tracknumber=01
Year=2019
Genre=17
Discnumber=1/1

[/more]

Register
(8) Aresson, Cartman223, Evjenne, Hell_Is_Here, Olethros, sadmannn, thenecromancer, varlam4,
Nov 8 2019, 17:55:15 Thora - Scars (2010)
Перезалито:
Register
(2) satanist666, Veggr,
Oct 27 2019, 10:06:36 Halach - Mictlan (2008)
Перезалито:
Register
(2) socrates9, Veggr,
Oct 12 2019, 12:03:26 Lacuna Coil - Black Anima (2019)
Версия с бонус-треками (mp3 / 320 kbps):
Register
(12) 6666666, Evjenne, Hell_Is_Here, karpenka, Langlee, LiarOfAngmar, Lyrch, Metalass, Old Vyaine, otyk, sarcasm, thenecromancer,
Sep 28 2019, 09:14:25 Adamantia - Pandora (2019)
Перезалито (mp3 / 320):
Register
(3) aviacademy, Cartman223, Lukittaz,
Sep 21 2019, 10:37:00 The Outburst - Entertainment (2008)
Перезалито:
Register
(1) Veggr,
Sep 21 2019, 10:36:03 The Outburst - Party Time [ep] (2004)
Перезалито:
Register
(1) Veggr,
Sep 21 2019, 10:29:51 Harpia Deiis - Collapse (2011)
Перезалито в 320:
Register
(3) METALHUNTER, RotAnus, Veggr,
Jul 4 2019, 17:40:41 Spielbann - Feuerteufel [ep] (2016)
Перезалито:
Register
(1) BlackArrow,
Jun 29 2019, 18:08:23 Herrschaft - Le Festin Du Lion (2019)


*Artist: Herrschaft
*Album: Le Festin Du Lion
*Year: 2019
*Genre: Industrial Metal
*Country: France
*Format: mp3@CBR320kbps
*Size: 101MB

Tracklist:
1. Technosatan
2. How Real Men Do
3. Stray Dog
4. But I Know
5. Le festin du lion
6. New World Order
7. Behind This Smokescreen
8. The Great Fire
9. The White Russians
10. Hate Me
******************************
Total playing time: 43:22




[more=Technical info]
Input File: Herrschaft - Le Festin du Lion - 01 Technosatan.mp3
Channels : 2
Sample Rate : 44100
Precision : 16-bit
Duration : 00:05:40.73 = 15026325 samples = 25555 CDDA sectors
File Size : 13.7M
Bit Rate : 321k
Sample Encoding: MPEG audio (layer I, II or III)
Comments :
Title=Technosatan
Artist=Herrschaft
Album=Le Festin du Lion
Tracknumber=1
Year=2019

[/more]

Register
(14) artscald, as71, avkruchinin, Emhyr var Emreis, Femto, Forest Silence, gwar, infiltrator, Kwaad, Maniakk, nazgul666, Olethros, yuratroll, zerger,
Jun 29 2019, 15:58:13 Lyriel - Wenn Die Engel Fallen [ep] (2012)


*Artist: Lyriel
*Album: Wenn Die Engel Fallen [ep]
*Year: 2012
*Genre: Symphonic Gothic/Folk Metal
*Country: Germany
*Format: mp3@CBR320kbps
*Size: 40MB

Tracklist:
1. Wenn die Engel fallen
2. Leverage (Live)
3. Surrender in Dance (Live)
4. Aus der Tiefe (Live)
5. Everything Is Coming Up Roses (Live)
******************************
Total playing time: 17:42




[more=Technical info]
Input File: 01 Wenn die Engel fallen.mp3
Channels : 2
Sample Rate : 44100
Precision : 16-bit
Duration : 00:03:21.16 = 8871024 samples = 15086.8 CDDA sectors
File Size : 8.05M
Bit Rate : 320k
Sample Encoding: MPEG audio (layer I, II or III)
Comments :
Title=Wenn die Engel fallen
Artist=Lyriel
Album=Wenn die Engel fallen
Tracknumber=1/5
Year=2012
Genre=Metal
Discnumber=1/1

[/more]

Register
(13) artscald, Cartman223, chipsgott, fabriziomagno, gwar, infiltrator, Ludwig Hagen, metalwoman, Olethros, Rosen, sergsazan, wreak, zhol,
Jun 29 2019, 12:40:37 Until Rain - Season V (2019)


*Artist: Until Rain
*Album: Season V
*Year: 2019
*Genre: Progressive Metal
*Country: Greece
*Format: mp3@CBR320kbps
*Size: 102MB

Tracklist:
1. Inner Season
2. Running
3. Patti
4. In Times of Despair
5. Qualia
6. Miracle
7. Restart
8. Stay
9. The Long Break
10. Ascending
11. A Land of Nothingness
12. Time Escape
******************************
Total playing time: 48:13




[more=Technical info]
Input File: 02 - Running.mp3
Channels : 2
Sample Rate : 44100
Precision : 16-bit
Duration : 00:04:58.18 = 13149650 samples = 22363.4 CDDA sectors
File Size : 12.0M
Bit Rate : 322k
Sample Encoding: MPEG audio (layer I, II or III)
Comments :
Title=Running
Artist=Until Rain
Album=Season V
Tracknumber=2/12
Year=2019
Genre=Рок
Discnumber=1/1

[/more]

Register
(11) andgrek28, artscald, aviacademy, GorAtheist, Mogozoz, Mplast, Olethros, Rosen, Rover, wreak, Yarri,
Jun 29 2019, 12:32:09 Until Rain - Inure (2017)
Перезалито:
Register
(1) artscald,
Jun 29 2019, 11:34:57 Boudika - Chaos Theory (2019)


*Artist: Boudika
*Album: Chaos Theory
*Year: 2019
*Genre: Symphonic Metal
*Country: Argentina
*Format: mp3@CBR320kbps
*Size: 78MB

Tracklist:
1. The Flapping of a Distant Butterfly's Wings
2. Another Day Under the Rain
3. The Chaos Theory
4. Mr. Hyde
5. The Tides of Doubts
6. Master of Your Own Thoughts
7. Black Mirror
8. Self Paradox
9. Forgotten Hope Reloaded
******************************
Total playing time: 33:19




[more=Technical info]
Input File: Boudika - Chaos Theory - 02 ANOTHER DAY UNDER THE RAIN.mp3
Channels : 2
Sample Rate : 44100
Precision : 16-bit
Duration : 00:04:46.79 = 12647351 samples = 21509.1 CDDA sectors
File Size : 11.6M
Bit Rate : 322k
Sample Encoding: MPEG audio (layer I, II or III)
Comments :
Title=ANOTHER DAY UNDER THE RAIN
Artist=Boudika
Album=Chaos Theory
Tracknumber=2
Year=2019

[/more]

Register
(17) ace73pq, artscald, aviacademy, avkruchinin, Cartman223, chipsgott, GorAtheist, gwar, infiltrator, Mogozoz, Olethros, Rosen, Rover, sayfut, talismanFS, wreak, Сварог Барг,
Jun 29 2019, 11:26:39 Boudika - Doppelgänger [ep] (2018)


*Artist: Boudika
*Album: Doppelgänger [ep]
*Year: 2018
*Genre: Symphonic Metal
*Country: Argentina
*Format: mp3@CBR320kbps
*Size: 34MB

Tracklist:
1. Mr. Hyde
2. House of Lies
3. Master of Your Own Thoughts
4. Breathless Lullaby
******************************
Total playing time: 15:36




[more=Technical info]
Input File: 01 - Mr. Hyde.mp3
Channels : 2
Sample Rate : 44100
Precision : 16-bit
Duration : 00:04:03.42 = 10734910 samples = 18256.6 CDDA sectors
File Size : 9.79M
Bit Rate : 322k
Sample Encoding: MPEG audio (layer I, II or III)
Comments :
Title=Mr. Hyde
Artist=Boudika
Album=Doppelgänger
Tracknumber=1/4
Year=2018
Genre=Рок
Discnumber=1/1

[/more]

Register
(11) artscald, Cartman223, chipsgott, GorAtheist, gwar, infiltrator, Mogozoz, Olethros, Rosen, wreak, Сварог Барг,
Jun 29 2019, 11:16:23 Boudika - Boudika (2015)
Перезалито:
Register
(1) sayfut,
Jun 29 2019, 10:46:18 Hydria - Acústico - The Acoustic Sessions (2011)
Перезалито:
Register
(2) artscald, morbidangelo,
Jun 29 2019, 09:09:52 Hydria - Monsters And Angels [ep] (2013)


*Artist: Hydria
*Album: Monsters And Angels [ep]
*Year: 2013
*Genre: Symphonic/Alternative Metal
*Country: Brazil
*Format: mp3@CBR320kbps
*Size: 43MB

Tracklist:
1. Monsters and Angels
2. Monsters and Angels (Instrumental)
3. All Yours
4. All Yours (Instrumental)
******************************
Total playing time: 19:19




[more=Technical info]
Input File: 01 Monsters Angels.mp3
Channels : 2
Sample Rate : 44100
Precision : 16-bit
Duration : 00:04:59.15 = 13192559 samples = 22436.3 CDDA sectors
File Size : 12.0M
Bit Rate : 320k
Sample Encoding: MPEG audio (layer I, II or III)
Comments :
Title=Monsters & Angels
Artist=Hydria
Album=Monsters & Angels
Tracknumber=1/4
Year=2013
Genre=9
Discnumber=1/1

[/more]

Register
(9) artscald, Cartman223, chipsgott, GorAtheist, gwynnbleid, Olethros, Rosen, valera2010, wreak,
Jun 13 2019, 15:06:05 The Inferno Doll - Dollmination (2015)


*Artist: The Inferno Doll
*Album: Dollmination
*Year: 2015
*Genre: Melodic Groove Metal/Metalcore
*Country: Chile
*Format: mp3@CBR320kbps
*Size: 99MB

Tracklist:
1. Crushing Me
2. Dollmination
3. Conciencia
4. The Awakening
5. Broken Inferno
6. Nemesis Within
7. Asylum
8. The Dream
9. Final Rise
10. Carmilla (Theatres des Vampires cover)
******************************
Total playing time: 43:33



[more=Technical info]
Input File: The Inferno Doll - Dollmination - 01 Crushing Me.mp3
Channels : 2
Sample Rate : 44100
Precision : 16-bit
Duration : 00:03:55.10 = 10367910 samples = 17632.5 CDDA sectors
File Size : 9.40M
Bit Rate : 320k
Sample Encoding: MPEG audio (layer I, II or III)
Comments :
Title=Crushing Me
Artist=The Inferno Doll
Album=Dollmination
Tracknumber=1
Year=2015

[/more]

Register
(6) artscald, GorAtheist, Mogozoz, Olethros, Rosen, wreak,

20 Pages V   1 2 3 > » 
- Lo-Fi Version Support form
Copyrights and abuse reports form
Time is now: 13th August 2020 - 04:02:07