Welcome Guest ( Log In | Register )

История благодарностей участнику RUDACHUR ::: Спасибо сказали: 43578 раз(а)
Дата поста: В теме: За сообщение: Спасибо сказали:
Jul 7 2021, 17:42:06 Крутейшие Black Thrash Metal творения
Вот, тема хорошая вспомнилась - The Batallion :
[youtube]7fxgvTXBBu8[/youtube]
(2) Tarelka, WOLAND,
May 25 2021, 09:52:03 Spectral Voice - Necrotic Demos [compilation] (2020)


*Artist: Spectral Voice
*Album: Necrotic Demos [compilation]
*Year: 2020
*Genre: Death/Doom Metal
*Country: United States
*Format: mp3@CBR320kbps
*Size: 110MB

Tracklist:
1. Rotting Auras 06:51
2. Horrid Phantasm 06:31
3. Diffluence Of Ruined Graves 08:00
4. (Slowly) Claimed By Oblivion 07:18
5. Peeled Veins 05:53
6. Katabatic Depths 05:51
7. Ineffable Winds 07:26
******************************
Total playing time: 47:50




[more=Extended info]Tracks 1-3: Necrotic Doom demo (2015)
Track 4: split 7" w/ Blood Incantation (2015)
Track 5: split 7" w/ Phrenelith (2016)
Track 6: split 7" w/ Vastum (2018)
Track 7: split 7" w/ Anhedonist (2020)

Tracks 1-4 recorded August 2014 at Cave Evil, mixed and mastered at Resonance Sound
Tracks 5-6 recorded, mixed, and mastered July 2015 at World Famous Studio
Track 7 recorded, mixed, and mastered April 2019 at World Famous Studio[/more]

[more=Technical info]
Input File: 01 Rotting Auras.mp3
Channels : 2
Sample Rate : 44100
Precision : 16-bit
Duration : 00:06:51.30 = 18138198 samples = 30847.3 CDDA sectors
File Size : 16.6M
Bit Rate : 322k
Sample Encoding: MPEG audio (layer I, II or III)
Comments :
Title=Rotting Auras
Artist=Spectral Voice
Album=Necrotic Demos
Tracknumber=1
Year=2020
Genre=Doom Metal
Discnumber=1

[/more]

Register
(25) AHBAnep, Boozer, caro, Hell_Is_Here, infiltrator, lacrimatorium, lacrimoza, Occultas, Olethros, quarantine, Reverend, robertho777, sacrut, sergsazan, smes, soulskinner681, stumpheavyrock, Taakeferd, VALERY, varlam4, vyacheslav, Wail, wreak, wtk.412, Zenial,
May 25 2021, 09:50:52 Eternal Fall - Under The Mind's Sheet (2007)


*Artist: Eternal Fall
*Album: Under The Mind's Sheet
*Year: 2007
*Genre: Doom/Death Metal
*Country: Brazil
*Format: mp3@CBR320kbps
*Size: 184MB

Tracklist:
01. For The Eternity 05:59
02. Angústia Suprema 03:35
03. Tears To The Wind 04:31
04. Zahir 03:26
05. Valhalla 04:52
06. Amaldiçoado 04:29
07. Under The Mind's Sheet 07:00
08. The Old And The Mirror 12:26
Bonus Tracks:
09. Soul's Fragments 05:06
10. Walking Into Darkness 09:59
11. Deep 01:55
12. Esquecimento 08:11
******************************
Total playing time: 1:11:29




[more=Extended info]+ Scans.

Tracks 1-8 were Originally Released On Eternal Fall - Under The Mind's Sheet álbum in 2007.
Tracks 9-12 are Bonus Tracks, were Originally Released On The Soul's Fragments EP in 2009.[/more]

[more=Technical info]
Input File: 01. For The Eternity.mp3
Channels : 2
Sample Rate : 44100
Precision : 16-bit
Duration : 00:05:59.99 = 15875559 samples = 26999.2 CDDA sectors
File Size : 14.4M
Bit Rate : 320k
Sample Encoding: MPEG audio (layer I, II or III)
Comments :
Title=For The Eternity
Artist=Eternal Fall
Album=Under The Mind's Sheet
Tracknumber=1
Year=2019
Genre=Doom Metal

[/more]

Register
(17) caro, infiltrator, kluval, lacrimoza, metala, Mogozoz, Olethros, quarantine, sergsazan, Shadechaser, stumpheavyrock, Svafrlami, Taakeferd, VALERY, varlam4, Wail, wreak,
Apr 16 2021, 17:23:26 Новости DOOM Metal
The Flight Of Sleipnir - Eventide (May 28th, 2021)(Eisenwald)



[youtube]OaKSViU_J7Y[/youtube]
(3) Old Vyaine, SatanicPanzer, Tular,
Mar 18 2021, 16:37:49 Мор - Triumph [ep] (2020)


*Artist: Мор
*Album: Triumph [ep]
*Year: 2020
*Genre: Progressive Black Metal
*Country: Russian Federation
*Format: mp3@CBR320kbps
*Size: 110MB

Tracklist:
1. Triumph Of Will. Pt.1 08:27
2. Triumph Of Will. Pt.2 08:27
3. Triumph Of Will. Pt.3 04:47
4. Our North Is Your Perish 04:22
5. Halls Of Oblivion 07:09
6. Flame Of My Soul... Eis 07:21
7. An Iron Avantgarde 06:44
******************************
Total playing time: 47:17



[more=Technical info]
Input File: 2. Triumph of Will. Pt.2.mp3
Channels : 2
Sample Rate : 44100
Precision : 16-bit
Duration : 00:08:27.09 = 22362669 samples = 38031.8 CDDA sectors
File Size : 20.5M
Bit Rate : 323k
Sample Encoding: MPEG audio (layer I, II or III)
Comments :
Title=Triumph of Will. Pt.2
Artist=MOR
Album=Triumph [Tape]
Tracknumber=2
Year=2020

[/more]

Register
(24) acerbus, Andr, Aresson, Boozer, Bzth, ctulhudagon, Golodomor, Hell_Is_Here, Ildjarn, infiltrator, kimkayoung, Lanceatum, Moonshtook, Proteus_666, ripper33, Sanctus, SilentNidhogg, smysl, undeadlich, VALERY, varlam4, wanderer73, wreak, Варяг,
Mar 18 2021, 16:36:29 Мор - Чернобог (2020)


*Artist: Мор
*Album: Чернобог
*Year: 2020
*Genre: Progressive Black Metal
*Country: Russian Federation
*Format: mp3@CBR320kbps
*Size: 110MB

Tracklist:
1. Великая Жертва 18:47
2. Чернобог 11:30
3. За Дремучим Лесом (Emperor Cover) 06:13
4. Blood. Fire. Death (Bathory Cover) 09:59
******************************
Total playing time: 46:29



[more=Technical info]
Input File: 2. Чернобог.mp3
Channels : 2
Sample Rate : 44100
Precision : 16-bit
Duration : 00:11:30.30 = 30442098 samples = 51772.3 CDDA sectors
File Size : 27.9M
Bit Rate : 324k
Sample Encoding: MPEG audio (layer I, II or III)
Comments :
Title=Czernobog
Artist=MOR
Album=Czernobog [Tape]
Tracknumber=2
Year=2020

[/more]

Register
(37) acerbus, Andr, Aresson, Ash_1980, bOOLty, Boozer, Brutal, Bzth, Foneg, Golodomor, Hell_Is_Here, Ildjarn, Infidel, infiltrator, kimkayoung, Krosis, Lanceatum, MMMMM, Moonshtook, nadin85, Olethros, Proteus_666, randumbum, ripper33, Sanctus, Shadechaser, SilentNidhogg, skogtroll, smysl, undeadlich, VALERY, varlam4, Vitald, wanderer73, wreak, Варяг, дивин,
Mar 18 2021, 16:35:11 Мор - Видение Мурмана (2020)


*Artist: Мор
*Album: Видение Мурмана
*Year: 2020
*Genre: Progressive Black Metal
*Country: Russian Federation
*Format: mp3@CBR320kbps
*Size: 86MB

Tracklist:
1. Видение Мурмана 08:43
2. Лесоморие II 07:45
3. Пересекая Северное Море 09:31
4. Ведьмы 06:01
5. Мертвец 05:11
******************************
Total playing time: 37:11



[more=Technical info]
Input File: 1. Видение Мурмана.mp3
Channels : 2
Sample Rate : 44100
Precision : 16-bit
Duration : 00:08:43.76 = 23097728 samples = 39281.9 CDDA sectors
File Size : 21.0M
Bit Rate : 322k
Sample Encoding: MPEG audio (layer I, II or III)
Comments :
Title=Murman Apparition
Artist=MOR
Album=Murman Apparition [Tape]
Tracknumber=1
Year=2020

[/more]

Register
(33) AlexSmith, Andr, Aresson, bOOLty, Boozer, Brutal, Foneg, Golodomor, Hell_Is_Here, Ildjarn, infiltrator, kimkayoung, KLOP, Krosis, Lanceatum, nadin85, Olethros, Proteus_666, Radwind, randumbum, ripper33, Shadechaser, SilentNidhogg, skogtroll, smysl, undeadlich, VALERY, varlam4, Wail, wanderer73, wreak, yuratroll, Варяг,
Mar 18 2021, 09:37:06 Nakkiga - R'lyeh [ep] (2012)


*Artist: Nakkiga
*Album: R'lyeh [ep]
*Year: 2012
*Genre: Black Metal
*Country: Spain
*Format: mp3@CBR320kbps
*Size: 76MB

Tracklist:
1. R'lyeh 08:04
2. Bukken 06:53
3. Ni Naiz Lua 06:10
4. Urmsheim 07:44
5. Krig 02:49
******************************
Total playing time: 31:40

[more=Extended info]+ Scans.

[youtube]lzZmMWbZsZs[/youtube][/more]

[more=Technical info]
Input File: 1. R\'lyeh.mp3
Channels : 2
Sample Rate : 44100
Precision : 16-bit
Duration : 00:08:04.55 = 21368611 samples = 36341.2 CDDA sectors
File Size : 19.4M
Bit Rate : 320k
Sample Encoding: MPEG audio (layer I, II or III)
Comments :
Title=R'lyeh
Artist=Nakkiga
Album=R'lyeh
Tracknumber=1
Year=2012
Genre=Black Metal

[/more]

Register
(18) acerbus, igore2911, Ildjarn, infiltrator, kim666, Kvlt, Marek, mondblut, Olethros, Pinhead666, randumbum, SadistikSlayer, SilentNidhogg, VALERY, varlam4, Velmi, vovenom, wreak,
Mar 18 2021, 09:35:22 Ered - Incarnated Horror [ep] (2008)


*Artist: Ered
*Album: Incarnated Horror [ep]
*Year: 2008
*Genre: Death/Black Metal
*Country: Spain
*Format: mp3@CBR320kbps
*Size: 59MB

Tracklist:
1. Blessed By Fire 04:49
2. Bastards Condemnation 04:06
3. Incarnated Horror 04:56
4. For The Eternity Of Sin 04:49
5. Ancestral Blood 05:22
******************************
Total playing time: 24:02




[more=Extended info]+ Scans.

[youtube]cOcrON_wWAw[/youtube][/more]

[more=Technical info]
Input File: 1. Blessed By Fire.mp3
Channels : 2
Sample Rate : 44100
Precision : 16-bit
Duration : 00:04:49.90 = 12784590 samples = 21742.5 CDDA sectors
File Size : 11.6M
Bit Rate : 320k
Sample Encoding: MPEG audio (layer I, II or III)
Comments :
Title=Blessed by Fire
Artist=Ered
Album=Incarnated Horror
Tracknumber=1
Year=2008
Genre=Black/Death Metal

[/more]

Register
(13) infiltrator, Marek, Occultas, Olethros, Pinhead666, randumbum, SilentNidhogg, Storky, Svafrlami, VALERY, varlam4, Velmi, wreak,
Mar 16 2021, 06:14:37 Slagbjørn - Mørkt Og Jaevlig (2014)
mp3@CBR320kbps
Register
(4) carla667, kim666, satanist666, smes,
Mar 15 2021, 10:36:22 Bilskirnir - Lost Forever [single] (2017)


*Artist: Bilskirnir
*Album: Lost Forever [single]
*Year: 2017
*Genre: Black Metal
*Country: Germany
*Format: mp3@CBR320kbps
*Size: 38MB

Tracklist:
1. Lost Forever 07:19
2. Home 08:34
******************************
Total playing time: 15:53

[more=Extended info]+ Scans.
Written and recorded between 2008 and 2011.
"Lost Forever" is taken from the split with Barad Dûr.
"Home" is taken from 10 Years Of Unholy Fire compilation.
Housed in slimcase.[/more]

[more=Technical info]
Input File: 1. Lost Forever.mp3
Channels : 2
Sample Rate : 44100
Precision : 16-bit
Duration : 00:07:19.77 = 19393945 samples = 32982.9 CDDA sectors
File Size : 17.6M
Bit Rate : 320k
Sample Encoding: MPEG audio (layer I, II or III)
Comments :
Title=Lost Forever
Artist=Bilskirnir
Album=Lost Forever
Tracknumber=1
Year=2017
Genre=Pagan Black Metal

[/more]

Register
(18) Antichrist, Boozer, caro, Hell_Is_Here, Ildjarn, infiltrator, kim666, mondlicht, Moonshtook, Olethros, randumbum, satanist666, smysl, thenecromancer, undeadlich, varlam4, Velmi, Wail,
Mar 15 2021, 10:34:45 Malum - Awakening Of The Luciferian Darkness [compilation] (2019)


*Artist: Malum
*Album: Awakening Of The Luciferian Darkness [compilation]
*Year: 2019
*Genre: Black Metal
*Country: Finland
*Format: mp3@CBR320kbps
*Size: 84MB

Tracklist:
1. I 05:05
2. II 03:21
3. III 04:12
4. Will 08:46
5. Ikuisen Vihan Tulessa 07:33
6. Awakening Of The Black Flame 07:16
******************************
Total playing time: 36:13




[more=Extended info]+ Scans.
Compilation containing Malums self-titled Demo from 2014 (Tracks A1-A3) and their mini-album "Awakening of the Black Flame" (Tracks B1-B3)[/more]

[more=Technical info]
Input File: 1. I.mp3
Channels : 2
Sample Rate : 44100
Precision : 16-bit
Duration : 00:05:05.94 = 13491954 samples = 22945.5 CDDA sectors
File Size : 12.2M
Bit Rate : 320k
Sample Encoding: MPEG audio (layer I, II or III)
Comments :
Title=I
Artist=Malum
Album=Awakening of the Luciferian Darkness
Tracknumber=1
Year=2019
Genre=Black Metal

[/more]

Register
(23) andeimon, Constantinus I, Cyrci, Hell_Is_Here, Ildjarn, infiltrator, kim666, Korpse, Lanceatum, Oath19, Olethros, randumbum, Reverend, rimfrost, Sanctus, satanist666, SilentNidhogg, smes, supremo, VALERY, varlam4, Wail, wreak,
Mar 9 2021, 10:18:30 Новости DOOM Metal
Majestic Downfall - Aorta (May 21st, 2021)(Personal Records)



[youtube]9wrF1seTErg[/youtube]

Aphonic Threnody - The All Consuming Void (April 23rd, 2021)



[youtube]WB8BEiohCeI[/youtube]
(3) Chasm, thenecromancer, Un4given,
Mar 5 2021, 09:41:07 Subterranean - A Myriad Of Eyes (Demo Ii) [demo] (2021)


*Artist: Subterranean
*Album: A Myriad Of Eyes (Demo Ii) [demo]
*Year: 2021
*Genre: Funeral Doom Metal
*Country: United States
*Format: mp3@CBR320kbps
*Size: 50MB

Tracklist:
1. Cerebral Internment 10:19
2. A Myriad Of Eyes (Punishment Of The Subconscious) 10:50
******************************
Total playing time: 21:09



[more=Technical info]
Input File: 1. Cerebral Internment.mp3
Channels : 2
Sample Rate : 44100
Precision : 16-bit
Duration : 00:10:19.53 = 27321185 samples = 46464.6 CDDA sectors
File Size : 24.9M
Bit Rate : 322k
Sample Encoding: MPEG audio (layer I, II or III)
Comments :
Title=Cerebral Internment
Artist=Subterranean
Album=A Myriad of Eyes (Demo II)
Tracknumber=1
Year=2021

[/more]

Register
(12) Hell_Is_Here, infiltrator, LokoMadriz, marilin, Olethros, quarantine, sergsazan, Shadechaser, VALERY, vlad74, Wail, wreak,
Mar 5 2021, 09:39:21 Nameless Grave - The Warmth Of The Sun Can No Longer Thaw The Ice From My Bones [demo] (2021)


*Artist: Nameless Grave
*Album: The Warmth Of The Sun Can No Longer Thaw The Ice From My Bones [demo]
*Year: 2021
*Genre: Funeral Doom Metal
*Country: New Zealand
*Format: mp3@CBR320kbps
*Size: 69MB

Tracklist:
1. The Warmth Of The Sun Can No Longer Thaw The Ice From My Bones 27:28
******************************
Total playing time: 27:28



[more=Technical info]
Input File: 1. The Warmth of the Sun Can No Longer Thaw the Ice From My Bones.mp3
Channels : 2
Sample Rate : 44100
Precision : 16-bit
Duration : 00:27:28.76 = 72710184 samples = 123657 CDDA sectors
File Size : 66.2M
Bit Rate : 321k
Sample Encoding: MPEG audio (layer I, II or III)
Comments :
Title=The Warmth of the Sun Can No Longer Thaw the Ice From My Bones
Artist=NAMELESS GRAVE
Album=The Warmth of the Sun Can No Longer Thaw the Ice From My Bones
Tracknumber=1
Year=2021

[/more]

Register
(11) Hell_Is_Here, infiltrator, libertine, LokoMadriz, marilin, Olethros, sergsazan, Shadechaser, VALERY, vlad74, wreak,
Mar 5 2021, 08:24:49 Новости Folk/Pagan/Viking
King Of Asgard - Svartrviðr (May 28th, 2021) (Trollmusic)




[youtube]8p2QhR2Qs4k[/youtube]
(1) Vardlokkur,
Mar 4 2021, 11:58:01 Trollfjell - Tales From The North (2020)


*Artist: Trollfjell
*Album: Tales From The North
*Year: 2020
*Genre: Pagan Black Metal
*Country: Czech Republic
*Format: mp3@CBR320kbps
*Size: 105MB

Tracklist:
1. Trollskog 05:40
2. The Nokk (Featuring Wintermord) 05:36
3. O Smutném Trollovi 04:40
4. Grum And Helga 05:19
5. Huldra 04:08
6. Creatures Of The North 04:31
7. O Smutném Trollovi (Original Song) 01:48
8. The Offering (Bonus) 06:16
9. The Mist (Bonus) 07:12
******************************
Total playing time: 45:10



[more=Extended info][youtube]idLDnFy7zVg[/youtube]
[youtube]QzkU7fjUCQ4[/youtube][/more]

[more=Technical info]
Input File: 1. Trollskog.mp3
Channels : 2
Sample Rate : 44100
Precision : 16-bit
Duration : 00:05:40.58 = 15019446 samples = 25543.3 CDDA sectors
File Size : 13.8M
Bit Rate : 324k
Sample Encoding: MPEG audio (layer I, II or III)
Comments :
Title=Trollskog
Artist=TROLLFJELL
Album=Tales From the North
Tracknumber=1
Year=2020

[/more]

Register
(21) AlexSmith, caro, DarkHorde, djsema4, Ildjarn, infiltrator, kim666, Marek, Mencae77, metala, Olethros, Ostinato, randumbum, satanist666, sergsazan, SilentNidhogg, VALERY, varlam4, vasiljev_sergej, wreak, zhol,
Mar 4 2021, 09:02:12 My Shameful - To All I Hated [demo] (2000)
mp3@CBR320kbps + scans

Register
(1) thenecromancer,
Mar 4 2021, 08:49:20 My Shameful - Your Dark Overwhelming/Sown In Sadness [compilation] (2021)


*Artist: My Shameful
*Album: Your Dark Overwhelming/Sown In Sadness [compilation]
*Year: 2021
*Genre: Funeral Doom/Death Metal
*Country: Finland
*Format: mp3@CBR320kbps
*Size: 117MB

Tracklist:
Your Dark Overwhelming (Demo):
1. False Emphaties 08:36
2. White Shroud 05:27
3. Your Dark Overwhelming 09:59
Sown In Sadness (Demo):
4. Into Emptiness 08:38
5. Behind Me 05:39
6. Sown In Sadness 09:07
******************************
Total playing time: 47:26




[more=Extended info]+ Scans.

GS Productions (Limited edition, Digipak, 100 copies)[/more]

[more=Technical info]
Input File: 1. False Emphaties.mp3
Channels : 2
Sample Rate : 44100
Precision : 16-bit
Duration : 00:08:36.84 = 22792556 samples = 38762.9 CDDA sectors
File Size : 20.7M
Bit Rate : 320k
Sample Encoding: MPEG audio (layer I, II or III)
Comments :
Title=False Emphaties
Artist=My Shameful
Album=Your Dark Overwhelming & Sown In Sadness
Tracknumber=1
Year=2021
Genre=Funeral Doom/Death Metal

[/more]

Register
(21) AHBAnep, Bloodn Lord, Boozer, Buregon, chipsgott, doomTemplar, gena, Hell_Is_Here, infiltrator, lacrimatorium, lacrimoza, Lux, marilin, Olethros, Ostinato, randumbum, sergsazan, supremo, VALERY, vyacheslav, wreak,
Feb 26 2021, 09:55:12 Lunar Spells - Medieval Shadows From An Ancient Netherworld [ep] (2020)


*Artist: Lunar Spells
*Album: Medieval Shadows From An Ancient Netherworld [ep]
*Year: 2020
*Genre: Black Metal
*Country: Greece
*Format: mp3@CBR320kbps
*Size: 46MB

Tracklist:
1. Witchcraft Spells 02:33
2. Beyond Our Darkest Paths 03:50
3. Howling Winds Of The Eternal Sea 04:25
4. Moonlight's Depths 06:48
******************************
Total playing time: 17:36



[more=Extended info]+ Scans.

[youtube]uGRxsVx6YxE[/youtube][/more]

[more=Technical info]
Input File: 1. Witchcraft Spells.mp3
Channels : 2
Sample Rate : 44100
Precision : 16-bit
Duration : 00:02:33.64 = 6775392 samples = 11522.8 CDDA sectors
File Size : 6.15M
Bit Rate : 320k
Sample Encoding: MPEG audio (layer I, II or III)
Comments :
Title=Witchcraft Spells
Artist=Lunar Spells
Album=Medieval Shadows from an Ancient Netherworld
Tracknumber=1
Year=2020
Genre=Black Metal

[/more]

Register
(18) caro, DarkHorde, dvlz, El_Chibo, Hell_Is_Here, Ildjarn, infiltrator, kim666, Olethros, Ostinato, randumbum, satanist666, SilentNidhogg, undeadlich, VALERY, varlam4, Velmi, wreak,
Feb 16 2021, 09:59:56 Faal & Fading Bliss - Neither Tide Nor Time [split] (2020)


*Artist: Faal & Fading Bliss
*Album: Neither Tide Nor Time [split]
*Year: 2020
*Genre: Funeral Doom/Death Metal | Gothic/Doom/Death Metal
*Country: Netherlands | Belgium
*Format: mp3@CBR320kbps
*Size: 126MB

Tracklist:
Faal:
1. About A Tree 11:43
2. Ocean (Fading Bliss Сover) 11:23
Fading Bliss:
3. 00:00 (Faal Сover) 10:49
4. The Need To Suffer 11:22
******************************
Total playing time: 45:17






[more=Extended info]+ Scans.

[youtube]wXn7Poa0XC4[/youtube][/more]

[more=Technical info]
Input File: 1. About A Tree.mp3
Channels : 2
Sample Rate : 44100
Precision : 16-bit
Duration : 00:11:43.44 = 31021748 samples = 52758.1 CDDA sectors
File Size : 28.1M
Bit Rate : 320k
Sample Encoding: MPEG audio (layer I, II or III)
Comments :
Title=About A Tree
Artist=Faal
Album=Neither Tide Nor Time
Tracknumber=1
Year=2020
Genre=Doom/Death Metal

[/more]

Register
(24) AHBAnep, BERZERK, Bloodn Lord, Brutal, Buregon, doomTemplar, gav-gafi, gena, Hell_Is_Here, infiltrator, lacrimoza, Lanceatum, LightWizard, marilin, Ostinato, randumbum, sergsazan, Shadechaser, smes, Taakeferd, VALERY, varlam4, WND, wreak,
Feb 11 2021, 10:56:32 Inframonolithium - The Lightless (2019)


*Artist: Inframonolithium
*Album: The Lightless
*Year: 2019
*Genre: Funeral Doom Metal
*Country: Belgium
*Format: mp3@CBR320kbps
*Size: 105MB

Tracklist:
1. Lies Of The Light 10:54
2. The Lightless 11:23
3. In Shadows Drawn 10:32
4. Night Tendrils 13:09
******************************
Total playing time: 45:58



[more=Technical info]
Input File: 1. Lies Of The Light.mp3
Channels : 2
Sample Rate : 44100
Precision : 16-bit
Duration : 00:10:54.30 = 28854718 samples = 49072.6 CDDA sectors
File Size : 26.2M
Bit Rate : 321k
Sample Encoding: MPEG audio (layer I, II or III)
Comments :
Title=Lies of the Light
Artist=Inframonolithium
Album=The Lightless
Tracknumber=1
Year=2019
Genre=Funeral Doom Metal

[/more]

Register
(15) andreikun, ctulhudagon, Hell_Is_Here, infiltrator, libertine, Marek, nadin85, Olethros, randumbum, sergsazan, Shadechaser, VALERY, vlad74, vyacheslav, wreak,
Feb 10 2021, 10:42:38 Soulwound - An Undimensional Experience Of Beauty​.​.​. But Behind The Mask You Find Filth​.​.​. [demo] (1993)


*Artist: Soulwound
*Album: An Undimensional Experience Of Beauty​.​.​. But Behind The Mask You Find Filth​.​.​. [demo]
*Year: 1993
*Genre: Melodic Doom/Death Metal
*Country: Netherlands
*Format: mp3@CBR320kbps
*Size: 72MB

Tracklist:
1. Delour Serenade 12:00
2. The Vile Skin Of Beauty 09:56
3. Sarabande 07:56
******************************
Total playing time: 29:52



[more=Technical info]
Input File: 2. The Vile Skin Of Beauty.mp3
Channels : 2
Sample Rate : 44100
Precision : 16-bit
Duration : 00:09:56.10 = 26287790 samples = 44707.1 CDDA sectors
File Size : 24.0M
Bit Rate : 322k
Sample Encoding: MPEG audio (layer I, II or III)
Comments :
Title=The Vile Skin Of Beauty
Artist=Soulwound
Album=An Undimensional Experience Of Beauty... But Behind The Mask You Find Filth...(Demo I 1993)
Tracknumber=2
Year=1993

[/more]

Register
(18) Evilded, hell_armageddon, Hell_Is_Here, infiltrator, kluval, lacrimoza, Mogozoz, Olethros, Proteus_666, Saldiac, satanist666, Shadechaser, stumpheavyrock, Taakeferd, VALERY, varlam4, Woosad, wreak,
Feb 10 2021, 10:18:49 Cauteror - They Fell... [demo] (1992)


*Artist: Cauteror
*Album: They Fell... [demo]
*Year: 1992
*Genre: Melodic Doom/Death Metal
*Country: Netherlands
*Format: mp3@CBR320kbps
*Size: 67MB

Tracklist:
1. Before I End My Breathing 06:10
2. They Fell... 08:08
3. Night Has Ceased 05:46
4. On Wings Of Blasphemy 07:12
******************************
Total playing time: 27:16



[more=Technical info]
Input File: 1. Before I End My Breathing.mp3
Channels : 2
Sample Rate : 44100
Precision : 16-bit
Duration : 00:06:10.10 = 16321278 samples = 27757.3 CDDA sectors
File Size : 15.0M
Bit Rate : 324k
Sample Encoding: MPEG audio (layer I, II or III)
Comments :
Title=Before I End My Breathing
Artist=Cauteror
Album=They fell...(demo II 1992)
Tracknumber=1
Year=1992

[/more]

Register
(18) hell_armageddon, Hell_Is_Here, infiltrator, JavaCroc, killingod, kluval, lacrimoza, Mogozoz, Olethros, Proteus_666, satanist666, Shadechaser, stumpheavyrock, Taakeferd, VALERY, varlam4, Woosad, wreak,
Feb 10 2021, 10:17:47 Cauteror - To Atonement I Am Avowed [demo] (1991)


*Artist: Cauteror
*Album: To Atonement I Am Avowed [demo]
*Year: 1991
*Genre: Melodic Doom/Death Metal
*Country: Netherlands
*Format: mp3@CBR320kbps
*Size: 63MB

Tracklist:
1. The Bells Of Sadness 04:55
2. I See The Valley 05:50
3. Thy Carved Epitaph 03:34
4. Expelled From Salvation 06:28
5. Mournful Cries From Silent Lake 04:50
******************************
Total playing time: 25:37



[more=Technical info]
Input File: 1. The Bells Of Sadness.mp3
Channels : 2
Sample Rate : 44100
Precision : 16-bit
Duration : 00:04:55.59 = 13035563 samples = 22169.3 CDDA sectors
File Size : 12.0M
Bit Rate : 324k
Sample Encoding: MPEG audio (layer I, II or III)
Comments :
Title=The Bells Of Sadness
Artist=Cauteror
Album=To Atonement I Am Avowed (demo I 1991)
Tracknumber=1
Year=1991

[/more]

Register
(19) hell_armageddon, Hell_Is_Here, infiltrator, killingod, kluval, lacrimoza, Mogozoz, Olethros, Proteus_666, Rosen, satanist666, Shadechaser, stumpheavyrock, Taakeferd, thenecromancer, VALERY, varlam4, Woosad, wreak,

89 Pages V   1 2 3 > » 
- Lo-Fi Version Support form
Copyrights and abuse reports form
Time is now: 1st August 2021 - 06:41:54