Welcome Guest ( Log In | Register )

История благодарностей участнику RUDACHUR ::: Спасибо сказали: 42046 раз(а)
Дата поста: В теме: За сообщение: Спасибо сказали:
Sep 17 2020, 14:09:13 Finntroll - Vredesvävd (2020)
[youtube]zS1LyuY0qmI[/youtube]

Register
(19) andeimon, boby9052, Brann, dimitriusk, infiltrator, ironyserg, legion01, lucifix, madera, Moonshtook, nadin85, Phlebotomized, plfan93, robertho777, RUSP73, Sethan, smes, Surt, xska,
Sep 16 2020, 15:48:56 Finntroll - Vredesvävd (2020)


*Artist: Finntroll
*Album: Vredesvävd
*Year: 2020
*Genre: Blackened Folk Metal
*Country: Finland
*Format: mp3@CBR320kbps
*Size: 88MB

Tracklist:
01. Väktaren 02:47
02. Att Döda Med En Sten 03:37
03. Ormfolk 03:58
04. Grenars Väg 03:44
05. Forsen 04:08
06. Vid Häxans Härd 04:02
07. Myren 02:49
08. Stjärnors Mjöd 04:09
09. Mask 03:01
10. Ylaren 05:07
11. Outro 01:04
******************************
Total playing time: 38:26



[more=Extended info]Vredesvävd means "Wrath woven" in Swedish.

Translations for the tracklist:
01. The Guardian
02. To Kill with a Stone
03. Snake People / Folk
04. Spruce's Road
05. The Stream
06. At the Witch's Curing
07. The Mire
08. The Stars Mead
09. Worm
10. The Howler

Recorded and mixed at Sonic Pump Studios, Finland.
Mastered at Chartmakers, Finland.[/more]

[more=Technical info]
Input File: 02. Att Döda Med En Sten.mp3
Channels : 2
Sample Rate : 44100
Precision : 16-bit
Duration : 00:03:37.28 = 9581828 samples = 16295.6 CDDA sectors
File Size : 8.69M
Bit Rate : 320k
Sample Encoding: MPEG audio (layer I, II or III)
Comments :
Title=Att doda med en sten
Artist=Finntroll
Album=Vredesvavd
Tracknumber=2
Year=2020
Genre=Blackened Folk Metal

[/more]

Register
(71) ahp, alikkon, Aresson, autumnwood, avather, Ballisargon, BlackPanda, Blacktormentor, BlackTroll, boby9052, cancer1974, Cartman223, chipsgott, DarkHorde, Druidir, Fallen Soul, finmetal, finntroll3, folkerman, Giftsvamp, Golodomor, GuldenDraak, Herrant, Ice Gnoll, infiltrator, ironyserg, JD666Hellion, judaz, kostja, legion01, Lukittaz, Luminous, MadCarrot, metala, multizwilling, nemx, Noospheric, noxspiritus, nsk2008, Olethros, Ostinato, Paradayz, Pentium.Disel, Phlebotomized, plfan93, raattent, Rakkot, randumbum, Rosen, RUSP73, Satyr, Sethan, Shadechaser, Shub, SS2998, Strygaldwir, TeamatSE, Thrashold, troll_swamp, Tular, v.v.m, VALERY, vasiljev_sergej, Vinsody, Vintersorg, wanderer73, Woodsmoke, xska, yuratroll, zolotoiskatel, Язва,
Sep 8 2020, 16:37:55 Imšar - Karani (2017)


*Artist: Imšar
*Album: Karani
*Year: 2017
*Genre: Black Metal
*Country: Belarus
*Format: mp3@CBR320kbps
*Size: 113MB

Tracklist:
1. Pradmova 02:39
2. Karani 05:54
3. Spradviečny Vajar 05:12
4. Apošni Palot 06:32
5. Popieł Byłych Pieramoh 08:17
6. Šlachi Praz Cas 04:21
7. Novaha Sonca Pramień 07:16
8. Połymia Idzie Da Nieba 06:31
******************************
Total playing time: 46:42




[more=Extended info]+ Scans.[/more]

[more=Technical info]
Input File: 2. Karani.mp3
Channels : 2
Sample Rate : 44100
Precision : 16-bit
Duration : 00:05:54.11 = 15616339 samples = 26558.4 CDDA sectors
File Size : 14.2M
Bit Rate : 320k
Sample Encoding: MPEG audio (layer I, II or III)
Comments :
Title=Karani
Artist=Imsar
Album=Karani
Tracknumber=2
Year=2017
Genre=Black Metal

[/more]

Register
(15) 1968_janeart, AlexSmith, caro, infiltrator, kim666, Korpse, Moonshtook, Olethros, randumbum, robertho777, Rosen, Rudolfo_Metal, SilentNidhogg, VALERY, vasiljev_sergej,
Sep 8 2020, 16:36:37 Ulvkros - Palieskaje Varjactva [compilation] (2017)


*Artist: Ulvkros
*Album: Palieskaje Varjactva [compilation]
*Year: 2017
*Genre: Black Metal
*Country: Belarus
*Format: mp3@CBR320kbps
*Size: 102MB

Tracklist:
01. Podych Pahavalnych Viatroŭ 02:08
02. Nardyčny Teror 01:52
03. U Abdymkach Tumanu 02:36
04. S.O.T. 02:18
05. Storm Of Evil (Isengard Cover) 01:31
06. Skroz' čas Dy Prastoru 03:15
07. Palieskaje Varjactva 03:01
08. Cieni 02:06
09. Srebra Samotnych Liasoŭ 02:15
10. Balotnyja Ahni 03:06
11. Siver 02:03
12. Paŭnočnaja Spadčyna 04:36
13. Voŭcyja Sny 02:21
14. Imhla 03:25
15. Vajenny Taniec Smierci (Mysteries Сover) 03:01
******************************
Total playing time: 39:34

[more=Extended info]+ Scans.

[youtube]mMKoulYMH20[/youtube][/more]

[more=Technical info]
Input File: 01. Podych Pahavalnych Viatroŭ.mp3
Channels : 2
Sample Rate : 44100
Precision : 16-bit
Duration : 00:02:08.19 = 5653311 samples = 9614.47 CDDA sectors
File Size : 5.13M
Bit Rate : 320k
Sample Encoding: MPEG audio (layer I, II or III)
Comments :
Title=Podych Pahavalnych Viatrou
Artist=Ulvkros
Album=Palieskaje Varjactva
Tracknumber=1
Year=2017
Genre=Black Metal

[/more]

Register
(13) 1968_janeart, caro, infiltrator, kim666, Moonshtook, Olethros, randumbum, robertho777, Rosen, SilentNidhogg, Slavas, VALERY, vasiljev_sergej,
Aug 11 2020, 15:50:03 Arrogant Destruktor - No Fucking Mercy (2020)
Register


[youtube]yQY1w80o5KQ[/youtube]
(5) atavist, Doomster75, forgersky, infiltrator, robertho777,
Aug 10 2020, 16:40:05 Arrogant Destruktor - No Fucking Mercy (2020)


*Artist: Arrogant Destruktor
*Album: No Fucking Mercy
*Year: 2020
*Genre: Black Metal
*Country: United Kingdom
*Format: mp3@CBR320kbps
*Size: 102MB

Tracklist:
1. Steel And Spell 03:51
2. Midnight Graves 04:39
3. The Depths Of Empty Space 04:06
4. Scarred Ashen Planet 09:48
5. No Fucking Mercy 03:54
6. Pyromancer 05:07
7. Dust And Smoke 05:58
8. Dominion Extinguished 06:27
******************************
Total playing time: 43:50





[more=Technical info]
Input File: 1. Steel and Spell.mp3
Channels : 2
Sample Rate : 44100
Precision : 16-bit
Duration : 00:03:51.41 = 10205093 samples = 17355.6 CDDA sectors
File Size : 9.44M
Bit Rate : 326k
Sample Encoding: MPEG audio (layer I, II or III)
Comments :
Title=Steel and Spell
Artist=Arrogant Destruktor
Album=No Fucking Mercy
Tracknumber=1
Year=2020
Genre=Black Metal
Discnumber=1

[/more]

Register
(20) 1968_janeart, AlexSmith, atavist, caro, chickenfucker, infiltrator, judaz, kim666, multizwilling, Olethros, randumbum, Rosen, SadistikSlayer, stub888, supremo, VALERY, varlam4, vasiljev_sergej, Wail, wreak,
Jul 15 2020, 14:35:58 Well Of Night - The Lower Planes Of Self-Abstraction (2020)


*Artist: Well Of Night
*Album: The Lower Planes Of Self-Abstraction
*Year: 2020
*Genre: Melodic Black Metal
*Country: United States
*Format: mp3@CBR320kbps
*Size: 111MB

Tracklist:
1. Black Alder Sacristy 07:09
2. Allegiance To The Barren Lands 06:31
3. Doctrine Of Futility And Human Extinction 07:56
4. Ritual Of The Seven Shrines 07:17
5. Apex And Eschaton 06:42
6. Ossuary Of The Fallen Snow 10:14
******************************
Total playing time: 45:49




[more=Technical info]
Input File: 01 Black Alder Sacristy.mp3
Channels : 2
Sample Rate : 44100
Precision : 16-bit
Duration : 00:07:09.90 = 18958502 samples = 32242.4 CDDA sectors
File Size : 17.4M
Bit Rate : 324k
Sample Encoding: MPEG audio (layer I, II or III)
Comments :
Title=Black Alder Sacristy
Artist=Well of Night
Album=The Lower Planes of Self-Abstraction
Tracknumber=1
Year=2020
Genre=Black Metal
Discnumber=1

[/more]

Register
(37) ahp, AlexSmith, alikkon, atavist, BugEyes, demonosz, DenisKov, EvilPiet, grimoir, infiltrator, kim666, Korpse, lestllk, Lukittaz, Mares, MMMMM, Mogozoz, multizwilling, nemx, Olethros, Ostinato, randumbum, robertho777, Rosen, scorpionmk, sergsazan, Shadechaser, talismanFS, terron, THROWER666, VALERY, varlam4, vasiljev_sergej, Wail, wreak, yuratroll, zhol,
Jul 5 2020, 17:45:43 Gloosh - The River [ep] (2020)


*Artist: Gloosh
*Album: The River [ep]
*Year: 2020
*Genre: Atmospheric Black Metal
*Country: Russian Federation
*Format: mp3@CBR320kbps
*Size: 63MB

Tracklist:
1. Ручьи (Rivulets) 02:31
2. Исток (The Source) 08:40
3. Устье (The Estuary) 10:20
4. Камни (Stones) 04:20
******************************
Total playing time: 25:51




[more=Technical info]
Input File: 2. Исток (The Source).mp3
Channels : 2
Sample Rate : 44100
Precision : 16-bit
Duration : 00:08:41.02 = 22976762 samples = 39076.1 CDDA sectors
File Size : 21.0M
Bit Rate : 323k
Sample Encoding: MPEG audio (layer I, II or III)
Comments :
Title=Исток (The Source)
Artist=Gloosh
Album=The River
Tracknumber=2
Year=2020

[/more]

Register
(37) 1968_janeart, Aresson, Boozer, Cyrci, Daale, Druidir, El_Chibo, Fallen Soul, Glioma, GorAtheist, grimoir, infiltrator, jahbless, kim666, kryptor, Ludwig Hagen, Lukittaz, Maximvs, morve, multizwilling, murian, nord6666, oldvarg, Olethros, randumbum, Rosen, SaintAnger, Sanctus, serjred, Shadechaser, SilentNidhogg, tOmV, VALERY, varlam4, vasiljev_sergej, Victim of fate, wreak,
Jul 2 2020, 16:32:23 Forndom - Faþir (2020)


*Artist: Forndom
*Album: Faþir
*Year: 2020
*Genre: Neofolk/Ritual Ambient
*Country: Sweden
*Format: mp3@CBR320kbps
*Size: 105MB

Tracklist:
1. Jakten 05:27
2. Yggdrasil 04:15
3. Finnmarken 04:21
4. Fostersonen 06:28
5. Munin 01:37
6. Hel, Jag Vet Mig Väntar 07:26
7. Hemkomst 05:40
******************************
Total playing time: 35:14




[more=Extended info]+ Scans.

[youtube]MKleK0xNuIA[/youtube][/more]

[more=Technical info]
Input File: 1. Jakten.mp3
Channels : 2
Sample Rate : 44100
Precision : 16-bit
Duration : 00:05:27.07 = 14423963 samples = 24530.5 CDDA sectors
File Size : 13.1M
Bit Rate : 320k
Sample Encoding: MPEG audio (layer I, II or III)
Comments :
Title=Jakten
Artist=Forndom
Album=Fathir
Tracknumber=1
Year=2020
Genre=Neofolk/Ritual Ambient

[/more]

Register
(13) Angry_Chair, DJAHAN, Femto, helvetesrike, infiltrator, metalfanatic666, morve, murayne, Olethros, pain, Sjelekval, tOmV, wolverine,
Jun 15 2020, 16:34:26 Lapsus Dei - Sea Of Deep Reflections (2020)


*Artist: Lapsus Dei
*Album: Sea Of Deep Reflections
*Year: 2020
*Genre: Melodic Death/Doom Metal
*Country: Chile
*Format: mp3@CBR320kbps
*Size: 102MB

Tracklist:
1. Falling Apart 04:28
2. The Call Of Sirens 05:11
3. Naufragos 08:26
4. The Last Trip 04:51
5. Colossal 07:53
6. Alone I Break 04:33
7. Arrival 05:19
******************************
Total playing time: 40:41




[more=Technical info]
Input File: 02 The Call of Sirens.mp3
Channels : 2
Sample Rate : 44100
Precision : 16-bit
Duration : 00:05:11.14 = 13721186 samples = 23335.4 CDDA sectors
File Size : 13.5M
Bit Rate : 348k
Sample Encoding: MPEG audio (layer I, II or III)
Comments :
Title=The Call of Sirens
Artist=Lapsus Dei
Album=Sea of Deep Reflections
Tracknumber=2
Year=2020
Genre=Doom Metal
Discnumber=1

[/more]

Register
(25) 0x13, AHBAnep, Alpha_Prime, chefo, doomTemplar, dromord, EpicDoomLord, infiltrator, kluval, Lukittaz, metala, MMMMM, Mogozoz, multizwilling, nospeedlimit, Olethros, Ostinato, Reverend, Rosen, sergsazan, Shadechaser, VALERY, Winterdark, Zenial, Сварог Барг,
Apr 3 2020, 21:32:52 Gospel Of Death - We Are Only Here To Suffer (2020)


*Artist: Gospel Of Death
*Album: We Are Only Here To Suffer
*Year: 2020
*Genre: Funeral Doom Metal/Dark Ambient
*Country: Canada
*Format: mp3@CBR320kbps
*Size: 169MB

Tracklist:
1. The Conqueror Worm 13:21
2. Lost In Infinite Realms 11:55
3. Blood Portal 08:23
4. The Grand Misery 16:03
5. Blackness And Silence 06:34
6. We Are Only Here To Suffer 15:46
******************************
Total playing time: 1:12:02



[more=Technical info]
Input File: 1. The Conqueror Worm.mp3
Channels : 2
Sample Rate : 44100
Precision : 16-bit
Duration : 00:13:21.90 = 35363746 samples = 60142.4 CDDA sectors
File Size : 32.2M
Bit Rate : 321k
Sample Encoding: MPEG audio (layer I, II or III)
Comments :
Title=The Conqueror Worm
Artist=Gospel of Death
Album=We Are Only Here To Suffer
Tracknumber=1
Year=2020

[/more]

Register
(21) Buregon, Corpuscul, Hell_Is_Here, igorzz, infiltrator, kolar666, libertine, marilin, Metalass, nadin85, Olethros, randumbum, robertho777, russ777, sergsazan, stub888, supremo, uk82, VALERY, vosmidesijatye, wreak,
Apr 3 2020, 20:42:03 Domedagen - Domedagen (2019)


*Artist: Domedagen
*Album: Domedagen
*Year: 2019
*Genre: Doom/Death Metal
*Country: Sweden
*Format: mp3@CBR320kbps
*Size: 125MB

Tracklist:
1. Peace 07:45
2. The Last Defiance 08:22
3. Into Nothingness 07:56
4. Left Here to Conquer 07:59
5. Bliss 07:02
6. Human Blood 06:51
7. Not For Them To Choose 08:43
******************************
Total playing time: 54:38




[more=Technical info]
Input File: 01 - Peace.mp3
Channels : 2
Sample Rate : 44100
Precision : 16-bit
Duration : 00:07:45.22 = 20516070 samples = 34891.3 CDDA sectors
File Size : 18.8M
Bit Rate : 323k
Sample Encoding: MPEG audio (layer I, II or III)
Comments :
Title=Peace
Artist=Domedagen
Album=Domedagen
Tracknumber=1
Year=2019
Genre=Doom/Death Metal
Discnumber=1

[/more]

Register
(16) AHBAnep, HMHamster, infiltrator, lacrimoza, marilin, metala, Mogozoz, morbidangelo, Olethros, Sabbathian, sergsazan, Un4given, VALERY, vyacheslav, wanderer73, wreak,
Apr 3 2020, 19:53:55 Distressed To Marrow - Trust The Filth (2020)


*Artist: Distressed To Marrow
*Album: Trust The Filth
*Year: 2020
*Genre: Doom/Death Metal
*Country: Germany
*Format: mp3@CBR320kbps
*Size: 145MB

Tracklist:
1. Waste 05:37
2. Killing Is Destiny 06:49
3. Trapped Without Cage 06:19
4. Battology 05:48
5. Manipulated 07:11
6. Guantanamo Inc. 06:53
7. The Price Of Existence 09:37
******************************
Total playing time: 48:14




[more=Extended info]+ Scans.

[youtube]VUTalUaLNns[/youtube][/more]

[more=Technical info]
Input File: 1. Waste.mp3
Channels : 2
Sample Rate : 44100
Precision : 16-bit
Duration : 00:05:38.05 = 14907829 samples = 25353.5 CDDA sectors
File Size : 13.5M
Bit Rate : 320k
Sample Encoding: MPEG audio (layer I, II or III)
Comments :
Title=Waste
Artist=Distressed To Marrow
Album=Trust The Filth
Tracknumber=1
Year=2020
Genre=Death/Doom Metal

[/more]

Register
(16) andreikun, HMHamster, infiltrator, lacrimoza, metala, Mogozoz, morbidangelo, oldvarg, Olethros, sergsazan, Shadechaser, terron, VALERY, vyacheslav, wanderer73, wreak,
Apr 3 2020, 19:34:02 Distressed To Marrow - La Violencia (2017)


*Artist: Distressed To Marrow
*Album: La Violencia
*Year: 2017
*Genre: Death/Doom Metal
*Country: Germany
*Format: mp3@CBR320kbps
*Size: 192MB

Tracklist:
1. Violencia Is Born 08:58
2. Absorbing Maggots 08:27
3. Phalance 10:18
4. Right Foot Killer 10:57
5. Metric Medusa 08:28
6. Lick My Bayonet 12:04
7. Violencia Is Dead 09:02
******************************
Total playing time: 1:08:14




[more=Extended info]+ Scans.[/more]

[more=Technical info]
Input File: 1. Violencia Is Born.mp3
Channels : 2
Sample Rate : 44100
Precision : 16-bit
Duration : 00:08:58.13 = 23731489 samples = 40359.7 CDDA sectors
File Size : 21.5M
Bit Rate : 320k
Sample Encoding: MPEG audio (layer I, II or III)
Comments :
Title=Violencia Is Born
Artist=Distressed To Marrow
Album=La Violencia
Tracknumber=1
Year=2017
Genre=Death/Doom Metal

[/more]

Register
(17) andreikun, HMHamster, infiltrator, Mogozoz, morbidangelo, oldvarg, Olethros, russ777, Sabbathian, sergsazan, Shadechaser, stumpheavyrock, VALERY, vyacheslav, wanderer73, wreak, Сварог Барг,
Apr 3 2020, 17:40:42 Officium Triste & Various Artists - Born To Lose, Doomed To Die [compilation] (2019)
Register


[youtube]WdwK9fEqwjw[/youtube]
(2) marilin, robertho777,
Apr 2 2020, 18:35:49 Officium Triste & Various Artists - Born To Lose, Doomed To Die [compilation] (2019)


*Artist: Officium Triste & Various Artists
*Album: Born To Lose, Doomed To Die [compilation]
*Year: 2019
*Genre: Doom/Death Metal
*Country: International
*Format: mp3@CBR320kbps
*Size: 237MB

Tracklist:
01. Norilsk - Intro - Officium Triste (Part II)/Mountains Of Depressiveness 08:02
02. Majestic Downfall - In Pouring Rain 08:38
03. Kurb Saatus - Dreams Of Sorrow 04:36
04. Beyond Our Ruins - Your Eyes 09:12
05. Marche Funèbre - Lonesome 06:46
06. Evadne - Like Atlas 09:34
07. Officium Triste - The Weight Of The World (Editors Сover) 05:11
08. Illimitable Dolor - On The Crossroads Of Souls 07:30
09. Who Dies In Siberian Slush - One With The Sea 09:32
10. My Silent Wake - To The Gallows 07:03
11. Eye Of Solitude - My Charcoal Heart 09:53
12. Façade - This Inner Twist 08:47
13. The Hoppy Forest - The Happy Forest 04:26
14. Officium Triste - Sleepless (Anathema Сover) 04:18
******************************
Total playing time: 1:43:28




[more=Extended info]Compilation album to celebrate the 25th anniversary of Officium Triste. Released on the band's imprint Weeping Willow Records.[/more]

[more=Technical info]
Input File: 01 Norilsk - Intro - Officium Triste (Part II)-Mountains Of Depressiveness.mp3
Channels : 2
Sample Rate : 44100
Precision : 16-bit
Duration : 00:08:02.90 = 21296022 samples = 36217.7 CDDA sectors
File Size : 19.4M
Bit Rate : 321k
Sample Encoding: MPEG audio (layer I, II or III)
Comments :
Title=Norilsk - Intro - Officium Triste (Part II)/Mountains Of Depressiveness
Artist=Officium Triste
Album=Various Artists - Born To Lose, Doomed To Die
Tracknumber=1
Year=2019
Genre=Doom/Death Metal

[/more]

Register
(39) AHBAnep, as71, autumnwood, Boozer, Brutal, Chasm, comradEnemy, deadxramones, doomTemplar, Doooomed, gav-gafi, gena, Hell_Is_Here, infiltrator, krotovich, KVRT, LightWizard, marilin, Metalass, morbidangelo, Necromayhem, nsk2008, Ostinato, popen13, ripper33, russ777, SatanicPanzer, terron, thenecromancer, tOmV, Un4given, VALERY, Victim of fate, wanderer73, wreak, Герб, Козлотролль, Сатаник, Язва,
Apr 2 2020, 16:35:58 The Ruins Of Beverast & Mourning Beloveth - Don't Walk On The Mass Graves [split] (2020)


*Artist: The Ruins Of Beverast & Mourning Beloveth
*Album: Don't Walk On The Mass Graves [split]
*Year: 2020
*Genre: Atmospheric Black/Doom Metal | Doom/Death Metal
*Country: Germany | Ireland
*Format: mp3@CBR320kbps
*Size: 46MB

Tracklist:
The Ruins Of Beverast:
1. Silhouettes Of Death's Grace 09:55
Mourning Beloveth:
2. I Saw A Dying Child In Your Arms 09:36
******************************
Total playing time: 19:31





[more=Extended info]Available on 10" vinyl and
CD Digipack, inside-out print and printed inside as well.
Fold-out miniposter with lyrics, info and illustrations.
Limited to 1000 hand numbered copies.

[youtube]cFWjVJ57kuk[/youtube][/more]

[more=Technical info]
Input File: 1. The Ruins Of Beverast - Silhouettes Of Death's Grace.mp3
Channels : 2
Sample Rate : 44100
Precision : 16-bit
Duration : 00:09:55.81 = 26275221 samples = 44685.7 CDDA sectors
File Size : 23.9M
Bit Rate : 321k
Sample Encoding: MPEG audio (layer I, II or III)
Comments :
Title=Silhouettes Of Death's Grace
Artist=The Ruins Of Beverast
Album=Don't Walk On The Mass Graves (split w. Mourning Beloveth)
Tracknumber=1
Year=2020
Genre=Doom/Death Metal

[/more]

Register
(70) 1968_janeart, A.L.Rapsod, acerbus, AHBAnep, ahp, alikkon, BERZERK, Black Cat, Boozer, Bzth, comradEnemy, deadxramones, deatholocaust, demogogron, DEZZIARA, Dirt_ORFEY, doomTemplar, DrStan, El_Chibo, Falx, Femto, fishish, Fryz, garml2, garmonbozia, gav-gafi, gena, Hell_Is_Here, HMHamster, HviteGuden, Infidel, infiltrator, Lanceatum, libertine, Ludwig Hagen, Lunaris, marilin, Metalass, metaljosue, Mist13Signifier, Moonlover, morbidangelo, nadin85, nemx, OfDoom, Old Vyaine, Ostinato, Peikko, popen13, randumbum, satanist666, senecazm, sergsazan, SilentNidhogg, smes, soulskinner681, Strygaldwir, tOmV, Un4given, Uriel, VALERY, varlam4, vasiljev_sergej, wreak, xska, yuratroll, ZambuL, Zenial, Герб, Козлотролль,
Mar 30 2020, 15:06:51 Сруб - 988 (2019)
Register


[youtube]P8SAtQ4e7Dg[/youtube]
(4) infiltrator, sabr, SAPOGi, sethurius,
Mar 30 2020, 14:14:39 Сруб - 988 (2019)


*Artist: Сруб
*Album: 988
*Year: 2019
*Genre: Dark Folk
*Country: Russian Federation
*Format: mp3@CBR320kbps
*Size: 124MB

Tracklist:
1. Морок 04:40
2. На Смерть Царя 08:42
3. 988 05:21
4. Мой Гроб Пустой 03:38
5. Ожидание Черной Весны 08:15
6. Остынь (Пламя В Тишине Ночной) 06:25
7. Слезы Ручьем 04:44
8. Избавление 08:52
9. Мехом Мертвых Мхов 04:25
******************************
Total playing time: 55:02



[more=Technical info]
Input File: 01 - Морок.mp3
Channels : 2
Sample Rate : 44100
Precision : 16-bit
Duration : 00:04:40.31 = 12361759 samples = 21023.4 CDDA sectors
File Size : 11.3M
Bit Rate : 321k
Sample Encoding: MPEG audio (layer I, II or III)
Comments :
Title=Морок
Artist=Сруб
Album=988
Tracknumber=01
Year=2019
Genre=Post-Punk / Dark Folk / Occult Punk / Witch Punk

[/more]

Register
(18) Aresson, Branis, Brann, Cartman223, DMIYUR, emogrinder, Fryz, gwar, Infidel, infiltrator, oldvarg, Olethros, SAPOGi, sethurius, tOmV, Tular, VALERY, xska,
Mar 27 2020, 20:26:51 BlazeBirth Hall
[youtube]Dtu8-fLvohc[/youtube]
(4) Chasm, infiltrator, Krosis, ptlm,
Mar 4 2020, 15:05:37 Clouds - Durere (2020)


*Artist: Clouds
*Album: Durere
*Year: 2020
*Genre: Atmospheric Doom/Death Metal
*Country: International
*Format: mp3@CBR320kbps
*Size: 137MB

Tracklist:
1. Cold Guiding Light 08:03
2. Empty Hearts 08:45
3. Images And Memories 06:57
4. Above The Sea 09:05
5. The Sailor Waves Goodbye 09:37
6. A Father's Death 08:48
7. The End Of Hope 07:13
******************************
Total playing time: 58:28




[more=Technical info]
Input File: 1. Cold Guiding Light.mp3
Channels : 2
Sample Rate : 44100
Precision : 16-bit
Duration : 00:08:03.09 = 21304093 samples = 36231.5 CDDA sectors
File Size : 19.4M
Bit Rate : 322k
Sample Encoding: MPEG audio (layer I, II or III)
Comments :
Title=Cold Guiding Light
Artist=Clouds Official
Album=DURERE
Tracknumber=1
Year=2020
Genre=Atmospheric Doom/Death Metal

[/more]

Register
(39) AHBAnep, Aresson, BERZERK, BladeOvDarkness, Boozer, cesar, Deada, delgard, DJAHAN, DMIYUR, doomTemplar, eternald, Farung, Femto, fragment, gena, infiltrator, infozahist, insufferable, judaz, KVRT, libertine, marilin, MEmethuselah, metala, Moonlover, Morgoth, nadin85, Old Vyaine, Olethros, popen13, pothead, ripper33, SAPOGi, SatanicPanzer, Shadechaser, stone88, TeamatSE, yuratroll,
Feb 26 2020, 14:32:59 Treurwilg - An End To Rumination (2020)
[youtube]k09JCmZiJmo[/youtube]

Register
(2) infiltrator, Sanctus,
Feb 26 2020, 13:24:24 Treurwilg - An End To Rumination (2020)


*Artist: Treurwilg
*Album: An End To Rumination
*Year: 2020
*Genre: Melodic Doom/Death Metal
*Country: Netherlands
*Format: mp3@CBR320kbps
*Size: 112MB

Tracklist:
1. Fragility Of Mankind 06:38
2. In Ruin And Misery 12:03
3. Myosotis 09:30
4. I 07:20
5. Shallow Pools Of Grief 10:12
******************************
Total playing time: 45:43




[more=Technical info]
Input File: 1. Fragility of Mankind.mp3
Channels : 2
Sample Rate : 44100
Precision : 16-bit
Duration : 00:06:38.92 = 17592152 samples = 29918.6 CDDA sectors
File Size : 17.4M
Bit Rate : 350k
Sample Encoding: MPEG audio (layer I, II or III)
Comments :
Title=Fragility of Mankind
Artist=Treurwilg
Album=An End to Rumination
Tracknumber=1
Year=2020
Genre=Melodic Doom/Death Metal
Discnumber=1

[/more]

Register
(22) ASkyThatBurns, chipsgott, DenisKov, doomasfvck, fallen, HMHamster, infiltrator, kimkayoung, libertine, Mogozoz, Olethros, Ostinato, Rosen, Sanctus, SatanicPanzer, senecazm, sergsazan, stumpheavyrock, tOmV, VALERY, wanderer73, Сварог Барг,
Feb 18 2020, 16:33:29 Fiurach - Chaospawner (1999)


*Artist: Fiurach
*Album: Chaospawner
*Year: 1999
*Genre: Epic Black/Thrash Metal
*Country: Italy
*Format: mp3@CBR320kbps
*Size: 98MB

Tracklist:
01. Descent Of The Apocalypse Lord - Part I (The Descent) 05:23
02. Descent Of The Apocalypse Lord - Part II (Invocation And Defeat) 04:04
03. The Rebirth 04:44
04. Enter The Triangle 04:29
05. With Doom... 00:12
06. Impaler's Skullchalice 03:49
07. The Hunt 05:39
08. The Divine Sword Conquest 04:58
09. Om Mani Padme Um 00:48
10. Chaospawner - Part I (One Thousand Years After) 04:19
11. Chaospawner - Part II (The Chaos Spawned) 04:23
******************************
Total playing time: 42:48

[more=Technical info]
Input File: 01. Descent Of The Apocalypse Lord - Part I (The Descent).mp3
Channels : 2
Sample Rate : 44100
Precision : 16-bit
Duration : 00:05:23.29 = 14256913 samples = 24246.5 CDDA sectors
File Size : 12.9M
Bit Rate : 320k
Sample Encoding: MPEG audio (layer I, II or III)
Comments :
Title=Descent Of The Apocalypse Lord - Part 1
Artist=Fuirach
Album=Chaospawner
Tracknumber=1
Year=1999
Genre=Epic Black/Thrash Metal

[/more]

Register
(30) AHBAnep, ASkyThatBurns, atavist, boby9052, Foneg, FUDEDOR, fuoco, gav-gafi, Ildjarn, infiltrator, kimkayoung, Lucifer, MadCarrot, Mogozoz, oldvarg, Olethros, poeira, Rosen, SaintVitus, sergsazan, Surt, tamerz, thenecromancer, thrashiac55, toly1917, varlam4, vasiljev_sergej, Victim of fate, Wail, Weru,
Feb 13 2020, 10:20:16 Godthrymm - Reflections (2020)
Register


[youtube]jd1Hd31NNJU[/youtube]
(11) BlackMirror, djsema4, gotherion, infiltrator, kolar666, Lux, multizwilling, nikolay81, Olethros, russ777, wtk.412,

86 Pages V   1 2 3 > » 
- Lo-Fi Version Support form
Copyrights and abuse reports form
Time is now: 21st September 2020 - 11:31:56