Welcome Guest ( Log In | Register )

Объявления

* gmail.com упорно продолжает считать почту с нас "unsolicited" и отбивает в том числе и письма активации, поэтому просьба использовать альтернативные почтовые ящики.
------------
* gmail.com continues reject all mail from us as "unsolicited" (activation mails too) therefore please use alternate mail servers.
История благодарностей участнику RUDACHUR ::: Спасибо сказали: 46154 раз(а)
Дата поста: В теме: За сообщение: Спасибо сказали:
Apr 10 2024, 10:00:03 Perunwit - Iskeide Ragana (2024)


*Artist: Perunwit
*Album: Iskeide Ragana
*Year: 2024
*Genre: Heathen Folk/Ambient
*Country: Poland
*Format: mp3@CBR320kbps
*Size: 98MB

Tracklist:
1. Svar (Chapter One) 06:16
2. Khrana 04:58
3. Valhalla 04:35
4. Tragna Sward 05:27
5. Arne Un Holmsgaldr 05:34
6. Iskeide Ragana 04:19
7. Woden 02:22
8. Helgadrasilaey 08:10
9. Svar (Chapter Two) 01:28
******************************
Total playing time: 43:09

[more=Extended info][youtube]BiSJ35rIRwc?feature=shared[/youtube][/more]

[more=Technical info]
Input File: 06. Iskeide Ragana.mp3
Channels : 2
Sample Rate : 48000
Precision : 16-bit
Duration : 00:04:19.08 = 12435984 samples ~ 19431.2 CDDA sectors
File Size : 10.4M
Bit Rate : 320k
Sample Encoding: MPEG audio (layer I, II or III)
Comments :
Title=Iskeide Ragana
Artist=Perunwit
Album=Iskeide Ragana
Tracknumber=06
Year=2024
Genre=Neofolk/Ambient

[/more]

Register
(12) Ash_1980, Cartman223, csgmnk, Druidir, goatkvlt, Grev, Hexenmeister, Infidel, leks, oldvarg, Raw1488, Reverend,
Apr 10 2024, 09:58:26 Vrildom - Purificatio (2024)


*Artist: Vrildom
*Album: Purificatio
*Year: 2024
*Genre: Black Metal
*Country: Argentina
*Format: mp3@CBR320kbps
*Size: 101MB

Tracklist:
1. Aeria 04:09
2. Eagle Insight 08:00
3. Ominous Course Of Inspiration 06:04
4. Of Pride And Stellar Arrogance 05:10
5. Tectonic Resonances From The South 03:27
6. My Cosmic Longing 05:29
7. Rising Storms And Victorious Thunder 06:23
8. Unbreakable Spirit 06:13
******************************
Total playing time: 44:55

[more=Extended info][youtube]9IS6RnZEJl4?feature=shared[/youtube][/more]

[more=Technical info]
Input File: 02. Eagle Insight.mp3
Channels : 2
Sample Rate : 48000
Precision : 16-bit
Duration : 00:08:01.01 = 23088528 samples ~ 36075.8 CDDA sectors
File Size : 19.2M
Bit Rate : 320k
Sample Encoding: MPEG audio (layer I, II or III)
Comments :
Title=Eagle Insight
Artist=Vrildom
Album=Purificatio
Tracknumber=02
Year=2024
Genre=Black Metal

[/more]

Register
(23) 29A666, AlexSmith, alikkon, Altkiller, artscald, Ash_1980, disney666, Ildjarn, kim666, Maximvs, MMMMM, Necromag, nemx, Nomadwarfukk, obituarydark, Raw1488, Rover, sacrut, SilentNidhogg, stormhatt, supremo, VALERY, Velmi,
Mar 7 2024, 11:56:04 Mournful Grace - Snowbound (2010)


*Artist: Mournful Grace
*Album: Snowbound
*Year: 2010
*Genre: Death/Doom Metal
*Country: Italy
*Format: mp3@CBR320kbps
*Size: 103MB

Tracklist:
1. Sign Of The Storm 13:55
2. Fog Of Solitude 09:50
3. An Eternal Season Of Sadness 08:28
4. Neve Di Primavera 11:34
******************************
Total playing time: 43:47

[more=Extended info]+ Scans.

Promo-CDr released for promotional use only. Limited to 30 hand-numbered copies.
Released in slimcase.[/more]

[more=Technical info]
Input File: 1. Sign Of The Storm.mp3
Channels : 2
Sample Rate : 44100
Precision : 16-bit
Duration : 00:13:55.34 = 36838494 samples = 62650.5 CDDA sectors
File Size : 33.4M
Bit Rate : 320k
Sample Encoding: MPEG audio (layer I, II or III)
Comments :
Title=Sign Of The Storm
Artist=Mournful Grace
Album=Snowbound
Tracknumber=1
Year=2010
Genre=Death/Doom Metal

[/more]

Register
(22) Altkiller, artscald, Ash_1980, Buregon, Grev, HMHamster, infozahist, kimkayoung, kluval, LiarOfAngmar, Marek, marilin, Mogozoz, quarantine, sergsazan, Shadechaser, stumpheavyrock, supremo, VALERY, vyacheslav, wanderer73, wreak,
Mar 7 2024, 11:54:04 Crystal Darkness - A Far Cry Paradise [ep] (2022)


*Artist: Crystal Darkness
*Album: A Far Cry Paradise [ep]
*Year: 2022
*Genre: Doom/Gothic Metal
*Country: Netherlands
*Format: mp3@CBR320kbps
*Size: 78MB

Tracklist:
1. Black Dresses 04:27
2. Morning Sun 04:25
3. For All My Learning 05:39
4. The Jams 06:47
5. The Blind Man 06:02
6. My Speedmachine 05:54
******************************
Total playing time: 33:14

[more=Extended info]May have originally been released in Sept 2002, but was definitely remastered and released sometime in 2022.[/more]

[more=Technical info]
Input File: 01 - Black Dresses.mp3
Channels : 2
Sample Rate : 44100
Precision : 16-bit
Duration : 00:04:27.96 = 11816816 samples = 20096.6 CDDA sectors
File Size : 11.2M
Bit Rate : 333k
Sample Encoding: MPEG audio (layer I, II or III)
Comments :
Title=Black Dresses
Artist=Crystal Darkness
Album=A Far Cry Paradise (Remastered 2022)
Tracknumber=1
Year=2022
Genre=Doom/Gothic Metal

[/more]

Register
(19) AHBAnep, aleon, artscald, Ash_1980, Buregon, Carcharoth, Cartman223, chipsgott, Grev, HMHamster, infozahist, kluval, Mogozoz, postal67, quarantine, sergsazan, stumpheavyrock, VALERY, wreak,
Feb 14 2024, 14:39:30 Dark Fury - Shoot To Kill! (2024)


*Artist: Dark Fury
*Album: Shoot To Kill!
*Year: 2024
*Genre: Black Metal
*Country: Poland
*Format: mp3@CBR320kbps
*Size: 72MB

Tracklist:
1. Don't I Have The Right To Take Revenge? 03:47
2. As Riders Rush Throught The World 03:29
3. Shoot To Kill! 04:41
4. And If I Am Afraid, I Will Control My Fear! 03:46
5. Under The Black Sun We Will Trample The Red Star 05:03
6. When The Pale Dawn Comes 05:16
7. Tomb Of The Unknown Soldier 05:31
******************************
Total playing time: 31:33

[more=Extended info][youtube]sNk8a0EZcN8?feature=shared[/youtube][/more]

[more=Technical info]
Input File: 01 - Don\'t I Have The Right To Take Revenge.mp3
Channels : 2
Sample Rate : 44100
Precision : 16-bit
Duration : 00:03:47.40 = 10028472 samples = 17055.2 CDDA sectors
File Size : 9.16M
Bit Rate : 322k
Sample Encoding: MPEG audio (layer I, II or III)
Comments :
Title=Don't I Have The Right To Take Revenge?
Artist=Dark Fury
Album=Shoot To Kill! (Strzelać, Zeby Zabić!)
Tracknumber=01/07
Year=2024

[/more]

Register
(50) 6black6magic6, AlexSmith, alikkon, Altkiller, andeimon, artscald, Ash_1980, Boozer, canadaspaceman, cesar, DarkHorde, dermarsoran, Fallen_Angel_of_Doom, Femto, gena, Grev, Hell_Is_Here, Ildjarn, judaz, kim666, lardmonger, LEGION69, MMMMM, nadin85, Nebo, nemx, Pinhead666, Radek, rammmirez, Raw1488, recber, Reverend, Rover, sacrut, SilentNidhogg, SSWolf88, supremo, thenecromancer, the_cleanser, VALERY, vasiljev_sergej, Velmi, Victim of fate, Vidder242, Vidyadharov, vov7609, vovenom, Wail, wreak, XxNachtmahRxX,
Feb 10 2024, 09:52:06 My Dying Bride - Towards The Sinister [demo] (1991)
[youtube]7brX1ZxRNm8?feature=shared[/youtube]
(2) Ambercandle, Occultas,
Feb 6 2024, 14:36:00 Beherit - Dawn Of Satan's Millenium [compilation] (2023)
Tracks 01 to 07 are taken from "Demonomancy" Demo (1990),
Tracks 08 to 11 are taken from "Dawn of Satan's Millennium" EP (1991),
Tracks 12, 13 - Unreleased studio tracks, available on the official compilation "Beast of Beherit - Complete Worxxx" (1999),
Track 14 - is taken from "Death Yell / Beherit" Split (1991),
Tracks 15 to 18 are taken from "Down There..." Demo (1991) under the name The Lord Diabolus.
(6) Evrom, Occultas, rominow, thenecromancer, Wail, XxNachtmahRxX,
Feb 2 2024, 22:24:26 Diary Of Dreams - Melancholin (2023)
Песня Viva la bestia хороша !
[youtube]8Wgo6_WLyvU?feature=shared[/youtube]
(1) Chasm,
Jan 30 2024, 10:17:57 Briargh - Autóctono (2021) (1) Wail,
Jan 30 2024, 09:41:48 Ison - Stars & Embers (2023)


*Artist: Ison
*Album: Stars & Embers
*Year: 2023
*Genre: Post-Rock/Space Ambient/Doomgaze
*Country: Sweden
*Format: mp3@CBR320kbps
*Size: 204MB

Tracklist:
1. Luminescent Reverie 05:54
2. Horizons 10:01
3. Peregrination 08:02
4. Radiant Void 07:20
5. Astr 08:39
6. Formations 06:36
7. Beings Of Light 09:15
8. Embers 16:54
******************************
Total playing time: 1:12:41



[more=Extended info]+ Scans.

ISON 2023 is:

Daniel Änghede - Vocals, guitars, bass, drums, keyboards, synths & programming.
Lisa Cuthbert - Vocals & words.[/more]

[more=Technical info]
Input File: 1. Luminescent Reverie.mp3
Channels : 2
Sample Rate : 44100
Precision : 16-bit
Duration : 00:05:54.45 = 15631333 samples = 26583.9 CDDA sectors
File Size : 14.2M
Bit Rate : 320k
Sample Encoding: MPEG audio (layer I, II or III)
Comments :
Title=Luminescent Reverie
Artist=Ison
Album=Stars & Embers
Tracknumber=1
Year=2023
Genre=Post-Rock/Space Ambient/Doomgaze

[/more]

Register
(15) BERZERK, corgoroth, gena, Grev, Kwaad, mirotvorets, Noxius, Old Vyaine, oldvarg, popen13, Reverend, Sulphuric, Wail, yuratroll, zemlemer,
Jan 30 2024, 09:08:16 Solautumn - Inumanazione (2023)


*Artist: Solautumn
*Album: Inumanazione
*Year: 2023
*Genre: Atmospheric Doom/Death Metal
*Country: Italy
*Format: mp3@CBR320kbps
*Size: 124MB

Tracklist:
01. Translatio 05:36
02. Tabula Rasa 04:55
03. Salvezza In Anima 08:51
04. Estasi 02:55
05. Nel Silenzio 04:51
06. Andromeda 05:29
07. Inumanazione 04:07
08. Verita 04:34
09. Inumanazione II 05:51
10. Purificazione 02:55
******************************
Total playing time: 50:04



[more=Extended info]+ Scans.

[youtube]t0W1C0zMhmo?feature=shared[/youtube][/more]

[more=Technical info]
Input File: 01. Translatio.mp3
Channels : 2
Sample Rate : 44100
Precision : 16-bit
Duration : 00:05:36.17 = 14824877 samples = 25212.4 CDDA sectors
File Size : 13.4M
Bit Rate : 320k
Sample Encoding: MPEG audio (layer I, II or III)
Comments :
Title=Translatio
Artist=Solautumn
Album=Inumanazione
Tracknumber=1
Year=2023
Genre=Atmospheric Doom/Death Metal

[/more]

Register
(29) alikkon, Altkiller, artscald, cryptal, dagger666, dermarsoran, Evrom, heavymetalhead, Hell_Is_Here, infozahist, kefka, lacrimoza, LiarOfAngmar, libertine, metala, MMMMM, Mogozoz, Morgoth, oldvarg, Ostinato, quarantine, sergsazan, Shadechaser, skidnik, smysl, stumpheavyrock, VALERY, vlad74, wreak,
Jan 10 2024, 13:36:28 Новости Folk/Pagan/Viking
Romuvos - Spirits (Hammerheart Records, February 9th, 2024)



[youtube]pmDdYc8oHMY?feature=shared[/youtube]
(1) Lucifer,
Dec 27 2023, 14:24:09 Biały Viteź - Tam, Gdzie Odlatują Kruki (2023)


*Artist: Biały Viteź
*Album: Tam, Gdzie Odlatują Kruki
*Year: 2023
*Genre: Folk/Pagan Black Metal
*Country: Poland
*Format: mp3@CBR320kbps
*Size: 96MB

Tracklist:
1. Daj Nam Iść, Swantewit 02:12
2. Tam, Gdzie Odlatują Kruki 05:54
3. Białe Klify Rujany 05:11
4. Natura Nie Zna Równości 05:21
5. Konając Za Słońcem 06:41
6. Białym Duszy Głosem 04:10
7. Wschodnie Wiatry Wilczą Zimę Niosą 05:15
8. Pamięć Twoich Przodków 05:02
9. Koniec 01:57
******************************
Total playing time: 41:43

[more=Extended info][youtube]Y5kiC7WPK94?feature=shared[/youtube][/more]

[more=Technical info]
Input File: 01. Daj Nam Iść, Swantewit.mp3
Channels : 2
Sample Rate : 44100
Precision : 16-bit
Duration : 00:02:12.09 = 5824949 samples = 9906.38 CDDA sectors
File Size : 5.31M
Bit Rate : 322k
Sample Encoding: MPEG audio (layer I, II or III)
Comments :
Title=Daj Nam Iść, Swantewit
Artist=Biały Viteź
Album=Tam, Gdzie Odlatują Kruki
Tracknumber=01/09
Year=2023

[/more]

Register
(10) AlexSmith, Cartman223, DarkHorde, dermarsoran, Ildjarn, nemx, thenecromancer, Wail, wreak, XxNachtmahRxX,
Dec 18 2023, 10:10:17 Thalarion - Towards The Obscure Slumberland (1996)


*Artist: Thalarion
*Album: Towards The Obscure Slumberland
*Year: 1996
*Genre: Gothic/Death/Doom Metal
*Country: Slovakia
*Format: mp3@CBR320kbps
*Size: 120MB

Tracklist:
1. Lunatic's Third Eye 05:13
2. The Odyssey 07:30
3. Perverse Love To God 03:18
4. Thou, Who Walk To Eternity 04:44
5. As The Memories Of Slavs Awake 02:43
6. The Pyramid Of Sorrow 05:22
7. Towards The Obscure Slumberland 05:26
8. Unreal Delusions 03:22
9. A Lullaby Untold 06:43
******************************
Total playing time: 44:21



[more=Extended info]+ Scans.

Pařát Rock Metal Magazine. (2022)[/more]

[more=Technical info]
Input File: 1. Lunatic's Third Eye.mp3
Channels : 2
Sample Rate : 44100
Precision : 16-bit
Duration : 00:05:13.75 = 13836419 samples = 23531.3 CDDA sectors
File Size : 12.5M
Bit Rate : 320k
Sample Encoding: MPEG audio (layer I, II or III)
Comments :
Title=Lunatic's Third Eye
Artist=Thalarion
Album=Towards The Obscure Slumberland
Tracknumber=1
Year=1996
Genre=Gothic/Death/Doom Metal

[/more]

Register
(20) AHBAnep, artscald, Cartman223, chipsgott, Grev, kimkayoung, kluval, lacrimoza, metala, MMMMM, oldvarg, paganheart, Paradayz, postal67, quarantine, sergsazan, Shadechaser, stumpheavyrock, VALERY, wreak,
Nov 27 2023, 15:04:58 Ayashinan & Serpentis Ensemble - Feretrum Dimissum [split] (2016)


*Artist: Ayashinan & Serpentis Ensemble
*Album: Feretrum Dimissum [split]
*Year: 2016
*Genre: Funeral Doom Metal | Funeral Doom Metal
*Country: Peru | Peru
*Format: mp3@CBR320kbps
*Size: 222MB

Tracklist:
CD1: Ayashinan
1. Letania 02:35
2. Lamento Cataro 16:54
3. Tempus Quo Memoria Moriatur 18:17
CD2: Serpentis Ensemble
1. Face Of Sidonia Part I 06:21
2. Face Of Sidonia Part II 08:50
3. Face Of Sidonia Part III 07:15
4. Salmo Funebre VII 12:08
5. Ofrenda A La Muerte 13:29
6. Leucatos Del Atardecer 07:22
******************************
Total playing time: 1:33:11



[more=Extended info]+ Scans.

CD1: Ayashinan - "Luna de los Muertos" (Demo, 2009).
CD2: Serpentis Ensemble - "The Martian Face" (Demo, 2010) and "Offrande a la Mort" (Demo, 2011).[/more]

[more=Technical info]
Input File: 1. Face Of Sidonia Part I.mp3
Channels : 2
Sample Rate : 44100
Precision : 16-bit
Duration : 00:06:21.10 = 16806422 samples = 28582.4 CDDA sectors
File Size : 15.2M
Bit Rate : 320k
Sample Encoding: MPEG audio (layer I, II or III)
Comments :
Title=Face Of Sidonia Part I
Artist=Serpentis Ensemble
Album=Feretrum Dimissum
Tracknumber=1
Year=2016
Genre=Funeral Doom Metal

[/more]

Register
(14) artscald, gena, Grev, isvili, marilin, Mist13Signifier, quarantine, sergsazan, Shadechaser, supremo, uk82grind, VALERY, Wail, wreak,
Nov 27 2023, 15:02:47 Tragic Serenade - Sadness Roams Forever - A Collection Of The Years 1991-1994 [compilation] (2010)


*Artist: Tragic Serenade
*Album: Sadness Roams Forever - A Collection Of The Years 1991-1994 [compilation]
*Year: 2010
*Genre: Doom/Death Metal
*Country: Sweden
*Format: mp3@CBR320kbps
*Size: 146MB

Tracklist:
01. Live Your Life 08:15
02. Open Your Grave 05:43
03. Sadness Roams Forever 07:56
04. Baptized In The Blood Of Christ 10:47
05. Spring In Space (Intro) 01:16
06. Born Too Late 04:08
07. Space Flower 05:47
08. Wondering 05:02
09. Nafets (Outro) 00:56
10. Born Too Late 04:36
11. Space Flower 05:11
12. Wondering 04:50
******************************
Total playing time: 1:04:27

[more=Extended info]+ Scans.

Salute Records / Pure Black Heart Productions (CD 33 copies)
Tracks 1-4 taken from Demo '92.
Tracks 5-9 taken from Spring in Space.
Tracks 10-12 taken from a rehearsal. (recorded in 1993 and 1994)[/more]

[more=Technical info]
Input File: 01. Live Your Life.mp3
Channels : 2
Sample Rate : 44100
Precision : 16-bit
Duration : 00:08:15.63 = 21857063 samples = 37171.9 CDDA sectors
File Size : 19.8M
Bit Rate : 320k
Sample Encoding: MPEG audio (layer I, II or III)
Comments :
Title=Live Your Life
Artist=Tragic Serenade
Album=Sadness Roams Forever
Tracknumber=1
Year=2010
Genre=Doom/Death Metal

[/more]

Register
(16) Carcharoth, Grev, hell_armageddon, mayhemehyam, MEmethuselah, Mist13Signifier, Otcmetal, quarantine, sergsazan, stumpheavyrock, thenecromancer, uk82grind, VALERY, Wail, Xtohar, Xutun,
Nov 2 2023, 12:05:04 Sear Bliss - Phantoms 20th Anniversary - Live At KVLT, 2016 - Official Bootleg [live] (2017)


*Artist: Sear Bliss
*Album: Phantoms 20th Anniversary - Live At KVLT, 2016 - Official Bootleg [live]
*Year: 2017
*Genre: Atmospheric Black Metal
*Country: Hungary
*Format: mp3@CBR320kbps
*Size: 141MB

Tracklist:
1. Far Above The Trees 07:02
2. Aeons Of Desolation 09:52
3. 1100 Years Ago 06:19
4. As The Bliss Is Burning 06:07
5. Land Of The Phantoms 08:55
6. Beyond The Darkness 04:38
7. With Mournful Eyes 07:45
8. In The Shadow Of Another World 09:04
******************************
Total playing time: 59:42



[more=Extended info]Sear Bliss alive and unpolished - a full show with the special 20th Anniversary Phantoms setlist for the first time in Hungary.
Official bootleg with no overdubs and editing.
Recorded live on 30th of April at KVLT, Budapest.
Live sound recording and mixing by Istvan Neubrandt.[/more]

[more=Technical info]
Input File: 1. Far Above the Trees.mp3
Channels : 2
Sample Rate : 44100
Precision : 16-bit
Duration : 00:07:02.11 = 18615007 samples = 31658.2 CDDA sectors
File Size : 17.0M
Bit Rate : 322k
Sample Encoding: MPEG audio (layer I, II or III)
Comments :
Title=Far Above the Trees - Live at KVLT, 2016
Artist=Sear Bliss
Album=Phantoms 20th Anniversary - Live at KVLT, 2016 - Official Bootleg
Tracknumber=1
Year=2017

[/more]

Register
(17) artscald, BERZERK, BlackSwordMaster88, Bzth, cancer1974, Carcharoth, dulak, Emhyr var Emreis, Grev, Hell_Is_Here, noel666, princeshr, sacrut, supremo, VALERY, Wail, wreak,
Nov 2 2023, 12:03:52 Dark Reality - Cruel Research [demo] (1992)


*Artist: Dark Reality
*Album: Cruel Research [demo]
*Year: 1992
*Genre: Death Metal
*Country: Germany
*Format: mp3@CBR320kbps
*Size: 54MB

Tracklist:
1. Cruel Research 05:47
2. The Day After 03:18
3. Diseased 02:13
4. Condemned To Suffer 02:53
5. Open Your Eyes 04:39
6. Visionary Flight 02:59
******************************
Total playing time: 21:49



[more=Extended info]+ Scans.

Remastered.
GS Productions (2018).[/more]

[more=Technical info]
Input File: 1. Cruel Research.mp3
Channels : 2
Sample Rate : 44100
Precision : 16-bit
Duration : 00:05:47.40 = 15320252 samples = 26054.9 CDDA sectors
File Size : 13.9M
Bit Rate : 320k
Sample Encoding: MPEG audio (layer I, II or III)
Comments :
Title=Cruel Research
Artist=Dark Reality
Album=Cruel Research
Tracknumber=1
Year=1992
Genre=Death Metal

[/more]

Register
(14) andreikun, artscald, Carcharoth, enslaver, fuoco, Grev, hell_armageddon, Marek, Reverend, stumpheavyrock, thenecromancer, Wail, wreak, Xtohar,
Oct 9 2023, 16:01:34 Runenwacht - Derer Von Württemberg (2023)


*Artist: Runenwacht
*Album: Derer Von Württemberg
*Year: 2023
*Genre: Black Metal
*Country: Germany
*Format: mp3@CBR320kbps
*Size: 116MB

Tracklist:
01. Strafexpedition 1532 05:00
02. Derer Von Württemberg 06:15
03. Holmgang 04:08
04. Der Brandmeister 06:58
05. Wendunmuth - Die 7 Schwaben 05:15
06. Ihr Kriegt Mich Nicht Tot! 05:11
07. Revolte Des Gemeinen Mannes 04:17
08. Württembergische Ehrbarkeit 04:01
09. Ritus Alemannicus 05:12
10. Vorwärts Immer! 02:51
******************************
Total playing time: 49:08

[more=Extended info][youtube]fN10lHmWPiU?feature=shared[/youtube][/more]

[more=Technical info]
Input File: 01 - Strafexpedition 1532.mp3
Channels : 2
Sample Rate : 44100
Precision : 16-bit
Duration : 00:05:00.53 = 13253329 samples = 22539.7 CDDA sectors
File Size : 12.7M
Bit Rate : 338k
Sample Encoding: MPEG audio (layer I, II or III)
Comments :
Title=Strafexpedition 1532
Artist=Runenwacht
Album=Derer von Württemberg
Tracknumber=01/10
Year=2023

[/more]

Register
(27) AlexSmith, Altkiller, artscald, Carcharoth, Condehate, Daale, deadpyhto, Evrom, Gimli17, GorAtheist, kefka, khestanow3001, kim666, mishasha, Moonshtook, obituarydark, Raw1488, russ777, SilentNidhogg, supremo, TeamatSE, VALERY, varlam4, Vitald, vovenom, wreak, Варяг,
Oct 7 2023, 13:58:17 Чорторий - Мисливці (2023)


*Artist: Чорторий
*Album: Мисливці
*Year: 2023
*Genre: Folk Back Metal
*Country: Ukraine
*Format: mp3@CBR320kbps
*Size: 103MB

Tracklist:
1. Ми Йдем! (Forward We March!) 07:36
2. Чорторий (Chortoryi) 07:00
3. Місяць (The Moon) 05:50
4. Мисливці ( The Hunters) 06:57
5. Ода До Прийдешнього (Ode To The Futurity) 05:14
6. Вірш Душі (Poem Of The Soul) 08:32
7. Крик В Чорноті (Scream In The Black) 02:59
******************************
Total playing time: 44:08



[more=Extended info]No Colours Records (CD, 500 copies)

Lyrics of Ukrainian poets were used on this album:
Track 1: Spyrydon Cherkasenko "Ми йдем!", 1919.
Track 2: Ukrainian Traditional Folklore Mysteries.
Track 5: Ievgen Malanyuk "Ода до прийдешнього", 1932.
Track 7: "Крик в чорноті", Vasyl' Stus "Немилосердно нас об вічність б'ють", circa 1980.[/more]

[more=Technical info]
Input File: 1. Ми Йдем! (Forward We March!).mp3
Channels : 2
Sample Rate : 44100
Precision : 16-bit
Duration : 00:07:36.46 = 20129974 samples = 34234.6 CDDA sectors
File Size : 18.4M
Bit Rate : 322k
Sample Encoding: MPEG audio (layer I, II or III)
Comments :
Title=Ми Йдем! (Forward We March!)
Artist=Чорторий / Chortoryi
Album=Мисливці (The Hunters)
Tracknumber=1
Year=2023

[/more]

Register
(35) AlexSmith, alikkon, Aresson, artscald, carla667, Cartman223, chipsgott, dimmannius, Druidir, Evrom, folker, gav-gafi, heavymetalhead, infozahist, kefka, Mogozoz, Moonshtook, nsk2008, recber, russ777, Sergey, sergsazan, Shadechaser, SilentNidhogg, supremo, Surt, terron, tt2008, VALERY, vlad74, Wail, Weikai, wreak, yarrsuaa, yuratroll,
Oct 7 2023, 13:56:48 Friisk & Hallig - Hallig/Friisk [split] (2023)


*Artist: Friisk & Hallig
*Album: Hallig/Friisk [split]
*Year: 2023
*Genre: Atmospheric Black Metal | Black Metal
*Country: Germany | Germany
*Format: mp3@CBR320kbps
*Size: 75MB

Tracklist:
Hallig
1. Empor Аus Тassen Gräbern 10:04
2. Of Stone Аnd Dust 05:36
Friisk
3. Starvgefall Аn't Diek 08:03
4. Mit Wolkendunkel überzogen 09:09
******************************
Total playing time: 32:52



[more=Technical info]
Input File: 01. Hallig - Empor aus nassen Gräbern.mp3
Channels : 2
Sample Rate : 48000
Precision : 16-bit
Duration : 00:10:04.15 = 28999296 samples ~ 45311.4 CDDA sectors
File Size : 24.2M
Bit Rate : 320k
Sample Encoding: MPEG audio (layer I, II or III)
Comments :
Title=Empor aus nassen Gräbern
Artist=Hallig
Album=Split
Tracknumber=01/04
Year=2023
Genre=Black Metal

[/more]

Register
(15) Altkiller, artscald, Carcharoth, dermarsoran, kim666, SilentNidhogg, Soulgrinder, squall8fr, supremo, VALERY, varlam4, vovenom, wreak, Yorker, ZambuL,
Oct 2 2023, 12:07:38 Paid Charons Fare - Mourn (2018)


*Artist: Paid Charons Fare
*Album: Mourn
*Year: 2018
*Genre: Funeral Doom/Death Metal
*Country: Germany
*Format: mp3@CBR320kbps
*Size: 181MB

Tracklist:
1. Mourn 09:29
2. Mourner's Anthem 04:54
3. When Time Turns Minutes To Days 02:42
4. Alone 11:22
5. Dead Inside 09:44
6. Unforgiving Light Of The Sun 08:36
7. Lost Control (Anathema Cover) 04:48
******************************
Total playing time: 51:35




[more=Extended info]+ Scans.[/more]

[more=Technical info]
Input File: 1. Mourn.mp3
Channels : 2
Sample Rate : 44100
Precision : 16-bit
Duration : 00:09:29.63 = 25120859 samples = 42722.5 CDDA sectors
File Size : 22.8M
Bit Rate : 320k
Sample Encoding: MPEG audio (layer I, II or III)
Comments :
Title=Mourn
Artist=Paid Charons Fare
Album=Mourn
Tracknumber=1
Year=2018
Genre=Doom Metal

[/more]

Register
(21) AlexSmith, Altkiller, artscald, avather, chefo, fallen, GRAF, Grev, Hell_Is_Here, infozahist, kluval, lacrimoza, Olethros, quarantine, Sanctus, sergsazan, Shadechaser, VALERY, vlad74, Wail, wreak,
Oct 2 2023, 12:05:30 Façade & Locus Amoenus - Façade/Locus Amoenus [split] (2018)


*Artist: Façade & Locus Amoenus
*Album: Façade/Locus Amoenus [split]
*Year: 2018
*Genre: Doom/Death Metal | Black/Doom Metal
*Country: Netherlands | Netherlands
*Format: mp3@CBR320kbps
*Size: 92MB

Tracklist:
Façade:
1. Listen 06:19
2. To My Beloved One 09:57
Locus Amoenus:
3. Alea Iacta Est 07:59
4. Parture 11:19
******************************
Total playing time: 35:34



[more=Extended info]+ Scans.

Tracks 1-2 recorded by Façade in 2012. Mixed and mastered in 2017.
Tracks 3-4 recorded, mixed and mastered in 2017.
GS Productions (Digipak,100 copies)[/more]

[more=Technical info]
Input File: 1. Listen.mp3
Channels : 2
Sample Rate : 44100
Precision : 16-bit
Duration : 00:06:19.24 = 16724616 samples = 28443.2 CDDA sectors
File Size : 15.2M
Bit Rate : 320k
Sample Encoding: MPEG audio (layer I, II or III)
Comments :
Title=Listen
Artist=Facade
Album=Split
Tracknumber=1
Year=2018
Genre=Doom Metal

[/more]

Register
(13) artscald, denver, dermarsoran, Grev, kluval, lacrimoza, quarantine, Shadechaser, stumpheavyrock, supremo, VALERY, Wail, wreak,
Jun 29 2023, 10:16:03 Slavia - Echo Pradawnej Wiary (2023)


*Artist: Slavia
*Album: Echo Pradawnej Wiary
*Year: 2023
*Genre: Pagan Black Metal
*Country: Poland
*Format: mp3@CBR320kbps
*Size: 76MB

Tracklist:
01. Strażnicy Wiary 07:55
02. Czas Wilka 04:17
03. Nasza Wojna 04:50
04. Wędrowiec 04:44
05. Głos 05:20
06. Ostatnie Dni Arkony 06:05
******************************
Total playing time: 33:11

[more=Extended info][youtube]AE75lRX7Dtw[/youtube][/more]

[more=Technical info]
Input File: 01. Strażnicy Wiary.mp3
Channels : 2
Sample Rate : 48000
Precision : 16-bit
Duration : 00:07:55.06 = 22802832 samples ~ 35629.4 CDDA sectors
File Size : 19.0M
Bit Rate : 320k
Sample Encoding: MPEG audio (layer I, II or III)
Comments :
Title=Strażnicy Wiary
Artist=Slavia
Album=Echo Pradawnej Wiary
Tracknumber=01
Year=2023
Genre=Black Metal/Pagan Metal

[/more]

Register
(25) AlexSmith, artscald, Ash_1980, Carcharoth, Condehate, darkterrorxxx, dermarsoran, Grev, heavymetalhead, Ildjarn, infozahist, kim666, Marek, metala, nemx, Nerevar, SilentNidhogg, supremo, thenecromancer, VALERY, vovenom, Wilczygniew Strzygoń, Wotanwatch, wreak, Сварог Барг,
Jun 29 2023, 10:13:12 Slavland - Dziedzictwo (2022)


*Artist: Slavland
*Album: Dziedzictwo
*Year: 2022
*Genre: Pagan Black Metal
*Country: Poland
*Format: mp3@CBR320kbps
*Size: 83MB

Tracklist:
1. Ballada O Królu Lechu 01:48
2. Hejnał 08:41
3. Huf 07:03
4. Pieśń Minionych Czasów 06:30
5. Pierścień 06:31
6. Echa Lasów 06:06
7. Młode Orlę 05:27
******************************
Total playing time: 42:06

[more=Extended info][youtube]iKj10cZGHEg[/youtube][/more]

[more=Technical info]
Input File: 02. Hejnał.mp3
Channels : 2
Sample Rate : 48000
Precision : 16-bit
Duration : 00:08:41.90 = 25051392 samples ~ 39142.8 CDDA sectors
File Size : 18.0M
Bit Rate : 276k
Sample Encoding: MPEG audio (layer I, II or III)
Comments :
Title=Hejnał
Artist=Slavland
Album=Dziedzictwo
Tracknumber=02
Year=2022
Genre=Black Metal/Pagan Metal

[/more]

Register
(21) AlexSmith, artscald, cancer1974, Carcharoth, dermarsoran, Grev, Ildjarn, kim666, Marek, metala, metalfanatic666, sacrvm_bellvm, SilentNidhogg, smes, supremo, thenecromancer, VALERY, varlam4, vovenom, wreak, Сварог Барг,

92 Pages V   1 2 3 > » 
- Lo-Fi Version Support form
Copyrights and abuse reports form
Time is now: 14th June 2024 - 11:20:39