Welcome Guest ( Log In | Register )

История благодарностей участнику RUDACHUR ::: Спасибо сказали: 44447 раз(а)
Дата поста: В теме: За сообщение: Спасибо сказали:
Jun 25 2022, 17:40:42 Elegiac - Archaic Dissonance Vol. 3 [compilation] (2021)


*Artist: Elegiac
*Album: Archaic Dissonance Vol. 3 [compilation]
*Year: 2021
*Genre: Black Metal
*Country: United States
*Format: mp3@CBR320kbps
*Size: 134MB

Tracklist:
01. Abandoned 06:25
02. Chaos Wind 05:25
03. Eternal Silence 05:54
04. Omen Of Impending Death 04:53
05. Pale Corpse 03:29
06. The Art Of Manipulation 05:31
07. Glowing Eyes 04:59
08. Pure Dead Silence 03:41
09. Solace 07:40
10. The Darkest Days Have Yet To Come (Outro) 03:36
11. The Sick Winds Stir The Cold Dawn (Krieg Cover) 04:20
******************************
Total playing time: 55:53



[more=Extended info]+ Scans.[/more]

[more=Technical info]
Input File: 01. Abandoned.mp3
Channels : 2
Sample Rate : 44100
Precision : 16-bit
Duration : 00:06:25.41 = 16996537 samples = 28905.7 CDDA sectors
File Size : 15.4M
Bit Rate : 320k
Sample Encoding: MPEG audio (layer I, II or III)
Comments :
Title=Abandoned
Artist=Elegiac
Album=Archaic Dissonance Vol. 3
Tracknumber=1
Year=2021
Genre=Black Metal

[/more]

Register
(13) artscald, caro, CheCoola, dermarsoran, Fryz, kim666, Olethros, Raw1488, robertho777, stormhatt, supremo, VALERY, wreak,
Jun 25 2022, 17:39:26 Elegiac - Archaic Dissonance Vol. 2 [compilation] (2020)


*Artist: Elegiac
*Album: Archaic Dissonance Vol. 2 [compilation]
*Year: 2020
*Genre: Black Metal
*Country: United States
*Format: mp3@CBR320kbps
*Size: 132MB

Tracklist:
1. New Dawn 08:15
2. Iron Wings 07:27
3. Wotan's Anguish 10:04
4. Born Amongst The Falling Stars 03:51
5. Lack Of Morality 06:11
6. Eternal Winter (Absurd Cover) 04:05
7. Torch Of Eternity 05:12
8. Golden Age 04:00
9. The Vampiric Tyrant (Satanic Warmaster Cover) 04:53
******************************
Total playing time: 53:58



[more=Extended info]+ Scans.[/more]

[more=Technical info]
Input File: 1. New Dawn.mp3
Channels : 2
Sample Rate : 44100
Precision : 16-bit
Duration : 00:08:16.07 = 21876643 samples = 37205.2 CDDA sectors
File Size : 19.8M
Bit Rate : 320k
Sample Encoding: MPEG audio (layer I, II or III)
Comments :
Title=New Dawn
Artist=Elegiac
Album=Archaic Dissonance Vol. 2
Tracknumber=1
Year=2020
Genre=Black Metal

[/more]

Register
(14) artscald, caro, CheCoola, dermarsoran, Fryz, kim666, Mencae77, Olethros, Raw1488, robertho777, stormhatt, supremo, VALERY, wreak,
Jun 21 2022, 16:24:46 Heavydeath - The Newborn [ep] (2021)


*Artist: Heavydeath
*Album: The Newborn [ep]
*Year: 2021
*Genre: Doom/Death Metal
*Country: Sweden
*Format: mp3@CBR320kbps
*Size: 89MB

Tracklist:
1. The Newborn 17:08
2. Tidal Clarity 10:04
3. Shadow Of The Equinox 05:56
4. Dawn Without Sun 05:48
******************************
Total playing time: 38:56



[more=Extended info]Released on CD with 3 bonus tracks in 2021 by Ablaze Productions.

Track 1:
Guitars and vocals recorded at Abysmal Noise Studio II, March 2019.
Bass recorded at Raven Noise Studio, March 2019.
Drums recorded at Sonic Train Studios, March 2019.
Additional recordings at Abysmal Noise Studio I, June 2019.
Mixed and mastered at Raven Noise Studio, June 2019.

Tracks 2-3:
Recorded during pre-production demo session 2017.
Mixed and mastered in 2017.

Track 4:
Recorded during pre-production demo session 2016.[/more]

[more=Technical info]
Input File: 1. The Newborn.mp3
Channels : 2
Sample Rate : 44100
Precision : 16-bit
Duration : 00:17:08.14 = 45340754 samples = 77110.1 CDDA sectors
File Size : 41.2M
Bit Rate : 320k
Sample Encoding: MPEG audio (layer I, II or III)
Comments :
Title=The Newborn
Artist=Heavydeath
Album=The Newborn
Tracknumber=1
Year=2021
Genre=Doom/Death Metal

[/more]

Register
(14) artscald, caro, HMHamster, lacrimoza, Mist13Signifier, Olethros, quarantine, sergsazan, Shadechaser, stumpheavyrock, VALERY, vyacheslav, Wail, wreak,
Jun 21 2022, 16:22:56 Elegiac - Edge Of Reason (2016)


*Artist: Elegiac
*Album: Edge Of Reason
*Year: 2016
*Genre: Black Metal
*Country: United States
*Format: mp3@CBR320kbps
*Size: 99MB

Tracklist:
1. Strike The Hammer 08:25
2. Darkest Realms 05:51
3. Sickening Hunger 05:13
4. Blood And Fire (Interlude) 03:46
5. Howling Wind 09:46
6. Edge Of Reason 05:43
******************************
Total playing time: 38:44



[more=Extended info]+ Scans.[/more]

[more=Technical info]
Input File: 1. Strike The Hammer.mp3
Channels : 2
Sample Rate : 44100
Precision : 16-bit
Duration : 00:08:25.16 = 22277556 samples = 37887 CDDA sectors
File Size : 20.2M
Bit Rate : 320k
Sample Encoding: MPEG audio (layer I, II or III)
Comments :
Title=Strike The Hammer
Artist=Elegiac
Album=Edge Of Reason
Tracknumber=1
Year=2018
Genre=Black Metal

[/more]

Register
(10) artscald, caro, Olethros, Raw1488, SilentNidhogg, stormhatt, supremo, Svafrlami, VALERY, wreak,
Jun 17 2022, 21:58:14 Licurgo - Black (2020)


*Artist: Licurgo
*Album: Black
*Year: 2020
*Genre: Black Metal
*Country: Spain
*Format: mp3@CBR320kbps
*Size: 112MB

Tracklist:
01. Flag 05:26
02. Crash 03:27
03. Blast 04:11
04. War 03:33
05. Mal 02:37
06. Dark 05:10
07. Black 05:26
08. Craft 03:41
09. Sad 05:03
10. Star 04:30
11. Art 01:07
******************************
Total playing time: 44:11



[more=Extended info]+ Scans.[/more]

[more=Technical info]
Input File: 01. Flag.mp3
Channels : 2
Sample Rate : 44100
Precision : 16-bit
Duration : 00:05:26.55 = 14400899 samples = 24491.3 CDDA sectors
File Size : 13.1M
Bit Rate : 320k
Sample Encoding: MPEG audio (layer I, II or III)
Comments :
Title=Flag
Artist=Licurgo
Album=Black
Tracknumber=1
Year=2020
Genre=Black Metal

[/more]

Register
(18) AlexSmith, artscald, caro, dermarsoran, Ildjarn, IncendiaryMight, kim666, Marek, Mencae77, Olethros, Pinhead666, robertho777, SilentNidhogg, Storky, stormhatt, supremo, VALERY, wreak,
Jun 17 2022, 21:56:57 Wargoatcult - The Law Of Kalashnikov (2016)


*Artist: Wargoatcult
*Album: The Law Of Kalashnikov
*Year: 2016
*Genre: Black Metal
*Country: Spain
*Format: mp3@CBR320kbps
*Size: 87MB

Tracklist:
1. The Law Of Kalashnikov 04:13
2. Post Nuclear Annihilation 04:06
3. Bye Bye Hyroshima 03:41
4. Afganistan, No Man's Land 06:26
5. Black Panzer Goat Artillery 03:59
6. Satanik Antichristian Kommando 05:09
7. Uranium Paradise Kosovo 02:28
8. Cradle Of Pigs 02:47
******************************
Total playing time: 32:49



[more=Extended info]+ Scans.[/more]

[more=Technical info]
Input File: 1. The Law Of Kalashnikov.mp3
Channels : 2
Sample Rate : 44100
Precision : 16-bit
Duration : 00:04:13.38 = 11173970 samples = 19003.4 CDDA sectors
File Size : 10.1M
Bit Rate : 320k
Sample Encoding: MPEG audio (layer I, II or III)
Comments :
Title=The Law Of Kalashnikov
Artist=Wargoatcult
Album=The Law Of Kalashnikov
Tracknumber=1
Year=2016
Genre=Black Metal

[/more]

Register
(24) AlexSmith, artscald, caro, DarkHorde, dermarsoran, gobblin, kim666, Mencae77, Olethros, Pinhead666, pwoods, Raw1488, robertho777, sacrut, SilentNidhogg, smysl, stormhatt, stub888, supremo, Svafrlami, VALERY, Vitald, wgs73, wreak,
Jun 2 2022, 11:16:14 Törr - Inkubatörr [compilation] (2006)


*Artist: Törr
*Album: Inkubatörr [compilation]
*Year: 2006
*Genre: Black/Thrash Metal
*Country: Czech Republic
*Format: mp3@CBR320kbps
*Size: 540MB

Tracklist:
CD1:
Witchammer (1987)
01. Intro 02:42
02. Samota v smrti 04:29
03. Kladivo na čarodějnice 04:29
04. Exorcist 03:44
05. Válka s nebem 03:43
06. Ďáblův dech 03:13
07. Život nebo smrt 04:37
08. Zlej sen 03:18
09. Armaggedon 04:11
Törr Gang Live (1989)
10. Intro 02:08
11. Vrať se ke psům 01:47
12. Válka s nebem 03:42
13. Fuck, Fuck, Fuck, Fuck 02:08
14. Sex, alkohol & rocknroll 03:30
15. Hymna Václava Hrabyni 02:15
16. Exorcist 03:31
17. Kult ohně 04:29
18. Kladivo na čarodějnice 06:52
19. Armageddon 07:25
CD2:
Masturbace mozku (1989)
01. Intro 02:37
02. Žal 04:06
03. Král mor 02:36
04. Padlý chtíč 04:13
05. Lady Madeline 03:45
06. Posedlá 06:55
07. Calibos 03:09
08. Vrať se ke psům 06:20
09. Smlouva s peklem 03:33
10. Black Sabbath 05:39
Singly
11. Kladivo na čarodějnice 05:18
12. Kult ohně 05:04
13. Válka s nebem 03:52
14. Armageddon 04:38
15. Kladivo na čarodějnice 05:10
CD3:
666 - Nekrofilie (1985)
01. Smrt tří šestiletých sirotků pádem z ruského kola v parku kultury a oddechu Julia Fučíka 01:03
02. Samota v smrt 05:19
03. Válka s nebem 05:19
04. Nekrofilia 17:01
05. Útok na ÚV KSČ 03:43
Bonusy
06. 1. Máj 04:57
07. Vrať se ke psům 01:44
08. Smlouva s peklem 05:09
09. Calibos 03:30
Předprodukční demosnímky 2003, 2005
10. Made in Hell 02:39
11. Já tu jsem 04:37
12. Milión let 03:43
13. Lůza 02:40
14. Gotika 02:55
******************************
Total playing time: 3:23:27

[more=Extended info]+ Scans.

1CD : Witchhammer (demo 1987) / Törr Gang Live (demo 1989)
2CD : Masturbace Mozku (demo 1990) / Kult Ohně (single 1989)
3CD : Nekrofilia (demo 1983 by 666, Törr side-project) / Bonus tracks 2003-2005[/more]

[more=Technical info]
Input File: 02. Žal.mp3
Channels : 2
Sample Rate : 44100
Precision : 16-bit
Duration : 00:04:06.95 = 10890583 samples = 18521.4 CDDA sectors
File Size : 9.88M
Bit Rate : 320k
Sample Encoding: MPEG audio (layer I, II or III)
Comments :
Title=Zal
Artist=Torr
Album=Inkubatorr
Tracknumber=2
Year=2006
Genre=Black/Thrash Metal

[/more]

Register
(14) after21allD, artscald, caro, hell_armageddon, METALHUNTER, Olethros, Pinhead666, Rodin, Storky, stumpheavyrock, supremo, Svafrlami, Wail, wreak,
May 25 2022, 16:51:11 Pagan Rites - Survival Of The Antichrist Nation (2020)


*Artist: Pagan Rites
*Album: Survival Of The Antichrist Nation
*Year: 2020
*Genre: Black/Thrash Metal
*Country: Sweden
*Format: mp3@CBR320kbps
*Size: 155MB

Tracklist:
01. Father Hour 01:57
02. Humans Stay Away 03:33
03. The Last Dance Around The Lake Of Fire 03:42
04. Look Into My Eye 03:38
05. Under The Pagan Command 03:08
06. S.A.T.A.N. 06:06
07. My Inner Demons 03:01
08. Nameless Unseen 04:22
09. Born Again Pagan Knights 03:14
10. Survival Of The Antichrist Nation 04:17
11. Blood Sacrifice 03:44
12. A Citizen In Hell 06:34
13. Vortex Of Chaos 05:14
14. New Earth 06:42
15. Children Of Blood 04:03
******************************
Total playing time: 1:03:15



[more=Extended info]+ Scans.[/more]

[more=Technical info]
Input File: 02. Humans Stay Away.mp3
Channels : 2
Sample Rate : 44100
Precision : 16-bit
Duration : 00:03:33.33 = 9407853 samples = 15999.8 CDDA sectors
File Size : 8.53M
Bit Rate : 320k
Sample Encoding: MPEG audio (layer I, II or III)
Comments :
Title=Humans Stay Away
Artist=Pagan Rites
Album=Survival Of The Antichrist Nation
Tracknumber=2
Year=2020
Genre=Black Metal

[/more]

Register
(27) AlexSmith, artscald, boby9052, Carcharoth, caro, cesar, Diflock, frostdomain, hell_armageddon, lordsloth, metala, METALHUNTER, oldvarg, Olethros, rebornflms95, Reverend, SilentNidhogg, stormhatt, stumpheavyrock, supremo, thenecromancer, varlam4, Vitald, wgs73, wreak, Zer0, Луч,
May 25 2022, 16:13:46 Mournful Congregation - The Exuviae Of Gods - Part I [ep] (2022)


*Artist: Mournful Congregation
*Album: The Exuviae Of Gods - Part I [ep]
*Year: 2022
*Genre: Funeral Doom Metal
*Country: Australia
*Format: mp3@CBR320kbps
*Size: 89MB

Tracklist:
1. Mountainous Shadows, Cast Through Time 14:05
2. The Exuviae Of Gods 07:11
3. An Epic Dream Of Desire 15:48
******************************
Total playing time: 37:04



[more=Technical info]
Input File: 2. The Exuviae of Gods.mp3
Channels : 2
Sample Rate : 44100
Precision : 16-bit
Duration : 00:07:11.99 = 19050627 samples = 32399 CDDA sectors
File Size : 17.5M
Bit Rate : 324k
Sample Encoding: MPEG audio (layer I, II or III)
Comments :
Title=The Exuviae of Gods
Artist=Mournful Congregation
Album=The Exuviae of Gods - Part I
Tracknumber=2
Year=2022
Genre=Funeral Doom Metal

[/more]

Register
(61) AlexSmith, Ambercandle, AndreFrancis, andreikun, Aresson, artscald, Ash_1980, autumnwood, BERZERK, cancer1974, caro, cesar, chipsgott, doomTemplar, dromord, Falx, Femto, ForzaMinardi1977, Funeral Frost, garml2, gena, grimoir, Guns, Hell_Is_Here, HMHamster, IamTLR, Ignativs, Igor1969, Infidel, infozahist, Irimias, jelly_kt, JohnnyBravo, khestanow3001, kimkayoung, LEGION69, libertine, madera, Marek, marilin, MaXL, Metalass, metaljosue, milosdjor, Mist13Signifier, Niknne, Orgasmik, quarantine, recber, Reverend, russ777, SaintVitus, SatanicPanzer, Shadechaser, Spunkynut, supremo, VALERY, valgalder, vlad74, wreak, Xor,
May 14 2022, 11:48:34 Ancestral Shadows - Preserving All Darkness In This World (2012)


*Artist: Ancestral Shadows
*Album: Preserving All Darkness In This World
*Year: 2012
*Genre: Black Metal
*Country: United States
*Format: mp3@CBR320kbps
*Size: 104MB

Tracklist:
1. Intro: A Monument To The Forgotten 01:42
2. The Flames Of Old Guide My Path 07:40
3. The Dead Whispers Of A Black Autumn 09:19
4. And The World Grows Colder... 02:43
5. Preserving All Darkness In This World 06:30
6. Forest Of Heathen Rebirth 07:50
7. Dusk's Final Breath Pt. II 01:53
8. Ancestral Shadows 08:14
******************************
Total playing time: 45:51

[more=Extended info][youtube]kAbiJCANAUk[/youtube][/more]

[more=Technical info]
Input File: 02. The Flames of Old Guide My Path.mp3
Channels : 2
Sample Rate : 44100
Precision : 16-bit
Duration : 00:07:40.91 = 20325999 samples = 34568 CDDA sectors
File Size : 18.4M
Bit Rate : 320k
Sample Encoding: MPEG audio (layer I, II or III)
Comments :
Title=The Flames of Old Guide My Path
Artist=Ancestral Shadows
Album=Preserving All Darkness in This World
Tracknumber=2
Year=2012
Genre=Black Metal
Discnumber=1

[/more]

Register
(18) AlexSmith, artscald, Ash_1980, Carcharoth, caro, dan22, Ildjarn, kim666, kolar666, Olethros, Raw1488, SilentNidhogg, stormhatt, supremo, VALERY, varlam4, Wail, wreak,
May 14 2022, 11:46:51 Muruth - MMXX - Ubi Concordia Ibi Victoria (2020)


*Artist: Muruth
*Album: MMXX - Ubi Concordia Ibi Victoria
*Year: 2020
*Genre: Black Metal
*Country: Slovakia
*Format: mp3@CBR320kbps
*Size: 76MB

Tracklist:
1. Poslední Pevnost 04:20
2. Infanterie 04:44
3. Černé Kladivo 04:43
4. Železné Rakve 04:12
5. Ragnageddon 03:49
6. Soudce Kat 03:53
7. Řezník 04:15
8. Prapor V Ledu 03:29
******************************
Total playing time: 33:25

[more=Technical info]
Input File: 01. Poslední Pevnost.mp3
Channels : 2
Sample Rate : 44100
Precision : 16-bit
Duration : 00:04:20.75 = 11498855 samples = 19555.9 CDDA sectors
File Size : 10.4M
Bit Rate : 320k
Sample Encoding: MPEG audio (layer I, II or III)
Comments :
Title=Posledni Pevnost
Artist=Muruth
Album=MMXX - Ubi Concordia Ibi Victoria
Tracknumber=1
Year=2020
Genre=Black Metal
Discnumber=1

[/more]

Register
(14) AlexSmith, artscald, Ash_1980, caro, Ildjarn, kim666, Olethros, Reverend, SilentNidhogg, stormhatt, supremo, VALERY, varlam4, wreak,
May 14 2022, 11:45:35 Muruth - Legie Oceli [ep] (2019)


*Artist: Muruth
*Album: Legie Oceli [ep]
*Year: 2019
*Genre: Black Metal
*Country: Slovakia
*Format: mp3@CBR320kbps
*Size: 61MB

Tracklist:
1. Sláva Padlým 04:17
2. Pramen Zla 03:18
3. Legie Oceli 04:33
4. Stíny v Popel 03:55
5. Morová Města 03:20
6. Solární Smrt 03:38
7. Brokovnice Řeší Problém 03:53
******************************
Total playing time: 26:54

[more=Technical info]
Input File: 01. Sláva Padlým.mp3
Channels : 2
Sample Rate : 44100
Precision : 16-bit
Duration : 00:04:17.45 = 11353721 samples = 19309 CDDA sectors
File Size : 10.3M
Bit Rate : 320k
Sample Encoding: MPEG audio (layer I, II or III)
Comments :
Title=Slava Padlym
Artist=Muruth
Album=Legie Oceli
Tracknumber=1
Year=2019
Genre=Black Metal
Discnumber=1

[/more]

Register
(13) artscald, Ash_1980, caro, Ildjarn, kim666, Olethros, Reverend, SilentNidhogg, Storky, stormhatt, VALERY, varlam4, wreak,
May 2 2022, 14:34:25 Archenterum - ...Ainsi Fut Abîme (2018)


*Artist: Archenterum
*Album: ...Ainsi Fut Abîme
*Year: 2018
*Genre: Black/Death Metal
*Country: France
*Format: mp3@CBR320kbps
*Size: 101MB

Tracklist:
01. Silent 02:28
02. No Light 04:43
03. Point Of No Return 04:22
04. Fury Of Gods 03:48
05. Vortex Of Death 03:25
06. The Outsider 04:42
07. Wrecked 04:09
08. Brainwashed 03:59
09. Poison Tree 05:47
10. Bloodred Ghost 03:41
******************************
Total playing time: 41:04



[more=Extended info]+ Scans.

[youtube]E2FYNgIl_ME[/youtube][/more]

[more=Technical info]
Input File: 01. Silent.mp3
Channels : 2
Sample Rate : 44100
Precision : 16-bit
Duration : 00:02:28.73 = 6558817 samples = 11154.5 CDDA sectors
File Size : 5.95M
Bit Rate : 320k
Sample Encoding: MPEG audio (layer I, II or III)
Comments :
Title=Silent
Artist=Archenterum
Album=...Ainsi Fut Abime
Tracknumber=1
Year=2019
Genre=Black/Death Metal

[/more]

Register
(21) AlexSmith, Altkiller, artscald, Ash_1980, caro, dermarsoran, Korpse, Mencae77, MMMMM, Olethros, Reverend, SadistikSlayer, Sanctus, SilentNidhogg, stumpheavyrock, supremo, VALERY, varlam4, Wail, wanderer73, wreak,
May 2 2022, 14:32:52 Aggressive Mutilator - Det Djävlanästet (2018)


*Artist: Aggressive Mutilator
*Album: Det Djävlanästet
*Year: 2018
*Genre: Black/Thrash Metal
*Country: Sweden
*Format: mp3@CBR320kbps
*Size: 64MB

Tracklist:
1. Dead Pigs 02:14
2. Hypocrite Church 02:28
3. Blod Löss Och Annat Djävulskap 01:04
4. Det Djävlanästet 02:20
5. The Orb 01:17
6. Träldomens Tid Är För Evigt 02:36
7. Ripper Bastard 03:14
8. Victim#59 02:32
******************************
Total playing time: 17:45



[more=Extended info]+ Scans.[/more]

[more=Technical info]
Input File: 1. Dead Pigs.mp3
Channels : 2
Sample Rate : 44100
Precision : 16-bit
Duration : 00:02:14.83 = 5945915 samples = 10112.1 CDDA sectors
File Size : 5.39M
Bit Rate : 320k
Sample Encoding: MPEG audio (layer I, II or III)
Comments :
Title=Dead Pigs
Artist=Aggressive Mutilator
Album=Det Djavlanastet
Tracknumber=1
Year=2018
Genre=Black Metal

[/more]

Register
(14) AlexSmith, artscald, Ash_1980, caro, fuoco, hell_armageddon, METALHUNTER, Olethros, sludge666, stumpheavyrock, supremo, varlam4, Wail, wreak,
May 2 2022, 14:31:32 Aggressive Mutilator - Poison Minds [compilation] (2014)


*Artist: Aggressive Mutilator
*Album: Poison Minds [compilation]
*Year: 2014
*Genre: Black/Thrash Metal
*Country: Sweden
*Format: mp3@CBR320kbps
*Size: 84MB

Tracklist:
01. Poison Minds 02:47
02. Fall Of The Universe 01:58
03. Hur 01:13
04. Don't Get Lost In The Castle 01:32
05. Throne Of Skulls 01:58
06. Curse Of The Outlaw 01:44
07. Wicked Suffering 02:29
08. Haunted Place 01:45
09. Black Flame 02:04
10. Sterilization Of The Unwanted 02:19
11. Bloody Hunger 02:52
12. Eaten Up From Inside 02:35
13. They Want To Cut Off My Head 03:14
14. Storms Of Evil 02:20
15. Ghost Of A Misfit 02:21
******************************
Total playing time: 33:11



[more=Extended info]+ Scans.

"Poison Minds" EP 2014 (tracks 1-5)
"Curse of the Outlaw" demo 2014 (tracks 6-9)
"They Want to Cut Off My Head" demo 2013 (tracks 10-15)[/more]

[more=Technical info]
Input File: 01. Poison Minds.mp3
Channels : 2
Sample Rate : 44100
Precision : 16-bit
Duration : 00:02:47.56 = 7389440 samples = 12567.1 CDDA sectors
File Size : 6.70M
Bit Rate : 320k
Sample Encoding: MPEG audio (layer I, II or III)
Comments :
Title=Poison Minds
Artist=Aggressive Mutilator
Album=Poison Minds
Tracknumber=1
Year=2014
Genre=Black Metal

[/more]

Register
(12) artscald, Ash_1980, caro, fuoco, hell_armageddon, METALHUNTER, Olethros, stumpheavyrock, supremo, varlam4, Wail, wreak,
Apr 10 2022, 09:52:58 Nott - 4 (2019)


*Artist: Nott
*Album: 4
*Year: 2019
*Genre: Black Metal
*Country: Italy
*Format: mp3@CBR320kbps
*Size: 87MB

Tracklist:
1. Capitolo Primo 04:58
2. Capitolo Secondo 04:21
3. Capitolo Terzo 05:22
4. Capitolo Quarto 04:52
5. Capitolo Quinto 03:56
6. Capitolo Sesto 04:42
7. Capitolo Settimo 05:04
8. Capitolo Ottavo 04:56
******************************
Total playing time: 38:11




[more=Technical info]
Input File: 01. Capitolo primo.mp3
Channels : 2
Sample Rate : 44100
Precision : 16-bit
Duration : 00:04:58.99 = 13185503 samples = 22424.3 CDDA sectors
File Size : 12.0M
Bit Rate : 320k
Sample Encoding: MPEG audio (layer I, II or III)
Comments :
Title=Capitolo primo
Artist=Nott
Album=4
Tracknumber=1
Year=2019
Genre=Black Metal
Discnumber=1

[/more]

Register
(20) aleon, AlexSmith, artscald, Ash_1980, caro, GorAtheist, Ildjarn, kim666, Mencae77, Olethros, SilentNidhogg, smysl, stormhatt, supremo, Taakeferd, thenecromancer, VALERY, varlam4, Wail, wreak,
Apr 5 2022, 15:19:31 Abysskvlt - Bon Meditations (2022)


*Artist: Abysskvlt
*Album: Bon Meditations
*Year: 2022
*Genre: Ritual Funeral Doom Metal
*Country: Russian Federation
*Format: mp3@CBR320kbps
*Size: 101MB

Tracklist:
1. Bon Meditation 1. Contemplation 14:23
2. Bon Meditation 2. Disembodiment 10:51
3. Bon Meditation 3. Transcarnation 18:25
******************************
Total playing time: 43:39



[more=Technical info]
Input File: 1. Bon Meditation 1. Contemplation.mp3
Channels : 2
Sample Rate : 44100
Precision : 16-bit
Duration : 00:14:23.60 = 38084892 samples = 64770.2 CDDA sectors
File Size : 34.7M
Bit Rate : 321k
Sample Encoding: MPEG audio (layer I, II or III)
Comments :
Title=Bon Meditation 1. Contemplation
Artist=Abysskvlt
Album=Bon Meditations
Tracknumber=1
Year=2022

[/more]

Register
(26) AlexSmith, andreikun, artscald, Branis, caro, Dante_D, Hell_Is_Here, HMHamster, LEGION69, marilin, Mencae77, metala, Occultas, Olethros, quarantine, Reverend, Samaritianin, SatanicPanzer, Shadechaser, supremo, VALERY, varlam4, vovan4ic, Wail, WOLAND, wreak,
Feb 3 2022, 10:34:18 Svolder - The Beast's Mercenaries (2020)


*Artist: Svolder
*Album: The Beast's Mercenaries
*Year: 2020
*Genre: Black Metal
*Country: Canada
*Format: mp3@CBR320kbps
*Size: 87MB

Tracklist:
1. The Hadith Of Divine Hallucinations 06:25
2. Shahada 04:15
3. Sewer Migrants 02:17
4. The Exonerated 05:35
5. Judenhove-Kalergi 05:32
6. The Beast's Mercenaries 07:08
7. Severed Tentacles Of Zion 07:07
******************************
Total playing time: 38:19

[more=Extended info][youtube]h1r3HvbhefI[/youtube][/more]

[more=Technical info]
Input File: 02. Shahada.mp3
Channels : 2
Sample Rate : 44100
Precision : 16-bit
Duration : 00:04:15.65 = 11274209 samples = 19173.8 CDDA sectors
File Size : 10.2M
Bit Rate : 320k
Sample Encoding: MPEG audio (layer I, II or III)
Comments :
Title=Shahada
Artist=Svolder
Album=The Beast's Mercenaries
Tracknumber=2
Year=2020
Genre=Black Metal
Discnumber=1

[/more]

Register
(9) artscald, Ash_1980, kim666, LordOvDarkness, milosdjor, MortSathynr, Olethros, UlvhedinGrom, yuratroll,
Jan 21 2022, 11:53:18 Книги,журналы о Black / Pagan
SS 1-3,Mortis 1-2,Ледостав,Maggots,Odium,Corona Mortis и др.
Register
(2) Kurhan, Occultas,
Jan 11 2022, 15:30:47 Slog - Graves (2021)


*Artist: Slog
*Album: Graves
*Year: 2021
*Genre: Death/Doom Metal
*Country: United States
*Format: mp3@CBR320kbps
*Size: 101MB

Tracklist:
1. Wounded Practitioner 06:09
2. Hidden Realities 04:40
3. Ceremonial Magicks 05:04
4. Corporal 04:57
5. Levitating Beyond 04:19
6. Gluttonous 05:04
7. Voluntary Disintegration 04:43
8. Phenomena Esoteric 06:19
******************************
Total playing time: 41:15



[more=Technical info]
Input File: 1. Wounded Practitioner.mp3
Channels : 2
Sample Rate : 44100
Precision : 16-bit
Duration : 00:06:09.44 = 16292480 samples = 27708.3 CDDA sectors
File Size : 15.0M
Bit Rate : 324k
Sample Encoding: MPEG audio (layer I, II or III)
Comments :
Title=Wounded Practitioner
Artist=Slog
Album=Graves
Tracknumber=1
Year=2021

[/more]

Register
(28) artscald, Ash_1980, caro, denver, eyehategod, HMHamster, lacrimoza, Ludwig Hagen, madera, marilin, Mencae77, metala, Metalass, Mist13Signifier, MMMMM, Occultas, Olethros, quarantine, rominow, sergsazan, Shadechaser, skidnik, Sphinx7, stumpheavyrock, supremo, VALERY, vyacheslav, wreak,
Dec 21 2021, 10:11:38 Lightcrusher - Forever But Never Named (2021)


*Artist: Lightcrusher
*Album: Forever But Never Named
*Year: 2021
*Genre: Epic Black Metal
*Country: United States
*Format: mp3@CBR320kbps
*Size: 146MB

Tracklist:
1. Steward's Lament 05:25
2. Coursing Through Black Veins Of Earth 15:18
3. Soldier's Lament 07:15
4. From Which Shadows Creep Like The Reaching Of Hands 10:23
5. Forever's Lament 05:50
6. Of A Dark And Terrible Thing Once Forgotten 17:08
******************************
Total playing time: 1:01:19



[more=Extended info][youtube]BZsLFnE4x4w[/youtube]
[youtube]gkMphUUlyns[/youtube][/more]

[more=Technical info]
Input File: 2. Coursing Through Black Veins of Earth.mp3
Channels : 2
Sample Rate : 44100
Precision : 16-bit
Duration : 00:15:18.12 = 40489268 samples = 68859.3 CDDA sectors
File Size : 36.9M
Bit Rate : 322k
Sample Encoding: MPEG audio (layer I, II or III)
Comments :
Title=Coursing Through Black Veins of Earth
Artist=Lightcrusher
Album=Forever But Never Named
Tracknumber=2
Year=2021

[/more]

Register
(27) AlexSmith, alikkon, artscald, Ash_1980, caro, dcatagua, HMHamster, isvili, kim666, Korpse, Mogozoz, nemx, oldvarg, Olethros, Olrak, Ostinato, pivi901, robertho777, sergsazan, Shadechaser, SilentNidhogg, smes, stormhatt, supremo, VALERY, varlam4, wreak,
Dec 2 2021, 15:22:48 Various Artists - The Great Deceiver - A Tribute To Bulldozer [compilation] (2021)


*Artist: Various Artists
*Album: The Great Deceiver - A Tribute To Bulldozer [compilation]
*Year: 2021
*Genre: Black/Speed/Thrash Metal
*Country: Italy
*Format: mp3@CBR320kbps
*Size: 138MB

Tracklist:
1. Abigail - Ilona The Very Best 02:26
2. Frostmoon Eclipse - Fallen Angel 03:59
3. Toxic Holocaust - Great Deceiver 03:00
4. Witchburner - Another Beer (It's What I Need) 03:17
5. Imperial - Desert 04:48
6. Cripple Bastards - Misogynist 03:34
7. Sabbat - Whiskey Time 03:11
8. Meads Of Asphodel - Neurodeliri 04:52
9. Decayed - Ride Hard - Die Fast 04:11
******************************
Total playing time: 33:18

[more=Extended info][youtube]xQDfOIW-CsI[/youtube][/more]

[more=Technical info]
Input File: The Great Deceiver - A Tribute To Bulldozer (2).mp3
Channels : 2
Sample Rate : 48000
Precision : 16-bit
Duration : 00:03:59.28 = 11485584 samples ~ 17946.2 CDDA sectors
File Size : 9.57M
Bit Rate : 320k
Sample Encoding: MPEG audio (layer I, II or III)
Comments :
Title=Fallen Angel
Artist=Frostmoon Eclipse
Album=The Great Deceiver - A Tribute To Bulldozer
Tracknumber=2
Year=2021

[/more]

Register
(19) artscald, as71, Ash_1980, Asketto, caro, comradEnemy, Grev, gwar, Hell_Is_Here, Hexer, infozahist, kefka, kluval, METALHUNTER, stormhatt, varlam4, Wail, wreak, ZA670,
Nov 17 2021, 15:07:11 Sönma - Ether (2021)


*Artist: Sönma
*Album: Ether
*Year: 2021
*Genre: Drone/Funeral Doom Metal
*Country: Russian Federation
*Format: mp3@CBR320kbps
*Size: 111MB

Tracklist:
1. Titan 08:35
2. Fallen 10:30
3. Ether 04:48
4. Mortal Lives 08:53
5. Last Breath 08:00
6. Terminal 04:06
******************************
Total playing time: 44:52



[more=Technical info]
Input File: 1. Titan.mp3
Channels : 2
Sample Rate : 44100
Precision : 16-bit
Duration : 00:08:35.14 = 22717542 samples = 38635.3 CDDA sectors
File Size : 20.8M
Bit Rate : 323k
Sample Encoding: MPEG audio (layer I, II or III)
Comments :
Title=Titan
Artist=Sönma
Album=Ether
Tracknumber=1
Year=2021

[/more]

Register
(17) AlexSmith, artscald, Ash_1980, autumnwood, caro, Hell_Is_Here, HMHamster, Mencae77, Olethros, Ostinato, quarantine, robertho777, skidnik, supremo, varlam4, vyacheslav, wreak,
Nov 17 2021, 15:05:33 Sönma - Terra (2020)


*Artist: Sönma
*Album: Terra
*Year: 2020
*Genre: Drone/Funeral Doom Metal
*Country: Russian Federation
*Format: mp3@CBR320kbps
*Size: 96MB

Tracklist:
1. Пангея 07:15
2. Эхо древнего мира 04:21
3. Лишь спускаясь вниз 09:23
4. Покинутые копи 07:53
5. Первородное сердце Земли 07:30
6. Фрагменты небесных тел 05:15
******************************
Total playing time: 41:37



[more=Technical info]
Input File: 1. Пангея.mp3
Channels : 2
Sample Rate : 44100
Precision : 16-bit
Duration : 00:07:15.77 = 19217545 samples = 32682.9 CDDA sectors
File Size : 17.5M
Bit Rate : 322k
Sample Encoding: MPEG audio (layer I, II or III)
Comments :
Title=Пангея
Artist=Sönma
Album=Terra
Tracknumber=1
Year=2020

[/more]

Register
(14) AlexSmith, artscald, Ash_1980, caro, Hell_Is_Here, HMHamster, Olethros, quarantine, robertho777, skidnik, supremo, varlam4, vyacheslav, wreak,
Nov 17 2021, 10:59:58 Parricidium - Parricidium [demo] (2020)


*Artist: Parricidium
*Album: Parricidium [demo]
*Year: 2020
*Genre: Funeral Doom Metal
*Country: United States
*Format: mp3@CBR320kbps
*Size: 62MB

Tracklist:
1. The Escapist 07:04
2. Through The Still Lapse Of Ages 19:49
******************************
Total playing time: 26:53



[more=Technical info]
Input File: 1. The Escapist.mp3
Channels : 2
Sample Rate : 44100
Precision : 16-bit
Duration : 00:07:04.96 = 18740604 samples = 31871.8 CDDA sectors
File Size : 17.1M
Bit Rate : 322k
Sample Encoding: MPEG audio (layer I, II or III)
Comments :
Title=The Escapist
Artist=Parricidium
Album=Parricidium
Tracknumber=1
Year=2020

[/more]

Register
(12) artscald, caro, Hell_Is_Here, kauyumari, Marek, Olethros, quarantine, sergsazan, Shadechaser, VALERY, vyacheslav, wreak,

90 Pages V   1 2 3 > » 
- Lo-Fi Version Support form
Copyrights and abuse reports form
Time is now: 7th July 2022 - 12:38:42