Welcome Guest ( Log In | Register )

История благодарностей участнику Forest Silence ::: Спасибо сказали: 2859 раз(а)
Дата поста: В теме: За сообщение: Спасибо сказали:
Oct 19 2021, 13:11:43 Ꙃꙩѯůӝůѯꙩꙃ - Ŷᾦϛӿѻᾦѻӿϛᾦŷ [demo] (2021)


*Artist: Ꙃꙩѯůӝůѯꙩꙃ
*Album: Ŷᾦϛӿѻᾦѻӿϛᾦŷ [demo]
*Year: 2021
*Genre: Raw Black Metal/Drone
*Country: Iceland
*Format: mp3@CBR320kbps
*Size: 66MB

Tracklist:
1. Ŝçĕäüåüäĕçŝ
2. Ꚗŏќŏꚗ ĜꚚĝ Ꚑŷꙇŷꚑ
3. Ꙁθꙁ Öåö Şθş
4. Ѝᾦѝ Ðѱѳѱð
5. Åşϙşå Ůşͽşů Ϣϫϙẽϙϫϣ
6. Ŷꙧꙩꙁꙩꙧŷ
7. Ůδθδů
8. Ꚏꚅꚏ Ꙕꙃꙥꙉꙥꙃю
9. Ꚅѱꚅ Ѳçѳ Ꙁĥöĥꙁ
******************************
Total playing time: 28:14



[more=Technical info]
Input File: 01. Ŝçĕäüåüäĕçŝ.mp3
Channels : 2
Sample Rate : 44100
Precision : 16-bit
Duration : 00:04:24.27 = 11654395 samples = 19820.4 CDDA sectors
File Size : 10.7M
Bit Rate : 324k
Sample Encoding: MPEG audio (layer I, II or III)
Comments :
Title=Ŝçĕäüåüäĕçŝ
Artist=Ꙃꙩѯůӝůѯꙩꙃ
Album=Ŷᾦϛӿѻᾦѻӿϛᾦŷ
Tracknumber=1
Year=2021

[/more]

Register
(15) alikkon, artscald, cancer1974, Carcharoth, caro, dcatagua, dermarsoran, Formaldehyd, judaz, Kaotik, Mencae77, SilentNidhogg, stormhatt, stub888, yarrsuaa,
Oct 19 2021, 12:35:18 Wintaar - Abhorrence Vortex [ep] (2021)


*Artist: Wintaar
*Album: Abhorrence Vortex [ep]
*Year: 2021
*Genre: Black Metal
*Country: Russian Federation
*Format: mp3@CBR320kbps
*Size: 43MB

Tracklist:
1. I Am
2. Reject, Deny, Die
3. Day Of Wrath
******************************
Total playing time: 17:59



[more=Technical info]
Input File: 01. I Am.mp3
Channels : 2
Sample Rate : 44100
Precision : 16-bit
Duration : 00:05:50.29 = 15447569 samples = 26271.4 CDDA sectors
File Size : 14.1M
Bit Rate : 323k
Sample Encoding: MPEG audio (layer I, II or III)
Comments :
Title=I Am
Artist=Wintaar
Album=Abhorrence Vortex
Tracknumber=1
Year=2021
Genre=138

[/more]

Register
(10) artscald, caro, kim666, Marek, Ostinato, robertho777, SilentNidhogg, stormhatt, varlam4, Wilczygniew Strzygoń,
Oct 19 2021, 12:30:16 Olio Tähtien Takana - Spectral Katharsis (2021)


*Artist: Olio Tähtien Takana
*Album: Spectral Katharsis
*Year: 2021
*Genre: Symphonic Black Metal
*Country: Finland
*Format: mp3@CBR128kbps
*Size: 51MB

Tracklist:
1. Enter The Maw Of Souls
2. Towards The Dying Moon
3. Excrucior
4. A Sorcery Written In Stars
5. Prophecies Of Pandemonium
6. Veri Kirotussa Yössä
7. The Servant's Heart
8. Journey To The Most High
9. The Labyrinth Of Sleepless Dead
10. Spectral Katharsis
11. Ego Aeternum
12. Into The Everlasting Shadow
******************************
Total playing time: 54:04



[more=Technical info]
Input File: 10. Spectral Katharsis.mp3
Channels : 2
Sample Rate : 44100
Precision : 16-bit
Duration : 00:08:08.89 = 21559961 samples = 36666.6 CDDA sectors
File Size : 7.94M
Bit Rate : 130k
Sample Encoding: MPEG audio (layer I, II or III)
Comments :
Title=Spectral Katharsis
Artist=Olio Tähtien Takana
Album=Spectral Katharsis
Tracknumber=10
Year=2021
Genre=138

[/more]

Register
(10) AlexSmith, Angeldemon617, artscald, Bzth, kim666, kimkayoung, metala, nsk2008, sergsazan, vov7609,
Sep 16 2021, 10:04:41 Heksebrann - Eljudnir [ep] (2021)


*Artist: Heksebrann
*Album: Eljudnir [ep]
*Year: 2021
*Genre: Black Metal
*Country: United States
*Format: mp3@CBR128kbps
*Size: 27MB

Tracklist:
1. Gates Of Eljudnir
2. Öndurguð
3. Ride To Hel
4. Vættir
5. Fallandaforað
6. Jaws Of Chaos
7. Hrimthrsar
8. Ascend To The Halls
9. Blikjandaböl
******************************
Total playing time: 28:20



[more=Technical info]
Input File: 02. Öndurguð.mp3
Channels : 2
Sample Rate : 44100
Precision : 16-bit
Duration : 00:03:27.78 = 9163054 samples = 15583.4 CDDA sectors
File Size : 3.38M
Bit Rate : 130k
Sample Encoding: MPEG audio (layer I, II or III)
Comments :
Title=Öndurguð
Artist=Heksebrann
Album=Eljudnir
Tracknumber=2
Year=2021
Genre=138

[/more]

Register
(3) kim666, Olethros, Wail,
Sep 16 2021, 07:25:30 Heksebrann - Cosmology Of The World Walker [ep] (2020)


*Artist: Heksebrann
*Album: Cosmology Of The World Walker [ep]
*Year: 2020
*Genre: Black Metal
*Country: United States
*Format: mp3@CBR128kbps
*Size: 23MB

Tracklist:
1. Berserkr
2. Angrboda
3. Wyrd
4. Bifrost
5. Ullr
6. Mjødmagi
7. Offernatt
******************************
Total playing time: 23:43



[more=Technical info]
Input File: 06. Mjødmagi.mp3
Channels : 2
Sample Rate : 44100
Precision : 16-bit
Duration : 00:05:19.99 = 14111339 samples = 23998.9 CDDA sectors
File Size : 5.21M
Bit Rate : 130k
Sample Encoding: MPEG audio (layer I, II or III)
Comments :
Title=Mjødmagi
Artist=Heksebrann
Album=Cosmology Of The World Walker
Tracknumber=6
Year=2020
Genre=138

[/more]

Register
(12) cacicandriera, caro, cist, kim666, Olethros, SilentNidhogg, stormhatt, Taakeferd, VALERY, Vitald, Wail, wreak,
Sep 14 2021, 12:09:53 Vintlechkeit - Til Dodens Vinter Alltid... [demo] (2021)


*Artist: Vintlechkeit
*Album: Til Dodens Vinter Alltid... [demo]
*Year: 2021
*Genre: Atmospheric Ambient Raw Black Metal
*Country: Norway
*Format: mp3@CBR320kbps
*Size: 81MB

Tracklist:
1. Til Dodens Vinter Alltid...
2. Snø Blindet Meg Med Sannhet...
******************************
Total playing time: 34:37



[more=Technical info]
Input File: 01. Til Dodens Vinter Alltid.mp3
Channels : 2
Sample Rate : 44100
Precision : 16-bit
Duration : 00:21:55.42 = 58010066 samples = 98656.6 CDDA sectors
File Size : 52.7M
Bit Rate : 320k
Sample Encoding: MPEG audio (layer I, II or III)
Comments :
Title=Til Dodens Vinter Alltid...
Artist=Vintlechkeit
Album=Til Dodens Vinter Alltid...
Tracknumber=1
Year=2021
Genre=Atmospheric Ambient Raw Black Metal

[/more]

Register
(7) kim666, Korpse, smysl, stormhatt, thenecromancer, Tyrone, Wail,
Aug 29 2021, 09:14:39 Vintlechkeit - Isblod... [demo] (2021)


*Artist: Vintlechkeit
*Album: Isblod... [demo]
*Year: 2021
*Genre: Atmospheric Ambient Raw Black Metal
*Country: Norway
*Format: mp3@CBR320kbps
*Size: 78MB

Tracklist:
1. Isblod...
2. Kald Som Frihet...
3. Ved Veikrysset...
******************************
Total playing time: 32:40



[more=Extended info]Lossy-mastered[/more]

[more=Technical info]
Input File: 01. Isblod.mp3
Channels : 2
Sample Rate : 44100
Precision : 16-bit
Duration : 00:10:48.58 = 28602334 samples = 48643.4 CDDA sectors
File Size : 26.0M
Bit Rate : 321k
Sample Encoding: MPEG audio (layer I, II or III)
Comments :
Title=Isblod...
Artist=Vintlechkeit
Album=Isblod...
Tracknumber=1
Year=2021
Genre=Atmospheric Ambient Raw Black Metal

[/more]

Register
(18) aleon, cancer1974, caro, Hexer, Ildjarn, kim666, lordbathor, NachtWulf, Olethros, SilentNidhogg, smysl, stormhatt, Taakeferd, Tyrone, VALERY, vosmidesijatye, Wail, wreak,
Jul 3 2021, 16:15:15 Полярная Сова - Чужак (2021)


*Artist: Полярная Сова
*Album: Чужак
*Year: 2021
*Genre: Atmospheric Black Metal
*Country: International
*Format: mp3@CBR320kbps
*Size: 76MB

Tracklist:
1. Здесь Дорогам Конец
2. Чужая Кровь
3. Однажды Живой Мёртв Навсегда
4. Людская Стая, Волчий Вой
5. Холод В Окне
6. Горы Уральские, Укройте Меня
7. Безымянным - Смерть Без Имён
******************************
Total playing time: 32:42



[more=Extended info]Belarus / Russia[/more]

[more=Technical info]
Input File: 05. Холод В Окне.mp3
Channels : 2
Sample Rate : 44100
Precision : 16-bit
Duration : 00:05:28.07 = 14467755 samples = 24605 CDDA sectors
File Size : 13.2M
Bit Rate : 322k
Sample Encoding: MPEG audio (layer I, II or III)
Comments :
Title=Холод В Окне
Artist=Полярная Сова
Album=Чужак
Tracknumber=5
Year=2021
Genre=Atmospheric Black Metal

[/more]

Register
(22) aleon, alikkon, Aresson, caro, El_Chibo, Femto, GorAtheist, kim666, kimkayoung, Kitalter, oldvarg, Olethros, robertho777, SilentNidhogg, supremo, Taakeferd, trueandevil, VALERY, varlam4, Wail, wreak, Сварог Барг,
Jun 20 2021, 20:31:20 Waldstille - Outside The Window [single] (2021)


*Artist: Waldstille
*Album: Outside The Window [single]
*Year: 2021
*Genre: Depressive Black Metal
*Country: Russian Federation
*Format: mp3@CBR320kbps
*Size: 20MB

Tracklist:
1. Outside The Window
******************************
Total playing time: 8:07



[more=Technical info]
Input File: 01. Outside The Window.mp3
Channels : 2
Sample Rate : 44100
Precision : 16-bit
Duration : 00:08:06.36 = 21448432 samples = 36476.9 CDDA sectors
File Size : 19.6M
Bit Rate : 323k
Sample Encoding: MPEG audio (layer I, II or III)
Comments :
Title=Outside The Window
Artist=Waldstille
Album=Outside The Window
Tracknumber=1
Year=2021
Genre=Post-Black Metal

[/more]

Register
(11) caro, infiltrator, Olethros, Ostinato, Taakeferd, VALERY, varlam4, vasiljev_sergej, Wail, wreak, Абигор,
Jun 20 2021, 20:22:48 Wintaar - Ice Heart Of The Urals (2021)


*Artist: Wintaar
*Album: Ice Heart Of The Urals
*Year: 2021
*Genre: Black Metal
*Country: Russian Federation
*Format: mp3@CBR320kbps
*Size: 135MB

Tracklist:
1. Baptism By Freezing Winds
2. Ice Heart Of The Urals
3. Will Of Hate
4. Presence Of The Incarnation
5. ...Blood Fills The Horizons
6. Sombre Landscapes
7. Winter's Feralthorns
8. Moonlust
9. Hans Siste Vinter (Darkthrone cover)
10. Baptism By Freezing Winds
******************************
Total playing time: 58:53



[more=Technical info]
Input File: 02. Ice Heart Of The Urals.mp3
Channels : 2
Sample Rate : 44100
Precision : 16-bit
Duration : 00:05:55.64 = 15683724 samples = 26673 CDDA sectors
File Size : 14.3M
Bit Rate : 321k
Sample Encoding: MPEG audio (layer I, II or III)
Comments :
Title=Ice Heart Of The Urals
Artist=Wintaar
Album=Ice Heart Of The Urals
Tracknumber=2
Year=2021
Genre=138

[/more]

Register
(19) caro, infiltrator, Lamby90, Marek, oldvarg, Olethros, Ostinato, robertho777, Rover, SilentNidhogg, supremo, Taakeferd, VALERY, varlam4, Wail, Wilczygniew Strzygoń, wreak, zobero, Абигор,
Jun 20 2021, 20:19:32 Wintaar - From Darkness Of Ural Forests (2021)


*Artist: Wintaar
*Album: From Darkness Of Ural Forests
*Year: 2021
*Genre: Black Metal
*Country: Russian Federation
*Format: mp3@CBR320kbps
*Size: 126MB

Tracklist:
1. From Darkness Of Ural Forests
2. Valor And Death
3. Lost In This Dreams
4. Stone Dawn
5. Damned Eternity
6. A Blade Of The Last Winter
7. Abandoned Hopes And Broken Promises
******************************
Total playing time: 50:07



[more=Technical info]
Input File: 01. From Darkness Of Ural Forests.mp3
Channels : 2
Sample Rate : 44100
Precision : 16-bit
Duration : 00:08:00.85 = 21205353 samples = 36063.5 CDDA sectors
File Size : 19.3M
Bit Rate : 321k
Sample Encoding: MPEG audio (layer I, II or III)
Comments :
Title=From Darkness Of Ural Forests
Artist=Wintaar
Album=From Darkness Of Ural Forests
Tracknumber=1
Year=2021
Genre=138

[/more]

Register
(20) caro, infiltrator, Marek, oldvarg, Olethros, Ostinato, robertho777, Rover, russ777, SilentNidhogg, supremo, Taakeferd, VALERY, varlam4, vosmidesijatye, Wail, Wilczygniew Strzygoń, wreak, zobero, Абигор,
Jun 20 2021, 20:14:01 Vintlechkeit - Isete Skoger Frostskymring... [demo] (2021)


*Artist: Vintlechkeit
*Album: Isete Skoger Frostskymring... [demo]
*Year: 2021
*Genre: Ambient Raw Black Metal
*Country: Norway
*Format: mp3@CBR320kbps
*Size: 73MB

Tracklist:
1. Vintervingar I Vit Gryning...
2. Isete Skoger Frostskymring...
3. Skymring...
******************************
Total playing time: 31:30



[more=Technical info]
Input File: 02. Isete Skoger Frostskymring.mp3
Channels : 2
Sample Rate : 44100
Precision : 16-bit
Duration : 00:16:35.99 = 43923159 samples = 74699.2 CDDA sectors
File Size : 39.9M
Bit Rate : 321k
Sample Encoding: MPEG audio (layer I, II or III)
Comments :
Title=Isete Skoger Frostskymring...
Artist=Vintlechkeit
Album=Isete Skoger Frostskymring...
Tracknumber=2
Year=2021
Genre=Ambient Black Metal

[/more]

Register
(16) cancer1974, caro, Ildjarn, infiltrator, kryptor, Olethros, Ostinato, SilentNidhogg, Sjelekval, stub888, Taakeferd, Tyrone, varlam4, Wail, wreak, Абигор,
Jun 20 2021, 20:11:25 Vintlechkeit - Grav, Aske Og Dod... [demo] (2021)


*Artist: Vintlechkeit
*Album: Grav, Aske Og Dod... [demo]
*Year: 2021
*Genre: Ambient Raw Black Metal
*Country: Norway
*Format: mp3@CBR320kbps
*Size: 94MB

Tracklist:
1. Kister Og Aske...
2. Gravarna...
3. Dod...
******************************
Total playing time: 40:03



[more=Technical info]
Input File: 01 Kister Og Aske.mp3
Channels : 2
Sample Rate : 44100
Precision : 16-bit
Duration : 00:15:25.69 = 40823105 samples = 69427 CDDA sectors
File Size : 37.1M
Bit Rate : 320k
Sample Encoding: MPEG audio (layer I, II or III)
Comments :
Title=Kister Og Aske...
Artist=Vintlechkeit
Album=Grav, Aske Og Dod...
Tracknumber=1
Year=2021
Genre=Atmospheric Ambient Raw Black Metal

[/more]

Register
(15) cancer1974, caro, Ildjarn, infiltrator, kryptor, Olethros, Ostinato, SilentNidhogg, Sjelekval, Taakeferd, Tyrone, varlam4, Wail, wreak, Абигор,
Jun 20 2021, 20:08:16 Vintlechkeit - Andas In Iden Dodliga Forkylningen... [demo] (2021)


*Artist: Vintlechkeit
*Album: Andas In Iden Dodliga Forkylningen... [demo]
*Year: 2021
*Genre: Ambient Raw Black Metal
*Country: Norway
*Format: mp3@CBR320kbps
*Size: 78MB

Tracklist:
1. Vinterblod Runor...
2. Andas In Iden Dodliga Forkylningen...
3. Blod Drypper Pa Snoen...
******************************
Total playing time: 30:58



[more=Technical info]
Input File: 02. Andas In Iden Dodliga Forkylningen.mp3
Channels : 2
Sample Rate : 44100
Precision : 16-bit
Duration : 00:12:21.19 = 32686391 samples = 55589.1 CDDA sectors
File Size : 29.7M
Bit Rate : 320k
Sample Encoding: MPEG audio (layer I, II or III)
Comments :
Title=Andas In Iden Dodliga Forkylningen...
Artist=Vintlechkeit
Album=Andas In Iden Dodliga Forkylningen...
Tracknumber=2
Year=2021
Genre=Ambient Black Metal

[/more]

Register
(15) cancer1974, caro, Ildjarn, infiltrator, kryptor, Olethros, Ostinato, SilentNidhogg, Sjelekval, Taakeferd, Tyrone, varlam4, Wail, wreak, Абигор,
Jun 20 2021, 20:05:03 Vintlechkeit - Alt Har En Ende... [demo] (2021)


*Artist: Vintlechkeit
*Album: Alt Har En Ende... [demo]
*Year: 2021
*Genre: Ambient Raw Black Metal
*Country: Norway
*Format: mp3@CBR320kbps
*Size: 114MB

Tracklist:
1. Alt Har En Ende...
2. Isavgrundens Utstralning...
3. Over Tusen Gravar...
4. Snø I Juni...
******************************
Total playing time: 50:05



[more=Technical info]
Input File: 01. Alt Har En Ende.mp3
Channels : 2
Sample Rate : 44100
Precision : 16-bit
Duration : 00:14:54.79 = 39460239 samples = 67109.2 CDDA sectors
File Size : 35.8M
Bit Rate : 320k
Sample Encoding: MPEG audio (layer I, II or III)
Comments :
Title=Alt Har En Ende...
Artist=Vintlechkeit
Album=Alt Har En Ende...
Tracknumber=1
Year=2021
Genre=Atmospheric Ambient Raw Black Metal

[/more]

Register
(7) Ildjarn, Olethros, Sjelekval, thenecromancer, Tyrone, varlam4, Wail,
Jun 20 2021, 06:43:23 Сруб - Скверна (2021)


*Artist: Сруб
*Album: Скверна
*Year: 2021
*Genre: Atmospheric Black Metal/Post-Punk
*Country: Russian Federation

*Format: mp3@CBR320kbps
*Size: 107 MB

*Format: FLAC
*Size: 314 MB

Tracklist:
1. Упокой
2. Никогда Не Видеть Зла
3. Мёртвых Ночь
4. Лес
5. Скверна
6. Песни Войны
7. За Зовом Зари
8. В Последний День
******************************
Total playing time: 46:18



[more=Technical info]
Input File: 01. Упокой.mp3
Channels : 2
Sample Rate : 44100
Precision : 16-bit
Duration : 00:07:19.80 = 19395092 samples = 32984.9 CDDA sectors
File Size : 17.7M
Bit Rate : 323k
Sample Encoding: MPEG audio (layer I, II or III)
Comments :
Title=Упокой
Artist=Сруб
Album=Скверна
Tracknumber=1
Year=2021

[/more]

Register
(44) 6666666, AlexSmith, andeimon, Aresson, bOOLty, Boozer, caro, cesar, Chasm, CryptOn, CultMetalSerge, Druidir, ent404, Hexer, infiltrator, J0k3r, judaz, Krosis, lafuma, Maestrovs, mizantrophist, Old Vyaine, oldvarg, Olethros, ripper33, sabr, Sanctus, SAPOGi, Scuns, skogtroll, Slam91, Strid, Taakeferd, TeamatSE, tOmV, Un4given, VALERY, varlam4, vlad74, Wail, wreak, xska, yuratroll, ZambuL,
May 21 2021, 09:36:11 Türst - Ascension (2020)


*Artist: Türst
*Album: Ascension
*Year: 2020
*Genre: Black Metal
*Country: Switzerland
*Format: mp3@CBR320kbps
*Size: 106MB

Tracklist:
1. Sentier 01:55
2. Versant 12:13
3. Saline 08:59
4. Glacier 08:31
5. Sommet 14:15
******************************
Total playing time: 45:56



[more=Technical info]
Input File: 03. Saline.mp3
Channels : 2
Sample Rate : 44100
Precision : 16-bit
Duration : 00:08:59.34 = 23784718 samples = 40450.2 CDDA sectors
File Size : 21.8M
Bit Rate : 323k
Sample Encoding: MPEG audio (layer I, II or III)
Comments :
Title=Saline
Artist=Türst
Album=Ascension
Tracknumber=3
Year=2020
Genre=138

[/more]

Register
(19) AlexSmith, atavist, Constantinus I, infiltrator, kim666, Marek, Olethros, robertho777, Rover, satanist666, SilentNidhogg, stub888, supremo, Taakeferd, VALERY, varlam4, vasiljev_sergej, Wail, wreak,
May 21 2021, 09:33:58 Türst - Confinement [ep] (2020)


*Artist: Türst
*Album: Confinement [ep]
*Year: 2020
*Genre: Black Metal
*Country: Switzerland
*Format: mp3@CBR320kbps
*Size: 38MB

Tracklist:
1. Contagion 08:23
2. Confinement 07:54
******************************
Total playing time: 16:17



[more=Technical info]
Input File: 01. Contagion.mp3
Channels : 2
Sample Rate : 44100
Precision : 16-bit
Duration : 00:08:23.18 = 22190326 samples = 37738.6 CDDA sectors
File Size : 20.2M
Bit Rate : 322k
Sample Encoding: MPEG audio (layer I, II or III)
Comments :
Title=Contagion
Artist=Türst
Album=Confinement
Tracknumber=1
Year=2020
Genre=138

[/more]

Register
(14) Carcharoth, Constantinus I, infiltrator, kim666, Marek, Olethros, satanist666, SilentNidhogg, Taakeferd, VALERY, varlam4, vasiljev_sergej, Wail, wreak,
May 21 2021, 08:31:30 Abkehr - In Blut (2021)
Register
(5) Amsterdam, ErikGoth, Ildjarn, Olethros, wreak,
Jan 17 2021, 18:31:00 Shibalba - Nekrologie Sinistrae (Orchestra Noise Opus I) (2020)
FLAC? Весьма понравился альбом.
(1) FlammenTod666,
Nov 19 2020, 19:46:28 Gjaldur - Nachtreich (2020)
ЦИТАТА(craP_cillA @ 19th November 2020 - 15:48:16) *
free download

one track only...
(1) Occultas,
Nov 18 2020, 09:41:00 Wintaar - I Am Ruin, I Am Death (2020)


*Artist: Wintaar
*Album: I Am Ruin, I Am Death
*Year: 2020
*Genre: Black Metal
*Country: Russian Federation
*Format: mp3@CBR320kbps
*Size: 95MB

Tracklist:
1. So Be It
2. The Night Awakens Our Hate
3. Hymn of Wildness
4. Shades
5. To the Mountains to the Forest
6. Immortal
7. Drowning
******************************
Total playing time: 40:53



[more=Technical info]
Input File: 01. So Be It.mp3
Channels : 2
Sample Rate : 44100
Precision : 16-bit
Duration : 00:05:07.78 = 13573230 samples = 23083.7 CDDA sectors
File Size : 12.4M
Bit Rate : 322k
Sample Encoding: MPEG audio (layer I, II or III)
Comments :
Title=So Be It
Artist=Wintaar
Album=I Am Ruin, I Am Death
Tracknumber=1
Year=2020
Genre=138

[/more]

Register
(14) 1968_janeart, infiltrator, kim666, Marek, oldvarg, Olethros, robertho777, Rosen, SilentNidhogg, Surt, VALERY, varlam4, Wail, wreak,
Nov 18 2020, 09:37:00 Wintaar - Northern Intention (2020)


*Artist: Wintaar
*Album: Northern Intention
*Year: 2020
*Genre: Black Metal
*Country: Russian Federation
*Format: mp3@CBR320kbps
*Size: 95MB

Tracklist:
1. The Fading of the Cold
2. Icewind Tale (Part I)
3. Icewind Tale (Part II)
4. The Filed of Axes
5. Northern Intention
6. An Etude of the Winds
7. Nord
8. Under the Moon
9. The Soil's Misery
******************************
Total playing time: 40:34



[more=Technical info]
Input File: 05. Northern Intention.mp3
Channels : 2
Sample Rate : 44100
Precision : 16-bit
Duration : 00:06:52.80 = 18204348 samples = 30959.8 CDDA sectors
File Size : 16.6M
Bit Rate : 323k
Sample Encoding: MPEG audio (layer I, II or III)
Comments :
Title=Northern Intention
Artist=Wintaar
Album=Northern Intention
Tracknumber=5
Year=2020
Genre=138

[/more]

Register
(13) 1968_janeart, kim666, Marek, oldvarg, Olethros, robertho777, Rosen, SilentNidhogg, Surt, VALERY, varlam4, Wail, wreak,
Nov 18 2020, 09:33:11 Wintaar - Streams Of The Paleghosts (2020)


*Artist: Wintaar
*Album: Streams Of The Paleghosts
*Year: 2020
*Genre: Black Metal
*Country: Russian Federation
*Format: mp3@CBR320kbps
*Size: 80MB

Tracklist:
1. A World in the Axe's Shadow
2. ...in Funeral Night Clouds
3. The Sign
4. Fullmoon Realm
5. Over Mankind
6. Isolated
7. In a Forest
******************************
Total playing time: 34:00



[more=Technical info]
Input File: 01. A World In The Axe\'s Shadow.mp3
Channels : 2
Sample Rate : 44100
Precision : 16-bit
Duration : 00:05:30.56 = 14577784 samples = 24792.1 CDDA sectors
File Size : 13.3M
Bit Rate : 323k
Sample Encoding: MPEG audio (layer I, II or III)
Comments :
Title=A World In The Axe's Shadow
Artist=Wintaar
Album=Streams Of The Paleghosts
Tracknumber=1
Year=2020
Genre=138

[/more]

Register
(15) 1968_janeart, infiltrator, kim666, Marek, oldvarg, Olethros, Ostinato, robertho777, Rosen, SilentNidhogg, Surt, VALERY, varlam4, Wail, wreak,
Nov 18 2020, 09:29:06 Wintaar - Winter Worhsip (2020)


*Artist: Wintaar
*Album: Winter Worhsip
*Year: 2020
*Genre: Black Metal
*Country: Russian Federation
*Format: mp3@CBR320kbps
*Size: 100MB

Tracklist:
1. I
2. II
3. III
4. IV
5. V
6. VI
******************************
Total playing time: 43:27



[more=Extended info]Re-recorded, previously released as "W".[/more]

[more=Technical info]
Input File: 01. Winter Worship I.mp3
Channels : 2
Sample Rate : 44100
Precision : 16-bit
Duration : 00:09:49.62 = 26002374 samples = 44221.7 CDDA sectors
File Size : 23.7M
Bit Rate : 321k
Sample Encoding: MPEG audio (layer I, II or III)
Comments :
Title=Winter Worship I
Artist=Wintaar
Album=Winter Worship
Tracknumber=1
Year=2020
Genre=138

[/more]

Register
(16) 1968_janeart, Bregon, cesar, Constantinus I, infiltrator, kim666, Marek, Olethros, robertho777, Rosen, SilentNidhogg, Surt, VALERY, varlam4, Wail, wreak,

12 Pages V   1 2 3 > » 
- Lo-Fi Version Support form
Copyrights and abuse reports form
Time is now: 23rd October 2021 - 20:45:50