Welcome Guest ( Log In | Register )

История благодарностей участнику Forest Silence ::: Спасибо сказали: 3050 раз(а)
Дата поста: В теме: За сообщение: Спасибо сказали:
Jan 29 2022, 08:31:46 Wintercult - Submerged In Desolation [ep] (2022)


*Artist: Wintercult
*Album: Submerged In Desolation [ep]
*Year: 2022
*Genre: Atmospheric/Depressive Black Metal
*Country: Russian Federation
*Format: mp3@CBR320kbps
*Size: 62MB

Tracklist:
1. Frozen In Melancholy
2. Submerged In Desolation
3. Nocturnal Silence
4. The Somber End
******************************
Total playing time: 26:26



[more=Extended info]Rerecorded and rearrangement tracks from debut album.[/more]

[more=Technical info]
Input File: 02. Submerged In Desolation.mp3
Channels : 2
Sample Rate : 44100
Precision : 16-bit
Duration : 00:06:43.92 = 17812652 samples = 30293.6 CDDA sectors
File Size : 16.4M
Bit Rate : 325k
Sample Encoding: MPEG audio (layer I, II or III)
Comments :
Title=Submerged In Desolation
Artist=Wintercult
Album=Submerged In Desolation
Tracknumber=2
Year=2022
Genre=Depressive Black Metal

[/more]

Register
(19) aleon, artscald, BERZERK, caro, Dante_D, kim666, libertine, Misanthrope@, Olethros, robertho777, SilentNidhogg, squall8fr, stormhatt, supremo, Tyrone, VALERY, varlam4, vlad74, wreak,
Jan 14 2022, 05:21:25 Wintaar - Deathentrance (2022)


*Artist: Wintaar
*Album: Deathentrance
*Year: 2022
*Genre: Black Metal
*Country: Russian Federation
*Format: mp3@CBR256kbps
*Size: 86MB

Tracklist:
1. You Require Me To Pray
2. Nails Of Rebirth
3. Total Invocation
4. Hymn To Equality
5. Break And Shatter
6. Humanity
7. Apocalypsis
******************************
Total playing time: 45:56



[more=Technical info]
Input File: 01. You Require Me To Pray.mp3
Channels : 2
Sample Rate : 48000
Precision : 16-bit
Duration : 00:05:49.46 = 16774272 samples ~ 26209.8 CDDA sectors
File Size : 11.4M
Bit Rate : 260k
Sample Encoding: MPEG audio (layer I, II or III)
Comments :
Title=You Require Me To Pray
Artist=Wintaar
Album=Deathentrance
Tracknumber=1
Year=2022
Genre=138

[/more]

Register
(22) alikkon, artscald, caro, dcatagua, dermarsoran, Froze, kim666, Marek, oldvarg, Olethros, robertho777, SilentNidhogg, smes, stormhatt, supremo, VALERY, varlam4, vosmidesijatye, Wail, wreak, xska, zobero,
Dec 27 2021, 05:40:06 Dodmorke - Bible Of Self Destruction (2021)


*Artist: Dodmorke
*Album: Bible Of Self-Destruction
*Year: 2021
*Genre: Raw Black Metal
*Country: Russian Federation
*Format: mp3@CBR320kbps
*Size: 72MB

Tracklist:
1. Blackness
2. Weave The Noose
3. Bible Of Self-Destruction
4. Blurred Facets
5. The Last Dance
6. Crafted By Sorrow
7. This Day
******************************
Total playing time: 30:58



[more=Technical info]
Input File: 02. Weave The Noose.mp3
Channels : 2
Sample Rate : 44100
Precision : 16-bit
Duration : 00:03:04.98 = 8157574 samples = 13873.4 CDDA sectors
File Size : 7.55M
Bit Rate : 326k
Sample Encoding: MPEG audio (layer I, II or III)
Comments :
Title=Weave The Noose
Artist=Dodmorke
Album=Bible Of Self Destruction
Tracknumber=2
Year=2021
Genre=Raw Black Metal

[/more]

Register
(13) AlexSmith, artscald, caro, dcatagua, kim666, Olethros, robertho777, SilentNidhogg, stormhatt, supremo, VALERY, varlam4, wreak,
Dec 11 2021, 19:57:11 Arkhtinn - 二度目の災害 (2021)


*Artist: Arkhtinn
*Album: 二度目の災害
*Year: 2021
*Genre: Atmospheric Black Metal
*Country: Unknown
*Format: mp3@CBR320kbps
*Size: 97MB

Tracklist:
1. 一番
2. 二番
******************************
Total playing time: 42:04



[more=Technical info]
Input File: 01. 一番.mp3
Channels : 2
Sample Rate : 44100
Precision : 16-bit
Duration : 00:21:41.65 = 57402941 samples = 97624 CDDA sectors
File Size : 52.2M
Bit Rate : 321k
Sample Encoding: MPEG audio (layer I, II or III)
Comments :
Title=一番
Artist=Arkhtinn
Album=二度目の災害
Tracknumber=1
Year=2021

[/more]

Register

Register
(39) aleon, Alexis The Best, AlexSmith, artscald, BERZERK, blacky66, caro, Chasm, dermarsoran, Hell_Is_Here, jelly_kt, Kazoth, kim666, kimkayoung, Lamby90, lordbathor, madera, mirotvorets, murian, nemx, Olethros, robertho777, Sanctus, sergsazan, Shadechaser, smes, squall8fr, stormhatt, supremo, Tyrone, VALERY, varlam4, vasiljev_sergej, wreak, yarrsuaa, yuratroll, Zenial, zuiozuio, партизан,
Dec 11 2021, 19:52:51 Voidsphere - To Overtake | To Overcome (2021)


*Artist: Voidsphere
*Album: To Overtake | To Overcome
*Year: 2021
*Genre: Atmospheric Black Metal
*Country: Unknown
*Format: mp3@CBR320kbps
*Size: 99MB

Tracklist:
1. The Void Overtakes
2. The Void Overcome
******************************
Total playing time: 42:40



[more=Technical info]
Input File: 01. The Void Overtakes.mp3
Channels : 2
Sample Rate : 44100
Precision : 16-bit
Duration : 00:21:17.96 = 56358080 samples = 95847.1 CDDA sectors
File Size : 51.3M
Bit Rate : 321k
Sample Encoding: MPEG audio (layer I, II or III)
Comments :
Title=The Void Overtakes
Artist=Voidsphere
Album=To Overtake | To Overcome
Tracknumber=1
Year=2021
Genre=Atmospheric Black Metal

[/more]

Register
(33) aleon, AlexSmith, artscald, BERZERK, blacky66, caro, Chasm, doomTemplar, Hell_Is_Here, jelly_kt, kim666, kipelov999, Lamby90, lordbathor, madera, murian, nemx, Occultas, Olethros, sergsazan, Shadechaser, SilentNidhogg, smes, squall8fr, stormhatt, supremo, Tyrone, VALERY, varlam4, VerminGhost, Vidder242, wreak, zuiozuio,
Nov 7 2021, 05:48:55 Elegiac & Wintaar & Nyctophilia & Venymysgourvleydh - Allegiance To Forgotten Blood [split] (2021)


*Artist: Elegiac & Wintaar & Nyctophilia & Venymysgourvleydh
*Album: Allegiance To Forgotten Blood [split]
*Year: 2021
*Genre: Black Metal | Black Metal | Black Metal | Black Metal
*Country: United States | Russian Federation | Poland | United Kingdom
*Format: mp3@CBR320kbps
*Size: 152MB

Tracklist:
Elegiac
1. Hang Me On The Mighty Ash 9:16
2. Wings Of Ostara 5:52
Wintaar
3. Intensity Of Thine Disgrace 8:39
4. Towards The Downfall 4:38
5. Where The Winds Carry The Breath Of Evil 5:03
Nyctophilia
6. Descent Into Mysteries Beyond 5:54
7. Fullmoon In Starlight Forest 7:45
Venymysgourvleydh
8. Battle Of The Tides 18:57
******************************
Total playing time: 1:06:04




[more=Technical info]
Input File: 01. Elegiac - Hang Me On The Mighty Ash.mp3
Channels : 2
Sample Rate : 44100
Precision : 16-bit
Duration : 00:09:16.06 = 24522026 samples = 41704.1 CDDA sectors
File Size : 22.4M
Bit Rate : 322k
Sample Encoding: MPEG audio (layer I, II or III)
Comments :
Title=Hang Me On The Mighty Ash
Artist=Elegiac
Album=Allegiance To Forgotten Blood
Tracknumber=1
Year=2021
Genre=138

[/more]

Register
(7) Alexis The Best, Carcharoth, kim666, Lanceatum, nemx, thenecromancer, varlam4,
Oct 19 2021, 13:11:43 Ꙃꙩѯůӝůѯꙩꙃ - Ŷᾦϛӿѻᾦѻӿϛᾦŷ [demo] (2021)


*Artist: Ꙃꙩѯůӝůѯꙩꙃ
*Album: Ŷᾦϛӿѻᾦѻӿϛᾦŷ [demo]
*Year: 2021
*Genre: Raw Black Metal/Drone
*Country: Iceland
*Format: mp3@CBR320kbps
*Size: 66MB

Tracklist:
1. Ŝçĕäüåüäĕçŝ
2. Ꚗŏќŏꚗ ĜꚚĝ Ꚑŷꙇŷꚑ
3. Ꙁθꙁ Öåö Şθş
4. Ѝᾦѝ Ðѱѳѱð
5. Åşϙşå Ůşͽşů Ϣϫϙẽϙϫϣ
6. Ŷꙧꙩꙁꙩꙧŷ
7. Ůδθδů
8. Ꚏꚅꚏ Ꙕꙃꙥꙉꙥꙃю
9. Ꚅѱꚅ Ѳçѳ Ꙁĥöĥꙁ
******************************
Total playing time: 28:14



[more=Technical info]
Input File: 01. Ŝçĕäüåüäĕçŝ.mp3
Channels : 2
Sample Rate : 44100
Precision : 16-bit
Duration : 00:04:24.27 = 11654395 samples = 19820.4 CDDA sectors
File Size : 10.7M
Bit Rate : 324k
Sample Encoding: MPEG audio (layer I, II or III)
Comments :
Title=Ŝçĕäüåüäĕçŝ
Artist=Ꙃꙩѯůӝůѯꙩꙃ
Album=Ŷᾦϛӿѻᾦѻӿϛᾦŷ
Tracknumber=1
Year=2021

[/more]

Register
(23) alikkon, artscald, cancer1974, Carcharoth, caro, dcatagua, dermarsoran, Formaldehyd, fuoco, Hell_Is_Here, judaz, julianotidre, Kaotik, Kazoth, Mencae77, Olethros, Razorbladeswaltz, SilentNidhogg, stormhatt, stub888, varlam4, wreak, yarrsuaa,
Oct 19 2021, 12:35:18 Wintaar - Abhorrence Vortex [ep] (2021)


*Artist: Wintaar
*Album: Abhorrence Vortex [ep]
*Year: 2021
*Genre: Black Metal
*Country: Russian Federation
*Format: mp3@CBR320kbps
*Size: 43MB

Tracklist:
1. I Am
2. Reject, Deny, Die
3. Day Of Wrath
******************************
Total playing time: 17:59



[more=Technical info]
Input File: 01. I Am.mp3
Channels : 2
Sample Rate : 44100
Precision : 16-bit
Duration : 00:05:50.29 = 15447569 samples = 26271.4 CDDA sectors
File Size : 14.1M
Bit Rate : 323k
Sample Encoding: MPEG audio (layer I, II or III)
Comments :
Title=I Am
Artist=Wintaar
Album=Abhorrence Vortex
Tracknumber=1
Year=2021
Genre=138

[/more]

Register
(16) artscald, caro, julianotidre, kim666, legion01, Marek, oldvarg, Olethros, Ostinato, Razorbladeswaltz, robertho777, SilentNidhogg, stormhatt, varlam4, Wilczygniew Strzygoń, wreak,
Oct 19 2021, 12:30:16 Olio Tähtien Takana - Spectral Katharsis (2021)


*Artist: Olio Tähtien Takana
*Album: Spectral Katharsis
*Year: 2021
*Genre: Symphonic Black Metal
*Country: Finland
*Format: mp3@CBR128kbps
*Size: 51MB

Tracklist:
1. Enter The Maw Of Souls
2. Towards The Dying Moon
3. Excrucior
4. A Sorcery Written In Stars
5. Prophecies Of Pandemonium
6. Veri Kirotussa Yössä
7. The Servant's Heart
8. Journey To The Most High
9. The Labyrinth Of Sleepless Dead
10. Spectral Katharsis
11. Ego Aeternum
12. Into The Everlasting Shadow
******************************
Total playing time: 54:04



[more=Technical info]
Input File: 10. Spectral Katharsis.mp3
Channels : 2
Sample Rate : 44100
Precision : 16-bit
Duration : 00:08:08.89 = 21559961 samples = 36666.6 CDDA sectors
File Size : 7.94M
Bit Rate : 130k
Sample Encoding: MPEG audio (layer I, II or III)
Comments :
Title=Spectral Katharsis
Artist=Olio Tähtien Takana
Album=Spectral Katharsis
Tracknumber=10
Year=2021
Genre=138

[/more]

Register
(13) AlexSmith, Angeldemon617, artscald, Bzth, Ildjarn, kim666, kimkayoung, metala, nsk2008, Occultas, Olethros, sergsazan, vov7609,
Sep 16 2021, 10:04:41 Heksebrann - Eljudnir [ep] (2021)


*Artist: Heksebrann
*Album: Eljudnir [ep]
*Year: 2021
*Genre: Black Metal
*Country: United States
*Format: mp3@CBR128kbps
*Size: 27MB

Tracklist:
1. Gates Of Eljudnir
2. Öndurguð
3. Ride To Hel
4. Vættir
5. Fallandaforað
6. Jaws Of Chaos
7. Hrimthrsar
8. Ascend To The Halls
9. Blikjandaböl
******************************
Total playing time: 28:20



[more=Technical info]
Input File: 02. Öndurguð.mp3
Channels : 2
Sample Rate : 44100
Precision : 16-bit
Duration : 00:03:27.78 = 9163054 samples = 15583.4 CDDA sectors
File Size : 3.38M
Bit Rate : 130k
Sample Encoding: MPEG audio (layer I, II or III)
Comments :
Title=Öndurguð
Artist=Heksebrann
Album=Eljudnir
Tracknumber=2
Year=2021
Genre=138

[/more]

Register
(4) kim666, Olethros, varlam4, Wail,
Sep 16 2021, 07:25:30 Heksebrann - Cosmology Of The World Walker [ep] (2020)


*Artist: Heksebrann
*Album: Cosmology Of The World Walker [ep]
*Year: 2020
*Genre: Black Metal
*Country: United States
*Format: mp3@CBR128kbps
*Size: 23MB

Tracklist:
1. Berserkr
2. Angrboda
3. Wyrd
4. Bifrost
5. Ullr
6. Mjødmagi
7. Offernatt
******************************
Total playing time: 23:43



[more=Technical info]
Input File: 06. Mjødmagi.mp3
Channels : 2
Sample Rate : 44100
Precision : 16-bit
Duration : 00:05:19.99 = 14111339 samples = 23998.9 CDDA sectors
File Size : 5.21M
Bit Rate : 130k
Sample Encoding: MPEG audio (layer I, II or III)
Comments :
Title=Mjødmagi
Artist=Heksebrann
Album=Cosmology Of The World Walker
Tracknumber=6
Year=2020
Genre=138

[/more]

Register
(13) cacicandriera, caro, cist, kim666, Olethros, SilentNidhogg, stormhatt, Taakeferd, VALERY, varlam4, Vitald, Wail, wreak,
Sep 14 2021, 12:09:53 Vintlechkeit - Til Dodens Vinter Alltid... [demo] (2021)


*Artist: Vintlechkeit
*Album: Til Dodens Vinter Alltid... [demo]
*Year: 2021
*Genre: Atmospheric Ambient Raw Black Metal
*Country: Norway
*Format: mp3@CBR320kbps
*Size: 81MB

Tracklist:
1. Til Dodens Vinter Alltid...
2. Snø Blindet Meg Med Sannhet...
******************************
Total playing time: 34:37



[more=Technical info]
Input File: 01. Til Dodens Vinter Alltid.mp3
Channels : 2
Sample Rate : 44100
Precision : 16-bit
Duration : 00:21:55.42 = 58010066 samples = 98656.6 CDDA sectors
File Size : 52.7M
Bit Rate : 320k
Sample Encoding: MPEG audio (layer I, II or III)
Comments :
Title=Til Dodens Vinter Alltid...
Artist=Vintlechkeit
Album=Til Dodens Vinter Alltid...
Tracknumber=1
Year=2021
Genre=Atmospheric Ambient Raw Black Metal

[/more]

Register
(8) Ildjarn, kim666, Korpse, smysl, stormhatt, thenecromancer, Tyrone, Wail,
Aug 29 2021, 09:14:39 Vintlechkeit - Isblod... [demo] (2021)


*Artist: Vintlechkeit
*Album: Isblod... [demo]
*Year: 2021
*Genre: Atmospheric Ambient Raw Black Metal
*Country: Norway
*Format: mp3@CBR320kbps
*Size: 78MB

Tracklist:
1. Isblod...
2. Kald Som Frihet...
3. Ved Veikrysset...
******************************
Total playing time: 32:40



[more=Extended info]Lossy-mastered[/more]

[more=Technical info]
Input File: 01. Isblod.mp3
Channels : 2
Sample Rate : 44100
Precision : 16-bit
Duration : 00:10:48.58 = 28602334 samples = 48643.4 CDDA sectors
File Size : 26.0M
Bit Rate : 321k
Sample Encoding: MPEG audio (layer I, II or III)
Comments :
Title=Isblod...
Artist=Vintlechkeit
Album=Isblod...
Tracknumber=1
Year=2021
Genre=Atmospheric Ambient Raw Black Metal

[/more]

Register
(18) aleon, cancer1974, caro, Hexer, Ildjarn, kim666, lordbathor, NachtWulf, Olethros, SilentNidhogg, smysl, stormhatt, Taakeferd, Tyrone, VALERY, vosmidesijatye, Wail, wreak,
Jul 3 2021, 16:15:15 Полярная Сова - Чужак (2021)


*Artist: Полярная Сова
*Album: Чужак
*Year: 2021
*Genre: Atmospheric Black Metal
*Country: International
*Format: mp3@CBR320kbps
*Size: 76MB

Tracklist:
1. Здесь Дорогам Конец
2. Чужая Кровь
3. Однажды Живой Мёртв Навсегда
4. Людская Стая, Волчий Вой
5. Холод В Окне
6. Горы Уральские, Укройте Меня
7. Безымянным - Смерть Без Имён
******************************
Total playing time: 32:42



[more=Extended info]Belarus / Russia[/more]

[more=Technical info]
Input File: 05. Холод В Окне.mp3
Channels : 2
Sample Rate : 44100
Precision : 16-bit
Duration : 00:05:28.07 = 14467755 samples = 24605 CDDA sectors
File Size : 13.2M
Bit Rate : 322k
Sample Encoding: MPEG audio (layer I, II or III)
Comments :
Title=Холод В Окне
Artist=Полярная Сова
Album=Чужак
Tracknumber=5
Year=2021
Genre=Atmospheric Black Metal

[/more]

Register
(22) aleon, alikkon, Aresson, caro, El_Chibo, Femto, GorAtheist, kim666, kimkayoung, Kitalter, oldvarg, Olethros, robertho777, SilentNidhogg, supremo, Taakeferd, trueandevil, VALERY, varlam4, Wail, wreak, Сварог Барг,
Jun 20 2021, 20:31:20 Waldstille - Outside The Window [single] (2021)


*Artist: Waldstille
*Album: Outside The Window [single]
*Year: 2021
*Genre: Depressive Black Metal
*Country: Russian Federation
*Format: mp3@CBR320kbps
*Size: 20MB

Tracklist:
1. Outside The Window
******************************
Total playing time: 8:07



[more=Technical info]
Input File: 01. Outside The Window.mp3
Channels : 2
Sample Rate : 44100
Precision : 16-bit
Duration : 00:08:06.36 = 21448432 samples = 36476.9 CDDA sectors
File Size : 19.6M
Bit Rate : 323k
Sample Encoding: MPEG audio (layer I, II or III)
Comments :
Title=Outside The Window
Artist=Waldstille
Album=Outside The Window
Tracknumber=1
Year=2021
Genre=Post-Black Metal

[/more]

Register
(11) caro, infiltrator, Olethros, Ostinato, Taakeferd, VALERY, varlam4, vasiljev_sergej, Wail, wreak, Абигор,
Jun 20 2021, 20:22:48 Wintaar - Ice Heart Of The Urals (2021)


*Artist: Wintaar
*Album: Ice Heart Of The Urals
*Year: 2021
*Genre: Black Metal
*Country: Russian Federation
*Format: mp3@CBR320kbps
*Size: 135MB

Tracklist:
1. Baptism By Freezing Winds
2. Ice Heart Of The Urals
3. Will Of Hate
4. Presence Of The Incarnation
5. ...Blood Fills The Horizons
6. Sombre Landscapes
7. Winter's Feralthorns
8. Moonlust
9. Hans Siste Vinter (Darkthrone cover)
10. Baptism By Freezing Winds
******************************
Total playing time: 58:53



[more=Technical info]
Input File: 02. Ice Heart Of The Urals.mp3
Channels : 2
Sample Rate : 44100
Precision : 16-bit
Duration : 00:05:55.64 = 15683724 samples = 26673 CDDA sectors
File Size : 14.3M
Bit Rate : 321k
Sample Encoding: MPEG audio (layer I, II or III)
Comments :
Title=Ice Heart Of The Urals
Artist=Wintaar
Album=Ice Heart Of The Urals
Tracknumber=2
Year=2021
Genre=138

[/more]

Register
(21) caro, infiltrator, kim666, Lamby90, Marek, oldvarg, Olethros, Ostinato, Razorbladeswaltz, robertho777, Rover, SilentNidhogg, supremo, Taakeferd, VALERY, varlam4, Wail, Wilczygniew Strzygoń, wreak, zobero, Абигор,
Jun 20 2021, 20:19:32 Wintaar - From Darkness Of Ural Forests (2021)


*Artist: Wintaar
*Album: From Darkness Of Ural Forests
*Year: 2021
*Genre: Black Metal
*Country: Russian Federation
*Format: mp3@CBR320kbps
*Size: 126MB

Tracklist:
1. From Darkness Of Ural Forests
2. Valor And Death
3. Lost In This Dreams
4. Stone Dawn
5. Damned Eternity
6. A Blade Of The Last Winter
7. Abandoned Hopes And Broken Promises
******************************
Total playing time: 50:07



[more=Technical info]
Input File: 01. From Darkness Of Ural Forests.mp3
Channels : 2
Sample Rate : 44100
Precision : 16-bit
Duration : 00:08:00.85 = 21205353 samples = 36063.5 CDDA sectors
File Size : 19.3M
Bit Rate : 321k
Sample Encoding: MPEG audio (layer I, II or III)
Comments :
Title=From Darkness Of Ural Forests
Artist=Wintaar
Album=From Darkness Of Ural Forests
Tracknumber=1
Year=2021
Genre=138

[/more]

Register
(20) caro, infiltrator, Marek, oldvarg, Olethros, Ostinato, robertho777, Rover, russ777, SilentNidhogg, supremo, Taakeferd, VALERY, varlam4, vosmidesijatye, Wail, Wilczygniew Strzygoń, wreak, zobero, Абигор,
Jun 20 2021, 20:14:01 Vintlechkeit - Isete Skoger Frostskymring... [demo] (2021)


*Artist: Vintlechkeit
*Album: Isete Skoger Frostskymring... [demo]
*Year: 2021
*Genre: Ambient Raw Black Metal
*Country: Norway
*Format: mp3@CBR320kbps
*Size: 73MB

Tracklist:
1. Vintervingar I Vit Gryning...
2. Isete Skoger Frostskymring...
3. Skymring...
******************************
Total playing time: 31:30



[more=Technical info]
Input File: 02. Isete Skoger Frostskymring.mp3
Channels : 2
Sample Rate : 44100
Precision : 16-bit
Duration : 00:16:35.99 = 43923159 samples = 74699.2 CDDA sectors
File Size : 39.9M
Bit Rate : 321k
Sample Encoding: MPEG audio (layer I, II or III)
Comments :
Title=Isete Skoger Frostskymring...
Artist=Vintlechkeit
Album=Isete Skoger Frostskymring...
Tracknumber=2
Year=2021
Genre=Ambient Black Metal

[/more]

Register
(16) cancer1974, caro, Ildjarn, infiltrator, kryptor, Olethros, Ostinato, SilentNidhogg, Sjelekval, stub888, Taakeferd, Tyrone, varlam4, Wail, wreak, Абигор,
Jun 20 2021, 20:11:25 Vintlechkeit - Grav, Aske Og Dod... [demo] (2021)


*Artist: Vintlechkeit
*Album: Grav, Aske Og Dod... [demo]
*Year: 2021
*Genre: Ambient Raw Black Metal
*Country: Norway
*Format: mp3@CBR320kbps
*Size: 94MB

Tracklist:
1. Kister Og Aske...
2. Gravarna...
3. Dod...
******************************
Total playing time: 40:03



[more=Technical info]
Input File: 01 Kister Og Aske.mp3
Channels : 2
Sample Rate : 44100
Precision : 16-bit
Duration : 00:15:25.69 = 40823105 samples = 69427 CDDA sectors
File Size : 37.1M
Bit Rate : 320k
Sample Encoding: MPEG audio (layer I, II or III)
Comments :
Title=Kister Og Aske...
Artist=Vintlechkeit
Album=Grav, Aske Og Dod...
Tracknumber=1
Year=2021
Genre=Atmospheric Ambient Raw Black Metal

[/more]

Register
(15) cancer1974, caro, Ildjarn, infiltrator, kryptor, Olethros, Ostinato, SilentNidhogg, Sjelekval, Taakeferd, Tyrone, varlam4, Wail, wreak, Абигор,
Jun 20 2021, 20:08:16 Vintlechkeit - Andas In Iden Dodliga Forkylningen... [demo] (2021)


*Artist: Vintlechkeit
*Album: Andas In Iden Dodliga Forkylningen... [demo]
*Year: 2021
*Genre: Ambient Raw Black Metal
*Country: Norway
*Format: mp3@CBR320kbps
*Size: 78MB

Tracklist:
1. Vinterblod Runor...
2. Andas In Iden Dodliga Forkylningen...
3. Blod Drypper Pa Snoen...
******************************
Total playing time: 30:58



[more=Technical info]
Input File: 02. Andas In Iden Dodliga Forkylningen.mp3
Channels : 2
Sample Rate : 44100
Precision : 16-bit
Duration : 00:12:21.19 = 32686391 samples = 55589.1 CDDA sectors
File Size : 29.7M
Bit Rate : 320k
Sample Encoding: MPEG audio (layer I, II or III)
Comments :
Title=Andas In Iden Dodliga Forkylningen...
Artist=Vintlechkeit
Album=Andas In Iden Dodliga Forkylningen...
Tracknumber=2
Year=2021
Genre=Ambient Black Metal

[/more]

Register
(15) cancer1974, caro, Ildjarn, infiltrator, kryptor, Olethros, Ostinato, SilentNidhogg, Sjelekval, Taakeferd, Tyrone, varlam4, Wail, wreak, Абигор,
Jun 20 2021, 20:05:03 Vintlechkeit - Alt Har En Ende... [demo] (2021)


*Artist: Vintlechkeit
*Album: Alt Har En Ende... [demo]
*Year: 2021
*Genre: Ambient Raw Black Metal
*Country: Norway
*Format: mp3@CBR320kbps
*Size: 114MB

Tracklist:
1. Alt Har En Ende...
2. Isavgrundens Utstralning...
3. Over Tusen Gravar...
4. Snø I Juni...
******************************
Total playing time: 50:05



[more=Technical info]
Input File: 01. Alt Har En Ende.mp3
Channels : 2
Sample Rate : 44100
Precision : 16-bit
Duration : 00:14:54.79 = 39460239 samples = 67109.2 CDDA sectors
File Size : 35.8M
Bit Rate : 320k
Sample Encoding: MPEG audio (layer I, II or III)
Comments :
Title=Alt Har En Ende...
Artist=Vintlechkeit
Album=Alt Har En Ende...
Tracknumber=1
Year=2021
Genre=Atmospheric Ambient Raw Black Metal

[/more]

Register
(7) Ildjarn, Olethros, Sjelekval, thenecromancer, Tyrone, varlam4, Wail,
Jun 20 2021, 06:43:23 Сруб - Скверна (2021)


*Artist: Сруб
*Album: Скверна
*Year: 2021
*Genre: Atmospheric Black Metal/Post-Punk
*Country: Russian Federation

*Format: mp3@CBR320kbps
*Size: 107 MB

*Format: FLAC
*Size: 314 MB

Tracklist:
1. Упокой
2. Никогда Не Видеть Зла
3. Мёртвых Ночь
4. Лес
5. Скверна
6. Песни Войны
7. За Зовом Зари
8. В Последний День
******************************
Total playing time: 46:18



[more=Technical info]
Input File: 01. Упокой.mp3
Channels : 2
Sample Rate : 44100
Precision : 16-bit
Duration : 00:07:19.80 = 19395092 samples = 32984.9 CDDA sectors
File Size : 17.7M
Bit Rate : 323k
Sample Encoding: MPEG audio (layer I, II or III)
Comments :
Title=Упокой
Artist=Сруб
Album=Скверна
Tracknumber=1
Year=2021

[/more]

Register
(45) 6666666, AlexSmith, andeimon, Aresson, bOOLty, Boozer, caro, cesar, Chasm, CryptOn, CultMetalSerge, Druidir, ent404, Hexer, infiltrator, J0k3r, judaz, Krosis, lafuma, Maestrovs, mizantrophist, Old Vyaine, oldvarg, Olethros, Phlebotomized, ripper33, sabr, Sanctus, SAPOGi, Scuns, skogtroll, Slam91, Strid, Taakeferd, TeamatSE, tOmV, Un4given, VALERY, varlam4, vlad74, Wail, wreak, xska, yuratroll, ZambuL,
May 21 2021, 09:36:11 Türst - Ascension (2020)


*Artist: Türst
*Album: Ascension
*Year: 2020
*Genre: Black Metal
*Country: Switzerland
*Format: mp3@CBR320kbps
*Size: 106MB

Tracklist:
1. Sentier 01:55
2. Versant 12:13
3. Saline 08:59
4. Glacier 08:31
5. Sommet 14:15
******************************
Total playing time: 45:56



[more=Technical info]
Input File: 03. Saline.mp3
Channels : 2
Sample Rate : 44100
Precision : 16-bit
Duration : 00:08:59.34 = 23784718 samples = 40450.2 CDDA sectors
File Size : 21.8M
Bit Rate : 323k
Sample Encoding: MPEG audio (layer I, II or III)
Comments :
Title=Saline
Artist=Türst
Album=Ascension
Tracknumber=3
Year=2020
Genre=138

[/more]

Register
(19) AlexSmith, atavist, Constantinus I, infiltrator, kim666, Marek, Olethros, robertho777, Rover, satanist666, SilentNidhogg, stub888, supremo, Taakeferd, VALERY, varlam4, vasiljev_sergej, Wail, wreak,
May 21 2021, 09:33:58 Türst - Confinement [ep] (2020)


*Artist: Türst
*Album: Confinement [ep]
*Year: 2020
*Genre: Black Metal
*Country: Switzerland
*Format: mp3@CBR320kbps
*Size: 38MB

Tracklist:
1. Contagion 08:23
2. Confinement 07:54
******************************
Total playing time: 16:17



[more=Technical info]
Input File: 01. Contagion.mp3
Channels : 2
Sample Rate : 44100
Precision : 16-bit
Duration : 00:08:23.18 = 22190326 samples = 37738.6 CDDA sectors
File Size : 20.2M
Bit Rate : 322k
Sample Encoding: MPEG audio (layer I, II or III)
Comments :
Title=Contagion
Artist=Türst
Album=Confinement
Tracknumber=1
Year=2020
Genre=138

[/more]

Register
(14) Carcharoth, Constantinus I, infiltrator, kim666, Marek, Olethros, satanist666, SilentNidhogg, Taakeferd, VALERY, varlam4, vasiljev_sergej, Wail, wreak,
May 21 2021, 08:31:30 Abkehr - In Blut (2021)
Register
(6) Amsterdam, ErikGoth, Fallen Soul, Ildjarn, Olethros, wreak,

13 Pages V   1 2 3 > » 
- Lo-Fi Version Support form
Copyrights and abuse reports form
Time is now: 14th August 2022 - 00:45:31