Welcome Guest ( Log In | Register )

История благодарностей участнику Redesecretor ::: Спасибо сказали: 2325 раз(а)
Дата поста: В теме: За сообщение: Спасибо сказали:
Apr 26 2016, 16:06:43 Nu,Pogodi! & Ratsak - Nu,Pogodi!/Ratsak [split] (2014)
Ну,заяц Погоди!
(1) vosmidesijatye,
Jan 13 2016, 07:57:27 Trelldom - Disappearing Of The Burning Moon [demo] (1994)
One of the best demos ever released metaler.gif pray.gif
(1) tont,
Nov 28 2015, 17:41:36 Mayhem - Live In Leipzig (25th Anniversary Edition) [live] (2015)
Any chance to scan the booklet?
(1) Aresson,
Oct 15 2015, 06:21:11 Aphorism - Exercícios De Insubmissão (2015)


*Artist: Aphorism
*Album: Exercícios De Insubmissão
*Year: 2015
*Genre: Black/Death Metal
*Country: Brazil
*Format: mp3@CBR320kbps
*Size: 56MB

Tracklist:
1. Tempo e Anemia 03:39
2. Desabono 02:31
3. Renúncia ao Absurdo 02:55
4. Morta Vida 02:39
5. Instinto Último 03:11
6. Azedume 02:15
7. Náusea 02:27
8. Regozijo 01:23
9. Soberba Inutilidade 01:25
10. Privilégio Paranoico 01:24
11. À Revelia 02:01
******************************
Total playing time: 25:50

[more=Extended info]Recorded at Bunker Studio between April and May 2015 in Salvador / BA.
Mixed and mastered at Estúdio Superfuzz in May 2015 in Rio de Janeiro / RJ.[/more]

[more=Technical info]
Input File: 8 Regozijo.mp3
Channels : 2
Sample Rate : 44100
Precision : 16-bit
Duration : 00:01:23.94 = 3701842 samples = 6295.65 CDDA sectors
File Size : 3.43M
Bit Rate : 327k
Sample Encoding: MPEG audio (layer I, II or III)
Comments :
Title=Regozijo
Artist=Aphorism
Album=Exercicios de Insubmissao
Year=2015
Genre=Death Metal

[/more]

Register
(5) phillipjorge, Rosen, satanist666, varg-38ru, varlam4,
Oct 1 2015, 19:55:08 Panzergod - Ages Of Misery [demo] (2005)


*Artist: Panzergod
*Album: Ages Of Misery [demo]
*Year: 2005
*Genre: Black Metal
*Country: United States
*Format: mp3@CBR320kbps
*Size: 116MB

Tracklist:
1. Into the Endless Woods 08:05
2. Hidden Constellations of Reflection 12:27
3. As the Ravens Sang Me Their Last Goodbyes 08:39
4. Alecia's Dream 02:40
5. When the Procession Carries Me Home 06:37
6. Pride Is the Blood on My Hands 09:16
7. Forging Through Realms of Inhumanity 07:52
******************************
Total playing time: 55:36

[more=Technical info]
Input File: panzergod - ages of misery - 04 - alecia\'s dream.mp3
Channels : 2
Sample Rate : 44100
Precision : 16-bit
Duration : 00:02:39.58 = 7037654 samples = 11968.8 CDDA sectors
File Size : 6.39M
Bit Rate : 320k
Sample Encoding: MPEG audio (layer I, II or III)
Comments :
Title=Alecia's Dream
Artist=Panzergod
Album=Ages of Misery
Tracknumber=04

[/more]

Register
(15) 1968_janeart, blacky66, Constantinus I, Ildjarn, infiltrator, Razorbladeswaltz, rom666, Rosen, satanist666, spiritualdecay666, SyncestrA, tont, varg-38ru, vasiljev_sergej, Герб,
Oct 1 2015, 18:58:58 Panzergod - Rites Of Passage Into Glacial Obscurity [demo] (2004)


*Artist: Panzergod
*Album: Rites Of Passage Into Glacial Obscurity [demo]
*Year: 2004
*Genre: Black Metal
*Country: United States
*Format: mp3@CBR320kbps
*Size: 53MB

Tracklist:
1. Rites of Passage into Glacial Obscurity 04:47
2. To Dance Among Pagan Flames 05:43
3. Awaiting the Icestorm 05:14
4. Forlorned & Forgotten Lands 04:46
5. Dreams of a Pure Empire 05:20
******************************
Total playing time: 25:50

[more=Technical info]
Input File: panzergod - rites of passage into glacial obscurity - 04 - forlorned & forgotten lands.mp3
Channels : 2
Sample Rate : 44100
Precision : 16-bit
Duration : 00:04:46.36 = 12628300 samples = 21476.7 CDDA sectors
File Size : 11.5M
Bit Rate : 320k
Sample Encoding: MPEG audio (layer I, II or III)
Comments :
Title=Forlorned & Forgotten Lands
Artist=Panzergod
Album=Rites Of Passage Into Glacial Obscurity
Tracknumber=04

[/more]

Register
(14) 1968_janeart, blacky66, Constantinus I, Ildjarn, rom666, Rosen, satanist666, spiritualdecay666, SyncestrA, tont, varg-38ru, vasiljev_sergej, wgs73, Герб,
Oct 1 2015, 18:23:11 Panzergod - Totalitarian Stronghold [demo] (2006)


*Artist: Panzergod
*Album: Totalitarian Stronghold [demo]
*Year: 2006
*Genre: Black Metal
*Country: United States
*Format: mp3@CBR320kbps
*Size: 118MB

Tracklist:
1. Ceremonies of Sorrow Begin 05:43
2. Forging Through Realms of Inhumanity 08:21
3. Ancestral Codes of the Blackened Blood 04:50
4. You Are All My Slaves 03:43
5. Nail That Fucker to the Upside Down Cross 07:07
6. Totalitarian Stronghold 04:49
7. Battlecall of Armageddon 06:30
8. To Dance Among Pagan Flames 04:44
9. Rites of Passage into Glacial Obscurity 05:04
10. Awaiting the Icestorm 05:04
******************************
Total playing time: 55:55

[more=Technical info]
Input File: panzergod - totalitarian stronghold - 04 - you are all my slaves.mp3
Channels : 2
Sample Rate : 44100
Precision : 16-bit
Duration : 00:03:43.27 = 9846251 samples = 16745.3 CDDA sectors
File Size : 8.96M
Bit Rate : 321k
Sample Encoding: MPEG audio (layer I, II or III)
Comments :
Title=You Are All My Slaves
Artist=Panzergod
Album=Totalitarian Stronghold
Tracknumber=04
Genre=Metal

[/more]

Register
(14) blacky66, Constantinus I, Ildjarn, Razorbladeswaltz, rom666, Rosen, satanist666, spiritualdecay666, SyncestrA, tont, varg-38ru, vasiljev_sergej, wgs73, Герб,
Sep 29 2015, 17:32:09 Orthros - The Return Of The Reign Of Chaos [ep] (2014)


*Artist: Orthros
*Album: The Return Of The Reign Of Chaos [ep]
*Year: 2014
*Genre: Black Metal
*Country: Brazil
*Format: mp3@CBR128kbps
*Size: 27MB

Tracklist:
1. In Search of Primordial Essence 04:01
2. Survive of Immortal Hate 05:18
3. Erebus the Personification of Darkness 04:31
4. The Return of the Reign of Chaos 04:51
5. Nyx's Blessings 05:46
6. Walking by the Moonlight 05:07
******************************
Total playing time: 29:34

[more=Extended info]Released by Moon Soul Records and Obskure Chaos Distro[/more]

Register
(9) 0x13, 1968_janeart, Legacy100, rickzammuto, Rosen, satanist666, tont, varg-38ru, vasiljev_sergej,
Sep 8 2015, 18:24:12 Disinter - Designed By The Devil, Powered By The Dead (2006)
thanks, been looking for this for ages
(1) Proteus_666,
Aug 18 2015, 19:33:33 Desdominus - Judgement Of The Souls [demo] (1999)


*Artist: Desdominus
*Album: Judgement Of The Souls [demo]
*Year: 1999
*Genre: Death/Black Metal
*Country: Brazil
*Format: mp3@CBR160kbps
*Size: 27MB

Tracklist:
1. Reality of Whispers Mine 08:27
2. Ejaculate in Your Stupidity 04:10
3. The Fall and the Vision 03:34
4. Judgement of the Souls 07:31
******************************
Total playing time: 23:42

Register
(9) dermarsoran, Evilded, rom666, Rosen, satanist666, varg-38ru, vasiljev_sergej, wgs73, Герб,
Aug 13 2015, 22:37:19 Ilizarov - The First Surgery [ep] (2015)


*Artist: Ilizarov
*Album: The First Surgery [ep]
*Year: 2015
*Genre: Death Metal
*Country: Brazil
*Format: mp3@CBR320kbps
*Size: 40MB

Tracklist:
01. The Faceless Evil 03:10
02. Among The Wicked 01:53
03. Ancestral Terror 11:56
******************************
Total playing time: 16:59

[more=Extended info]not yet listed on metal-archives.com

band from Distrito Federal[/more]

[more=Technical info]
Input File: 02 - Among the Wicked.mp3
Channels : 2
Sample Rate : 44100
Precision : 16-bit
Duration : 00:01:53.52 = 5006012 samples = 8513.63 CDDA sectors
File Size : 4.92M
Bit Rate : 347k
Sample Encoding: MPEG audio (layer I, II or III)
Comments :
Title=Among the Wicked
Artist=Ilizarov
Album=The First Surgery
Tracknumber=2
Year=2015
Genre=Death Metal

[/more]

Register
(6) morbidangelo, Rosen, VALERY, vyacheslav, wreak, Герб,
Aug 13 2015, 21:52:15 Justabeli - Cause The War Never Ends... (2015)


*Artist: Justabeli
*Album: Cause The War Never Ends...
*Year: 2015
*Genre: Death Metal
*Country: Brazil
*Format: mp3@CBR128kbps
*Size: 40MB

Tracklist:
1. Die In The War 04:32
2. Soldiers Of Satan 03:37
3. Cause The War Never Ends... 04:29
4. A Face Da Morte 03:47
5. Infected By Radiation 05:04
6. Divine Fall 05:23
7. We Are The Elite 03:53
8. War Crime 04:45
9. Satan's Whores 05:53
******************************
Total playing time: 41:23






Register

Register
(1) varlam4,
Aug 13 2015, 21:39:47 Justabeli - Justabeli [ep] (2005)


*Artist: Justabeli
*Album: Justabeli [ep]
*Year: 2005
*Genre: Death Metal
*Country: Brazil
*Format: mp3@CBR256kbps
*Size: 22MB

Tracklist:
1. The Death Will Take Your Life 03:28
2. Brutal Death 03:43
3. Black Soul 05:29
******************************
Total playing time: 12:40

[more=Extended info]CD-R[/more]

Register
(7) Darkthronefoad, IllInTheHead, morbidangelo, Rosen, varlam4, wreak, Герб,
Aug 11 2015, 21:05:41 Envoke - Unnatural Cancer Of The Humanity (2013)


*Artist: Envoke
*Album: Unnatural Cancer Of The Humanity
*Year: 2013
*Genre: Black/Death Metal
*Country: Brazil
*Format: mp3@CBR128kbps
*Size: 25MB

Tracklist:
Several Euphoria 03:15
2. Procreation 04:19
3. Rottten Existence 03:22
4. Belief Blink 02:59
5. Blessed Stillborn 03:33
6. Nuclear Devastation 03:55
7. Killing Christ 04:23
******************************
Total playing time: 25:46

Register
(4) rom666, Rosen, Saalingurth, satanist666,
Aug 3 2015, 23:32:56 Rito Profanatorio - Grimorios E Invocaciones Desde El Templo De La Perversión (2015)


*Artist: Rito Profanatorio
*Album: Grimorios E Invocaciones Desde El Templo De La Perversión
*Year: 2015
*Genre: Death/Black Metal
*Country: Peru
*Format: mp3@CBR128kbps
*Size: 28MB

Tracklist:
1. Requiem Of Dark Souls 04:37
2. Templo De La Herijia 03:40
3. Reminicencias Del Chaos 03:48
4. Epitome De La Perversion 02:18
5. Rameras Del Diablo 05:10
6. Altares De Sodoma II 03:59
7. Eterno Sacrilegio 04:24
8. Sodoma Y Gomorra (Hadez) 02:41
******************************
Total playing time: 30:37

Register
(6) Darkthronefoad, rom666, Rosen, satanist666, Styx, vov7609,
Aug 3 2015, 17:34:46 Cremation - Hate Contamination (2002)


*Artist: Cremation
*Album: Hate Contamination
*Year: 2002
*Genre: Death Metal
*Country: Germany
*Format: mp3@CBR192kbps
*Size: 41MB

Tracklist:
1. Coming of Chaos (Introduction) 00:32
2. Infernal Disharmony 03:01
3. As Wargods Conquer 03:51
4. Wrath & Decadence 04:21
5. Hate Contamination 03:53
6. Retaliation Unleashed 04:44
7. Return of the Tyrants 05:04
8. Crushing God's Resistance 04:45
******************************
Total playing time: 30:11

Register
(23) andreikun, beast666, boba, Buregon, Darkthronefoad, Evilded, Hell_Is_Here, IllInTheHead, jollo, MeathookSeed, metala, MMMMM, morbidangelo, Proteus_666, Rosen, samokot, sperminator, Stringer, Tino, varlam4, vyacheslav, wgs73, wreak,
Jul 28 2015, 18:57:10 Shield Wall - Modir Vanadis (2015)


*Artist: Shield Wall
*Album: Modir Vanadis
*Year: 2015
*Genre: Black Metal
*Country: Brazil
*Format: mp3@CBR128kbps
*Size: 26MB

Tracklist:
1. Tears For Balder 01:16
2. Heimdall 03:35
3. Clã Pagão 04:49
4. Fúria 02:30
5. Donar 04:20
6. Modir Vanadis 05:56
7. Reflections 02:30
******************************
Total playing time: 24:56

[more=Extended info]CD limited to 300 copies[/more]

Register
(5) 0x13, 1968_janeart, Rosen, tont, vasiljev_sergej,
Jul 28 2015, 17:20:13 Vizaresh - Gastronomy Of Vivisection [ep] (2015)


*Artist: Vizaresh
*Album: Gastronomy Of Vivisection [ep]
*Year: 2015
*Genre: Brutal Death Metal
*Country: Brazil
*Format: mp3@VBR234kbps
*Size: 27MB

Tracklist:
1. Gastronomy of Vivisection 05:45
2. Tormenting Remembrance 1968 04:57
3. Carnal Promise 04:29
******************************
Total playing time: 15:11

[more=Extended info]vbr from 234 to 241[/more]

Register
(9) Hell_Is_Here, Metalass, morbidangelo, Rosen, satanist666, varlam4, wgs73, wreak, Герб,
Jul 6 2015, 21:17:11 Thoronath - Med Hjärta Så Kallt [demo] (1997)


*Artist: Thoronath
*Album: Med Hjärta Så Kallt [demo]
*Year: 1997
*Genre: Black Metal
*Country: Finland
*Format: mp3@VBR290kbps
*Size: 36MB

Tracklist:
1. Moder av tid 05:47
2. Blod, eld, döden 05:56
3. Med hjärta så kallt 04:53
4. Kheperas cirkel 01:05
******************************
Total playing time: 17:41

[more=Extended info]vbr from 290 to 293 kbps[/more]

Register
(28) 1968_janeart, Blut aus Nord, Borderline1991, Darkthronefoad, ddarkthrone, dermarsoran, Evilded, Ildjarn, jorgeguldur, lawronchik, MaXL, morbidangelo, NachtWulf, olav, Ostinato, ravenous, Rosen, RUSP73, satanist666, sperminator, Storky, tont, varlam4, vasiljev_sergej, Velkaarn, wreak, zargonath, Абигор,
Jul 4 2015, 15:11:05 Sløv - Fraa Sør Til Ingensteds [demo] (2012)


*Artist: Sløv
*Album: Fraa Sør Til Ingensteds [demo]
*Year: 2012
*Genre: Black Metal
*Country: Brazil
*Format: mp3@VBR268kbps
*Size: 11MB

Tracklist:
1. Den Forbannede Som Er Forbannet 02:00
2. Altfor Sulten Paa Jakt Gud Ikke Eksisterer 02:15
3. Naar En Avgrunn Aapnet Av Brute Force Og Det Gode Gaar Inn Utryddelse 01:13
******************************
Total playing time: 5:28

[more=Extended info]Summoned inside a dungeon from January to April, 2012.

vbr from 250 to 285 Kbps[/more]

Register
(18) 1968_janeart, Darkthronefoad, Ildjarn, Moonshtook, morbidangelo, rom666, Rosen, RUSP73, satanist666, Storky, thenecromancer, tont, varg-38ru, varlam4, vasiljev_sergej, wgs73, wreak, Герб,
Jun 26 2015, 00:22:10 Ratos De Porão - No Money No English [best of/compilation] (2012)


*Artist: Ratos De Porão
*Album: No Money No English [best of/compilation]
*Year: 2012
*Genre: Thrash Metal/Crossover/Hardcore/Punk
*Country: Brazil
*Format: mp3@CBR320kbps
*Size: 186MB

Tracklist:
Disc 1
Side A
1. Reaganomics / Sad to Be (DRI cover) 02:16
2. Anti-Cristo suburbano (Turbo Negro cover) 01:50
3. Balde de água fria 03:04
4. Mi canto libre (Victor Jara cover) 04:03
5. Stone Dead Forever (Motörhead cover) 02:55
6. Igreja Universal 04:04
7. Que Vergonha (Olho Seco Cover) 01:14
Side B
8. Thaw (Septic Death cover) 01:10
9. Direito de fumar 02:53
10. Cybergenocídio (demo) 01:09
11. Tenho medo de te perder (demo) 01:52
12. Vai ficar preto (demo) 01:05
13. Bad Cake 02:20
14. Estaca zero 02:41
15. Atitude Zero 02:09
16. Arranca Toco 00:51
17. Agressão Repressão 01:30
18. Spräckta Snutskallar (Shitlickers Cover) 00:42
19. Raped Ass (Anti-Cimex Cover) 01:02

Disc 2
Side A
1. Video Macumba (demo) 02:36
2. Money (demo) 03:36
3. C.R.A.C.K. (demo) 03:29
4. Commando (Ramones cover live) 01:30
5. Amazônia nunca mais (live) 01:54
6. Novo Vietnam (live) 01:20
7. Poluição atômica (live) 00:43
8. Red Tape (Circle Jerks Cover) 02:26
9. Crianças Sem Futuro 01:12
10. Estilo De Vida Miserável (ao vivo) 00:59
Side B
11. Bad Trip (demo) 02:12
12. Diet Paranoia (demo) 03:08
13. Satanic Bullshit (demo) 03:26
14. Agressão / Repressão (live) 01:23
15. Obrigando a obedecer (live) 01:59
16. Quando ci vuole, ci vuole (Ao vivo no Hangar 110 26/02/2000) 01:52
17. John Travolta (AI-5 cover live) 01:40
18. Catholic Boys (Dead Boys Cover) 02:40
19. Olho De Gato (Olho Seco Cover) 00:56
20. Desemprego (Fogo Cruzado Cover) 01:41
******************************
Total playing time: 1:19:32

[more=Extended info]A compilation with covers, rare session tracks and live.

Released by F.O.A.D. Records as double gatefold LP including A2 poster, with 13 extra live tracks in addition to the Brazilian edition:
Side A
1. Reaganomics / Sad To Be
2. Anti-Cristo Suburbano
3. Balde De Água Fria
4. Mi canto libre
5. Stone Dead Forever
6. Igreja Universal*
7. Que Vergonha*
Side B
1. Thaw
2. Direito De Fumar
3. Cybergenocidio
4. Tenho Medo De Te Perder
5. Vai Ficar Preto
6. Bad Cake
7. Estaca Zero
8. Atitude Zero*
9. Arranca Toco*
10. Agressão Repressão*
11. Spräckta Snutskallar+
12. Raped Ass+
Side C
1. Video Macumba
2. Money
3. C.R.A.C.K.
4. Commando
5. Amazonia Nunca Mais
6. Novo Vietnam
7. Poluição Atômica
8. Red Tape*
9. Crianças Sem Futuro*
10. Estilo De Vida Miserável*
Side D
1. Bad Trip
2. Diet Paranoia
3. Satanic Bullshit
4. Agressão Repressão
5. Obrigando A Obedecer
6. Quando Ci Vuole
7. John Travolta
8. Catholic Boy+
9. Olho De Gato+
10. Desemprego+

*Live in Prague/CZ, 04/11/2004
+Live en Canal Bilbo 04/05/1995[/more]

[more=Technical info]
Input File: Ratos De Porão - 18 - \'Spräckta Snutskallar (Shitlickers) (Ao Vivo)\'.mp3
Channels : 2
Sample Rate : 44100
Precision : 16-bit
Duration : 00:00:42.91 = 1892331 samples = 3218.25 CDDA sectors
File Size : 1.84M
Bit Rate : 344k
Sample Encoding: MPEG audio (layer I, II or III)
Comments :
Title=Spräckta Snutskallar (Shitlickers) (Ao Vivo)
Artist=Ratos De PorГЈo
Album=No Money No English
Tracknumber=18/39
Year=2012

[/more]

Register
(9) ddarkthrone, gwar, morbidangelo, Paradayz, Rosen, tushkan1, varlam4, wreak, Герб,
Jun 26 2015, 00:02:35 Ratos De Porão - Demo 1982 [demo] (1982)


*Artist: Ratos De Porão
*Album: Demo 1982 [demo]
*Year: 1982
*Genre: Thrash Metal/Crossover/Hardcore/Punk
*Country: Brazil
*Format: mp3@CBR256kbps
*Size: 26MB

Tracklist:
1. Hierarquia ou anarquia 01:25
2. Brasil comunista 00:54
3. Periferia 01:08
4. Novo Vietnã 01:26
5. Parasita 00:43
6. Não, não 00:53
7. Carestia 01:00
8. Lutar 01:44
9. Destruição 01:16
10. Devemos protestar 01:28
11. Porque 01:15
12. Corrupção 01:20
******************************
Total playing time: 14:32

[more=Extended info]first official release[/more]

Register
(10) cancer1974, ddarkthrone, gwar, morbidangelo, Rosen, RunningWild_AT, tushkan1, varlam4, wreak, Герб,
Jun 25 2015, 21:14:40 Pagan Winter - Night Of Chaos [demo] (1997)
re uploaded by request

Register


Register
(5) Darkthronefoad, satanist666, Unleashed, varlam4, wgs73,
Jun 25 2015, 19:00:27 Lord Belial - Ancient Demons [best of/compilation] (2008)


*Artist: Lord Belial
*Album: Ancient Demons [best of/compilation]
*Year: 2008
*Genre: Black Metal
*Country: Sweden
*Format: mp3@CBR320kbps
*Size: 103MB

Tracklist:
1. Bleed on the Cross 03:02
2. Hellspawn 03:22
3. Grace of God 01:44
4. The Art of Dying 01:47
5. Jesus Fails 04:40
6. Malevolently Reversed 04:23
7. Maniac Madness 00:38
8. Lilith - Demonic Queen of the Black Light 04:36
9. Into the Frozen Shadows 05:36
10. Mad Redeemer 02:52
11. Satan Divine 03:59
12. The Ancient Slumber 06:15
******************************
Total playing time: 42:54

[more=Extended info]Compilation of the first two demos[/more]

[more=Technical info]
Input File: 07_Lord_Belial_Maniac_Madness.mp3
Channels : 2
Sample Rate : 44100
Precision : 16-bit
Duration : 00:00:33.21 = 1464429 samples = 2490.53 CDDA sectors
File Size : 1.40M
Bit Rate : 337k
Sample Encoding: MPEG audio (layer I, II or III)
Comments :
Title=Maniac Madness
Artist=Lord Belial
Album=Ancient Demons
Tracknumber=7
Year=2008
Genre=Metal

[/more]

Register
(30) 1968_janeart, artscald, BeerBear, blacky66, Constantinus I, craP_cillA, Darkthronefoad, ddarkthrone, dermarsoran, Hell_Is_Here, Jurmagund, kim666, kimkayoung, morbidangelo, NachtWulf, recber, Reverend, rom666, Rosen, RUSP73, satanist666, stub888, thenecromancer, tont, VadimBerkut, VALERY, varlam4, vasiljev_sergej, wreak, Герб,
Jun 25 2015, 06:52:23 Lord Belial - The Art Of Dying [demo] (1993)
re uploaded by request


Register


Register
(8) legion01, metalfanatic666, NachtWulf, RUSP73, Storky, thenecromancer, varlam4, vasiljev_sergej,

12 Pages V   1 2 3 > » 
- Lo-Fi Version Support form
Copyrights and abuse reports form
Time is now: 13th July 2020 - 12:23:49