Welcome Guest ( Log In | Register )

История благодарностей участнику Fryz ::: Спасибо сказали: 1314 раз(а)
Дата поста: В теме: За сообщение: Спасибо сказали:
Apr 14 2024, 21:32:46 Forbidden Evil - The Bloody Birth [compilation] (2015)
ЦИТАТА(Genuine Thrashiac @ Apr 15 2024, 00:25:57) *
Это не транскод - это транскодищще!

Что поделать, лучше нету smile1.gif
К тому же все оригинальные демки на кассетах, а этот мексиканский диск фиг знает что внутри содержит.
(1) Genuine Thrashiac,
Apr 14 2024, 20:26:33 Forbidden Evil - The Bloody Birth [compilation] (2015)


*Artist: Forbidden Evil
*Album: The Bloody Birth [compilation]
*Year: 2015
*Genre: Thrash Metal
*Country: United States
*Format: mp3@CBR320kbps
*Size: 153MB

Tracklist:
1. The Last Day (Intro) 00:21
2. Next to Die 02:59
3. Forbidden Evil 05:56
4. Chalice of Blood 05:12
5. As Good as Dead 04:23
6. Chalice of Blood 04:43
7. Follow Me 07:38
8. March into Fire 05:17
9. Legions of Death 03:16
10. Next to Die 03:15
11. Forbidden Evil 06:10
12. Egypt Has Fallen 03:48
13. Legions of Death (live) 03:57
14. Am I Evil (live) 06:15
15. A Lesson in Violence (live) 03:18
16. Egypt Has Fallen (live) 03:49
******************************
Total playing time: 1:10:17



[more=Extended info]Tracks 1-4: Endless Slaughter Demo
Track 5: As Good as Dead Demo
Tracks 6-8: March into Fire Demo
Tracks 9-12: 1985 Rehearsal
Tracks 13-16: 1985 Live San Francisco, CA

Не уверен, транскод это или нет, качество оставляет желать лучшего.[/more]

[more=Technical info]
Input File: 09 [Rehearsal 1985] Legions Of Death.mp3
Channels : 2
Sample Rate : 44100
Precision : 16-bit
Duration : 00:03:16.43 = 8662387 samples = 14732 CDDA sectors
File Size : 7.91M
Bit Rate : 322k
Sample Encoding: MPEG audio (layer I, II or III)
Comments :
Title=Legions Of Death
Artist=Forbidden Evil
Album=The Bloody Birth
Tracknumber=9/16
Year=2015
Genre=Metal

[/more]

Register
(9) ENDSMOUTH, lunaraurora, Proteus_666, stumpheavyrock, thenecromancer, Wail, wgs73, Xtohar, Z28517,
Apr 7 2024, 13:06:00 出雲 - 出雲 (2024)
Неплохой олдскульный и классический блэк. Без изысков, экспериментов, никакой японщины. Всё строго по канонам - звук, риффы, вокал. Вместе с тем слушается хорошо и бодро, все 30 минут выдержаны в ровном ключе. Возможно хитовости здесь ноль целых ноль десятых, но свою долю внимания заслуживает, даже если только на одну прослушку.
А я оставлю, если иногда рандомом выпадет в плейлисте - приятно удивлюсь.
(3) Daale, rimfrost, smysl,
Apr 3 2024, 22:52:45 Witch Vomit - Funeral Sanctum (2024)
На медиафайр, думается, нет смысла заливать хоть какую-то музыку, не запаролив архив - уничтожают в секунды.
А альбом ждал, на ютубе принципиально слушать не хотел.
(2) Daale, DarkHorde,
Apr 3 2024, 02:32:29 L.S.S.A.H. - ...Ruhmreich [demo] (1996)
Который раз вот переслушиваю и вот это же одна из лучших демо-работ в польском БМ за все несчастные 90е. ТОП-3 точно. 20 минут шикарного подземельного симфоблэка. Это штучный товар на вес золота.
Если бы LSSAH записали хотя бы один полноформат...
(1) canadaspaceman,
Mar 27 2024, 01:42:46 Abyssal Serenity - Shattered Reflections of Fake Person
Чисто из вежливости спросить - накира нам эта информация?
(3) AlexHellhammer1602, ent404, Victim of fate,
Mar 22 2024, 16:13:24 Воля И Разум - Воля И Разум [ep] (2024)
ЦИТАТА(Genuine Thrashiac @ Mar 21 2024, 14:42:16) *
В глубокой шахте
который год...

Выкладывал бы оригинал, зачем фейки постить?
[youtube]H6ORoWz0u6E[/youtube]
(2) Aresson, Genuine Thrashiac,
Mar 20 2024, 05:32:37 Gost - Prophecy (2024)
Ты гля, дарксинту новые названия придумывают. 15.gif
(2) Daale, Ghostb,
Mar 18 2024, 15:07:13 The Dread Crew Of Oddwood - Rust & Glory (2024)
На волне прослушки всякого разного хэви подумал почему бы это не послушать.
Ребята, почему это так беззубо? Это не пираты, это какие-то обсосы портовые, которые на плоту по канализации плавают - ни мощи, ни объема, ни драйва. Это рочок какой-то пресный из дома престарелых. Но фолковые дудки хотя бы присутствуют.
Группа из Лос-Анджелеса, серьёзно?
(2) Ghostb, Shadechaser,
Mar 18 2024, 12:18:18 Manowar - Sign Of The Hammer (1984)
ЦИТАТА(Фо @ Mar 18 2024, 11:53:02) *
Что то как то не. Первые две песни - ну, они не то, чтобы плохие, но довольно таки филёрные. Малость сыроватенькие и дурковатенькие, я бы сказал. Остальное - да, замечтательно.

Согласен, первые два трека капельку слабее всех последующих. Даже не так, они чутка другие. Сыроваты и дурковаты, да и другой Мановар на первых двух треках, другого направления.
All Men Play on 10 это про Whimps and posers leave the hall и other band play - Manowar kill. С инструменталом всё хорошо, тут текст и подача вокала подкачала. Но уже не выкинешь слов из песни, такой вот каламбур.
А Animals это про протёртые кожаные штаны на протёртом кожаном сидении харлея. Но неужели не хочется в припеве подпевать "I'm an animal, There's an animal in me, I'm gonna set it free"? Мне хочется ещё как!
Так что пусть себе эти песни выбиваются из концепции, пусть слабоваты на фоне своих товарок по альбому. Всё равно нравятся. И выключить их ни разу не захотелось.

ЦИТАТА(darkside @ Mar 18 2024, 11:54:19) *
Guilty pleasure - слушать Мановар 25.gif

♂ Ass we can♂ 28.gif
(1) Izverg,
Mar 18 2024, 00:09:27 Manowar - Sign Of The Hammer (1984)
40 лет альбому в октябре. Пипец, люди-то столько не всегда живут.
Помню мелкий был, слушал Мановар с палёного диска, купленного на ближайшем рынке, наполненного мр3 различной степени битрейтности. И перло меня с последнего альбома, который там был Warriors of the World, и почему-то первого Battle Hymns, ну и Гайану особо ценил с этого альбома. Почему первый мне нравился понятия не имею, что там подростку интересного?
А сейчас вот Sign of the Hammer считаю лучшим у Мановар вообще. Эпик полный же, ну, 8 шедевров, хоть с начала в конец слушай, хоть с конца в начало, хоть на голове стой и любой трек в любом месте включай и будет тебя плющить и колбасить, и распирать от эпичности. Мех сам собой на трусах отрастает, а в кладовке сам собой найдётся увесистый молоток.
Всё тут хорошо, каждая нота, каждый взвизг Эрика, соляки есть, бас сталью ухает. Звук нарулили зачётный, подходящий именно этим трекам.
Чего надо-то ещё для счастья?

(И извини, Battle Hymns, ты теперь второй).
(2) Ainar, Izverg,
Mar 17 2024, 20:01:50 Savage Oath - Divine Battle (2024)
ЦИТАТА(Daale @ Mar 17 2024, 22:45:12) *
Manilla Road Eternal Champion.

Ранняя Манилла очень хорошо, Этернал Чемпион мне тоже заходит, именно их и имел ввиду, когда писал про "колдунское рэтрохэви".
Ещё нравится Brocas Helm, например, The Lord Weird Slough Feg, Tales of Medusa, Starlight Ritual (там вообще чувак из Forteresse). Из нового вот очень зашли немцы Writhen Hilt (очень советую заценить Writhen Hilt - Ancient Sword Cult [ep] (2024).
А вот Визигот, Sumerlands, Megaton Sword вообще не нравятся. А какая разница между первыми и вторыми? А чёрт его знает, там только специалист разберётся где что. Как говорил Тиньков "Я так чувствую". Вот и здесь так же, вроде как бы рядом группы, но одно цепляет, а другое нет. Может дело в звуке. Не большой спец в хэви вообще, но от некоторых альбомов физически как будто ощущаешь этот вот дух эпичности.
Сложно следить за таким направлением, тем более обычно "эпик хэви" не выделяют, а конаны-варвары на обложках не гарантируют того самого под ней.
(1) Daale,
Mar 16 2024, 22:32:00 Arkona - Lvnaris (2016)
Вот звук вроде по сравнению с первыми подвальными альбомами лучше стал намного. Только вот со звуком и узнаваемость напрочь пропала, теперь неотличишь от тысячи и одной другой польской группы. А если учесть, что ещё и вокалист непонятно кто, то вообще швах, голос тоже был выделяющимся.
Нет, конечно, какие-то мелодические ходы остались узнаваемыми. Но всё равно как-то вяло. Типичный дженерик.
(1) avather,
Mar 14 2024, 19:59:36 Udåd - Udåd (2024)
Каждый раз, как вижу, что группа САМА СЕБЯ называет "тру энд реал норвегиан блэк метал" в 2024м, мать его, году, я прям физически ощущаю, как меня хотят прогреть.
(1) Bzth,
Mar 14 2024, 15:52:11 Coffret De Bijoux - T'trr​ä​e​ä​ntesstalxque (2024)
Daale,
Fugitive Wizard захотелось вдогонку навернуть, после твоих ссылок)
(1) Daale,
Mar 13 2024, 13:48:05 Rove In The Dark - Скитание Во Тьме (2024)
Очень плохо. Не музыка, а какой-то пыльный мешок с мусором, пролежавший в кладовке 30 лет - музыка, вокал, звук - всё примитивное и устаревшее, уровень говноблэка из России начала 00-х. Сжечь нафой.
(1) emp8080,
Mar 11 2024, 12:39:31 Звёздный Храм - Звёздный Храм (2024)
Хороший альбом. Сразу море ассоциаций от американских Lascowiec до Sanguine Eagle, к нашим Boreal Wind и упомянутым Stella Arja. Ну и ещё дальше уже понятно куда. И это есть хорошо.
(1) Daale,
Mar 10 2024, 10:05:56 Керста - Д​е​м​о [demo] (2024)
Стоит заметить, что демка неплохая. Не отличная, но неплохая. Есть нотки Triumphant блэка, но звук глуховат слегка. В любом случае, если наваяет что-то ещё, то послушать было бы любопытно.
(1) judaz,
Mar 9 2024, 23:31:44 Helveteskrypt - D​ø​dens Prest (2023)
ЦИТАТА(RUSP73 @ Mar 10 2024, 02:02:54) *
Впервые за долгое время порадовали норвежские команды , эта и Tordner. Прям бальзам для ушей true_black.gif

Ну чёт странный ты выбор сделал. Есть куча новых норвежских групп, которые лучше этих Helvereskrypt. Есть Blutumhang, Thale, Molde Volhal, из совсем новых Unholy Craft.
А тут как-то. Ну сыровато, достаточно мелодично, среднетемпово, данжово, референсы на 90е опять же. Но вместе с тем как-то однообразно и без идеи, хороших увлекающих риффов практически нет. Да, не самый плохой образец, но в то же время оценка "средне" - это потолок.
(1) Occultas,
Mar 8 2024, 22:11:27 Iron Firmament - Draconic Atavism [ep] (2024)
Крутейшая американская банда. Быстрые риффы, мелодизм, атмосфера - всё есть. При этом упаковано в довольно резкий и грязный звук с задвинутым ядовитым вокалом. Американское raw подполье уже неплохо так продвинулось в ковке эпичного сырющего блэка, стиль всё чётче, а крутых групп всё больше.
4й релиз менее чем за год, но это тот случай, когда количество не во вред качеству.
(1) Daale,
Mar 8 2024, 14:37:10 Witch Club Satan - Witch Club Satan (2024)
Не, феминизм сам по себе то ещё сатанинское мракобесие, но как сочетать феминизм с тем фактом, что над тобой будет доминировать и всячески сношать здоровенный мужицкий качок-козел со здоровенным ][uищщем?
(3) Chasm, Lone Reaper, RUSP73,
Mar 3 2024, 20:20:45 Wolves Of Isengard - Shemhemforash [demo] (2024)
Гля, теперь зумерблэкерки могут облоги в нейросети штамповать. Причём не особо стараясь, хотя они и по музыке не стараются.
(1) Bzth,
Mar 1 2024, 13:31:32 Aegir - Brennu​-​Nj​á​l (2024)
Серость. Если вы в бесконечном поиске новинок или безумный собиратель, то вы послушаете это один раз и забудете навсегда, а альбом будет лежать грудой бесполезных байтов на вашем носителе или серверах ютуба и бэндкампа, никому не нужный, ибо даже авторы завтра не вспомнят ни одной песни.
Всем остальным можно и нужно проходить мимо. 43 минуты можно потратить на что-то получше.
(2) isvili, Shadowlord,
Feb 29 2024, 17:00:18 Neon Odin - Allfather (2023)


*Artist: Neon Odin
*Album: Allfather
*Year: 2023
*Genre: Synthwave/Nordic Folk
*Country: Hungary
*Format: mp3@CBR320kbps
*Size: 84MB

Tracklist:
1. Ravens 02:58
2. Wield The Hammer 05:01
3. Giantess 05:31
4. 9 Days And Nights 03:08
5. March Of The Jǫtnar 05:32
6. Nordavind 05:24
7. Allfather 04:27
8. Váli's Light 03:22
******************************
Total playing time: 35:23



[more=Extended info]This is a norsewave side project of vvilderness.

Прекрасный альбом и отличный проект в целом. Synthwave таит в себе поистине широчайшие возможности для развития в любом направлении.[/more]

[more=Technical info]
Input File: 03 - Giantess.mp3
Channels : 2
Sample Rate : 44100
Precision : 16-bit
Duration : 00:05:31.67 = 14626735 samples = 24875.4 CDDA sectors
File Size : 13.3M
Bit Rate : 321k
Sample Encoding: MPEG audio (layer I, II or III)
Comments :
Title=Giantess
Artist=Neon Odin
Album=Allfather
Tracknumber=03/08
Year=2023
Genre=Synthwave/Neofolk

[/more]

Register
(11) amebix, Cartman223, Chasm, crackhead, Grev, gwar, Kwaad, Maximvs, oldvarg, Raw1488, ZA670,
Feb 29 2024, 11:58:19 Vrildom - Sigma Octantis (2021)
Классный аргентинский блэк, который вдохновлялся греческой школой. Тут сразу и Ахеронтас вспоминается, и Кавир, и Водульф. Композиции среднетемповые, длинные, медитативные, но со щепоткой триумфальности и вот этой вот хрустящей античной возвышенностью. Любителям зайдёт.
(1) Izverg,

15 Pages V   1 2 3 > » 
- Lo-Fi Version Support form
Copyrights and abuse reports form
Time is now: 16th April 2024 - 02:47:53