Welcome Guest ( Log In | Register )

История благодарностей участнику Metalass ::: Спасибо сказали: 1378 раз(а)
Дата поста: В теме: За сообщение: Спасибо сказали:
Yesterday, 23:57:42 Katatonia - City Burials (2020)
QUOTE(6666666 @ Jan 22 2021, 07:44:59) *
Дизлайк и порция плетей автору этого бреда.

Мне тож, т.к. Viva Emptiness ну рил самый слабый альбом Кататонии (НО! прикольные моменты там есть, безусловно)
(1) vosmidesijatye,
Jan 17 2021, 22:26:10 Pamatih - Violence In The Slaughter (2020)
Отнюдь не выдающийся, но на удивление добротно скроенный брутал. Обычно релизы из Индонезии в этом жанре пропускаю, их много, они брутальные, но совсем уж пустые и посредственные. А тут вполне себе держат хороший уровень, мощный кач.
(1) Occultas,
Jan 6 2021, 23:21:58 Bring Me The Horizon - Post Human: Survival Horror [ep] (2020)


*Artist: Bring Me The Horizon
*Album: Post Human: Survival Horror [ep]
*Year: 2020
*Genre: Alternative Rock/Electronic
*Country: United Kingdom
*Format: mp3@CBR320kbps
*Size: 82MB

Tracklist:
01. Dear Diary, 2:44
02. Parasite Eve 4:51
03. Teardrops 3:35
04. Obey (with YUNGBLUD) 3:40
05. Itch For The Cure (When Will We Be Free?) 1:26
06. Kingslayer (feat. BABYMETAL) 3:38
07. 1×1 (feat. Nova Twins) 3:29
08. Ludens 4:40
09. One Day The Only Butterflies Left Will Be In Your Chest As You March Towards Your Death (feat. Amy Lee) 4:03
******************************
Total playing time: 32:06

[more=Extended info][youtube]L5uV3gmOH9g[/youtube]

[youtube]racmy7Y9P4M[/youtube][/more]

[more=Technical info]
Input File: 05. Itch For The Cure (When Will We Be Free).mp3
Channels : 2
Sample Rate : 44100
Precision : 16-bit
Duration : 00:01:26.32 = 3806536 samples = 6473.7 CDDA sectors
File Size : 4.53M
Bit Rate : 420k
Sample Encoding: MPEG audio (layer I, II or III)
Comments :
Title=Itch For The Cure (When Will We Be Free?)
Artist=Bring Me The Horizon
Album=Post Human: Survival Horror
Tracknumber=05
Year=2020
Genre=20

[/more]

Register
(4) gwar, infiltrator, oldvarg, Olethros,
Jan 5 2021, 18:14:01 Azarath - Saint Desecration (2020)
QUOTE(WOLAND @ Jan 5 2021, 03:51:28) *
Не-не не обольщай и не обманывай себя друг

Мне кажется я могу обмануть только других ложными ожиданиями. Мне-то альбом по вкусу, честно smile1.gif
Упрощенно ситуация следующая - это не днище, т.к. тут хороший продакшн и опытные музыканты. Это не шедевр и не прорыв в жанре. Своего рода хороший ремесленник сделал свою работу. А дальше каждый сам решает, нужно ли слушать то, что уже 10 миллионов раз сыграно? Поэтому и разница оценок - пустышка или хорошая работа (в сущности и то и то правда). Согласен, ничего нового не привносит в жанр - значит пустышка; не послушаю - ничего не потеряю.
(1) Chasm,
Jan 5 2021, 18:00:15 Pequod - Spineless (2020)
QUOTE(DarkHorde @ Dec 15 2020, 11:38:54) *
В каком месте?

В целом во всех.
Действительно очень хорошо записанный дэт-тхрэш (а это именно он, слегка тяготеющий к мелодик дэту и шведе; а металкор, указанный на метал-архивах, не увидел). Звучит действительно мощно.
Не первый эшелон и про топ не уверен, но здесь все качественно. Желания выключить не возникает.

P.S. Тут еще и закрывашка классная, оставляющая с желанием переслушать сие творение.
(2) Andrew, Samaritianin,
Dec 31 2020, 14:41:21 Gardenjia - Egosvm (2020)
Ох и странный проект. Состав не написан, но было сразу понятно, что это one man band.
Потыкал прошлые альбомы (коих немало, учитывая то, что чувак штампует их каждый год, не забывая о доп сайд проектах). И там совсем другая музыка, какой-то около-Mechina джент.

Удивительно хорошо усвоенная форма Deathspell Omega здесь тем не менее весьма пуста в содержании. Все это звучит как в гору сваленные диссонансы. Кажется, так слышит музыку французов человек, который до конца ей не проникся и не увидел за хаосом диссонансов DSO продуманную структуру и крутейшую мелодику. На сабже довольно интересные заготовки не перерастают во что-то большее и музыкальное. При этом, есть офигенные хоры, отсылающие к Si monumentum... и в целом все звучит очень профессионально. Альбому явно не хватает выдержанности (стоило лучше проработать материал и не пихать все мало-мальски хорошие идеи, которые пришли на ум), ну и конечно разнообразия идей (единственная достойная one man банда в итоге Bathory, да и тот грешил посредственностью на последних альбомах). Жаль, потенциал есть.
(1) mirotvorets,
Dec 29 2020, 18:46:53 Horrendous - Idol (2018)
QUOTE(Dmitry1977 @ Dec 30 2020, 02:58:31) *
Первые два Tribulation сюда просто вот прямо просятся. Как те воробушки, у крайнего только лапка соскакивает.

Кстати, очень странно, всегда их ставят в один ряд, а как по мне они играют совершенно разную музыку.
(1) Samaritianin,
Dec 29 2020, 16:59:12 Horrendous - Idol (2018)
В комментах к прошлому альбому выразил опасение, что до конца не понять мне Horrendous и Morbus Chron. Но час настал и я узрел.
Несколько месяцев с разной периодичностью наслаждаюсь Morbus Chron, Sweven и Horrendous, все альбомы прекраснейши без исключения.

При первом прослушивании данного альбома словил множество невероятных оргазмов. К моему сожалению последующие прослушки не вызвали таких же ощущений, но буду еще гонять, т.к. очевидно дело во мне, а альбом гениален smile1.gif
(1) Samaritianin,
Dec 29 2020, 15:35:48 Soulburn - Noa's D'ark (2020)
QUOTE(WOLAND @ Dec 29 2020, 05:00:48) *
Опять не хочется сбивать волну ,но реально же полная вторичность ,кроме первой представленной песни до альбома .

В целом верно. Ничего нового на этом альбоме не делают. Художественная ценность близка к нулю. А дальше уже оценка зависит от того, насколько соскучился/любишь такой нидерландский сырой олд.
(1) WOLAND,
Dec 25 2020, 02:10:49 Psycroptic - The Watcher Of All [ep] (2020)
Какой-то непонятный двухпесенный огрызок. Классная облога, и стилистически вроде ближе к тому, что было на прошлом альбоме.
Непонятно, зачем оно нужно, но второй трэк имеет довольно интересные атмосферные куски, больше такого было бы очень хорошо.
(1) Ghostb,
Dec 24 2020, 17:42:33 Napalm Death - Throes Of Joy In The Jaws Of Defeatism (2020)
Вроде напалмы как напалмы. Последнее время не особо их понимаю, но не скажу, что плохой альбом. И клипы сняты на самые конечно плохие песни.
(2) infiltrator, Konungr,
Dec 23 2020, 12:46:21 Ecchymosis - Ritualistic Intercourse Within Abject Surrealism (2020)
QUOTE(Merkator @ Dec 23 2020, 13:57:47) *
ну такое....
Достаточно стандартная брутоль-детовская тошниловка.
Тот же Putrescent Seepage, например, в этом году выпустил альбом не в пример музыкальней, если, канешн, такие определения подходят к таком стилю...

Согласен, Putrescent Seepage поинтереснее, но тут валево с прикольной колотушкой, другая концепция smile1.gif
(1) Occultas,
Dec 21 2020, 14:38:33 Hyperdontia - Excavations [ep] (2020)
Весьма ненужный релиз, а я было обрадовался
(1) Storky,
Dec 15 2020, 13:11:14 Profanity - Fragments Of Solace (2020)
Да, добротный альбом. Все по канонам. Ничего сверхъестественного, но в жанре выходит не так много хороших вещей. А данный альбом как-то обделен вниманием.
Довольно интересная закрученная структура песен, которая часто состоит из головного риффа, который регулярно прерывается на середине. По большому счету, это как история, рассказанная с многочисленными флэшбэками, если смонтировать в другом порядке, будет все прямолинейно и просто. Поэтому в целом на выходе получается на самом деле сложности в структурах-то и нет.

Слушаю ребят в первый раз, больше показались похожими на Deadborn, т.к. тоже немцы и есть у них какие-то общие характерные черты. Хотя по духу еще можно сказать похожи на Decrepit Birth, но менее мелодичные.

Некоторый кусок альбома обсуждал со своим учителем по гитаре, который не особо в дэт-металл (от слова совсем) и он сказал, что "Впечатление такое как будто мне голову выворачивают наизнанку". Собственно, отличный отзыв на альбом.
(2) as71, StabWound,
Dec 8 2020, 21:10:53 Warfect - Spectre Of Devastation (2020)
По сути идеально сыгранный и записанный тхрэш. Именно канонический, хлесткий, с плотнейшей риффовкой. По подаче и звуку почему-то местами напомнили поздний Immortal (действительно трэшак приблэкованный, как отмечалось выше).

По материалу также все в полном порядке. Шведы могут!

Кстати, что касается сравнения с Harlott, то пожалуй лучше, но все же австралийцы несколько иначе играют, и своя прелесть там тоже есть.

В общем, просто шикарный релиз.
(1) Samaritianin,
Dec 2 2020, 16:41:45 Leaves' Eyes - The Last Viking (2020)
На самом деле довольно неплохая работа, как и прошлая. Вокал не сильно блещет, но возможно виноват материал. Лив вполне могла спасти ситуацию, т.к. возможно не позволила бы так задвинуть свой войс. Но мы никогда не узнаем smile1.gif

Вокал Крула почему-то дико раздражает, в трэках где он молчит, прям вообще благодать.

Ну и в целом хорошие моменты есть, но альбом совершенно опциональный для прослушивания.
(1) Bloodn Lord,
Nov 16 2020, 16:52:02 Shattered Hope - Vespers (2020)
Альбом, конечно, очень хороший.

Кстати, "психодел" в первой части очень в кассу. Более мрачный, почти Evoken-овский, нагнетает, чтобы потом взорваться мелодичной Towards the land of Deception. Разве не по такому лекалу созданы ранние альбомы MDB, где длинные песни содержат довольно примитивные часто какие-то некомфортные риффы, которые потом перерастают в яркую мелодию, от чего эффект лишь усиливается.

Эти парни знают как сделать отличный дум, в этом сомнений нет. Звук кстати также заслуживается (отдельных) похвал.
Слушается на одном дыхании, множество раз.
(1) Bloodn Lord,
Nov 14 2020, 14:06:27 Revulsion - Revulsion (2021)
Никогда такого не было, и вот - опять!
(1) Лицемер,
Nov 12 2020, 22:18:10 Amenra - Mass VI (2017)
Register
(2) amirhossien1371, Ingvar,
Nov 12 2020, 11:53:52 Countless Skies - Glow (2020)
Че-то все так прям засрaли альбус, а мне прям что-то аж оооочень понравилось. Прям каждый день с удовольствием первым дело слушаю.

По первости, показалось, что это провал, звук гитар больно сухой. Но дело тут в прогрессивности (Максим сказал бы, излишней), пришлось вкуривать. Впрочем опус в трех частях Glow сразу же понравился, т.к. ну он прям очень крутой.

В большей степени это припрогленный Omnium Gatherum, слушать нужно будучи в настроении, готовом, что тут будет не рубилово, а атмосферные запилы под меланхоличную пианинку.

Один недостаток отмечу - слушается на одном дыхании, отчего 44 минуты пролетают словно миг. Не отказался бы от бонусов, чтобы добить хотя бы до 50 минут, редко такое случается, что говорю такое, но альбому не хватает продолжительности.

P.S. Ах да, еще вокал может показаться по началу пососным (особенно чистый), но я привык и мне нра
(2) Bloodn Lord, MeatWolf,
Nov 11 2020, 12:40:44 Counting Hours - The Will (2020)
Да, Katatonia в полный рост, для меня даже слышны отголоски Discouraged Ones (тем более присутствует чистый вокал), плюс свои вкрапления.
Альбом слушается на одном дыхании, выключить не хочется ни на секунду, наоборот не отпускает от слова совсем, погружает в меланхолию и скребет осенью по душе.
Застрянет в плеере надолго.
(4) bc_, Bloodn Lord, MeatWolf, Stutthof,
Nov 7 2020, 23:10:51 Slow Fall - Beneath The Endless Rains (2020)
Добротный мелодэт, пары прослушек однозначно заслуживает, местами прям ух, хорошие мелодии. Все качественно исполнено и записано, с приятным звуком.
(1) wwwgnom,
Nov 6 2020, 22:21:04 Melrose - Wasted On You [single] (2014)


*Artist: Melrose
*Album: Wasted On You [single]
*Year: 2014
*Genre: Progressive Metal
*Country: United States
*Format: mp3@CBR320kbps
*Size: 8MB

Tracklist:
1. Wasted on You 04:06
******************************
Total playing time: 4:06



[more=Technical info]
Input File: 01 - Wasted on You.mp3
Channels : 2
Sample Rate : 44100
Precision : 16-bit
Duration : 00:04:06.36 = 10864476 samples = 18477 CDDA sectors
File Size : 8.34M
Bit Rate : 271k
Sample Encoding: MPEG audio (layer I, II or III)
Comments :
Title=Wasted on You
Artist=Melrose
Album=Wasted on You (Single)
Tracknumber=1
Year=2014

[/more]

Register
(12) after21allD, chipsgott, infiltrator, loicv70, Old Vyaine, Olethros, Reverend, Rosen, Shadowman, varlam4, wreak, Yngwarr,
Nov 6 2020, 22:17:46 Melrose - Hypnotized [ep] (2014)


*Artist: Melrose
*Album: Hypnotized [ep]
*Year: 2014
*Genre: Progressive Metal
*Country: United States
*Format: mp3@CBR320kbps
*Size: 38MB

Tracklist:
1. If I... 03:29
2. Hypnotized 03:25
3. Nothing Lasts Forever 03:57
4. All Fall Down 04:13
5. Hurricane 03:22
******************************
Total playing time: 18:26



[more=Extended info]Written by members of Mechina: Melissa Rosenberg and Joe Tiberi[/more]

[more=Technical info]
Input File: 05 - Hurricane.mp3
Channels : 2
Sample Rate : 44100
Precision : 16-bit
Duration : 00:03:22.63 = 8936027 samples = 15197.3 CDDA sectors
File Size : 7.17M
Bit Rate : 283k
Sample Encoding: MPEG audio (layer I, II or III)
Comments :
Title=Hurricane
Artist=Melrose
Album=hypnotized EP
Tracknumber=5
Year=2014

[/more]

Register
(12) Bloodn Lord, chipsgott, infiltrator, loicv70, Old Vyaine, Olethros, Reverend, Rosen, stumpheavyrock, varlam4, wreak, Yngwarr,
Nov 2 2020, 21:45:22 Melrose - Unconditional (2020)
QUOTE(Old Vyaine @ Nov 3 2020, 04:16:24) *
Вот это звучит гораздо живее:

[youtube]vIKhHYa3qLo[/youtube]

Ух. Данная песня наглядно показывает насколько Mechina на порядок мощнее (с зубодробильными драмсами, раскатистыми оркестровками, тяжелыми гитарами, и просто отличным материалом) представленного на сабже.
(1) Shadowman,

28 Pages V   1 2 3 > » 
- Lo-Fi Version Support form
Copyrights and abuse reports form
Time is now: 25th January 2021 - 17:49:16