Welcome Guest ( Log In | Register )

Объявления

* gmail.com упорно продолжает считать почту с нас "unsolicited" и отбивает в том числе и письма активации, поэтому просьба использовать альтернативные почтовые ящики.
------------
* gmail.com continues reject all mail from us as "unsolicited" (activation mails too) therefore please use alternate mail servers.
История благодарностей участнику Metalass ::: Спасибо сказали: 1942 раз(а)
Дата поста: В теме: За сообщение: Спасибо сказали:
Nov 15 2023, 10:24:20 Insomnium - Anno 1696 (2023)
QUOTE(mittal @ Nov 15 2023, 08:49:26) *
До сих пор ни разу не слышал эту группу, хотя знаю давно. Это потому что каждый раз пишут плохие отзывы. И тем не менее, каждый последующий раз активно обсуждают.
Как это работает?

Легко. Контркультура - это тренд на металареи. Если группа крутая и популярная, человек почему-то начинает себя чувствовать лучше, если зайдет в тему и выскажет свое негативное мнение. В идеале еще добавить что другая группа в жанре (которая менее популярная, и скорее всего пишет гораздо более слабый материал) гораздо лучше.
Металлисты и без того элитисты. А тут еще и в рамках жанра можно показать свою изысканность, что мол я не быдло, восхищающееся тем, что всем нравится; я разбираюсь в музыке, а большинство - нет.

Впрочем, безусловно есть и те, кто искренне не понимают, чем группа заслужила внимание, так как музыка их им не близка.

P.S. Объективные оценки популярных альбомов лучше смотреть начиная со второй-третьей страницы всегда. Сначала в основной массе своей набегают элитисты и дикие фанаты, их оценки не будут зависеть от качества альбома вообще совсем.
(3) Lucifer, mirotvorets, Old Vyaine,
Nov 13 2023, 14:20:35 Insomnium - Anno 1696 (2023)
Надежд мало было на то, что зайдет. При этом, прошлый очень даже понравился, но слабо верю я в Insomnium, казалось, что топчутся на месте со времен первых альбомов, выдавая одно и то же.
Однако, почему-то очень хорошо зашло, каждая прослушка проходила замечательно. Может потому что МДМ мало слушаю, а банда - одна из лучших в жанре. Даже как-то жаль, что не смог попасть на их концерт ввиду солд-аута.
(1) mirotvorets,
Nov 7 2023, 16:14:45 Lorna Shore - Pain Remains (2022)
Шикарная реца от 6666666 все раскладывает по полочкам относительно этого релиза.

Первый прогон мне показалось, что все прям совсем плохо, но закрывашка заставила вернуться снова и снова.
Альбом не предоставил ничего нового по сравнению с ипихой, и эти брэйки ради брэйки - курам на смех. Самая бессмысленная часть их музыки, ни одного запоминающегося. Зачем они их пихают в таких количествах - не ясно.

В целом потом альбом пришелся по вкусу, но также и довольно быстро приелся, многовато филлеров и слабоватых песен.

Живое выступление - очень хорошо, подтянули уровень по сравнению с выступлением, которое я посещал, кажется год назад. Тогда не было слышно ничего кроме ударки, а сейчас звук на концертах очень хорошо отстроен.
(1) BleedingSun,
Oct 23 2023, 12:51:10 Code - Hunting For Caesar [single] (2023)
Всегда с нетерпением жду новья от них. Сингл весьма многообещающ - на нем есть все, за что люблю группу. Стилистика в вене последнего альбома.
(1) yuratroll,
Oct 9 2023, 16:34:51 Paroxysm Unit - Promo 2021 [demo] (2021)
В целом на альбоме оба трэка в таком же виде. Достойное промо для ознакомления.
(1) Occultas,
Sep 22 2023, 11:31:18 Disentomb - Broken Under Your Symbol Of Atonement [single] (2021)
Черт, а меня этот трэк дичайше распер. Еще более Ulcerate-ово, чем их альбом.
Есть огрехи в звуке, суховат, но в остальном, бомбически!
(1) Occultas,
Sep 21 2023, 16:20:44 Disentomb - The Decaying Light (2019)
Потрясающий релиз!

Сначала немного дизориентировал тем, что первый трэк настраивал на музыку очень в духе Ulcerate чему я был несказанно рад, тем более в интерпретации австралийцев это звучит чертовски убедительно.
Однако, даже при том, что дальше все развивается в ином русле, это ураганное поливалово не может оставить равнодушным. Жаль, таких грамотных работ не так много smile2.gif
(1) Occultas,
Sep 21 2023, 12:57:08 Horrendous - Ontological Mysterium (2023)
QUOTE(mightynorth @ Aug 17 2023, 05:19:01) *
SeasonOfMist подписывает всякую бесталанную гадость из года в год. Кому то может и понравиться.

Винил был заказан сразу после анонса его издания, так что да, кто-то - это я.
Интересно, кто же тогда таланный, если эти парняги нет?

Данный бэнд совместно с Morbus Chron (и может Blood Incantation) считаю гениальнейшими переосмыслителями олдскула. В начале своего пути еще такими были Tribulation, но слишком свернули в готику.

Собственно, альбом буду слушать бесчисленную кучу раз, и потом буду делать выводы.
(1) metaljosue,
Sep 20 2023, 12:06:47 Architects - For Those That Wish To Exist (2021)
QUOTE(Bloodn Lord @ Sep 20 2023, 07:31:06) *
Плюсану.
Но Энималс и ИмпЕрмененс переслушиваю регулярно.
Два трека такого уровня хитовости - уже немало для СД.

PS: след. альбом, кстати, для меня просто минус.

И да, что уж греха таить: All Our Gods Have Abandoned Us и Лост Форева/Лост Тугеза в сердечке навечно. Лучше уже не будет. Наверное.

Абсолютно согласен с каждым утверждением.
Вокальные партии в Impermanence всегда просто невероятно вставляют. Простой но невероятно хитовый риф Animals - потрясающе заходит.

И да, самым любимым, видимо, навсегда останется All Our Gods Have Abandoned Us вместе с Lost Forever // Lost Together. Сложно представить, что они напишут нечто настолько же атмосферное.
(1) Bloodn Lord,
Sep 19 2023, 12:40:21 Paroxysm Unit - Fragmentation ∕∕ Stratagem (2023)
Альбом реально пушка. В топе года от жанра может оказаться легко.
(1) Occultas,
Sep 17 2023, 15:51:28 Sleep Token - Two [ep] (2017)


*Artist: Sleep Token
*Album: Two [ep]
*Year: 2017
*Genre: Progressive/Alternative Metal
*Country: United Kingdom
*Format: mp3@CBR320kbps
*Size: 46MB

Tracklist:
1. Calcutta 06:53
2. Nazareth 05:36
3. Jericho 05:44
******************************
Total playing time: 18:13




[more=Extended info]Скачано с бэндкампа[/more]

[more=Technical info]
Input File: Sleep Token - Two - 02 Nazareth.mp3
Channels : 2
Sample Rate : 44100
Precision : 16-bit
Duration : 00:05:36.92 = 14858128 samples = 25268.9 CDDA sectors
File Size : 13.8M
Bit Rate : 327k
Sample Encoding: MPEG audio (layer I, II or III)
Comments :
Title=Nazareth
Artist=Sleep Token
Album=Two
Tracknumber=2
Year=2017

[/more]

Register
(5) artscald, Dante_D, grindfucker, gwar, kimkayoung,
Sep 17 2023, 15:46:53 Sleep Token - One [ep] (2016)


*Artist: Sleep Token
*Album: One [ep]
*Year: 2016
*Genre: Progressive/Alternative Metal
*Country: United Kingdom
*Format: mp3@CBR320kbps
*Size: 77MB

Tracklist:
1. Thread The Needle 06:36
2. Fields Of Elation 04:36
3. When The Bough Breaks 07:38
4. Thread The Needle (Piano) 03:56
5. Fields Of Elation (Piano) 03:34
6. When The Bough Breaks (Piano) 05:00
******************************
Total playing time: 31:20



[more=Extended info]Скачано с бэндкампа[/more]

[more=Technical info]
Input File: Sleep Token - One - 05 Fields Of Elation (Piano).mp3
Channels : 2
Sample Rate : 44100
Precision : 16-bit
Duration : 00:03:34.09 = 9441149 samples = 16056.4 CDDA sectors
File Size : 8.63M
Bit Rate : 322k
Sample Encoding: MPEG audio (layer I, II or III)
Comments :
Title=Fields Of Elation (Piano)
Artist=Sleep Token
Album=One
Tracknumber=5
Year=2016

[/more]

Register
(5) artscald, Dante_D, grindfucker, gwar, kimkayoung,
Sep 6 2023, 12:16:41 Severe Torture - Fisting The Sockets [ep] (2022)
Начиная с 2005 года группа сделала крен в сторону небрутального дэта. Собственно сам 2005ый мне очень зашел из-за влияния Morbid Angel / Hate Eternal. Далее последовал довольно опциональный Sworn Vengeance и Slaughtered (который я дико захейтил в свое время, хотя сейчас понимаю, что это весьма крепкий дэт металл, хоть и почти всегда под конец его прослушивания начинаю скучать).

Ипиха продолжает дело Slaughtered. Это хороший дэт и хорошо, что он существует. Даже если не такой шедевральный и мозгодробильный как первые две работы группы, в любом случае подобные релизы радуют сердце дэтомана. Группа талантливая, с отличными гитаристами, которые вживую рубят убойнейше.
(1) Chasm,
Sep 4 2023, 20:05:24 ...And Oceans - As In Gardens, So In Tombs (2023)
Финальный вердикт после многократного прослушивания винила и посещения концерта - альбом отличнейший.
Есть некоторые вопросу к звуку, что все несколько сливается в кучу, но можно с уверенностью сказать, что это примерно то, что хотели музыканты, стена звука. Альбом A.M.G.O.D. доказал, что если захотят продакшн с более отстроенными инструментами, то сделают.

Все прошлые альбомы в свое время были заслушаны до дыр, включая и новый после реюниона. На концерте в начале некоторых песен мне сложновато было вспомнить с какого альбома этот трэк. Для меня это знак, что новый альбом отлично вписался в плеяду отличных работ коллектива, все выдержано абсолютно в их стиле.
Я очень люблю их довольно уникальную мелодику, поэтому для меня эта банда всегда занимает особое место.

Жаль, что группа так чертовски недооценена (сужу по количеству пришедших посмотреть на ребят вживую). Особенно учитывая то, что играли отлично, местами даже потрясающе. Гитаристы не фальшивят и рубят чертовски добротно. Драммер - машина, вокилзы - на месте, бас - прошибает нечеловечески.
(2) Hexenmeister, Occultas,
Sep 4 2023, 11:58:06 Devangelic - Xul (2023)
Альбом мне зашел. Лейбл, судя по всему, в группу тоже верит, и клип сняли недурной, и в тур поехали. Не большой фанат египетской темы в исполнении Nile, здесь же вполне все симпатично. Медленные куски особо хороши, а уж когда они перетекают в ускоренные, как на лучшей здесь песне Sirius, Draconis, Capricornus, так и вовсе красотища. Слушается весьма нескучно. Есть некоторые вопросы к звуку, особенно звучание ударных лично для меня спорное, но в остальном достойная работа.
(1) Occultas,
Sep 2 2023, 17:08:05 Bad Omens - Finding God Before God Finds Me (2019)


*Artist: Bad Omens
*Album: Finding God Before God Finds Me
*Year: 2019
*Genre: Metalcore
*Country: United States
*Format: mp3@CBR320kbps
*Size: 124MB

Tracklist:
01. Kingdom of Cards 04:21
02. Running in Circles 03:56
03. Careful What You Wish For 04:32
04. The Hell I Overcame 03:34
05. Dethrone 03:29
06. Blood 03:50
07. Mercy 05:17
08. Said & Done 03:24
09. Burning Out 04:25
10. If I’m There 05:21
11. Never Know 03:33
12. Limits 03:27
13. Come Undone (Duran Duran Cover) 04:21
******************************
Total playing time: 53:30

Preview 1
Preview 2
Preview 3

[more=Extended info]Deluxe edition, издание 2020 года
Стянуто с интернетов[/more]

[more=Technical info]
Input File: 08. Said & Done.mp3
Channels : 2
Sample Rate : 44100
Precision : 16-bit
Duration : 00:03:24.95 = 9038075 samples = 15370.9 CDDA sectors
File Size : 8.26M
Bit Rate : 323k
Sample Encoding: MPEG audio (layer I, II or III)
Comments :
Title=Said & Done
Artist=Bad Omens
Album=Finding God Before God Finds Me (Deluxe)
Tracknumber=08
Year=2020
Genre=Post-Hardcore / Alt.Rock

[/more]

Register
(5) artscald, blackestdesire, infozahist, Weikai, wreak,
Sep 2 2023, 17:00:53 Bad Omens - Bad Omens (2016)


*Artist: Bad Omens
*Album: Bad Omens
*Year: 2016
*Genre: Metalcore
*Country: United States
*Format: mp3@CBR320kbps
*Size: 101MB

Tracklist:
1. Glass Houses 4:00
2. Exit Wounds 3:26
3. The Worst In Me 3:49
4. F E R A L 4:05
5. Enough, Enough Now 4:05
6. Malice 3:00
7. Hedonist 2:07
8. Broken Youth 3:14
9. Crawl 4:07
10. The Letdown 4:06
11. Reprise (The Sound Of The End) 3:21
12. The Fountain 3:59
******************************
Total playing time: 43:19

Preview 1
Preview 2

[more=Extended info]Стянуто с интернетов[/more]

[more=Technical info]
Input File: 07. Hedonist.mp3
Channels : 2
Sample Rate : 44100
Precision : 16-bit
Duration : 00:02:07.59 = 5626807 samples = 9569.4 CDDA sectors
File Size : 5.40M
Bit Rate : 339k
Sample Encoding: MPEG audio (layer I, II or III)
Comments :
Title=Hedonist
Artist=Bad Omens
Album=Bad Omens
Tracknumber=07
Year=2016
Genre=Post-Hardcore / Alt.Rock

[/more]

Register
(6) artscald, blackestdesire, infozahist, Weikai, wreak, zhol,
Aug 16 2023, 15:10:33 Bloodywood - Rakshak (2022)
Отличная банда. Согласен, что микс довольно уникальный, мне как-то сложновато вспомнить хоть кого-то играющего в похожем ключе.
Пришлось по душе в целом все, коллега-индус сказал, что тексты (та часть, что на Хинди) дико годные.
Вживую также жгли отменно, предлагая публике пропеть простые куски на Хинди и куски по-сложнее smile1.gif (играли на разогреве у Gojira)
(1) Nerevar,
Aug 15 2023, 15:14:39 Bell Witch - Future's Shadow Part 1: The Clandestine Gate (2023)
С творчеством коллектива до коллаборации 2020 года не знаком. Послушал альбом 2 раза, и он отличный, лично мне в нем все понравилось, атмосфера, материал, исполнение.
Вживую в рамках Stygian Bough звучали потрясающе. Тянуть так ноты не так легко как кажется, и у них это получается волшебно. Хочу посетить и их сольный концерт, чтобы закрепить впечатление. Сомнений нет, что будет так же прекрасно.
По мне так чуть ли не эталонный фунерал.
(1) Chasm,
Aug 11 2023, 13:54:31 Architects - For Those That Wish To Exist (2021)
Противоречивые чувства у меня к этому альбому.
Отход от старого стиля не является чем-то плохим, но прежний Архитектс был очень крут, поэтому в целом хорошего мало.
Альбом очень продолжительный и откровенно немало лишних песен, что портит общее впечатление. С другой стороны здесь полно хитов, возможно даже самых хитовых песен группы, Impermanence (партии Винстона вообще отвал башки), Animals. А вот например клиповая песня Black Lungs, которую играют на всех концертах, при первом же прослушивании удивила примитивным, в лоб, текстом, и в целом она какая-то уж очень банальная.
Как следствие альбом хороший в целом, но далеко не мой любимый, возвращаюсь к нему с неохотой.
(1) Bloodn Lord,
Jul 20 2023, 14:51:40 Immortal - War Against All (2023)
Ценность данного альбома для меня заключается лишь в том, что я осознал, что Northern Chaos Gods был не так плох, еще есть куда падать.

Потуги Демоназа мне совсем не по душе, здесь так и вовсе превратилось в one man band. Безусловно, это надругательство над именем. Музыкально он также не предлагает ничего нового. Я не ожидаю от иммортал какого-то значительного развития, но вариативность в музыке всегда присутствовала от альбома к альбому. В этом плане хоть музыка Abbath-а и не является "моей", предлагает гораздо больше, и звучит интереснее.
Ну и если даже по поводу материала может возникнуть желание послушать более трушного Демоназа, гитарист он слабый, и звучит все довольно неубедительно. Аббат же, если постарается, играет как зверь. В последний раз когда его видел живьем (и когда он не проходил через фазу проблем с алкашкой), он просто рвал, и играл новые и старые песни именно так, как я мечтал услышать, когда только познакомился со ставшей для меня любимой группой Immortal.

Ни то, чтобы альбом прям дно, на пятом круге под хорошее настроение он слушается норм, но смысла в нем нет совсем.
(3) Froze, FullofHate, sabr,
Jul 18 2023, 13:04:27 Ingested - Ashes Lie Still (2022)
В целом норм, вполне в духе группы. Хорошо раскачивают вживую, слушать альбомы нравится только под настроение.
(1) Occultas,
Jul 14 2023, 13:26:51 Loathe - I Let It In And It Took Everything (2020)
QUOTE(BleedingSun @ Jul 13 2023, 00:27:49) *
Ок, заценю,как раз искал их - в теме Sleep Token их Daale упомянул, заценю. Хоть я не фанатею по металкору, но знаю, что интересные вещи практически в любом поджанре присутствуют.

Металкор тут кстати весьма условен. Что конкретно играют, не решился бы назвать. Поставил металкор чисто чтобы хоть как-то назвать, что-то хотя бы отдаленно характеризующее группу.
(1) BleedingSun,
Jul 12 2023, 16:44:31 Ingested - Call Of The Void [ep] (2019)
У ребят всегда присутствовали один-два атмосферных трэка, но здешний Eternal Kingdoms прям аж удивил, проникновенный, отличное отклонение от слэм курса; слэм тут, к слову, также на месте. Отличная ипишка
(1) Occultas,
Jul 12 2023, 10:38:19 Loathe - I Let It In And It Took Everything (2020)
Потрясающий релиз, очень разнообразный, атмосферный, и качевый, многослойный. Продолжение и усложнение идей прошлого. Обязателен для ознакомления, я считаю.
(1) BleedingSun,

37 Pages V  < 1 2 3 4 > » 
- Lo-Fi Version Support form
Copyrights and abuse reports form
Time is now: 28th May 2024 - 01:24:11