Welcome Guest ( Log In | Register )

Объявления

* gmail.com упорно продолжает считать почту с нас "unsolicited" и отбивает в том числе и письма активации, поэтому просьба использовать альтернативные почтовые ящики.
------------
* gmail.com continues reject all mail from us as "unsolicited" (activation mails too) therefore please use alternate mail servers.
История благодарностей участнику Metalass ::: Спасибо сказали: 1952 раз(а)
Дата поста: В теме: За сообщение: Спасибо сказали:
Jul 20 2023, 14:51:40 Immortal - War Against All (2023)
Ценность данного альбома для меня заключается лишь в том, что я осознал, что Northern Chaos Gods был не так плох, еще есть куда падать.

Потуги Демоназа мне совсем не по душе, здесь так и вовсе превратилось в one man band. Безусловно, это надругательство над именем. Музыкально он также не предлагает ничего нового. Я не ожидаю от иммортал какого-то значительного развития, но вариативность в музыке всегда присутствовала от альбома к альбому. В этом плане хоть музыка Abbath-а и не является "моей", предлагает гораздо больше, и звучит интереснее.
Ну и если даже по поводу материала может возникнуть желание послушать более трушного Демоназа, гитарист он слабый, и звучит все довольно неубедительно. Аббат же, если постарается, играет как зверь. В последний раз когда его видел живьем (и когда он не проходил через фазу проблем с алкашкой), он просто рвал, и играл новые и старые песни именно так, как я мечтал услышать, когда только познакомился со ставшей для меня любимой группой Immortal.

Ни то, чтобы альбом прям дно, на пятом круге под хорошее настроение он слушается норм, но смысла в нем нет совсем.
(3) Froze, FullofHate, sabr,
Jul 18 2023, 13:04:27 Ingested - Ashes Lie Still (2022)
В целом норм, вполне в духе группы. Хорошо раскачивают вживую, слушать альбомы нравится только под настроение.
(1) Occultas,
Jul 14 2023, 13:26:51 Loathe - I Let It In And It Took Everything (2020)
QUOTE(BleedingSun @ Jul 13 2023, 00:27:49) *
Ок, заценю,как раз искал их - в теме Sleep Token их Daale упомянул, заценю. Хоть я не фанатею по металкору, но знаю, что интересные вещи практически в любом поджанре присутствуют.

Металкор тут кстати весьма условен. Что конкретно играют, не решился бы назвать. Поставил металкор чисто чтобы хоть как-то назвать, что-то хотя бы отдаленно характеризующее группу.
(1) BleedingSun,
Jul 12 2023, 16:44:31 Ingested - Call Of The Void [ep] (2019)
У ребят всегда присутствовали один-два атмосферных трэка, но здешний Eternal Kingdoms прям аж удивил, проникновенный, отличное отклонение от слэм курса; слэм тут, к слову, также на месте. Отличная ипишка
(1) Occultas,
Jul 12 2023, 10:38:19 Loathe - I Let It In And It Took Everything (2020)
Потрясающий релиз, очень разнообразный, атмосферный, и качевый, многослойный. Продолжение и усложнение идей прошлого. Обязателен для ознакомления, я считаю.
(1) BleedingSun,
Jul 5 2023, 16:32:50 Loathe - The Things They Believe (2021)


*Artist: Loathe
*Album: The Things They Believe
*Year: 2021
*Genre: Ambient
*Country: United Kingdom
*Format: mp3@CBR320kbps
*Size: 82MB

Tracklist:
01. The Things They Believe 02:04
02. Don't Get Hurt 03:20
03. "Do You - 00:32
04. Love in Real Time 02:08
05. The Year Everything and Nothing Happened 02:33
06. - Remember - 01:28
07. You Never Came Back 03:59
08. Black Marble 03:33
09. Keep Fighting the Good Fight 09:00
10. Perpetual Sunday Evening 02:22
11. - The Moment?" 00:56
12. The Rain Outside... 03:46
******************************
Total playing time: 35:41



[more=Extended info]Рип не мой

[youtube]lgsu5THtjeU[/youtube][/more]

[more=Technical info]
Input File: 10 Perpetual Sunday Evening.mp3
Channels : 2
Sample Rate : 44100
Precision : 16-bit
Duration : 00:02:21.57 = 6243149 samples = 10617.6 CDDA sectors
File Size : 5.72M
Bit Rate : 323k
Sample Encoding: MPEG audio (layer I, II or III)
Comments :
Title=Perpetual Sunday Evening
Artist=Loathe
Album=The Things They Believe
Tracknumber=10/12
Year=2021
Genre=ambient / drone
Discnumber=1/1

[/more]

Register
(2) Diflock, veselchak_u,
Jul 2 2023, 20:30:38 InVisions - Deadlock (2022)


*Artist: InVisions
*Album: Deadlock
*Year: 2022
*Genre: Post-Hardcore/Metalcore
*Country: United Kingdom
*Format: mp3@CBR320kbps
*Size: 94MB

Tracklist:
01. The 6 6 9 04:32
02. Half Life 03:59
03. Annihilist 04:10
04. D V P E 03:10
05. Hindsight 03:55
06. Deadlock 04:15
07. Last Light 03:58
08. Amour 03:09
09. D E A L E R 03:49
10. Inertia 01:40
11. Fall with Me 04:25
******************************
Total playing time: 41:02




[more=Extended info]Рип не мой
По музыке сместь Architects и Monuments со своими приколами.[/more]

[more=Technical info]
Input File: 08. Amour.mp3
Channels : 2
Sample Rate : 44100
Precision : 16-bit
Duration : 00:03:09.19 = 8343367 samples = 14189.4 CDDA sectors
File Size : 7.58M
Bit Rate : 321k
Sample Encoding: MPEG audio (layer I, II or III)
Comments :
Title=Amour
Artist=InVisions
Album=Deadlock
Tracknumber=8/11
Year=2022
Discnumber=1/1

[/more]

Register
(2) Emhyr var Emreis, ZamanFu,
Jul 2 2023, 20:22:18 Bad Omens - The Death Of Peace Of Mind (2022)


*Artist: Bad Omens
*Album: The Death Of Peace Of Mind
*Year: 2022
*Genre: Modern Metal/Metalcore
*Country: United States
*Format: mp3@CBR320kbps
*Size: 122MB

Tracklist:
1. Concrete Jungle 3:40
2. Nowhere to Go 4:06
3. Take Me First 3:19
4. The Death of Peace of Mind 4:01
5. What It Cost 1:43
6. Like a Villain 3:30
7. Bad Decisions 4:21
8. Just Pretend 3:24
9. The Grey 4:06
10. Who Are You? 3:37
11. Somebody Else. 3:56
12. IDWT$ 3:22
13. What Do You Want from Me? 2:55
14. Artificial Suicide 3:15
15. Miracle 3:45
******************************
Total playing time: 53:00





[more=Extended info]Рип не мой[/more]

[more=Technical info]
Input File: 14 - ARTIFICIAL SUICIDE.mp3
Channels : 2
Sample Rate : 44100
Precision : 16-bit
Duration : 00:03:15.07 = 8602587 samples = 14630.2 CDDA sectors
File Size : 7.89M
Bit Rate : 324k
Sample Encoding: MPEG audio (layer I, II or III)
Comments :
Title=ARTIFICIAL SUICIDE
Artist=Bad Omens
Album=The Death Of Peace Of Mind
Tracknumber=14
Year=2022

[/more]

Register
(1) blackestdesire,
Jun 10 2023, 13:23:04 Haken - Fauna (2023)
Почему-то альбом очень понравился, хотя вроде не вижу схожих мнений нигде, но он показался чуть ли не лучшим у группы из позднего периода (точно не помню, но из раннего у них вроде самый топовый для меня The Mountain).
Как-то тут все очень органично, мелодично, не занудно. Кто-то скажет неспешно, и да, но это не минус для меня, если композиционно все по уму сделано и день бессмысленного лобызания гитар прогрессивного - все песни именно что круто выстроены, векторы и вирусы показались больно прогрессивными в свое время.
Получил очень много удовольствия от этого альбома.
(3) BleedingSun, ivanasyanin, mirotvorets,
May 23 2023, 09:21:05 Enter Shikari - A Kiss For The Whole World (2023)


*Artist: Enter Shikari
*Album: A Kiss For The Whole World
*Year: 2023
*Genre: Post-Hardcore/Electronic
*Country: United Kingdom
*Format: mp3@CBR320kbps
*Size: 77MB

Tracklist:
01. A Kiss for the Whole World x 03:31
02. (pls) set me on fire 03:04
03. It Hurts 03:18
04. Leap into the Lightning 03:04
05. feed yøur søul 01:18
06. Dead Wood 03:50
07. Jailbreak 03:54
08. Bloodshot 03:24
09. Bloodshot (Coda) 01:17
10. goldfĭsh ~ 03:20
11. Giant Pacific Octopus (i don’t know you anymore) 02:37
12. giant pacific octopus swirling off into infinity… 01:15
******************************
Total playing time: 33:52





[more=Extended info]Рип не мой[/more]

[more=Technical info]
Input File: 11. Giant Pacific Octopus (i don’t know you anymore).mp3
Channels : 2
Sample Rate : 44100
Precision : 16-bit
Duration : 00:02:37.37 = 6940149 samples = 11803 CDDA sectors
File Size : 6.30M
Bit Rate : 320k
Sample Encoding: MPEG audio (layer I, II or III)
Comments :
Title=Giant Pacific Octopus (i don't know you anymore)
Artist=Enter Shikari
Album=A Kiss for the Whole World
Tracknumber=11/12
Year=2023
Discnumber=1/1

[/more]

Register
(4) Emhyr var Emreis, gwar, oldvarg, Shadechaser,
May 16 2023, 09:01:35 Dying Wish - Fragments Of A Bitter Memory (2021)


*Artist: Dying Wish
*Album: Fragments Of A Bitter Memory
*Year: 2021
*Genre: Metalcore/Melodic Death Metal
*Country: United States
*Format: mp3@CBR320kbps
*Size: 82MB

Tracklist:
1. Cowards Feed, Cowards Bleed 01:45
2. Hollowed By Affliction 03:21
3. Innate Thirst 03:15
4. Severing The Senses 02:53
5. Fragments of a Bitter Memory 03:58
6. Cold Hearts In Bloom 03:00
7. Until Mourning Comes 02:37
8. Now You'll Rot 02:45
9. Blood Laced Misery 03:39
10. Enemies In Red 04:09
11. Drowning In Silent Black 03:40
******************************
Total playing time: 35:02



[more=Extended info]Взято из сети[/more]

[more=Technical info]
Input File: 01. Cowards Feed, Cowards Bleed.mp3
Channels : 2
Sample Rate : 44100
Precision : 16-bit
Duration : 00:01:45.13 = 4636013 samples = 7884.38 CDDA sectors
File Size : 4.31M
Bit Rate : 328k
Sample Encoding: MPEG audio (layer I, II or III)
Comments :
Title=Cowards Feed, Cowards Bleed
Artist=Dying Wish
Album=Fragments Of A Bitter Memory
Tracknumber=01
Year=2021
Genre=Metalcore

[/more]

Register
(13) artscald, boby9052, chipsgott, gwar, gwynnbleid, Jester, Marek, Mogozoz, senecazm, VALERY, Wail, wreak, zhol,
Apr 22 2023, 11:29:32 Holding Absence & Loathe - This Is As One [split] (2019)


*Artist: Holding Absence & Loathe
*Album: This Is As One [split]
*Year: 2019
*Genre: Melodic Post-Hardcore | Metalcore
*Country: United Kingdom | United Kingdom
*Format: mp3@CBR320kbps
*Size: 39MB

Tracklist:
1 Loathe - White Hot 3:30
2 Loathe - Servant and Master 4:06
3 Holding Absence - Saint Cecilia 4:49
4 Holding Absence - Everything 4:15
******************************
Total playing time: 16:40




[more=Technical info]
Input File: 02 - Servant and Master.mp3
Channels : 2
Sample Rate : 44100
Precision : 16-bit
Duration : 00:04:06.61 = 10875589 samples = 18495.9 CDDA sectors
File Size : 9.87M
Bit Rate : 320k
Sample Encoding: MPEG audio (layer I, II or III)
Comments :
Title=Servant and Master
Artist=Loathe
Album=This Is as One
Tracknumber=2
Year=2019
Genre=Rock
Discnumber=1

[/more]

Register
(1) Lanceatum,
Apr 22 2023, 11:23:55 Holding Absence - The Greatest Mistake Of My Life (2021)


*Artist: Holding Absence
*Album: The Greatest Mistake Of My Life
*Year: 2021
*Genre: Melodic Post-Hardcore
*Country: United Kingdom
*Format: mp3@CBR320kbps
*Size: 113MB

Tracklist:
01. Awake [01:15]
02. Celebration Song [04:26]
03. Curse Me with Your Kiss [05:30]
04. Afterlife [03:46]
05. Drugs and Love [04:55]
06. In Circles [04:46]
07. Nomoreroses [03:54]
08. Beyond Belief [04:16]
09. Die Alone (In Your Lover's Arms) [05:30]
10. Phantoms [01:37]
11. Mourning Song [07:00]
12. The Greatest Mistake of My Life [01:26]
******************************
Total playing time: 48:21




[more=Technical info]
Input File: 04 - Afterlife.mp3
Channels : 2
Sample Rate : 44100
Precision : 16-bit
Duration : 00:03:46.63 = 9994251 samples = 16997 CDDA sectors
File Size : 9.07M
Bit Rate : 320k
Sample Encoding: MPEG audio (layer I, II or III)
Comments :
Title=Afterlife
Artist=Holding Absence
Album=The Greatest Mistake of My Life
Tracknumber=4
Year=2021

[/more]

Register
(1) Wail,
Apr 22 2023, 11:21:15 Holding Absence - Holding Absence (2019)


*Artist: Holding Absence
*Album: Holding Absence
*Year: 2019
*Genre: Melodic Post-Hardcore
*Country: United Kingdom
*Format: mp3@CBR320kbps
*Size: 182MB

Tracklist:
1 Perish 5:28
2 Your Love (Has Ruined My Life) 4:27
3 Like a Shadow 3:55
4 You Are Everything 4:42
5 Marigold 4:03
6 To Fall Asleep 3:56
7 Monochrome 3:38
8 A Godsend 4:28
9 Last of the Evening Light 4:17
10 Purge 2:18
11 Wilt 6:38
12 Here Forever 4:25
13 Like a Shadow (Live Acoustic) 4:12
14 Monochrome (Live Acoustic) 3:30
15 Saint Cecilia (Live Acoustic) 4:23
16 You Are Everything (Live Acoustic) 4:25
17 Your Love (Has Ruined My Life) (Live Acoustic) 3:54
18 Wilt (Live Acoustic) 5:09
******************************
Total playing time: 1:17:48




[more=Extended info]Deluxe Edition[/more]

[more=Technical info]
Input File: 14 - Monochrome (Live Acoustic).mp3
Channels : 2
Sample Rate : 44100
Precision : 16-bit
Duration : 00:03:30.38 = 9277670 samples = 15778.4 CDDA sectors
File Size : 8.42M
Bit Rate : 320k
Sample Encoding: MPEG audio (layer I, II or III)
Comments :
Title=Monochrome (Live Acoustic)
Artist=Holding Absence
Album=Holding Absence (Deluxe Version)
Tracknumber=14
Year=2019
Genre=Rock
Discnumber=1

[/more]

Register
(1) Wail,
Apr 22 2023, 11:14:31 Inhalo - Sever (2022)


*Artist: Inhalo
*Album: Sever
*Year: 2022
*Genre: Progressive Rock
*Country: Netherlands
*Format: mp3@CBR320kbps
*Size: 100MB

Tracklist:
01 - Omniscient Being 02:34
02 - Subterfuge 06:36
03 - Sisyphean 05:57
04 - Pretenders 05:28
05 - Eventide 07:28
06 - Mirror Door 05:39
07 - Last Vestige 07:39
08 - Sever 01:48
******************************
Total playing time: 43:09




[more=Extended info]Отличнейшая прог рок группа. Довелось видеть их вживую на разогреве у Conception в их родном Амстердаме. Большие профессионалы, отыграли столь прекрасно, что моментально пришло решение купить винил.
Рип не мой, стянут с сети и перезалит[/more]

[more=Technical info]
Input File: 01 - Omniscient Being.mp3
Channels : 2
Sample Rate : 44100
Precision : 16-bit
Duration : 00:02:34.40 = 6808820 samples = 11579.6 CDDA sectors
File Size : 6.18M
Bit Rate : 320k
Sample Encoding: MPEG audio (layer I, II or III)
Comments :
Title=Omniscient Being
Artist=Inhalo
Album=Sever
Tracknumber=1
Year=2022
Discnumber=1/1

[/more]

Register
(4) andgrek28, Ghostb, Kwaad, Phlebotomized,
Mar 30 2023, 12:21:18 Archspire - Bleed The Future (2021)
Archspire имхо музыкально растут. Это может нравиться, а может нет, и это нормально. Раньше это все было безудержное безумие, и демонстрация всех технических завихрений, каких только можно. От альбома к альбому композиционно материал становится более легко усвояемый, он выверенный, основой становятся не просто нагромождение риффов по фану, а некоторая центральная линия композиций.

Лично для меня каждый раз слушать этот альбом было легким и приятным времяпрепровождением, врубился я в него с первого раза. Раньше все равно немного ломали мозг, а здесь все очень естественно воспринимается.

Никто не упомянул, гитарист делился новостью, что этот альбом выиграл премию JUNO:

[youtube]x2pxPZLCYqI[/youtube]

(своего рода канадская Грэмми)

P.S. Претензии фрэдодр0черов в целом ясны. Подписан на канал Дина Лэмба, и там весьма видно, что он в целом музыкально эрудирован, но играет очень жухло. Его жена Клэр вжаривает намного круче (т.к. она фанат олдового дэта и сечет за атаку), впрочем уже заработала себе тендинит. Однако, слушается на записи все отлично. Вживую, понятно, сильно на любителя. Впрочем, из техничных банд вживую хорошо играют только Beyond Creation (10 из 10) и отчасти Fallujah.
(1) Genuine Thrashiac,
Mar 26 2023, 14:29:33 Goatwhore - Angels Hung From The Arches Of Heaven (2022)
Зеркала:

Register
(3) MMMMM, Occultas, Zhelezjaka,
Mar 26 2023, 14:25:47 I Prevail - True Power (2022)
Отличный альбом, очень модерновый подход к музыке, довольно эклектичный. Затегать жанр было сложно, т.к. хоть основа и металкоровая, она совсем не доминирует. Есть куча речитативов в стиле Linkin Park (мне вообще кажется у них очень много заимствований в музыке группы). Альбом еще более вариативный, чем предшественники. Очень много хитов (которые в основном сосредоточены в начале альбоме), интересные тексты о внутренних переживаниях, депрессии и пагубных наклонностях.

Звук кристальный, не придраться. На концерте также исполняют все потрясающе.
(1) Bloodn Lord,
Mar 25 2023, 11:13:24 I Prevail - True Power (2022)


*Artist: I Prevail
*Album: True Power
*Year: 2022
*Genre: Alternative Metal/Metalcore
*Country: United States
*Format: mp3@CBR320kbps
*Size: 102MB

Tracklist:
1. 0:00 0:41
2. There’s Fear in Letting Go 3:54
3. Body Bag 3:16
4. Self-Destruction 2:26
5. Bad Things 3:48
6. Fake 2:51
7. Judgement Day 2:46
8. FWYTYK 3:17
9. Deep End 3:26
10. Long Live The King 3:00
11. Choke 3:02
12. The Negative 2:20
13. Closure 3:09
14. Visceral 2:44
15. Doomed 3:47
******************************
Total playing time: 44:27




[more=Extended info]Рип не мой, найден на просторах интернета[/more]

[more=Technical info]
Input File: 04 - Self-Destruction.mp3
Channels : 2
Sample Rate : 44100
Precision : 16-bit
Duration : 00:02:26.24 = 6449360 samples = 10968.3 CDDA sectors
File Size : 5.85M
Bit Rate : 320k
Sample Encoding: MPEG audio (layer I, II or III)
Comments :
Title=Self-Destruction
Artist=I Prevail
Album=True Power
Tracknumber=4
Year=2022

[/more]

Register
(2) AndreFrancis, Wail,
Mar 21 2023, 22:31:14 Origin - Chaosmos (2022)
По результатам некоторого количества прослушек, делаю вывод, что альбом очень хорош. Проверять прошлые слегка лень, лишь доверюсь своим прошлым впечатлениям, что было не так хорошо. По части сабжа имеем потрясающий звук, с читаемыми инструментами, не сливается в кашу. Материал отличный, пиликалок не много, они лишь украшают основную канву музыки, где в основе гора качевых риффов, сыгранных с приятнейшим брутальным скрежетом (адепты фрэда заявят, что это грязная игра на гитаре, а мне лично приятно ласкает уши этот звук).
(1) Zhelezjaka,
Mar 21 2023, 20:44:29 I Prevail - True Power (2022)


*Artist: I Prevail
*Album: True Power
*Year: 2022
*Genre: Alternative Metal/Metalcore
*Country: United States
*Format: mp3@CBR320kbps
*Size: 104MB

Tracklist:
1. 0:00 0:41
2. There’s Fear in Letting Go 3:54
3. Body Bag 3:16
4. Self-Destruction 2:26
5. Bad Things 3:48
6. Fake 2:51
7. Judgement Day 2:46
8. FWYTYK 3:17
9. Deep End 3:26
10. Long Live The King 3:00
11. Choke 3:02
12. The Negative 2:20
13. Closure 3:09
14. Visceral 2:44
15. Doomed 3:47
******************************
Total playing time: 44:27




[more=Extended info]Рип не мой, найден на просторах интернета[/more]

[more=Technical info]
Input File: 12 - The Negative.mp3
Channels : 2
Sample Rate : 44100
Precision : 16-bit
Duration : 00:02:20.52 = 6197064 samples = 10539.2 CDDA sectors
File Size : 5.62M
Bit Rate : 320k
Sample Encoding: MPEG audio (layer I, II or III)
Comments :
Title=The Negative
Artist=I Prevail
Album=True Power
Tracknumber=12
Year=2022

[/more]

Register
(1) Occultas,
Feb 28 2023, 16:31:04 Sleep Token - Sundowning (2019)
QUOTE(Daale @ Mar 1 2023, 01:29:35) *
Я лишь отмечу, что группа лично у меня на голову уступает Loathe, Thornhill и другому современному топовому альтернативному металу, основой которого творчество выступает (хотя и отлично работают с разнообразием жанровым, инкорпорируя все, что под руку попадется).

Уж не буду вспоминать даже Hum, ибо Тэлботт это вообще недостижимая для нынешнего поколения величина. Но, мое уважение проекту, что смогли к музыке привлечь очень много казуальной аудитории.

Спасибо огромное за наводки. К своему стыду перечисленных не знаю, хотя о Loathe слышал.
(1) Daale,
Feb 27 2023, 16:45:03 Sleep Token - Sundowning (2019)
Хайп вокруг группы связан с:
а) эклектикой: прог, фанк, рнби, инди рок, электроника - рамки группы не ограничены
б) загадочным образом группы: в масках, личности неизвестны, интервью не дают, с аудиторией на концерте не взаимодействуют
в) отличным вокалом и кристальным звуком на концертах, действительно качественно сделанный продукт
г) великолепной лирикой (некоторые песни до мурашек, будто про мой личный опыт)

Сравнивая с Leprous, обе группы очень хороши, но норвеги больше такой уже слегка стариковский прог, катящийся по накатанной (я лично их Афелий сколько ни слушал - вот уже где реально one-man band во все щели, аранжировки и мотивы до того однообразные, что прям аж грустно за такую великолепную группу - хотя на концерте все еще ооочень даже могут и звучит все шикарно). Sleep Token же более молодежный прог, настоящая новая струя, плюс двигающаяся в противоположном с Leprous направлении - в сторону утяжеления музыки.
Расслушал группу после поднявшегося хайпа (когда количество прослушиваний на spotify выросло за несколько недель в 6 раз). И грядущий альбом Take Me Back To Eden я уже считаю шедевром, хотя они его выпускают по песне в 2 недели и пока опубликовано только 5 песен, но я их наслушал уже раз на 20 и это лучшее, что я слышал за последние лет 5. Странно записывать заочно в альбом 2023 года, но это он.

Что касается сабжа и последующего альбома, они в целом весьма похожи, хотя имхо на последующем чуть больше запоминающихся тяжелых трэков, сабж же больше хорош спокойными песнями. Но и там и там есть небольшая проблема в сонграйтинге. Та же Alkaline со следующего альбома являясь диким хитом обрывается на самом интересном месте, не получив должного развития. И такое со многими песнями. Песни же 2023 года значительно выросли, какой-нибудь The Summoning или Vore просто гениален с композиторской точки зрения, как он держит слушателя от начала до конца (что прошло с неизбежным возрастанием хронометража таких трэков на пару минут).

В общем, альбом и следующий за ним не без недостатков, но являются прекраснейшим образцом по-настоящему свежей музыки. Лично для меня эта группа расширила кругозор и изменила понятие того, что я люблю в музыке. Такие группы и такие релизы меняют музыку.
(2) Wail, Yarri,
Feb 26 2023, 22:49:17 Ritual Death - Ritual Death (2022)
Хороший релиз. Единственное, иногда когда включаются синты звук превращается в кашу. Может такая задумка, но по душе она не пришлась.
Отлично играют вживую. Плюс идея с костюмом вокалиста-гитариста, с черепом, смотрится очень жутко. Будто скелет на сцене играет. Никогда бы не подумал, что может навевать жуть, но навевает.
(1) Hexenmeister,
Feb 26 2023, 12:53:38 Demilich - Nespithe (1993)
К своему стыду ознакомился с бандой только в прошлом году в рамках подготовки к концерту. Альбом, конечно, эпохальный, и шедевральный на 10 из 10.
Играют вживую просто зверски, невероятно технично, чистый мощный звук. Отличная работа с залом. Ввиду того, что почти между каждой песней перенастраивали гитары, образовывались паузы, в рамках которых вокалист шутил, а зал смеялся до слез (хотя переслушивая записи с концерта, может это был эффект пива, но я ржал как не в себя).
Потрясающая группа!!!
(4) FullofHate, Hexenmeister, Occultas, Strid,

37 Pages V  < 1 2 3 4 5 > » 
- Lo-Fi Version Support form
Copyrights and abuse reports form
Time is now: 14th June 2024 - 06:51:43