Welcome Guest ( Log In | Register )

История благодарностей участнику Unknown ::: Спасибо сказали: 1696 раз(а)
Дата поста: В теме: За сообщение: Спасибо сказали:
Mar 29 2017, 14:59:42 Fermentation Of Brain - Live In Hell [demo] (1993)


*Artist: Fermentation Of Brain
*Album: Live In Hell [demo]
*Year: 1993
*Genre: Grindcore/Death Metal
*Country: Russian Federation
*Format: mp3@CBR320kbps
*Size: 17MB

Tracklist:
1. Hell Raiser (Intro)
2. Cadaveric Suffering
3. Infernal Gloom (Intro)
4. Necrophagist's Revelation
5. Ancient Horror (Outro)
******************************
Total playing time: 6:32

[more=Extended info]Tape rip.
Андеграундная банда,играющая примитивный Grind/Death с патологическими тестами,как у ранних Carcass.К сожалению только эта запись сделанная во время концерта,больше у банды ничего не было.Для маньяков и ценителей Андеграунда!![/more]

[more=Technical info]
Input File: 02 - Cadaveric Suffering.mp3
Channels : 2
Sample Rate : 44100
Precision : 16-bit
Duration : 00:01:33.14 = 4107254 samples = 6985.13 CDDA sectors
File Size : 4.15M
Bit Rate : 356k
Sample Encoding: MPEG audio (layer I, II or III)
Comments :
Title=Cadaveric Suffering
Album=Live In Hell
Tracknumber=2
Year=1993
Genre=Grinding Death

[/more]

Register
(9) AIK445, BemoaningSign, Cadavru, Evilded, Proteus_666, Rosen, uk82, wgs73, Абигор,
Mar 21 2017, 17:33:18 Onirik & Grimfaug - MMXIV​​-​​MMXVI [split] (2017)
Grimfaug true_black.gif pray.gif pray.gif
(1) serg1349,
Mar 16 2017, 14:53:06 Vomit Angel - Sadomatic Evil [ep] (2017)
ЦИТАТА(rimfrost @ Mar 16 2017, 16:49:47) *
Состав таки сильный . Люди играющие в Дании козлоблекдез . В составах таких команд как Sadomator , Sadogoat , Ogdru Jahad

одни и те же вообщем-то)
(1) SSBandera,
Mar 14 2017, 07:07:54 Lacerated Evisceration & Skin Devouring Chaos - Putrefying Disfigured Abortions [split] (2016)
ЦИТАТА(Lanceatum @ Mar 14 2017, 04:28:39) *
Reupload please.

[more=Split]
https://yadi.sk/d/MawjFmb23FkTNr
[/more]
(1) Lanceatum,
Mar 13 2017, 07:44:46 Anusburger & Skin Devouring Chaos - Anusburger/Skin Devouring Chaos [split] (2015)
ЦИТАТА(Lanceatum @ Mar 13 2017, 06:50:23) *
Reupload please.

[more=Split]
https://yadi.sk/d/JglF9WAZ3Fevxw
[/more]

(1) Lanceatum,
Feb 23 2017, 12:56:26 Почему блэк метал один из самых популярных стилей метала?
ЦИТАТА(ptlm @ Feb 23 2017, 13:24:04) *
Впрочем сейчас и блэк метал рэп появился, а раньше это было дикостью. Хоть этот пример и толстый троллинг, но все же.

Для меня и сейчас и будет это дикостью!!Вот дое...лись до стиля,со всякой клоунадой,свербит в [мат->бан]е у всех этих деятелей?Я серьезно отношусь к Блэк Метал и старому Трэш Метал и старому Дэт Метал и мне не кажется,что когда эти стили создавались,что их создатели ради стеба или прикола это делали!Ненавижу всю эту клоунскую порнографию!!Смешно типа...?Кому смешно,если только,тем ,кто придумывает это дерьмо и тем кто слушает со словами:"О,прикольно".
(1) suseka,
Feb 22 2017, 14:48:04 Krxa - Krxa [demo] (2017)
Удалите найух это дерьмо!! normal_Homerdisgust3s.png
(1) murian,
Feb 22 2017, 10:30:08 Ощущается ли вам аморфность блэка?
Ни хрена не умер Black Metal,он умер для тех,кто хочет его похоронить!Да,есть сейчас поганки,которые портят этот стиль своими говняными примесями,как написал SSWolf88,и хрен с ними!!Кто играет и играл Black Metal от души и для души,этот стиль всегда будет существовать! true_black.gif
(3) Qliphoth, SSWolf88, suseka,
Feb 8 2017, 10:03:31 Kreator - Gods Of Violence (2017)
Fallen Brother,я аж прослезился 6.gif Песня-трибьют по легендарным металл-людям и не только ,которых уже нет с нами!!РЕСПЕКТ Милле!!!
(1) Diflock,
Feb 4 2017, 15:12:51 Voice Of Hastur - Blasphemy Rituals [ep] (2017)
vkbm smile1.gif
(1) Kwaad,
Feb 3 2017, 07:43:04 Wrath From Above - Beyond Ruthless Cold (2017)
15.gif коммуняки
(1) neoatheist,
Feb 1 2017, 09:30:05 Что есть музыка
Я вообще никогда не задавался мыслью,спрашивать у кого-то разрешения послушать музыку!Захотел включил и послушал. 20.gif И не важно кто рядом,жена,бабка,дедка,брат,сват и тд.
(3) SSWolf88, suseka, vosmidesijatye,
Jan 23 2017, 18:37:00 Азъ Есмь Огонь - Своевременно и благомоментно (2016)
Есть дисочек из первых рук 11.gif Гонял этот альбом нннное количество раз!!Мне понравилось. true_black.gif
(2) infiltrator, Абигор,
Jan 5 2017, 08:49:36 Nyogthaeblisz - Apocryphal Progenitors Of Mankind's Tribulation [best of/compilation] (2009)
Register
(4) DarkHorde, Occultas, varg-38ru, wtk.412,
Jan 4 2017, 14:18:28 Nyogthaeblisz - Apex Satanist [best of/compilation] (2016)
Шум один!Никогда не понимал и не пойму и не буду понимать такую "музыку"!!Для кого она..хрен знает??Вообщем надо распрощаться с релизами этих деятелей,в топку их!! 22.gif
(1) Dmitry1977,
Jan 2 2017, 13:28:00 Abysmal Lord - Disciples Of The Inferno (2015)
Register
(3) babanguida, stub888, varg-38ru,
Jan 2 2017, 10:18:00 Atropos - ...la Fileuse De Mort... [demo] (2000)
ЦИТАТА(thenecromancer @ Jan 2 2017, 11:56:44) *
+1 pray.gif

Register
(6) dermarsoran, Moldavite, Ostinato, thenecromancer, varg-38ru, wendigo,
Dec 18 2016, 16:31:05 Eternal Genocide - Death Came (2016)


*Artist: Eternal Genocide
*Album: Death Came
*Year: 2016
*Genre: Black/Funeral Doom Metal
*Country: Russian Federation
*Format: mp3@CBR320kbps
*Size: 83MB

Tracklist:
1. I (Apathy to a Life:Death Is Life) 04:28
2. II (Destruction of Life) 05:31
3. III (Absence of Life) 05:04
4. IV (Emptiness) 00:58
5. V (Renunciation of a Life) 04:44
6. VI (Agony of Soul) 01:01
7. VII (Funeral of Life) 08:00
8. VIII - (Death Of Life - Ritual Of Universal Death) 06:24 (bonus)
******************************
Total playing time: 36:53

[more=Extended info]Release as Demo in 2009.Remastering and Re-release in 2017 as full album on Tape and LP.[/more]

[more=Technical info]
Input File: 08 - VIII(Death Of Life - Ritual Of Universal Death).mp3
Channels : 2
Sample Rate : 44100
Precision : 16-bit
Duration : 00:06:24.35 = 16949791 samples = 28826.2 CDDA sectors
File Size : 15.4M
Bit Rate : 320k
Sample Encoding: MPEG audio (layer I, II or III)
Comments :
Artist=Eternal Genocide
Album=Cemetery Of Life
Year=2016

[/more]

Register
(28) 1968_janeart, Boozer, Cadavru, Hell_Is_Here, kim666, Korpse, metaljinie, morbidangelo, nirth, Orkkh, Ostinato, Qliphoth, Razorbladeswaltz, ripper33, Rosen, RUSP73, sacrut, Sanc, sethurius, SilentNidhogg, StoneTemple, stormhatt, Strangler, tont, VALERY, varlam4, vasiljev_sergej, Спектр,
Dec 13 2016, 19:03:08 Teitanblood - Accursed Skin [ep] (2016)
Повторюсь:Ничего нового,уже даже не интересен стал Teitanblood,начиная с Purging Tongues идет одно и тоже....скучно.Не выделю этот релиз чем-то значимым для меня,просто еще один альбом одной группы.Лучше им развалиться и остаться Великими,чем продолжать лепить альбомы не отличимые друг от друга smile2.gif
Уверен,что найдутся и такие,кому,если и не понравится альбом,все равно напишут:Чернота!Чернее черного и бла бла бла...",это же типа "культ" 15.gif
(1) Vakhanal,
Dec 7 2016, 21:01:02 Скверна - Гнозис [ep] (2016)
ех-Сумрак
(1) Aresson,
Dec 6 2016, 12:29:25 Abysskvlt - Thanatochromia (2015)
ЦИТАТА(Stepan @ Dec 6 2016, 07:00:15) *
Ну что ж, доброе имя Abysskvlt восстановлено, а юзер FullofHate - лжец и безответственное трепло.

А оно было опорочено или что?FullofHate высказал свое мнение,а такая реакция,как у тебя,я считаю неадекватная.Мне тоже эта банда не понравилась и я тоже высказал свое мнение,а развели тут хрен знает,что,как будто КУЛЬТ какой-то в топтали в грязь так,что ему не отмыться.Я видел комментарии действительно ужасные,но ничего,группы так же записываются и так же выступают.У каждой банды найдется всегда слушатель,а так реагировать на весь негатив,считаю глупо.
(3) 6666666, FullofHate, infiltrator,
Dec 4 2016, 20:17:38 Ungod - Bewitched By Sins And Lust (2016)
Альбом понравился!!! true_black.gif
(1) sacrut,
Nov 23 2016, 18:08:55 Abysskvlt - Thanatochromia (2015)
ЦИТАТА(Timekiller_again @ Nov 23 2016, 20:06:31) *
А Esoteric?

не то немного
(2) infiltrator, vosmidesijatye,
Nov 23 2016, 18:02:21 Abysskvlt - Thanatochromia (2015)
ЦИТАТА(vosmidesijatye @ Nov 23 2016, 19:54:52) *
А какой нраится?

В духе Wormphlegm,Of Darkness,Catacombs,Tyranny,Profetus,Mordor,Begrдbnis....
(4) Cephalic, FullofHate, infiltrator, vosmidesijatye,
Nov 6 2016, 13:50:55 Satanik Goat Ritual & Warlock 666 - Satanic Ritual & Goat Sabbat [split] (2012)


*Artist: Satanik Goat Ritual & Warlock 666
*Album: Satanic Ritual & Goat Sabbat [split]
*Year: 2012
*Genre: Black/Death Metal | Black Metal
*Country: United States | Russian Federation
*Format: mp3@CBR320kbps
*Size: 57MB

Tracklist:
Satanik Goat Ritual:
1. Gascloud Invocation
2. Born Of Goat's Blood
3. Darkness Of Death
4. Angel Of Debauchery
5. Annihilation Seraph
Warlock 666:
6. Intro (Dark Path)
7. Goat Conqueror
8. Heavens Cry
9. Impaled Angels
10. Outro (Blasphemous Path)
******************************
Total playing time: 28:21

[more=Extended info]CD-Rip.

Студийное качество звука, в отличие от некачественного кассетного рипа, выложенного ранее.

CD released by Old Cemetery Records, 500 copies.
Tape released by Bestial Desecration Records, 333 copies.
[/more]

[more=Technical info][/more]

Register
(27) artscald, Blut aus Nord, Cadavru, ddarkthrone, dermarsoran, heinz88, Hell_Is_Here, kefka, marilin, maringlen, Moldavite, Moonshtook, morbidangelo, Ostinato, Pinhead666, Raw1488, rom666, Rosen, RUSP73, sethurius, tont, VALERY, varg-38ru, varlam4, vasiljev_sergej, wgs73, Абигор,

14 Pages V  < 1 2 3 4 5 > » 
- Lo-Fi Version Support form
Copyrights and abuse reports form
Time is now: 27th November 2021 - 01:00:22