Welcome Guest ( Log In | Register )

История благодарностей участнику spazm ::: Спасибо сказали: 5059 раз(а)
Дата поста: В теме: За сообщение: Спасибо сказали:
Yesterday, 19:41:24 Morok - На Круги Своя [demo] (1998)
Morok - 1998 - На Круги Своя (Demo) (Prof. Tape Rip, mp3@CBR320, 94MB, Full Scans)
Register

Morok - 2022 - На Круги Своя (mp3@CBR320, 162MB, Cover)
Register

Переиздание в виде полноценного CD альбома от COD Music/Der Schwarze Tod
Материал прошел чистку и полный ремастеринг, сравнивая с первоначальными кассетными рипами видно , что работа проведена очень серьезная и скурпулезная. Отличный материал "На круги своя" дополнен бонусом в виде назаконченного и неизданного альбома "Час прошлой веры".
Register

Register
В связи с не совсем однозначной политикой в отношении публикации CD переизданий demo альбомов, выкладываю в теме перевоначальной демки. Если модерfnjhs дадут добро, могу оформить через форму добавления новых релизов.
(2) Brutal, thenecromancer,
Yesterday, 19:34:09 Morok - Вне Света [demo] (1997)
Morok - 1997 - Вне Света (Demo) (Prof. Tape Rip, mp3@CBR320, 97MB, Full Scans)
Register

Morok - 2022 - Вне Света (mp3@CBR320, 117MB, Cover)
Register

Переиздание в виде полноценного CD альбома от COD Music/Der Schwarze Tod
Материал прошел чистку и полный ремастеринг, сравнивая с перевоначальными кассетными рипами видно , что работа проведена очень серьезная и скурпулезная.
Register
В связи с не совсем однозначной политикой в отношении публикации CD переизданий demo альбомов, выкладываю в теме перевоначальной демки. Если модерfnjhs дадут добро, могу оформить через форму добавления новых релизов.
(2) Brutal, thenecromancer,
Nov 25 2022, 08:36:41 Morbid Dead - Defloration Of Dissected Abortion [demo] (1992)


*Artist: Morbid Dead
*Album: Defloration Of Dissected Abortion [demo]
*Year: 1992
*Genre: Grindcore/Death Metal
*Country: Russian Federation
*Format: mp3@CBR320kbps
*Size: 68MB

Tracklist:
01. Intro 0:55
02. Psychofrictions Of Necropathologist 3:12
03. Defloration Of Dissected Abortion 2:21
04. Halban. Zeitschrift Fur Geburtshiffe Und Gynakologie 1:54
05. From Erection To Ejaculation 2:30
06. I Love You Fucked 2:38
07. Sadooral Perversions For Euthanased Virgin 1:48
08. Interlude 1:36
09. Suffering Of Incest 1:50
10. Он рубит пальцы до костей... 1:29
11. Outro 0:20
******************************
Total playing time: 20:33

[more=Extended info]Рубрика "Новости советских подвалов". Наконец всплыло первое demo Уфимскийх Morbid Dead, второе demo 1992 - F.B.M.M. выкладывал Proteus_666. Этим известная дискография Morbid Dead может считаться полной. Metal-archives.com
FLAC Rip , Full Scans included

Найдено на рутрекере. Перевоначальный релизер Monter74, за что ему спасибо![/more]

[more=Technical info]
Input File: 02 - Psychofrictions Of Necropathologist.mp3
Channels : 2
Sample Rate : 44100
Precision : 16-bit
Duration : 00:03:12.17 = 8474697 samples = 14412.8 CDDA sectors
File Size : 8.48M
Bit Rate : 353k
Sample Encoding: MPEG audio (layer I, II or III)
Comments :
Title=Psychofrictions of Necropathologist
Artist=Morbid Dead
Album=Defloration Of Dissected Abortion
Tracknumber=2/10
Year=1992
Genre=Death Metal/Grindcore

[/more]

Register
(8) artscald, Carcharoth, DarkHorde, Grev, Mucupurulence, rominow, stumpheavyrock, varlam4,
Nov 21 2022, 10:40:19 Блёв - Опарыш [single] (2021)


*Artist: Блёв
*Album: Опарыш [single]
*Year: 2021
*Genre: Black Metal
*Country: Russian Federation
*Format: mp3@CBR320kbps
*Size: 23MB

Tracklist:
01. Рассвет (Dawn) 06:59
02. Опарыш (Maggot) (Сектор Газа cover) 02:59
******************************
Total playing time: 9:58

[more=Extended info]Довольно неплохо, на мой взгляд, получилось, да и песня хорошая. Местами хочется добавить тэг grindcore и упомянуть одних известных британцев.

[youtube]pl-_22Fv3pA[/youtube]

Поддержать талант /скачать / послушать - [/more]

[more=Technical info]
Input File: 02. Опарыш (Сектор Газа cover).mp3
Channels : 2
Sample Rate : 44100
Precision : 16-bit
Duration : 00:02:59.08 = 7897516 samples = 13431.1 CDDA sectors
File Size : 7.28M
Bit Rate : 325k
Sample Encoding: MPEG audio (layer I, II or III)
Comments :
Title=Опарыш (Сектор Газа cover)
Artist=Блёв
Album=Опарыш (EP)
Tracknumber=02/02
Year=2021
Genre=Black MetalGrindcore

[/more]

Register
(7) Aresson, artscald, stormhatt, varlam4, vasiljev_sergej, Vitald, wreak,
Nov 21 2022, 08:55:07 Mistress - The Glory Bitches Of Doghead (2007)
Mistress - 2007 - The Glory Bitches Of Doghead (mp3@CBR320, 115MB, Scans)
Register
(2) ENDSMOUTH, varlam4,
Nov 21 2022, 08:52:21 Mistress - In Disgust We Trust (2005)
Mistress - 2005 - In Disgust We Trust (mp3@CBR320kbps, 133MB, Full Scans)
Register

(2) ENDSMOUTH, varlam4,
Nov 21 2022, 08:46:10 Sally & Mistress - Sally/Mistress [split] (2002)
Mistress & Sally - 2002 - Rebecca & Sanatn (Split Ep) (mp3@CBR320 (скорее всего реальные 192kbps), 24MB, Scans)
Register

(4) ENDSMOUTH, stumpheavyrock, varlam4, Zhelezjaka,
Nov 21 2022, 08:42:14 Mistress - Mistress (2002)
Mistress - 2022 - Mistress (mp3@CBR320kbps, 134 MB, Full Scans)
Register
(3) ENDSMOUTH, stumpheavyrock, varlam4,
Nov 21 2022, 08:35:50 Mistress - Vol. 1: Fuck Off [demo] (2000)


*Artist: Mistress
*Album: Vol. 1: Fuck Off [demo]
*Year: 2000
*Genre: Sludge Metal/Grindcore
*Country: United Kingdom
*Format: mp3@CBR320kbps
*Size: 49MB

Tracklist:
1. Gonga Chonk 04:34
2. Black Sabbath 06:35
3. Hit Bottom 05:28
4. Sconner 03:55
******************************
Total playing time: 20:32

[more=Extended info]Первое официальное demo английский сладж-грайндеров Mistress (годы жизни 1999-2008), совместного side-project'a участников Anaal Nathrakh David'a Hunt'a, Mick'a Kenney и Fukpig в лице Paul'a Kenney и Duncan'a Wilkins'a.
Тем кто неравнодушен к творчеству вышеперечисленных групп и все еще не знаком c Mistress - настоятельно рекомендую ознакомиться.
Послушать/скачать/поддержать деньгой участников можно на Bandcamp

Для замены релиза в Low[/more]

[more=Technical info]
Input File: 01 - Gonga Chonk.mp3
Channels : 2
Sample Rate : 44100
Precision : 16-bit
Duration : 00:04:34.27 = 12095483 samples = 20570.5 CDDA sectors
File Size : 11.0M
Bit Rate : 321k
Sample Encoding: MPEG audio (layer I, II or III)
Comments :
Title=Gonga Chonk
Artist=Mistress
Album=Vol 1 - Fuck Off
Tracknumber=1
Year=2022

[/more]

Register
(9) artscald, ENDSMOUTH, goatkvlt, Ignativs, jared_wanted, Reverend, stumpheavyrock, varlam4, wreak,
Nov 21 2022, 08:25:41 Mistress - Lord Worm [demo] (2001)


*Artist: Mistress
*Album: Lord Worm [demo]
*Year: 2001
*Genre: Sludge Metal/Grindcore
*Country: United Kingdom
*Format: mp3@CBR320kbps
*Size: 54MB

Tracklist:
01. God Of Rock 01:31
02. Goatboy 07:29
03. Stunt Cock 04:18
04. Lord Worm 09:38
******************************
Total playing time: 22:56

[more=Extended info]Второе demo английских сладж-грайндеров Mistress (годы жизни 1999-2008), совместного side-project'a участников Anaal Nathrakh David'a Hunt'a, Mick'a Kenney и Fukpig в лице Paul'a Kenney и Duncan'a Wilkins'a.
Тем кто неравнодушен к творчеству вышеперечисленных групп и все еще не знаком c Mistress - настоятельно рекомендую ознакомиться.
Послушать/скачать/поддержать деньгой участников можно на [/more]

[more=Technical info]
Input File: 01 - God Of Rock.mp3
Channels : 2
Sample Rate : 44100
Precision : 16-bit
Duration : 00:01:31.72 = 4044852 samples = 6879 CDDA sectors
File Size : 3.68M
Bit Rate : 321k
Sample Encoding: MPEG audio (layer I, II or III)
Comments :
Title=God Of Rock
Artist=Mistress
Album=Lord Worm
Tracknumber=1
Year=2022

[/more]

Register
(11) artscald, denver, ENDSMOUTH, goatkvlt, Ignativs, jared_wanted, Lux, Reverend, stumpheavyrock, varlam4, wreak,
Nov 20 2022, 00:48:22 Abigail & Barbatos - Sexual Metal Holocaust [split] (2002)
Abigail & Barbatos & Tribute Band - 2008 - Street Metal Alcoholocaust (Split CD) (mp3@CBR320, 110MB, Full Scans)
Register
(3) Lord Of The Siths, stumpheavyrock, varlam4,
Nov 19 2022, 23:25:40 Damnation - Rebel Souls (1996)
Damnation - 1996 - Rebel Souls (mp3@CBR320, 118 MB, Full Scans)
Register
(2) hell_armageddon, NathanSS,
Nov 18 2022, 11:46:46 Shadowdances - The River Of Lost (2002)
Shadowdances - 2020 - The River Of Lost (mp3@CBR320kbps, 119MB, Full Scans)
Register
(1) quarantine,
Nov 18 2022, 08:29:10 Today Needed
ЦИТАТА(Borya_Tvorogov @ 18th November 2022 - 06:10:49) *
Conscious Rot - P.I.T.E. [demo] (1992)

Done
(1) Mucupurulence,
Nov 18 2022, 08:28:36 Conscious Rot - P.I.T.E. [demo] (1992)
Conscious Rot - 1992 - Paranoia In The Evening (P.I.T.E.) (Demo) (mp3@CBR320kbps, 43MB, Cover)
Register
(8) Borya_Tvorogov, canadaspaceman, Carcharoth, denver, hell_armageddon, Mucupurulence, thenecromancer, wgs73,
Nov 18 2022, 08:20:22 Id. - Stoic (1998-2007) [compilation] (2014)


*Artist: Id.
*Album: Stoic (1998-2007) [compilation]
*Year: 2014
*Genre: Grindcore
*Country: United States
*Format: mp3@CBR320kbps
*Size: 85MB

Tracklist:
01. I'm Really Cool Now That I Shaved My Head 1:40
02. If The Shoe Fits 0:10
03. Weak Fucker 0:31
04. Cut Myself Shaving 0:55
05. Punks And Skins 3:02
06. You Fuckin' Die 1:32
07. Leave That Crack Alone 2:08
08. Exactamundo 0:17
09. Son Of A Bitch 0:29
10. Nobody Likes Me 0:24
11. You Are A Drag, Man 1:46
12. Wuhan The Barbarian 0:47
13. What Goes Around Comes Around (And Destroys Your Immune System) 0:32
14. Why's Everybody Gotta Be Assholes All The Time 1:17
15. Guns And Ammo 2:08
16. Wasting The Opposable Thumb 2:46
17. Rotund 4:46
18. Yearning For The Apocalypse 4:08
19. Chinese Water Torture 6:25
******************************
Total playing time: 35:43

[more=Extended info]Простой и незамысловатый, но при этом весьма неплохой oldschool grindcore. Антология всего творчества группы с 1998 по 2007 годы содержит материал сплитов с Pantalones Abajo Marinero и Progeria, а также S/T (Ep) и Wasting The Opposable Thumb ‎(CDr, Single).
Digital Artwork included.

Tracks 1-15 recorded in 1998 at Headroom Studio by Bill T. Miller.
Tracks 16-19 recorded in 2007 at The Meth Lab by Fletcher.
Release is called Rotund on Cover.[/more]

[more=Technical info]
Input File: 01 - I\'m Really Cool Now That I Shaved My Head.mp3
Channels : 2
Sample Rate : 44100
Precision : 16-bit
Duration : 00:01:40.53 = 4433241 samples = 7539.53 CDDA sectors
File Size : 4.12M
Bit Rate : 328k
Sample Encoding: MPEG audio (layer I, II or III)
Comments :
Title=I'm Really Cool Now That I Shaved My Head
Artist=Id.
Album=stoic (1998-2007)
Tracknumber=1
Year=2014

[/more]

Register
(7) artscald, Carcharoth, chipsgott, SadistikSlayer, supremo, wreak, Zhelezjaka,
Nov 18 2022, 07:51:02 Optimum Wound Profile - Lowest Common Dominator (1992)


*Artist: Optimum Wound Profile
*Album: Lowest Common Dominator
*Year: 1992
*Genre: Industrial Metal/Crust
*Country: United Kingdom
*Format: mp3@CBR320kbps
*Size: 156MB

Tracklist:
01. Drain 4:00
02. Tranqhead 5:52
03. Ego Crotch 3:11
04. Downmouth 6:42
05. You're Weak 2:39
06. Blindfold 5:15
07. Incision 5:00
08. Responsibility 4:52
09. Skin 3:00
10. Melt 2:26
11. Damage 4:48
12. Crave 12:52
13. Core Melt 2:37
******************************
Total playing time: 1:03:14

[more=Extended info]Немного забытой классики, да не простой, а с Phil Vane (Extreme Noise Terror) на вокале. Альбом записан в Rain Studios, Gt Yarmouth, UK и издан на Roadrunner rec.
Full Scans (CD & LP Issues) inside.

Industrial Crust band formed in 1991 in Ipswich, UK playing a style incorporating Metal, Punk and Electronic elements. The band recorded three albums before breaking up in 1996 after beginning work on a prospective fourth album titled "Cult of Saints 1425". When the first two albums were reissued by Metal Mind Productions in 2007, members Simon Finbow, Martyn Peck and Jason Whittaker reformed the band with new members Barnie Mills on bass and Malcolm Peck on drums with the intention of recording "Cult of Saints 1425", however it was never completed despite the band entering a recording studio to record demo tracks in 2008.[/more]

[more=Technical info]
Input File: 01. Drain.mp3
Channels : 2
Sample Rate : 44100
Precision : 16-bit
Duration : 00:04:00.42 = 10602434 samples = 18031.4 CDDA sectors
File Size : 9.62M
Bit Rate : 320k
Sample Encoding: MPEG audio (layer I, II or III)
Comments :
Title=Drain
Artist=Optimum Wound Profile
Album=Lowest Common Dominator
Tracknumber=1/13
Year=1992
Genre=Industrial

[/more]

Register
(6) artscald, Carcharoth, denver, hell_armageddon, unit731, wreak,
Nov 16 2022, 12:35:35 Wadge - Grindcore Penitentiary (2022)


*Artist: Wadge
*Album: Grindcore Penitentiary
*Year: 2022
*Genre: Grindcore
*Country: Canada
*Format: mp3@CBR320kbps
*Size: 109MB

Tracklist:
01. The Isle Of Gape 01:11
02. Grindcore Penitentiary 04:59
03. No Rip-Offs 01:12
04. Load Of Bunk 00:40
05. GPSD 01:13
06. Whip To The Dick 01:07
07. Battle of The Glands 01:44
08. Embury Dropped The Soap 01:51
09. Shit Goes Nuts 02:48
10. Toilet Paper Roll Bullet Belt 00:31
11. Grunting Down The Block 01:21
12. Slippery Pete 01:26
13. Contraband 01:12
14. Heist Of The Century 01:03
15. This Chump Dies Tonight 01:12
16. Too Many Oooos 01:07
17. Penile Colony 00:47
18. Jimmy Took One Cookie Back 00:41
19. Lemme Out 01:33
20. Ridden With Da Fleas 01:22
21. Riot In Cellblock G 01:21
22. On The Inside 00:59
23. Conjob 00:42
24. Escape From The Gape 01:28
******************************
Total playing time: 33:30

[more=Extended info]Новый альбом незаурядного grindcore от заслуженных канадцев Wadge.
Full Artwork Inside
Ознакомиться/скачать/купить можно на [/more]

[more=Technical info]
Input File: 01 - The Isle Of Gape.mp3
Channels : 2
Sample Rate : 44100
Precision : 16-bit
Duration : 00:01:12.08 = 3178508 samples = 5405.63 CDDA sectors
File Size : 3.15M
Bit Rate : 350k
Sample Encoding: MPEG audio (layer I, II or III)
Comments :
Title=The Isle Of Gape
Artist=Wadge
Album=Grindcore Penitentiary
Tracknumber=1
Year=2022

[/more]

Register
(12) artscald, denver, durandal, gobblin, Hell_Is_Here, SadistikSlayer, supremo, varlam4, wgs73, woojcio, wreak, Zhelezjaka,
Nov 16 2022, 07:30:06 Subconscious Terror - Invisible (1996)
Subconscious Terror - 1996 - Invisible (mp3@CBR320, 111MB, Scans)
Register
(2) as71, incubus,
Nov 12 2022, 09:42:39 Rottrevore - Disembodied [best of/compilation] (2005)
Rottrevore - 2005 - Disembodied (Compilation) (mp3@CBR320kbps, 121MB, Full Scans)
Register

Enjoy!
(2) canadaspaceman, wreak,
Oct 26 2022, 07:37:38 Cock And Ball Torture - Where Girls Learn To Piss On Command [ep] (2002)
Cock And Ball Torture - 2002 - Where Girls Learn To Piss On Command (mp3@CBR320, 42MB, Scans)
Register
(1) NathanSS,
Oct 22 2022, 00:50:58 Ghastly - Xv [ep] (2021)


*Artist: Ghastly
*Album: Xv [ep]
*Year: 2021
*Genre: Death Metal/Grindcore
*Country: Peru
*Format: mp3@CBR320kbps
*Size: 58MB

Tracklist:
01. Strappado 0:39
02. Water Torture 0:44
03. The Rack 1:02
04. The Wheel 0:56
05. The Hairshirt 0:52
06. The Heretic Fork 1:00
07. Torture Chamber 1:22
08. Castration 1:25
09. Disfigurement 1:07
10. Flagellation 1:09
11. Rat Torture 1:13
12. Riding the Rail 0:08
13. Pitchcapping 1:38
14. Scaphism 1:34
15. Sexual Assault 1:11
******************************
Total playing time: 16:00

[more=Extended info]FLAC rip, full scans.
Side project of Drummer with Wednesday 13
Discogs
Archives
[youtube]rsgOClN8SNk[/youtube][/more]

[more=Technical info]
Input File: 01 - Strappado.mp3
Channels : 2
Sample Rate : 44100
Precision : 16-bit
Duration : 00:00:41.41 = 1826137 samples = 3105.68 CDDA sectors
File Size : 1.67M
Bit Rate : 322k
Sample Encoding: MPEG audio (layer I, II or III)
Comments :
Title=Strappado
Artist=Ghastly
Album=XV
Tracknumber=1
Year=2021
Genre=Death Metal

[/more]

Register
(6) artscald, chipsgott, Hell_Is_Here, Reverend, vyacheslav, wreak,
Oct 21 2022, 22:40:58 Exhumed - To The Dead (2022)
ЦИТАТА(FullofHate @ 20th October 2022 - 17:23:05) *
Эксгумированные новичков на классе уделывают все же. Джефф Уокер на бэк вокале это уважаемо, но материалец уж больно наивен.

Удивительно, что при всей матерости и заслуженности Exhumed я так и не нашел подход к их музыке, не запоминается ничего совершенно. Причем слушал у них все, и не единожды. При этом и упрекнуть вроде как не в чем - все на месте, звучит отлично - брянькает, цокает где нужно (это образно), да и вокальные дела в полном порядке.
В тоже время уверен, что люди, которые слушают музыку по продакщену (а я таких знаю не мало , вне зависимости от стиля), а не по "цепляемости" иатериала будут вполне обоснованно довольны, с качеством продакшена тут все более чем в порядке.
В любом случае - звучат хорошо и пущай себе звучат.
(3) 6666666, FullofHate, RotAnus,
Oct 21 2022, 22:06:18 Depraved - Dive Into Psycho Terror (2014)
Depraved - 2014 - Dive Into Psycho Terror (mp3@CBR320kbps, 109MB, Digital Artwork)
Register

Enjoy!
(1) Soleil14,
Oct 21 2022, 21:44:14 Inhumate - Abstract Suffering/Grind Your Soul [compilation] (2022)


*Artist: Inhumate
*Album: Abstract Suffering/Grind Your Soul [compilation]
*Year: 2022
*Genre: Grindcore/Death Metal
*Country: France
*Format: mp3@CBR320kbps
*Size: 80MB

Tracklist:
01. Rising Of The Ancient Ones 3:23
02. Abstract Suffering 4:11
03. Earth Fucking Earthv3:55
04. Putrefaction 1:37
05. Court Of The Demons Kneeling To The Throne Of Darkness 2:19
06. Blood 2:50
07. Why 2:15
08. The Dream 1:31
09. Dead (And Lost) 4:51
10. My Sweet Love 3:20
11. Torture 1:48
******************************
Total playing time: 32:00

[more=Extended info]Mighty Bizarre Leprous перeиздали две стартовые демки наистарейшей и наимощнейшей французской grind-формации Inhumate. Однозначно musthave! Материал резвый, четкий и весьма актуальный.
Tracks 1-4 taken from Abstract Suffering (Demo 1993)
Tracks 5-11 taken from Grind Your Soul (Demo 1995)
One CD... two acolutely rare and old demos from year 1993 and 1994. For all those who knows that today´ s world suck ass, bizarre leprous brings this nostalgia classic, from French grindcore masters Inhumate. 90s here we come!!![/more]

[more=Technical info]
Input File: 01. Rising Of The Ancient Ones.mp3
Channels : 2
Sample Rate : 44100
Precision : 16-bit
Duration : 00:03:23.43 = 8971219 samples = 15257.2 CDDA sectors
File Size : 8.48M
Bit Rate : 334k
Sample Encoding: MPEG audio (layer I, II or III)
Comments :
Title=Rising Of The Ancient Ones
Artist=Inhumate
Album=Abstract Suffering / Grind Your Soul
Tracknumber=1
Year=2022

[/more]

Register
(13) artscald, chipsgott, heinz88, hell_armageddon, Hell_Is_Here, LiarOfAngmar, METALHUNTER, Proteus_666, RotAnus, supremo, troll_swamp, vyacheslav, wreak,

43 Pages V   1 2 3 > » 
- Lo-Fi Version Support form
Copyrights and abuse reports form
Time is now: 27th November 2022 - 09:20:44