Welcome Guest ( Log In | Register )

История благодарностей участнику spazm ::: Спасибо сказали: 4724 раз(а)
Дата поста: В теме: За сообщение: Спасибо сказали:
Aug 8 2022, 07:24:14 :tremor - The Tape Was Gold [best of/compilation] (2012)
ЦИТАТА(Ash_1980 @ 8th August 2022 - 09:07:38) *
Перезалейте кто ни будь пожалуйста!

Alc'a что-то давно не видно, так что возьму на себя смелость перезалить:
:tremor - 2012 - The Tape Was Gold (Compilation) (mp3@CBR320kbps, 88MB, Scans)
Register

Enjoy!
(2) Ash_1980, kimkayoung,
Aug 5 2022, 18:14:16 Today Needed
Может у кого-нить остался в 320 Napalm Death & John Zorn - Split Ep?
(1) Veggr,
Jul 13 2022, 14:50:30 Marduk - Panzer Division Marduk (1999)
ЦИТАТА(goxther @ 13th July 2022 - 16:35:14) *
Is there any possibility to reupload it to some other file exchange like mediafire or mega?

Marduk - 1999 - Panzer Division Marduk (Reissue 2020) + 2 Bonustracks from 2008 (mp3@320kbps, 127MB, Full Scans + Other issues scans collection)

Register
(8) Brann, hellbibber, Ingvar, Melusinara, milosdjor, Occultas, thenecromancer, Луч,
Jul 7 2022, 13:21:13 Vicious Art - Demo 2011 [demo] (2011)
Vicious Art - 2011 - Demo 2011 (mp3@CBR320kbps, 28MB, Cover)
Register
(2) hell_armageddon, METALHUNTER,
Jul 7 2022, 13:19:26 Vicious Art - Demo 2003 [demo] (2003)
Vicious Art - 2003 - Demo 2003 (mp3@CBR256kbps, 34MB, Cover)
Register
(1) METALHUNTER,
Jun 26 2022, 16:29:07 Vicious Art - Pick Up This Sick Child (2007)
ЦИТАТА(ivanasyanin @ 26th June 2022 - 15:07:31) *
Re-up pls

Vicious Art - 2007 - Pick Up This Sick Child (mp3@320kbps, 98 MB, Cover)
Register
(3) frostdomain, hell_armageddon, ivanasyanin,
Jun 22 2022, 22:46:43 Anal Pus - Exhumation Of Anal Pus Excretor [demo] (1992)
Чет проморграл, уже же завтра)))
Anal Pus - 1992 - Exhumation Of Anal Pus Excretor (Demo) - Mortal Massacre: Anal Live In Balachiha Village (Demo) (Compilation) (mp3@CBR256kbps, 60MB, Covers)
Register
(2) Wail, wgs73,
Jun 22 2022, 22:17:33 Anal Pus - Exhumation Of Anal Pus Excretor [demo] (1992)
ЦИТАТА(DMIYUR @ 22nd June 2022 - 23:44:44) *
А перезалить можно ?

Завтра залью
(2) DMIYUR, Wail,
Jun 20 2022, 12:56:23 Enochian Crescent - Babalon Patralx De Telocvovim [ep] (1998)
Enochian Crescent - 1998 - Babalon Patralx De Telocvovim (Ep) (mp3@CBR320kbps,42MB, Full Scans)
Register
(4) Alexis The Best, Deni, Occultas, vasiljev_sergej,
Jun 19 2022, 08:01:15 Grindead - Culture Decline/Machines Arise (2022)
ЦИТАТА(Mucupurulence @ 16th June 2022 - 18:27:24) *
релиз крайне порадовал, но собственно, что хочу поведать - благодаря твоему комменту, набрёл на проект их вокалиста - Genocide с которым тоже стоит ознакомиться

Вот как оказывается.. А я не потрудился полазить по проектам, а ведь c Genocide то я знаком, два альбом и демка имеются, правда только в цифре. То то думаю, что то они так неплохо валят, а Genocide то с начала 90х, читай отцы. Вот сейчас на этой ноте и переслушаю.
(1) Mucupurulence,
Jun 16 2022, 07:56:48 Misery & Toxic Narcotic - Split 10'' [split] (2004)
Misery & Toxic Narcotic - 2004 - Split 10'' (Split LP) (mp3@CBR320, 70MB, Covers)
Register
(3) canadaspaceman, hell_armageddon, Wail,
Jun 15 2022, 18:22:23 Grindead - Culture Decline/Machines Arise (2022)
Уххх, прям приятно удивили. Задел под классический grind в духе первых альбомов Brutal Truth и Napalm Death периода Utopa Banished плюс куча разных ништяков в виде вкралений индастриала .
С большим удовольствиtм слушаю, несмотря на огрехи в звуке. Зацепило определенно, видимо мы на одной волне.
(3) Andrew, Mucupurulence, WOLAND,
Jun 14 2022, 07:46:51 Toxic Narcotic - 21st Century Discography [best of/compilation] (2005)
Toxic Narcotic - 2005 - 21st Century Discography (Compilation) (mp3@CBR320kbps, 132MB, Scans)
Register
(3) canadaspaceman, hell_armageddon, Wail,
Jun 10 2022, 07:25:03 Gomorrha - Sexual Perversity By Autopsy (2003)
Gomorrha - 2003 - Sexual Perversity By Autopsy (mp3@CBR320, 192MB, Full Scans)
Register

(1) stumpheavyrock,
Jun 8 2022, 18:35:16 Cryptic Stench - It's A World Of Dirt [demo] (1997)
Cryptic Stench - 320 - It's A World Of Dirt (mp3@CBR320kbps, 50MB, Scans)
Register
(2) sergiowutang7, stumpheavyrock,
Jun 8 2022, 08:14:35 Total Fucking Destruction - …to Be Alive At The End Of The World (2020)
Total Fucking Destruction - 2020 - …to Be Alive At The End Of The World (mp3@CBR320kbps, 50MB, Covers)
Register
(2) hell_armageddon, jared_wanted,
May 31 2022, 14:20:12 Various Artists - Slimewave Goregrind Series [best of/compilation] (2008)
Various Artists - 2008 - Slimewave Goregrind Series (mp3@CBR320, 191MB, Full Scans)
Register
(2) denver, varlam4,
May 27 2022, 19:22:51 Today Needed
ЦИТАТА(Grzechu @ 27th May 2022 - 20:56:13) *
Danzig - Black Aria (1993)
Done
(1) thenecromancer,
May 27 2022, 19:22:09 Danzig - Black Aria (1993)
Danzig - 1993 - Black Aria (mp3CBR@320, 62MB, Scans)
Register
(2) Grzechu, thenecromancer,
Apr 15 2022, 17:50:05 Deathless - Deathless [compilation] (2020)


*Artist: Deathless
*Album: Deathless [compilation]
*Year: 2020
*Genre: Industrial/Doom Metal
*Country: Australia
*Format: mp3@CBR320kbps
*Size: 348MB

Tracklist:
Disc 1 - Disc One: Studio
01. Four Short Moments 08:21
02. Right Life Wrong Context/Afgh:aan 05:01
03. In Unmet Chambers Slain 09:13
04. Storm 2 07:46
05. Heavens Nail 06:48
06. Seenunseen 05:54
07. Inexstasis Remix 03:53
08. Sommanbulist 06:16
09. Honey Ascends 08:02
10. Garden 05:22
11. EPE 02:41
12. Sleep In Torment 03:20

Disc 2 - Disc Two: Tapes
01. The Descent (Of Cabbages and Kings) 03:21
02. Killed by the Hypnotic Bastard 05:58
03. Single Erosion 05:10
04. Under the Wood 05:21
05. Ann Margret 04:40
06. Victim Of The Insane (Trouble) 06:17
07. Black Horizon 05:32
08. Sun Turns Through Ash 06:02
09. Glowering Titania 06:37
10. Father To Son (Bathory) 05:42
11. Vapour 02:46
12. 6.11 12:29
******************************
Total playing time: 2:22:32

[more=Extended info]2-дисковая дискография Industrial Heavy/Doom Metal австралийцев Deathless, к творчеству которой местами приложил свои авторитетные ручки сам Justin K Broadrick (намиксовал им всякого). Сильно лимитированное до 60-ти экз. издание. Интересная команда, со своеобразным стилем и звуком. Тем кто не чурается экспериментов и индастриала в целом - советую. Архив содержит digital scans буклета.
2x pro printed CD-r discs. Housed in a clear half sized double DVD case. Black and white printed insert. Limited to 60 copies worldwide.

[youtube]https://youtu.be/B4CHu5IKejs[/youtube][/more]

[more=Technical info]
Input File: 01 Four Short Moments.mp3
Channels : 2
Sample Rate : 44100
Precision : 16-bit
Duration : 00:08:21.09 = 22097849 samples = 37581.4 CDDA sectors
File Size : 20.1M
Bit Rate : 321k
Sample Encoding: MPEG audio (layer I, II or III)
Comments :
Title=Four Short Moments
Artist=Deathless
Album=S/T
Tracknumber=1
Year=2020

[/more]

Register
(18) artscald, as71, caro, Dante_D, gwar, Hell_Is_Here, infozahist, KKK1488, Olethros, quarantine, Sanctus, snot, stumpheavyrock, supremo, Taakeferd, VALERY, Wail, wreak,
Apr 15 2022, 11:37:53 Contingence - Dominion (1995)


*Artist: Contingence
*Album: Dominion
*Year: 1995
*Genre: Industrial Metal
*Country: United States
*Format: mp3@CBR320kbps
*Size: 128MB

Tracklist:
01. Synopsis II.C5.IX-V 05:25
02. Fusion 05:12
03. The Schismastisist 04:49
04. Bioconfigurations 04:03
05. Fellacious Doctrine 07:14
06. Mordant Atrophy 05:20
07. Nocturnal Sedation 04:35
08. Compulsion To Kill 04:28
09. Illusion Of The Beast 05:28
10. Incarceration Unavowed 06:23
******************************
Total playing time: 52:57

[more=Extended info]FLAC-Rip + Scans
Deprogrammed Productions – DPRG-0001
[youtube]GqEAYYxerVc[/youtube][/more]

[more=Technical info]
Input File: 01 - Synopsis II.C5.IX-V.mp3
Channels : 2
Sample Rate : 44100
Precision : 16-bit
Duration : 00:05:25.61 = 14359313 samples = 24420.6 CDDA sectors
File Size : 13.0M
Bit Rate : 320k
Sample Encoding: MPEG audio (layer I, II or III)

[/more]

Register
(9) as71, gwar, Hell_Is_Here, kimkayoung, KKK1488, Olethros, Proteus_666, Shadechaser, zakroiotkroev,
Apr 1 2022, 16:07:09 Dusk - The Relic (2022)
А вполне себе интересный атмосферик блэк-индастриал. Послушал с удовольствием, вероятно даже переслушаю.
Первый их альбом Epoka и EP Eko были немного топорными чисто индустриальными релизами? местами даже с прожилками техно и дабстепа - эксперементальщина чистой воды. А вот с Threnody уже пошла годнота.
(2) as71, Сварог Барг,
Mar 29 2022, 21:52:41 Brujeria - Rainichi Kinen Ban Japan Edition 2020 [compilation] (2020)


*Artist: Brujeria
*Album: Rainichi Kinen Ban Japan Edition 2020 [compilation]
*Year: 2020
*Genre: Death Metal/Grindcore
*Country: International
*Format: mp3@CBR320kbps
*Size: 74MB

Tracklist:
01. Viva Presidente Trump! 03:31
02. Pared De Muerte 02:10
03. Amaricon Czar 03:46
04. Lord Nazi Ruso 03:08
05. Angel De La Frontera (Live) 03:11
06. Satongo (Live) 03:41
07. Viva Presidente Trump! (Live) 02:51
******************************
Total playing time: 22:18

[more=Extended info]FLAC Rip, Full scans included

Сборка EP и неизданных концертных треков.
Полное название Rainichi Kinen Ban Japan Edition 2020, или сокращенно Japan Edition 2020.

Limited to 1500 copies.
Track 1 and 2: from the 7"EP "Viva Presidente Trump!"
Track 3 and 4: from the 7"EP "Amaricon Czar"
Track 5, 6 and 7: Live San Antonio, Texas January 2017, USA
Booklet with the texts of the EP tracks and text sheet with the titles of the live tracks.
Including a sticker with a picture of the front cover of the "Viva Presidente Trump!" EP
Licensed from NUCLEAR BLAST ENTERTAINMENT[/more]

[more=Technical info]
Input File: 01 - Viva Presidente Trump!.mp3
Channels : 2
Sample Rate : 44100
Precision : 16-bit
Duration : 00:03:32.52 = 9372176 samples = 15939.1 CDDA sectors
File Size : 9.07M
Bit Rate : 341k
Sample Encoding: MPEG audio (layer I, II or III)
Comments :
Title=Viva Presidente Trump!
Artist=Brujeria
Album=Japan Edition 2020
Tracknumber=1
Year=2020

[/more]

Register
(28) A.L.Rapsod, AHBAnep, AndreFrancis, artscald, cancer1974, caro, chipsgott, dcatagua, Deada, Emm Human, Grev, gwar, hell_armageddon, Hell_Is_Here, igore2911, kimkayoung, Lanceatum, martintrue, METALHUNTER, Olethros, Reverend, stumpheavyrock, supremo, Taakeferd, varlam4, WOLAND, wreak, WX419,
Mar 29 2022, 21:27:48 Rattler - Sanctum Regnum (1993)
Rattler - 1993 - Sanctum Regnum (mp3@CBR320kbps, 132MB, Covers)
Register

(4) hell_armageddon, Wail, wreak, Xtohar,
Mar 16 2022, 20:48:32 Chococrispis - Love-Gastronomy (1996)
Chococrispis - 1996 - Love-Gastronomy (mp3@CBR192kbps, 70MB, Covers)
Register
(2) as71, wreak,

40 Pages V   1 2 3 > » 
- Lo-Fi Version Support form
Copyrights and abuse reports form
Time is now: 14th August 2022 - 01:11:03