Welcome Guest ( Log In | Register )

История благодарностей участнику spazm ::: Спасибо сказали: 6641 раз(а)
Дата поста: В теме: За сообщение: Спасибо сказали:
Feb 22 2024, 20:01:17 Brutal Truth - Sounds Of The Animal Kingdom/Kill Trend Suicide [compilation] (2006)
ATTENTION! Mediafire link is reuploaded!
Also added Megaupload link:
Register
(4) BlackSwordMaster88, ErickLeoni, hell_armageddon, Reverend,
Feb 22 2024, 18:53:12 Brutal Truth - Sounds Of The Animal Kingdom/Kill Trend Suicide [compilation] (2006)
ЦИТАТА(ErickLeoni @ 22nd February 2024 - 16:20:24) *
Mediafire is brokin' some links so fast...can you use other server?

Links are alive, try again
(1) Mucupurulence,
Feb 22 2024, 13:20:33 Melvins & Brutal Truth - How-++-Harry Lauders Walking Stick Tree/Zodiac [split] (1997)


*Artist: Melvins & Brutal Truth
*Album: How-++-Harry Lauders Walking Stick Tree/Zodiac [split]
*Year: 1997
*Genre: Stoner/Sludge/Experimental | Death Metal/Grindcore
*Country: United States | United States
*Format: mp3@CBR320kbps
*Size: 18MB

Tracklist:
Melvins:
01. How-++-Harry Lauders Walking Stick Tree 3:29
Brutal Truth:
02. Zodiac 3:37
******************************
Total playing time: 7:06

[more=Extended info]Artworks included
Mastered At – Nashville Record Productions – NR-20394
Edition of 800 copies.
Track B was written by the Melvins and not by Brutal Truth as erroneously credited on the release.[/more]

[more=Technical info]
Input File: A1 - Melvins - How-++-Harry Lauders Walking Stick Tree.mp3
Channels : 2
Sample Rate : 44100
Precision : 16-bit
Duration : 00:03:29.46 = 9237010 samples = 15709.2 CDDA sectors
File Size : 8.38M
Bit Rate : 320k
Sample Encoding: MPEG audio (layer I, II or III)
Comments :
Title=How-++-Harry Lauders Walking Stick Tree
Artist=Melvins
Tracknumber=01

[/more]

Register
(5) artscald, BlackSwordMaster88, Grev, hell_armageddon, stumpheavyrock,
Feb 22 2024, 11:58:44 Brutal Truth - Round Two [ep] (2008)
Brutal Truth - 2006 - Round Two (Ep) (mp3@CBR320kbps?, 17MB, Scans)
Register
(1) hell_armageddon,
Feb 22 2024, 11:52:21 Brutal Truth & Spazztic Blurr - Demo #1, Feb. 26., 1990/Demo #1, Oct. 20., 1986 [split] (1999)


*Artist: Brutal Truth & Spazztic Blurr
*Album: Demo #1, Feb. 26., 1990/Demo #1, Oct. 20., 1986 [split]
*Year: 1999
*Genre: Death Metal/Grindcore | Thrash/Hardcore/Crossover
*Country: United States | United States
*Format: mp3@CBR320kbps
*Size: 79MB

Tracklist:
Brutal Truth:
01. Birth Of Ignorance 3:41
02. Stench Of Prophet 1:36
03. Anti-Homophobe 3:07
04. Consumer Mentality 3:14

Spazztic Blurr:
05. Bedrock Blurr 1:13
06. ABC's 0:19
07. Spazztic Puke 3:04
08. Bonanza Blurr-50 1:44
09. Let There Be Blurr 1:17
10. Wipe Out 3:14
11. Jiven Rhyme 0:56
12. Call In Sick 1:29
13. Mexacalli 7:13
******************************
Total playing time: 32:07

[more=Extended info]Artworks included
Неофициальный сплит издан Stop Torture Records ограниченным тиражом 250 копий.
Brutal Truth: Birth Of Ignorance (Demo 1990)
Spazztic Blurr: Bedrock Blurr (Demo 1986)[/more]

[more=Technical info]
Input File: A1 - Brutal Truth - Birth Of Ignorance.mp3
Channels : 2
Sample Rate : 44100
Precision : 16-bit
Duration : 00:03:41.27 = 9758095 samples = 16595.4 CDDA sectors
File Size : 8.91M
Bit Rate : 322k
Sample Encoding: MPEG audio (layer I, II or III)
Comments :
Title=Birth Of Ignorance
Artist=Brutal Truth
Album=Demo #1, Oct. 20., 1986. / Demo #1, Feb. 26., 1990.
Year=1999
Genre=Hardcore, Grindcore

[/more]

Register
(7) artscald, BlackSwordMaster88, canadaspaceman, chipsgott, Grev, hell_armageddon, stumpheavyrock,
Feb 22 2024, 10:59:07 Brutal Truth - Sounds Of The Animal Kingdom/Kill Trend Suicide [compilation] (2006)


*Artist: Brutal Truth
*Album: Sounds Of The Animal Kingdom/Kill Trend Suicide [compilation]
*Year: 2006
*Genre: Death Metal/Grindcore
*Country: United States
*Format: mp3@CBR320kbps
*Size: 198MB

Tracklist:
Sounds Of The Animal Kingdom:
01. Dementia 2:04
02. K.A.P. (Kill All Politicians) 1:23
03. Vision 0:48
04. Fucktoy 1:23
05. Jemenez Cricket 3:40
06. Soft Mind 1:03
07. Average People (Fiend) 2:18
08. Blue World 7:14
09. Callous 0:11
10. Fisting 1:19
11. Die Laughing 3:08
12. Dead Smart 3:04
13. Sympathy Kiss 4:54
14. Pork Farm 1:50
15. Promise 2:19
16. Foolish Bastard 1:08
17. Postulate Then Liberate 1:40
18. It's After The End Of The World 2:08
19. Machine Parts 4:23
Kill Trend Suicide:
20. Blind Leading The Blind 1:47
21. Pass Some Down 2:03
22. Let's Go To War 1:27
23. Hypocrite Invasion 2:52
24. Everflow 1:01
25. Zombie 2:40
26. Homesick 1:16
27. Humanity's Folly 2:48
28. I Killed My Family 2:42
29. Kill Trend Suicide 2:36
30. Prey 0:41
******************************
Total playing time: 1:07:50

[more=Extended info]Full scans included.
Официальная компиляция от компиляция от Releapse, состоящая из двух зyаковых альбомов Brutal Truth - Sounds Of The Animal Kingdom и Kill Trend Suicide прошедших полный ремастеринг.

Brutal Truth created recordings that left no jaw unfloor. SOUNDS OF THE ANIMAL KINGDOM painted frightening, Pollock-esque lyrical images of human de-evolution and technological dehumanization while twenty twisting tunes embodied the definitive musical expression of survival of the fittest. KILL TREND SUICIDE negated the entrenched musical trends of the day while confronting the downward spiral of our decaying society and the emotional suffocation of city life. Here they are combined in one larger then life package; repackaged, remastered and replete with video footage and more.

"This band carries an aura and character few in the entire death/grind/crust categories possess.Firing on all cylinders, all at once, all in tandem, BRUTAL TRUTH are one of the hottest bands going ...they are shit-hot, and nobody can even compare." - Terrorizer
"BRUTAL TRUTH left a legacy of grind few have matched." - Decibel "
the ultimate grind kings of the 90's" - Metal Maniacs[/more]

[more=Technical info]
Input File: 01 - Dementia.mp3
Channels : 2
Sample Rate : 44100
Precision : 16-bit
Duration : 00:02:04.22 = 5478190 samples = 9316.65 CDDA sectors
File Size : 5.30M
Bit Rate : 341k
Sample Encoding: MPEG audio (layer I, II or III)
Comments :
Title=Dementia
Artist=Brutal Truth
Album=Sounds Of The Animal Kingdom & Kill Trend Suicide
Tracknumber=1
Year=2006
Genre=Grindcore

[/more]

Register
(6) artscald, BlackSwordMaster88, Grev, Mucupurulence, Reverend, stumpheavyrock,
Feb 12 2024, 07:37:29 Orphanage - Inside (2000)
Orphanage - 2000 - Inside (mp3@CBR320, 147MB, Full Scans)
Register

Enjoy!
(2) Izverg, rebornflms95,
Feb 12 2024, 07:32:59 Today Needed
ЦИТАТА(kipelov999 @ 11th February 2024 - 14:44:25) *
Vibrion - Diseased (1995)

Done

ЦИТАТА(ErickLeoni @ 11th February 2024 - 06:41:24) *
Orphanage - Inside (2000)

Done
(2) kipelov999, rebornflms95,
Feb 12 2024, 07:25:41 Vibrion - Diseased (1995)
Vibrion - 1995 - Diseased & Instinct (Ep) (mp3@CBR320, 144MB, Full Scans)
Register
(1) hell_armageddon,
Feb 10 2024, 17:13:59 Unholy Grave - Hatred? (1997)
ЦИТАТА(frost @ 10th February 2024 - 18:25:42) *
Други, помогите!
UNHOLY GRAVE вы загрузите!

Unholy Grave - 1997 - Hatred? (mp3@CBR192kbps, 56MB, Covers)
Register
(3) deamonmotherloveson, stumpheavyrock, Wail,
Feb 9 2024, 22:27:35 Squash Bowels - Dead?...Not Yet!!! [compilation] (2023)


*Artist: Squash Bowels
*Album: Dead?...Not Yet!!! [compilation]
*Year: 2023
*Genre: Goregrind
*Country: Poland
*Format: mp3@CBR320kbps
*Size: 115MB

Tracklist:
01. Noise Product 2:11
02. Surge Of Assurance 2:23
03. A Suspect 2:07
04. New Standards 1:32
05. More Our Colours 2:12
06. Medical Exhibition 2:22
07. Logopedic Formalism 0:35
08. Stumpers 3:09
09. The Grind Core-Spondent 1:16
10. Soundmind 0:47
11. Year-Noise-Chaos (Bonus Track) 0:46
12. Guzzling Away From Inside (Intro) 0:51
13. The Sickening 2:12
14. Interpersonal Relations 3:11
15. Human Acceleration 1:36
16. Greetings From Poland 2:22
17. Right To Live 0:36
18. Disharmonized Voices (Outro) 0:36
19. Mutilations Corporations (Bonus Track) 1:30
20. Regulation Peoples Fear 1:01
21. Tested Creatures 0:55
22. Lustmord 1:18
23. More Our Colours 2:07
24. Victims 1:21
25. Human Acceleration 1:17
26. Old Things 1:14
27. Mad Dentist (Bonus Track) 1:19
******************************
Total playing time: 42:46

[more=Extended info]Scans included

Tracks A1-A10 from demo tape "Dead?!" (1995)...
A11 is bonus track
Tracks B1-B7 from demo tape "Fürgott" (1994)...
Track B8 is bonus track
Track B9-B15 from demo tape "International Devastation" (1997)...
Track B16 is bonus track
Limited to 500 copies /100 transparent red and 400 black vinyl. All with Japan style OBI![/more]

[more=Technical info]
Input File: 01. Noise Product.mp3
Channels : 2
Sample Rate : 44100
Precision : 16-bit
Duration : 00:02:11.07 = 5780011 samples = 9829.95 CDDA sectors
File Size : 5.48M
Bit Rate : 334k
Sample Encoding: MPEG audio (layer I, II or III)
Comments :
Title=Noise Product
Artist=Squash Bowels
Album=Dead???....Not Yet!!!
Tracknumber=1/27
Year=2023
Genre=Metal

[/more]

Register
(15) alikkon, Altkiller, artscald, Carcharoth, coresh, DarkHorde, Grev, Lanceatum, Mucupurulence, Proteus_666, vyacheslav, Wail, wreak, WX419, xariton,
Feb 8 2024, 08:13:39 Ancestral - The Unforgotten Years 1993 - 1994 [compilation] (2022)
Ancestral - 2022 - The Unforgotten Years 1993 - 1994 (Compilation) (mp3@CBR320, 107MB, Full Scans)
Register

Enjoy! smile3.gif
(3) hell_armageddon, Proteus_666, Wail,
Jan 16 2024, 08:14:14 Dark Opera - The Journey To The Both Paths Of Life, Sins And Resurrection [compilation] (2019)


*Artist: Dark Opera
*Album: The Journey To The Both Paths Of Life, Sins And Resurrection [compilation]
*Year: 2019
*Genre: Death/Doom Metal
*Country: Poland
*Format: mp3@CBR320kbps
*Size: 166MB

Tracklist:
01. Koyanis Quatsi - From the Hopi Prophecies 5:56
02. To the Ashes 3:54
03. The Road to Shallah 5:37
04. The Fall 3:51
05. Farthest Shore 2:01
06. The Key to Unknown + The End of Crimson 3:44
07. Calling the Legend 5:42
08. Sins of Thunder 5:39
09. The Darkest Stone 5:08
10. Throne of Tears 5:08
11. The Day Of Pariah 3:38
12. Jonas Last Escape 2:32
13. The Song Of Sadness 3:21
14. The First Infinite Words 3:40
15. Traveller In Time 4:53
******************************
Total playing time: 1:04:44

[more=Extended info]
Full scans inside
Tracks 1-10 taken from "Calling the Legend" - album 1994.
Tracks 11-15 taken from "The Day of Pariah" - demo 1992.
[youtube]lpCyNaX2IeM[/youtube]
For the first time on CD two materials of legendary DARK OPERA band: album "Calling The Legend" from 1994 and demo "The Day Of Pariah" from 1992. After a long search of appropriate materials, drudgery at ripping from tapes, without interference in sound with the special atmosphere of that time we receive music that brings us into the ancient, raw, dark beginnings of the 90s. "The Journey to the Both Paths of Life, Sins and Resurection" is over an hour of Death / Black / Doom metal. Booklet contains texts and unique photos, clippings from zines with interviews, information about the band. Especially for this release graphics was created by Bartek Kurzok. Gold CD. All copies are hand-numbered.
credits
released October 20, 2019
[/more]

[more=Technical info]
Input File: 01 - Koyanis Quatsi - From The Hopi Prophecies.mp3
Channels : 2
Sample Rate : 44100
Precision : 16-bit
Duration : 00:05:56.28 = 15711948 samples = 26721 CDDA sectors
File Size : 14.4M
Bit Rate : 324k
Sample Encoding: MPEG audio (layer I, II or III)
Comments :
Title=Koyanis Quatsi - From the Hopi Prophecies
Artist=Dark Opera
Album=The Journey to the Both Paths of Life, Sins and Resurection
Tracknumber=1
Year=2019
Genre=Death Metal

[/more]

Register
(22) AHBAnep, artscald, Grev, grobator, hell_armageddon, kimkayoung, LiarOfAngmar, MP101M, Proteus_666, quarantine, Reverend, russ777, sacrut, sergsazan, stumpheavyrock, supremo, VALERY, vyacheslav, Wail, Woosad, wreak, Xtohar,
Jan 11 2024, 13:43:27 Mortem - Filicide (2000)
ЦИТАТА(ivanvarg @ 11th January 2024 - 13:06:41) *
Можете перезалить пожалуйста?

Mortem - 2000 - Filicide (mp3@CBR320, 96MB, Full Scans (Souz & Musickness))
Register

Enjoy! smile3.gif
(1) ivanvarg,
Dec 27 2023, 19:03:42 Interment & Brutally Deceased - Glory Days, Festering Years [split] (2013)


*Artist: Interment & Brutally Deceased
*Album: Glory Days, Festering Years [split]
*Year: 2013
*Genre: Death Metal | Death Metal
*Country: Sweden | Czech Republic
*Format: mp3@CBR320kbps
*Size: 60MB

Tracklist:
Interment:
01. Among The Dead 03:59
02. Faces Of Death 03:40
03. Cranial Putrefaction 05:07
Brutally Deceased:
04. Deceased 03:38
05. Bloodstreams 03:55
06. Waking The Lifeless 03:50
******************************
Total playing time: 24:09

[more=Extended info]Interment
Brutally Deceased
Artworks included.
[youtube]4BXEjBfMMp8[/youtube]
Review from VoicesfromthedarksideWebzine “Classic Swedish Death Metal” like sounding bands (both newcomers and the dinosaurs that made a comeback) and splits are some of the most typical “hit and miss” things yours truly could ever think about, but once a release carries the logo of the Swedish INTERMENT – it’s surely worth to check out. My personal introduction to INTERMENT’s music was through their excellent split with FUNEBRARUM, where both the new tracks and the ‘Into The Grave’ cover sounded like this band had never been on a long hiatus. A reissue of INTERMENT’s old demos and an extremely well produced debut full length album followed and now, 3 years later – INTERMENT provide 3 new tracks, in collaboration with the Czech “Svenskdodsphilliacs” BRUTALLY DECEASED. Fortunately, it’s not a case of a “1-sided” split, where only one band delivers good tracks. Fans of INTERMENT know what to expect and shouldn’t be disappointed. The production, however, is a slight step back from the full length. While the drums still sound great, very organic and without any annoying clicky bass drum sound whatsoever, they sound slightly less powerful than they do in the album. Pretty much muting the bass drum is an awesome idea, though, which I wish that many other extreme Metal bands had used. INTERMENT’s guitar tone is colder on this split than it is in the album, but those who aren’t super pretentious about production probably won’t care about it much. Overall – INTERMENT delivers again, and BRUTALLY DECEASED will make die hard Swedish Death fans satisfied as well. They are heavily influenced by GRAVE and it’s pretty much all that is needed to describe what they have to offer, but they do stand out production-wise (in a very good way!), they know how to write good riffs and their vocals sound horrific in a very impressive way. While originality is not their strong side, they do have the quality that many other bands that attempt to create something similar lack. When all is said and done – there is not much new under the sun, but it’s still a rare case of a “double sided” split, which is fun to listen to from start to finish. For all further information check out www.doomentia.com,
(c) Voicesfromthedarkside[/more]

[more=Technical info]
Input File: 01. Interment - Among The Dead.mp3
Channels : 2
Sample Rate : 44100
Precision : 16-bit
Duration : 00:03:59.43 = 10558775 samples = 17957.1 CDDA sectors
File Size : 9.62M
Bit Rate : 322k
Sample Encoding: MPEG audio (layer I, II or III)
Comments :
Title=Among The Dead
Artist=Interment
Album=Glory Days, Festering Years
Tracknumber=01/06
Year=2013
Genre=Death Metal

[/more]

Register
(15) AHBAnep, artscald, Bardo, canco994, hell_armageddon, Hell_Is_Here, kryptor, Mist13Signifier, Proteus_666, Purestenchkvlt, stumpheavyrock, supremo, VALERY, Wail, wreak,
Dec 26 2023, 12:34:11 Today Needed
Просьба помочь найти
Capitalist Casualties - 1999 - Subdivisions In Ruin в 320 или FLAC by mayhemehyam Thanx, 9.gif !
(1) mayhemehyam,
Dec 25 2023, 10:36:45 Gore Beyond Necropsy - Noisexcretass Asshole [best of/compilation] (1997)
Gore Beyond Necropsy - 1997 - Noisexcretass Asshole (Compilation) (mp3@CBR320kbps, 104MB, Scans)
Register
(4) hell_armageddon, Mucupurulence, stumpheavyrock, YBergen,
Dec 21 2023, 15:30:14 Bolt Thrower - ...for Victory (1994)
Bolt Thrower - 1994 - ...For Victory & Live War (2CD) (mp3@CBR320, 207MB, Full Scans)
Register

Limited 2 CD edition that includes the album, and a bonus live cd called "Live War" recorded in Manchester, England, in 1992.
Enjoy! smile3.gif
(3) Deada, milosdjor, Occultas,
Nov 21 2023, 12:17:40 Today Needed
Имеется ли у кого в 320/FLAC? - Damnable / Incarnated - 1998 - Split thanx, mayhemehyam!! 9.gif
(1) mayhemehyam,
Nov 5 2023, 22:56:52 Various Artists - Napalm Death: You Suffer Tribute [compilation] (2011)


*Artist: Various Artists
*Album: Napalm Death: You Suffer Tribute [compilation]
*Year: 2011
*Genre: Death Metal/Grindcore
*Country: International
*Format: mp3@CBR320kbps
*Size: 304MB

Tracklist:
01. 36 Hourshifts – You Suffer (But Me) 0:03
02. A 1976C – You Suffer (Sickbrain) 5:02
03. A Rotten Bit – You Suffer (And The Game Is Over) 0:01
04 .Alex Charles – You Suffer (Lye High Street Dawning Fear Mix) 1:00
05. Ars Sonor – You Suffer (Loco) 3:15
06. Arseterror – You Suffer (I Know Why) 0:04
07. Automageddon – You Suffer (A Reason Why Remix) 2:19
08. Autosomal – You Suffer (In Your Imaginary World, Asolutely Not Linked With The Real One) 0:13
09. Awesome Bin Laden – You Suffer (Butt Wipe) 0:02
10. Bah, Tsar Jenny Troth – You Suffer (You, Suffer) 0:03
11. Bangkai Angsa – You Suffer (Njuk Ngopo) 0:45
12. Bavel – You Suffer (Cover) 0:58
13. Bedawang – You Suffer (Dukkha Karma) 0:05
14. Beta – You Suffer (I Hope So) 0:04
15. Brian McParland – You Suffer (Unplugged) 0:20
16. Cocaine Wolf – You Suffer (From Latvia With Love) 4:20
17. Contraband – You Suffer (Trisectrix Of Daath) 11:06
18. Crude Assembly – You Suffer (Fools Gladly) 1:18
19. .Cybergenics. – You Suffer (But Why So Serious) 0:26
20. Dao De Noize – You Suffer (Dao Suffering) 1:01
21. Der Domestizierte Mensch – You Suffer (Endloses Leid Remix) 1:08
22. Deutsches Kulturgut – You Suffer (Underwaterlove Mix) 6:31
23. Divine Shell – You Suffer (Because You're A Stupid Fuck) 0:34
24. DJ Mo)))Dara – You Suffer (Napalm Death Cover) 0:11
25. Duga-3 – You Suffer (Вы страдаете) 0:48
26. Dust Cult – You Suffer (33 12 RPM) 0:11
27. Fall The Wall – You Suffer (Fall The Wall Remix) 0:09
28. False Flag – You Suffer (Dick Cheney) 0:03
29. Fatal Position – You Suffer (Cover) 0:03
30. Froze.Hatech - You Suffer (Smashed Down Mix) 1:13
31. Gay Napalm Death – You Suffer (Butt Guys) 0:02
32. Gefilte Fist – You Suffer (Ohkaye) 0:10
33. Gymnastic Decomposition - You Suffer (Your Sinclair, But Why) 0:01
34. H-LR - You Suffer (Ein Somchin Al Haness) 0:06
35. Hell Garbage – You Suffer (17 Times) 0:33
36. HuruHara 696 – You Suffer (Kaos Remix By Harshziqr) 0:27
37. Hyaena Fierling Reich – You Suffer (No More) 0:54
38. Image Boosters – You Suffer (Napalm Death Cover) 1:07
39. Inanition – You Suffer (In Anonymity) 4:21
40. Individual Distortion – You Suffer (Because You Cheated On Me You Bitch) 0:03
41. Jason Kavanagh – You Suffer (And Yet You Still Persist) 3:15
42. Jef der Dood – You Suffer (Danceable) 0:17
43. Kai Nobuko – You Suffer (YoYo, You Hip Hop Napalm Sniffer Of Death) 0:01
44. Kopfschmerztablette – You Suffer (Death Nepalm) 1:57
45. Krang – You Suffer (Burst Violence) 0:02
46. Kroglor – You Suffer (Yeh) 0:05
47. Krokodil – You Suffer (Wololo) 0:25
48. Krusher – You Suffer (But Why Are You Such A Stupid Asshole) 0:04
49. Kustaasiitaakun – You Suffer (Cover) 0:03
50. Lackthrow – You Suffer (Because You Truly Care) 0:13
51. Let's Fight! – You Suffer (Even Though You Could Be Happy) 0:56
52. Lezet – You Suffer (Sungazer's Woe) 0:06
53. Lord CMH – You Suffer (Acapella) 0:05
54. Luca Sigurtà – You Suffer (In Silence) 0:37
55. M.Nomized– You Suffer (Flux Tab Mix) 3:56
56. Marax – You Suffer (Long Time Coming) 7:57
57. Marrow – You Suffer (ReffuS UoY) 3:02
58. Matt Kiefer – You Suffer (In A Blank Room) 3:37
59. Misantronics – You Suffer (The Decency) 0:29
60. Mitä? – You Suffer (Napalm Death Live In The '80s Edit) 0:04
61. Molestia Auricularum – You Suffer (And So On) 1:21
62. Mutate – You Suffer (Original Lyrics) 1:28
63. My Terminal And The Trip – You Suffer (Cover) 0:23
64. Necrotic Goatslaughter – You Suffer (Napalm Death Cover) 0:02
65. Newton – You Suffer (Saturday Mourning Mix) 0:58
66. O.S.I.S. – You Suffer (Even Longer Now Remix) 0:57
67. Oli Traylen – You Suffer (Poolparty) 0:09
68. Out of 20 – You Suffer (Fran Drescher) 0:02
69. Picadillo Genital – You Suffer (Joe Super Song) 0:06
70. Plague Rages – You Suffer (We Don´t Suffer. Do You Know Why) 0:01
71. Pollux – You Suffer (Vocal Drone Version) 0:21
72. Porion – You Suffer (Po Po Po) 4:14
73. Problem Anderer Leute – You Suffer (Selfdestruction) 4:32
74. PROJEKT666:SATANOISE – You Suffer (Tribute To Napalm Death) 0:03
75. Radu Kakarath – You Suffer (Extendoom Mix) 0:19
76. Ralph Brown – You Suffer (Extratone Rmx) 1:25
77. Rectal Twat – You Suffer (Cover) 0:03
78. Repulsive Vision – You Suffer (24 Years Of Suffering) 0:20
79. Rolna – You Suffer (In Your Thoughts) 0:27
80. Sean D. Cooper Marquardt – You Suffer (Noise Bent Remix In A Silent Way) 0:15
81. Sete Star Sept – You Suffer (Version 1) 0:01
82. sicx – You Suffer (In Sexual Intercourse) 0:14
83. Sighell – You Suffer (Suffer It Remix) 0:29
84. Simiapath – You Suffer (Billy) 2:34
85. Sleep Of Ages – You Suffer (G.A.C.) 0:03
86. Stress Disorder – You Suffer (..But I Stay Fly) 6:28
87. Supercrabs – You Suffer (Cover) 0:03
88. T-Bone McFlargle – You Suffer (Bow Bow Bow) 3:00
89. The Dan Haynes Experience – You Suffer (Pringles Can Remix) 0:57
90. The PanCake Mafia – You Suffer (Cheesydogcreamcat) 3:16
91. To-Bo – You Suffer (Napalm Macht Frei) 1:55
92. Toxic Chicken – You Suffer (Napalm Death Retarded Clown Cover) 0:02
93. TrashnoiseR – You Suffer (Ed) 0:07
94. Tuliterä – You Suffer (Cover) 0:03
95. Verbalizer – You Suffer (Bastard Drone Deconstruction) 6:35
96. Vrendeferl – You Suffer (Napalm Death Cover) 2:29
97. Word Or Object – You Suffer (Hopelessly) 0:09
98. Å – You Suffer (And You Like It) 0:05
99. Your Name – You Suffer (Until Death Separates Us) 0:06
100. Zeron Unit – You Suffer (Napalm Breath) 0:05
******************************
Total playing time: 2:04:18

[more=Extended info]100 artists, 100 different versions of You Suffer! Tracks in no particular order and to be played on shuffle. Full scans included.

Sirona rec: Two months it took us to gather 100 artists from all over the world through the social network site facebook to give tribute to Napalm Death's most well known track. The result is likely one of the most diverse tribute compilations ever: covers, remixes, remakes and extremely personal interpretations of what You Suffer means to the artists, covering genres like spoken word, acoustic, noise, drone, dark ambient, dance, punk, circuit bend, grind, doom, scream, what have you. Released through the netlabel Sirona Records and free for everyone.

Barney from ND about the compilation:
The band was honored recently with a compilation CD where more than 100 bands covered your 2 second song “You Suffer” from the Scum album. What was your response to that?
I thought it was brilliant, absolutely such a good idea. Proper cover albums are very flattering, but they for the most part just pay tribute. But this takes a whole raft of bands of different styles and they are doing their own takes. The bands put their own spin on it. It's a breath of fresh air as covers albums go. It's a great idea all around.
source: heavymetal.about[/more]

[more=Technical info]
Input File: 001 - 36 Hourshifts - You Suffer (But Me).mp3
Channels : 2
Sample Rate : 44100
Precision : 16-bit
Duration : 00:00:08.31 = 366471 samples = 623.25 CDDA sectors
File Size : 477k
Bit Rate : 460k
Sample Encoding: MPEG audio (layer I, II or III)
Comments :
Title=You Suffer (But Me)
Artist=36 Hourshifts
Album=Napalm Death You Suffer Tribute Compilation
Year=2011

[/more]

Register
(12) artscald, as71, Carcharoth, Grev, Hell_Is_Here, khestanow3001, p4B10, philfoden, popen13, supremo, Wail, wreak,
Nov 1 2023, 08:57:15 Cadaverous Condition - Eisbär 90210 [ep] (1995)


*Artist: Cadaverous Condition
*Album: Eisbär 90210 [ep]
*Year: 1995
*Genre: Death Metal/Neofolk/Industrial
*Country: Austria
*Format: mp3@CBR320kbps
*Size: 52MB

Tracklist:
01. Underneath Stars Without A Sky 3:13
02. Eisbär 90210 (Grauzone cover) 4:31
03. Fall Apart (Death In June cover) 2:25
04. Nadja 5:13
05. Eisbaer (Grauzone cover) 3:53
******************************
Total playing time: 19:15

[more=Extended info]Для пополнения дискографии. Scans included.

[youtube]cTViFDZgxNs[/youtube]

Released in cooperation with Teutonic Existence Records.
Comes with 4 page booklet. Catalogue number on the spine: starry / yoni 1
Track 3 contains an excerpt from "In the Heart of the Wood and What I Found There" by David Tibet (Current 93).
Track 5 taken from "In Melancholy" album (1993).
Tracks 1-4 recorded and mixed at Spastic Brain Cookies for Breakfast Studio.
Track 5 recorded at Vienna Power Station.
Recorded in 1993-1994.[/more]

[more=Technical info]
Input File: 01. Underneath Stars Without A Sky.mp3
Channels : 2
Sample Rate : 44100
Precision : 16-bit
Duration : 00:03:13.40 = 8528720 samples = 14504.6 CDDA sectors
File Size : 7.74M
Bit Rate : 320k
Sample Encoding: MPEG audio (layer I, II or III)
Comments :
Title=Underneath Stars Without A Sky
Artist=Cadaverous Condition
Album=Eisbär 90210
Tracknumber=1/5
Year=1995
Genre=Death Metal

[/more]

Register
(17) artscald, Dante_D, darksmith, fuckyou666, Grev, gwar, Hell_Is_Here, kim666, kostja, kryptor, Paradayz, Piriaka_Power_Station, Proteus_666, thenecromancer, vyacheslav, wreak, zhol,
Nov 1 2023, 08:43:02 Kara Cephe & Cadaverous Condition - Floorshow (Single) [collaboration] (2014)


*Artist: Kara Cephe & Cadaverous Condition
*Album: Floorshow (Single) [collaboration]
*Year: 2014
*Genre: Industrial Metal | Death Metal/Neofolk
*Country: Turkey | Austria
*Format: mp3@CBR320kbps
*Size: 22MB

Tracklist:
1. Floorshow (2021 mix) (The Sisters Of Mercy cover) 04:20
2. Floorshow (The Sisters Of Mercy cover) 04:20
******************************
Total playing time: 8:40

[more=Extended info][youtube]uQif7LJrL7I[/youtube]
Written by Andrew Eldritch, Craig Adams & Gary Marx, released May 20, 2014.
THE SISTERS OF MERCY coverversion by KARA CEPHE featuring Wolfgang Weiss on vocals.

Для пополнения дискографии.
Written by Andrew Eldritch, Craig Adams & Gary Marx[/more]

[more=Technical info]
Input File: 01 - Floorshow (2021 Mix).mp3
Channels : 2
Sample Rate : 44100
Precision : 16-bit
Duration : 00:04:20.09 = 11470057 samples = 19506.9 CDDA sectors
File Size : 10.5M
Bit Rate : 323k
Sample Encoding: MPEG audio (layer I, II or III)
Comments :
Title=Floorshow (2021 Mix)
Artist=Kara Cephe & Cadaverous Condition
Album=Floorshow
Tracknumber=1
Year=2014

[/more]

Register
(7) artscald, Dante_D, fuckyou666, Grev, gwar, Hell_Is_Here, wreak,
Oct 27 2023, 11:31:14 Swarrrm - 焦​が​せ (Kogase) (2023)


*Artist: Swarrrm
*Album: 焦​が​せ (Kogase)
*Year: 2023
*Genre: Experimental Death Metal/Grindcore/Spoken Word
*Country: Japan
*Format: mp3@CBR320kbps
*Size: 86MB

Tracklist:
01. 香り 02:43
02. 叫びながら 03:02
03. 向こうへ 03:52
04. 超えて 02:51
05. わかってるはずさ 04:45
06. 罪と罰 03:32
07. 棘 05:09
08. 蜉蝣 03:04
09. 青い花 04:12
10. カケラ 03:19
******************************
Total playing time: 36:29

[more=Extended info]SWARRRRM's 7th album "Kogase", which opens up new horizons in 2023, is now complete!
SWARRRRM has been constantly renewing itself and presenting new values, and two years after their last album "i dreamed...", they have already completed "Kogase", an album that pushes the band into new territories based on their Chaos & Grind philosophy.
[youtube]uiaafOhVls8[/youtube]
[/more]

[more=Technical info]
Input File: 01 香り.mp3
Channels : 2
Sample Rate : 44100
Precision : 16-bit
Duration : 00:02:43.07 = 7191299 samples = 12230.1 CDDA sectors
File Size : 6.60M
Bit Rate : 324k
Sample Encoding: MPEG audio (layer I, II or III)
Comments :
Title=香り
Artist=Swarrrm
Album=焦がせ (Kogase)
Tracknumber=1
Year=2023
Genre=Grindcore, Hardcore, Experimental

[/more]

Register
(15) Altkiller, analbleeding, artscald, Dante_D, heavymetalhead, Hell_Is_Here, LiarOfAngmar, madera, metala, sume7, supremo, wreak, WX419, yuratroll, Zhelezjaka,
Oct 27 2023, 10:59:29 Suffering Mind - Discography 2008-2010 [compilation] (2016)


*Artist: Suffering Mind
*Album: Discography 2008-2010 [compilation]
*Year: 2016
*Genre: Grindcore
*Country: Poland
*Format: mp3@CBR320kbps
*Size: 124MB

Tracklist:
01. Nagrobkowe Kurwy 0:39
02. Gilotyna Stereotypu 0:40
03. Prawa Stołu 0:41
04. Cierpiacy Umysl 0:48
05. Wehikul Glupoty 0:31
06. Kazdy Powod Wystarczajacy 1:26
07. Gosc Niedzielny W Odbycie Kaplana 0:43
08. Pal Krzyz 0:45
09. Ogniste Catharsis 1:30
10. Do Znudzenia... 0:43
11. Mainstreamowe Kurwy II 0:25
12. Katolicka Krucjata 1:38
13. Przyjazne Panstwo? 1:04
14. Hydra Systemu 0:25
15. Metoda? 0:30
16. D.s.k. 0:10
17. Destynacja 0:56
18. Fundamenty Zysku 0:32
19. A.c.t.b. 1:05
20. Teatr Degradacji 0:37
21. Means Of Existence (Phobia) 4:53
22. Ewangelia Zaglady 0:45
23. Strzezcie Sie 0:15
24. Bombokracja 1:01
25. Milosierny 1:23
26. Rs-20 0:29
27. W Nas Samych 1:03
28. Szturm 1:15
29. Down My Throat (Disrupt) 2:37
30. Stop The Torture 2:44
31. Swiadomosc 0:52
32. Afs 0:05
33. Cykl 0:54
34. Parazyt 0:45
35. Mainstreamowe Kurwy 1:03
36. Ukrzyzowany Przez Rzeczywistosc 1:16
37. Władza Precz 1:20
38. Duma 0:51
39. Zniszczyć Ludzkość II 0:35
40. Człowieczeństwo - Gówniany Przywilej 0:51
41. Ogień 0:46
42. Trumna Ideałów 0:25
43. Ekonomiczny Szczyt Bezczelności 1:35
44. Destroy Mankind 1:56
45. Moja Apokalipsa 1:25
46. Eksterioryzacja Anihilacji 1:11
47. Ostateczny Pogrzeb 1:59
******************************
Total playing time: 50:02

[more=Extended info]Full scans included.

1-2. Death To False Grind
3-21. Suffering Mind
22-30. Split with Asshammer
31-26. Split with Wojtyla
37-42. Split with Lycanthrophy

43-47. Destroy Mankind[/more]

[more=Technical info]
Input File: 01 - Nagrobkowe Kurwy.mp3
Channels : 2
Sample Rate : 44100
Precision : 16-bit
Duration : 00:00:38.85 = 1713241 samples = 2913.68 CDDA sectors
File Size : 1.57M
Bit Rate : 323k
Sample Encoding: MPEG audio (layer I, II or III)
Comments :
Title=Nagrobkowe Kurwy
Artist=Suffering Mind
Album=Discography 2008-2010
Tracknumber=1
Year=2016
Genre=Grindcore

[/more]

Register
(6) coresh, Hell_Is_Here, METALHUNTER, supremo, wreak, Zhelezjaka,
Oct 26 2023, 11:28:30 Gruesome Stuff Relish - Back From The Grave And Ready To Party (2020)


*Artist: Gruesome Stuff Relish
*Album: Back From The Grave And Ready To Party
*Year: 2020
*Genre: Death Metal/Grindcore
*Country: Spain
*Format: mp3@CBR320kbps
*Size: 133MB

Tracklist:
01. Horror Rises From The Tomb 03:26
02. Spaghetti Terror (Is Pretty Cool!) 02:10
03. Broken Gravestones 03:33
04. Zombie Creeping Flesh 03:47
05. The Dead Will Walk The Earth / Enchanted Bodies 04:28
06. Full Moon Ritual 01:47
07. Zombified Crowd 02:23
08. The Symbol Of Tupinambra 03:39
09. Love Goddess Of The Cannibals 03:22
10. Broken Gravestones 3:47
11. The Dead Will Walk The Earth 2:32
12. Spaghetti Terror (Is Pretty Cool!) 2:00
13. Desecrated 1:51
14. Psychoslasher 2:08
15. Eaten Alive 1:50
16. Zombie Creeping Flesh / Became A Zombie 5:06
17. Love Goddess Of The Cannibals 2:45
18. The Symbol Tupinamba 3:52
******************************
Total playing time: 54:26

[more=Extended info][youtube]epCZW_jdsNw[/youtube]

Reissue in a jewel case with a transparent tray. Comes with 4-page booklet.
Limited to 500 copies.
19 tracks are printed on the back, but only 18 apeared on the CD. Tracks "Zombie Creeping Flesh" and "Became A Zombie" printed seperately, but are one live song.
Info from booklet:
"Back From The Grave And Ready To Party" was recorded live at X Recording Studios, Mieres Asturias, July 2012.
Tracks 10 to 18 were recorded live at Obscene Extreme Festival, Trtnov, Czech Republic, July 2013.[/more]

[more=Technical info]
Input File: 01. Intro , Horror Rises From The Tomb.mp3
Channels : 2
Sample Rate : 44100
Precision : 16-bit
Duration : 00:03:24.24 = 9006984 samples = 15318 CDDA sectors
File Size : 8.60M
Bit Rate : 337k
Sample Encoding: MPEG audio (layer I, II or III)
Comments :
Title=Intro / Horror Rises From The Tomb
Artist=Gruesome Stuff Relish
Album=Back From The Grave And Ready To Party
Tracknumber=01/18
Year=2020
Genre=Metal
Discnumber=1/1

[/more]

Register
(15) AceQuorthon, andreikun, artscald, DarkHorde, Grabarz, Hell_Is_Here, jollo, metala, METALHUNTER, Paradayz, SadistikSlayer, supremo, Vidder242, wreak, Zhelezjaka,

53 Pages V   1 2 3 > » 
- Lo-Fi Version Support form
Copyrights and abuse reports form
Time is now: 26th February 2024 - 08:30:45