Welcome Guest ( Log In | Register )

История благодарностей участнику spazm ::: Спасибо сказали: 3989 раз(а)
Дата поста: В теме: За сообщение: Спасибо сказали:
Yesterday, 09:41:11 Abyss Angel - Everlasting Breath Of Freedom [demo] (1999)
Abyss Angel - 1999 - Everlasting Breath Of Freedom (Demo) (mp3@CBR320kbps, 116MB, Artwork)
Register
(1) quarantine,
Jun 17 2021, 07:52:09 Blood Suckers - Fuck Milk... Got Beer (1999)
Blood Suckers - 1999 - Fuck Milk... Got Beer (CD-r Ripmp3@CBR 320 kbps, 116 МВ, Full Scans)
Register
(1) varlam4,
Jun 16 2021, 19:56:07 Gods Tower - Raven Tales [compilation] (2013)


*Artist: Gods Tower
*Album: Raven Tales [compilation]
*Year: 2013
*Genre: Pagan/Folk/Doom Metal
*Country: Belarus
*Format: mp3@CBR320kbps
*Size: 860MB

Tracklist:
LP1 - Steel Says Last
A1 - Intro / Steel Says Last 1:32
A2 - Earth, Wind, Fire & Blood 3:49
A3 - Rarog 7:19
A4 - Heroes Die Young 5:19
B1 - Evil 7:06
B2 - Civilization 4:55
B3 - Living Mirror 4:34
C1 - Abandon All Hope 6:44
C2 - Yesterday's Rivers 4:05
C3 - Poisonodog 4:46
D1 - People In The Swamp 7:15
D2 - Ludzi Na Balocie 7:15

LP2 - The Turns - Demolition Tape
E1 - Intro / The Turns 1:57
E2 - I Am The Raven 10:30
E3 - Seven Rains Of Fire 5:11
F1 - Twilight Sun 10:13
F2 - An Eye For An Eye 8:57
G1 - Rising Arrows 6:39
G2 - Blood 5:38
G3 - Mysterious 4:56
H1 - Iprit 4:17
H2 - Eversleepside 7:08
H3 - Inis Afalon 5:30

LP3 - The Eerie - Canticles
I1 - Reign Of Silence 12:03
I2 - When Life Ends 9:33
J1 - Inis Afalon 6:03
J2 - Till Death Do Us Part 11:01
J3 - The Eerie 4:27
K1 - Beyond Praying 7:19
K2 – Canticles 8:43
L1 - Beyond Praying 7:48
L2 - Seven Rains Of Fire 5:55
L3 - Praise Of Sun 5:33
L4 - Mysterious 3:54

LP4 - Old Towers - The Eerie & The Turns Demos
M1 - Reign Of Silence 12:37
M2 - When Life Ends 9:45
N1 - Inis Afalon 5:59
N2 - Till Death Do Us Part 11:06
N3 - The Eerie 4:34
O1 - Intro / The Turns 1:17
O2 - I Am The Raven 10:08
O3 - Seven Rains Of Fire 5:32
P1 - Twilight Sun 10:10
P2 - Rising Arrows 6:39
P3 - Mysterious 4:22
******************************
Total playing time: 5:00:03

[more=Extended info]Полная виниловая дискография классических работ Gods Tower на 8-ми пластинках (4DLP). Годная компиляция с отличным оформлением. Лично меня очень порадовало)
LP Flac Rip.
Full Box Set & LP Scans.

Краткое содержание:
"Steel Says Last" DLP includes original album and "Ludzi na balocie" bonus track (Belarusian version of "People in the Swamp" song)
"The Turns" DLP includes original album and 1992 "Demolition Tape" demo of Chemical Warfare band (pre-Gods Tower)
"The Eerie" DLP includes original album with "Beyond Praying" bonus track and 1994 "Canticles" demo
"Old Towers" DLP includes 1993 "The Eerie" and 1995 "The Turns" demos

4xDLP boxed set including all Gods Tower full-length albums and demos. Regular version including 32-page biographyphoto booklet and A2 poster.

Изначальные виниловый рип и сканы не мои. FLAC Rip стянут с рутрэкера, а сканы найдены в сети и обработаны до вменяемого размера (первоначальным релизерам - огромное спасибо!).[/more]

[more=Technical info]
Input File: 01 - A1 Intro Steel Says Las.mp3
Channels : 2
Sample Rate : 44100
Precision : 16-bit
Duration : 00:01:32.38 = 4073826 samples = 6928.28 CDDA sectors
File Size : 3.76M
Bit Rate : 326k
Sample Encoding: MPEG audio (layer I, II or III)
Comments :
Title=A1 Intro / Steel Says Las
Artist=Gods Tower
Album=Steel Says Last
Tracknumber=1
Year=2013

[/more]

Register
(10) infiltrator, infozahist, Nordavind, Taakeferd, VALERY, varlam4, Wail, Xutun, дивин, Сварог Барг,
Jun 16 2021, 10:55:29 Today Needed
ЦИТАТА(nnnmmm @ 13th May 2021 - 20:44:43) *
A quick request: Gods Tower - Mirrors And Echoes ? 320 or FLAC

На модерации. Если не терпится, то можно и напрямую
Register
(2) gongshow, thenecromancer,
Jun 16 2021, 10:54:17 Gods Tower - Mirrors And Echoes [compilation] (2020)


*Artist: Gods Tower
*Album: Mirrors And Echoes [compilation]
*Year: 2020
*Genre: Pagan/Folk/Doom Metal
*Country: Belarus
*Format: mp3@CBR320kbps
*Size: 153MB

Tracklist:
01. Intro / Mirrors And Echoes 01:29
02. Roll Out (Remix 2020) 05:05
03. Liar 06:19
04. Srebra Pieruna (Nokturnal Mortum cover) 04:50
05. The Field of the Dead 06:15
06. Poisondog (Video edit) 03:58
07. Ludzi Na Balocie (Belarussian version) 07:16
08. Heroes Die Young 05:10
09. Rising Arrows 04:25
10. Song to Hall Up High (Bathory cover) 02:45
11. Roll Out (Live in Mir Castle) 04:54
12. Earth, Wind, Fire & Blood (Live in Mir Castle) 03:56
13. Heroes Die Young (Live in Mir Castle) 04:56
14. Mysterious (Live in Mir Castle) 03:51
******************************
Total playing time: 1:05:09

[more=Extended info]Колонка Gods Tower: "Мы представляем вам сборный альбом “Mirrors and Echoes”, который подводит итог минувшего десятилетия. Для нас прошедшая декада была осмыслением пережитых событий, временем сомнений, раздумий и решений. Мы не прекратили существования, мы шагали среди отзвуков и зеркал. Мы всматривались и вслушивались. Мы терялись и снова находили себя. Мы скоро вернемся с новыми темами, но они все родились именно в отзвуках и отражениях прошлого.
Мы не останавливаемся, мы движемся вместе с Колесом Времён!"

Итак, что имеем:

Previously unreleased:
01. Intro / Mirrors And Echoes 01:29

New version - Remixed 2020:
02. Roll Out (Remix 2020) 05:05

Taken From "Lier" EP:
03. Liar 06:19
04. Srebra Pieruna (Nokturnal Mortum cover) 04:50

Taken From "Roll Out" EP:
05. The Field of the Dead 06:15

Previously unreleased version:
06. Poisondog (Video edit) 03:58

Taken from "Raven Tales" Compilation:
07. Ludzi Na Balocie (Belarussian version) 07:16

Taken from "Heroes Die Young" EP:
08. Heroes Die Young 05:10
09. Rising Arrows 04:25

Taken from "Voices From Valhalla" Tribute To Bathory
10. Song to Hall Up High (Bathory cover) 02:45

Live в Мирском замке:
11. Roll Out (Live in Mir Castle) 04:54
12. Earth, Wind, Fire & Blood (Live in Mir Castle) 03:56
13. Heroes Die Young (Live in Mir Castle) 04:56
14. Mysterious (Live in Mir Castle) 03:51

Найдено в сети, в наличии сетевые коврики.[/more]

[more=Technical info]
Input File: 01 - Intro - Mirrors And Echoes.mp3
Channels : 2
Sample Rate : 44100
Precision : 16-bit
Duration : 00:01:29.27 = 3936719 samples = 6695.1 CDDA sectors
File Size : 3.72M
Bit Rate : 334k
Sample Encoding: MPEG audio (layer I, II or III)
Comments :
Title=Intro / Mirrors And Echoes
Artist=Gods Tower
Album=Mirrors And Echoes
Tracknumber=1
Year=2020

[/more]

Register
(10) Aresson, infozahist, nekrokilldozer, Reverend, stumpheavyrock, varlam4, vasilisk, Vitald, Wail, Xutun,
Jun 14 2021, 13:47:25 Pain - Pain (1996)
Pain - 1996 - Pain (mp3@CBR320, 127MB, Full Scans)
Register

(3) Dimon234307, Occultas, Penetralia,
Jun 3 2021, 18:10:46 Fukpig & Kroh - Fukpig/Kroh [split] (2012)
Fukpig & Kroh - 2012 - Fukpig/Kroh (Split Ep)
Register
(1) cancer1974,
Jun 3 2021, 14:51:08 Impaled Nazarene - Eight Headed Serpent (2021)
ЦИТАТА(vosmidesijatye @ 31st May 2021 - 14:40:18) *
spazm, хорош кота за яйца тянуть, пиши впечатления о сабже. Жду.

Что тут можно написать, прогнал уже кучу раз, но явных боевиков не выявил. Все ровненько, и нельзя сказать что это хорошо.
Можно констатировать, что времена отрывной безбашенной юности прошли, так что бухать как раньше и одновременно блистать свежими идеями и фонтанировать композиторским талантом ребята явно не тащат)). Только по этому, повторения Suomi Finland Perekele, Ugra-Karma или Nihil не выйдет, но и в большей части от того что они поменяли подход к написанию песен и в большой части избавились от блэкухи, медленных проходов, замысловатых риффов и маршевых тем, сделав ставку исключительно на скорость и мастерство. Это мы и имеем - скорость и мастерство, читай - скуку.
Тем не менее, Микка и компания заниманиются тем, что умеют лучше всего и пущай не так интересно и ярко как раньше, но валят в своем ключе. Короче альбом не вдохновил, но все равно их люблю и буду слушать 15.gif

Определенно смог для себя выделить только Eight Headed Serpent и Debauchery and Decay.
(3) 6666666, S_tarot, vosmidesijatye,
Jun 2 2021, 08:24:41 Grossmember & Anticipate - Enslave Society/Another Deadly Intention [split] (1999)
Grossmember & Anticipate - 1999 - Enslave Society / Another Deadly Intention (Split Ep) (mp3@VBR160kbps, 32MB, Scans)
Register
(2) drrmad, varlam4,
Jun 2 2021, 08:19:24 Anticipate - Creating Global Madness [demo] (1997)
Anticipate - 1997 - Creating Global Madness (mp3@CBR320kbps, 52MB, Scans)
Register
(2) Mucupurulence, varlam4,
Jun 2 2021, 08:08:17 Anticipate - Abstract Brutality [demo] (1998)
Anticipate - 1998 - Abstract Brutality (Demo) (mp3@CBR320kbps. Full Scans)
Register
(2) Mucupurulence, varlam4,
Jun 1 2021, 13:19:32 Today Needed (1) Mucupurulence,
Jun 1 2021, 13:03:41 Anticipate - Killing For A Living (2008)


*Artist: Anticipate
*Album: Killing For A Living
*Year: 2008
*Genre: Grindcore/Death Metal
*Country: Poland
*Format: mp3@CBR320kbps
*Size: 105MB

Tracklist:
01. Situs Inversus 01:57
02. Grind or Die! 01:06
03. The Dream Ends... with a Shotgun 00:56
04. A Record of Misery 01:03
05. Life's Not Heaven 02:51
06. Concocting Psycho 01:44
07. Becoming a Monster 01:49
08. Mutilatio Membrorum 01:06
09. D. F. B. 01:42
10. Shot in the Forehead 00:16
11. Really Sick 02:13
12. Napalm Gift 00:46
13. Post-Traumatic Stress Disorder 03:40
14. Intro - Extreme Deformity (Pungent Stench cover) 01:50
15. Load the Gun 01:54
16. Whiplash Injury 01:37
17. Infernal Death (Death cover) 02:54
18. Intro / The Embrace of Reality 01:57
19. The Dread on Their Faces 01:46
20. Depressing Emptiness 01:45
21. Lost in the Stream of Words 01:06
22. Intro-cision / False Trial 02:07
23. Pictures from the Nightmare 01:00
24. The Last Resting Place 01:33
25. Audiohorror 00:24
26. Drowning in the Turmoil 02:13
27. Outro 01:22
******************************
Total playing time: 44:37

[more=Extended info]Полноформатный альбом от Anticipate. Тут имеем антологию работ группы с середины 1998 по 2005 год.
Команда весьма неплоха и кроме данного релиза у них имеется две отличных демо-ленты Abstract Brutality и Creating Global Madness (остальные я не нашел), а также на сплит с Grossmember.
Должно зайти особенно тем, кто все еще любит Agathocles и Napalm Death классического периода.

К альбому прилагаются коврики, все что смог найти.

Tracks 1 - 13 recorded at Mirek Gil's Studio, mixed by Anticipate - Summer 2005.
Tracks 14 - 17 recorded and mixed at DBX Studio, Spring 2003.
Tracks 18 - 27 recorded and mixed at Salman Studio, Summer 1998.[/more]

[more=Technical info]
Input File: 01. Situs Inversus.mp3
Channels : 2
Sample Rate : 44100
Precision : 16-bit
Duration : 00:01:57.19 = 5168255 samples = 8789.55 CDDA sectors
File Size : 4.69M
Bit Rate : 320k
Sample Encoding: MPEG audio (layer I, II or III)
Comments :
Title=Situs Inversus
Artist=Anticipate

[/more]

Register
(14) andreikun, atavist, chipsgott, drrmad, infiltrator, Mucupurulence, Olethros, Proteus_666, satanist666, Svafrlami, Taakeferd, varlam4, Wail, wreak,
May 29 2021, 01:34:04 Mammoth Weed Wizard Bastard - Yn Ol I Annwyn (2019)
ухх, я по классике, нибо Stoner для дороги и под книги) Kyuss и Sleep вне рейтинга, но часто. Я скорее люблю музыку аля Black Sabbath с Осборном, так как все эти хэви метал штучки с высоким вокалом не перевариваю. Так что люблю мешанный со сладжем и всякие там Acid Witch, Down, Om. Очень люблю оккультный дум типа Bloody Ceremony, хз как это коррелелирует
Из россии - ИЛ - однозначно. Но все это пришло от любви к Godflesh и Fuge Tunnel)

а так комадн много и многие достойные, но в основном ты тут этим делом заведуешь, и врядли я тебе открою что-то новое) Возможно MUN
(1) vosmidesijatye,
May 29 2021, 00:34:43 Doppelganger - Serpent's Land (1996)
Вот всегда игнорировал, как готику в целом (за редким исключением), а сейчас попробую
(1) Proteus_666,
May 29 2021, 00:06:54 Gwar - The Disc With No Name [ep] (2021)
ЦИТАТА(vosmidesijatye @ 29th May 2021 - 01:57:34) *
Че ты до сих пор не в ИмпНазе новом?

Три раза послушал на работе, разок дома - еще не просек. Думаю, делаю выводы..
ЦИТАТА(metamfer @ 29th May 2021 - 02:02:29) *
эн олд виндоу .

98
(3) infiltrator, metamfer, vosmidesijatye,
May 28 2021, 08:54:40 Today Needed
ЦИТАТА(thenecromancer @ 16th May 2021 - 09:00:50) *
Эшафот - Лабиринты боли [demo] (1994)

Done
(2) Mucupurulence, thenecromancer,
May 28 2021, 08:53:23 Эшафот - Лабиринты боли [demo] (1994)
Эшафот - 1994 - Лабиринты боли (66MB, mp3@CBR320kbps)
Register

(5) Fenrirsson, Mucupurulence, thenecromancer, varlam4, Wail,
May 7 2021, 14:46:51 Marduk - Viktoria (2018)
Marduk - 2018 - Viktoria (320 + Full Scans)
Register

Enjoy!
Альбомчик просто огонь!
(1) Occultas,
May 1 2021, 09:53:19 Cannibal Corpse - The Beginning Of Cannibalism [compilation] (2019)
ЦИТАТА(xax @ 30th April 2021 - 10:09:42) *
лайв вообще мусор,

Лайв может быть и мусор, но послушать Cannibal Corpse без привычного гроула, лично мне было интересно.
(1) Occultas,
Apr 30 2021, 19:34:55 Uratsakidogi - Black Hop. Epos (2021)
Качественно, метко, четко gop_spb.gif Я за!
(2) infiltrator, judaz,
Apr 28 2021, 13:05:26 Intestinal Disgorge - Abject Horror (2012)
Intestinal Disgorge - 2012 - Abject Horror (80MB, mp3@CBR320kbps)
Register
(2) kimkayoung, Purestenchkvlt,
Apr 28 2021, 12:56:58 Today Needed
ЦИТАТА(thenecromancer @ 28th April 2021 - 09:38:36) *
Epidemic Cause - Epidemic Cause [demo] (1994)

Done
(1) thenecromancer,
Apr 28 2021, 12:55:58 Epidemic Cause - Epidemic Cause [demo] (1994)
Epidemic Cause - 1994 - Epidemic Cause (42MB, mp3@CBR320kbps)
Register
Enjoy!
(2) kimkayoung, thenecromancer,
Apr 28 2021, 08:17:14 Cannibal Corpse - The Beginning Of Cannibalism [compilation] (2019)


*Artist: Cannibal Corpse
*Album: The Beginning Of Cannibalism [compilation]
*Year: 2019
*Genre: Death Metal
*Country: United States
*Format: mp3@CBR320kbps
*Size: 78MB

Tracklist:
01. A Skull Full Of Maggots 02:24
02. The Undead Will Feast 03:00
03. Scattered Remains, Splattered Brains 02:40
04. Put Them To Death 01:51
05. Bloody Chunks 02:23
06. Scattered Remains, Splattered Brains (Live) 03:32
07. The Undead Will Feast (Live) 03:53
08. Escape The Torment (Unreleased Song) (Live) 02:19
09. Bloody Chunks (Live) 03:32
10. Enter At Your Own Risk (Unreleased Song) (Live) 02:42
11. Put Them To Death (Live) 01:57
12. A Skull Full Of Maggots (Live) 02:05
******************************
Total playing time: 32:18

[more=Extended info]Интересная компиляция от Reek Of Death Records, содержащая первое demo и запись с первого гига (ever!) Cannibal Corpse. Археологически занимательно и архаически трэшевенько.
Релиз скорее всего неофициальный или "полуофициальный".

Full LP Scans included

Side A: 1989 Demo
Side B: First Live Show ever, March 22nd 1989 In Buffalo, New York.

Limited to 250 copies.
FLAC RIP LP рипа. Найдено в рутрэкере[/more]

[more=Technical info]
Input File: 01 - A Skull Full Of Maggots.mp3
Channels : 2
Sample Rate : 44100
Precision : 16-bit
Duration : 00:02:24.08 = 6353752 samples = 10805.7 CDDA sectors
File Size : 5.76M
Bit Rate : 320k
Sample Encoding: MPEG audio (layer I, II or III)
Comments :
Title=A Skull Full Of Maggots
Artist=Cannibal Corpse
Album=The Beginning Of Cannibalism [none]
Tracknumber=1
Year=1989

[/more]

Register
(12) Boozer, canadaspaceman, craP_cillA, Hell_Is_Here, killingod, kimkayoung, lldma, NathanSS, Occultas, Old Vyaine, Saldiac, wreak,

35 Pages V   1 2 3 > » 
- Lo-Fi Version Support form
Copyrights and abuse reports form
Time is now: 19th June 2021 - 10:15:58