Welcome Guest ( Log In | Register )

История благодарностей участнику spazm ::: Спасибо сказали: 4305 раз(а)
Дата поста: В теме: За сообщение: Спасибо сказали:
Oct 22 2021, 23:45:21 Beyond Horizon - The Dreamgarden (1995)


*Artist: Beyond Horizon
*Album: The Dreamgarden
*Year: 1995
*Genre: Doom/Death Metal
*Country: Russian Federation
*Format: mp3@CBR320kbps
*Size: 92MB

Tracklist:
01. Nusquam 02:05
02. Sleep Of Autumn 10:05
03.The Dreamgarden (Beyond Horizon) 08:02
04. To My Own Paradise 02:15
05. Mosaic 11:27
******************************
Total playing time: 33:54

[more=Extended info]Ремастеринг Demo 1995 от москвичей Beyond Horizon переизданное Wroth Emitter (W.E. 031) в виде полноценного альбома. Очень очень неплохо, мне почудилась смесь My Dying Bride и Godgory, но это не точно. Отличное издание с восьмистраничным буклетом и приятным дизайном.
FLAC Rip + Full Scans
Найдено на рутрекере, релизер darkbrides.[/more]

[more=Technical info]
Input File: 01 - Nusquam.mp3
Channels : 2
Sample Rate : 44100
Precision : 16-bit
Duration : 00:02:05.29 = 5525421 samples = 9396.97 CDDA sectors
File Size : 5.38M
Bit Rate : 344k
Sample Encoding: MPEG audio (layer I, II or III)
Comments :
Title=Nusquam
Artist=Beyond Horizon
Album=The Dreamgarden
Tracknumber=1
Year=1995
Genre=Doom Metal

[/more]

Register
(6) cesar, GorAtheist, sergsazan, smysl, stumpheavyrock, Taakeferd,
Oct 22 2021, 19:32:56 Infected & Unholy Grave - Infected/Unholy Grave [split] (1997)
ЦИТАТА(KKK1488 @ 21st October 2021 - 23:10:18) *
Перезалейте, пожалуйста этот сплит для коллекции....

Unholy Grave & Infected - 1997 - Unholy Grave & Infected (Split MC) (mp3@CBR256kbps, 78MB, Scans)
Register
(2) wgs73, металлист,
Oct 20 2021, 13:36:54 Blasphemophagher - The III Command Of The Absolute Chaos (2011)
Blasphemophagher - 2011 - The III Command Of The Absolute Chaos (mp3@CBR320, 115MB, LP Scans (отреставрированы))
Register
(1) rimfrost,
Oct 20 2021, 13:28:39 Blasphemophagher - …For Chaos, Obscurity And Desolation… (2010)
Blasphemophagher - 2010 - …For Chaos, Obscurity And Desolation… (mp3@CBR320, 107MB, Scans (отреставрированы))
Register
(1) rimfrost,
Oct 19 2021, 16:17:51 Prophecy Of Doom - The Peel Sessions [ep] (1990)
Prophecy Of Doom - The Peel Session (Ep) (mp3@CBR320, 39MB, Scans)
Register
(1) Xtohar,
Oct 19 2021, 16:02:38 Utopie - Instinct For Existence (1999)
Utopie - 1999 - Instinct For Existence (mp3@CBR320, 117MB, Full Scans)
Register

Этот альбом однозначно в моих личных топах, причем давно. Отличный немецко-польский Goregrind в самых что ни на есть лучших традициях. Качевый-раскачевый, с плотной ритмсекцией, ближайшие ориентиры - Mucupurulent, Nyctophobic, Dead и Gut. Крайне советую.
(1) Zhelezjaka,
Oct 19 2021, 08:50:14 Blind Obedience - Submit To The Yoke [ep] (1998)


*Artist: Blind Obedience
*Album: Submit To The Yoke [ep]
*Year: 1998
*Genre: Grindcore/Crustcore
*Country: Sweden
*Format: mp3@CBR320kbps
*Size: 47MB

Tracklist:
01. Bitter Pills 02:25
02. Thou Shalt Not Kill Pt. 2 00:40
03. Bipedal Parasites 01:08
04. Damn The Farce 01:46
05. War Is Horrendous Pt. 100 01:49
06. Blind Obedience 01:22
07. Submit To The Yoke 01:55
******************************
Total playing time: 11:05

[more=Extended info]Единственный официальный релиз Blind Obedience. S/t Demo 1997 года найти не вышло. Тут мы имеем crust /gindcore скандинавского толка и качества. Крайне приятственная Ep c достойным звуком.
FLAC Rip + Full Scans[/more]

[more=Technical info]
Input File: 01. Bitter Pills.mp3
Channels : 2
Sample Rate : 44100
Precision : 16-bit
Duration : 00:02:25.59 = 6420563 samples = 10919.3 CDDA sectors
File Size : 7.40M
Bit Rate : 406k
Sample Encoding: MPEG audio (layer I, II or III)
Comments :
Title=Bitter Pills
Artist=Blind Obedience

[/more]

Register
(6) caro, hell_armageddon, Nascutmort, Olethros, stumpheavyrock, wgs73,
Oct 18 2021, 13:27:45 Как мы видим в будущем сайт
Увы, сейчас большинство вещей делаются исключительно к худшему (сугубо субьекитвное наблюдение).
Предлагаю собраться силами и ничего на metalarea не менять crazy.gif
(3) as71, Occultas, Storky,
Oct 18 2021, 13:21:16 Necrok.I.L.L.Dozer - Misunderstood & Outpouring Of Reasons Sterility [compilation] (2018)


*Artist: Necrok.I.L.L.Dozer
*Album: Misunderstood & Outpouring Of Reasons Sterility [compilation]
*Year: 2018
*Genre: Grindcore
*Country: Russian Federation
*Format: mp3@CBR320kbps
*Size: 117MB

Tracklist:
Misunderstood (EP):
01. The Killing Doze (Endless Geterogenetic Manufactory) 00:51
02. Delict's Desiderate 01:40
03. Doors Into Impiria 03:14
04. Seven Blows 00:16
05. Calm Waters 01:54
06. The Stories 01:18
07. Enjoy Your Corpse 02:05
08. The Kill Session 00:47
09. Agonizing Burden 00:59
Outpouring Of Reasons Sterility (Demo):
10. Outpouring Of Reasons Sterility 01:56
11. Paralyse Smells Frost Odour 02:23
12. Fuck You 01:39
13. Two-Three-Two-Four 03:48
14. Killing Doze 00:58
15. Doors In Empiria 03:32
16. One-Three 02:29
17. Enjoy Membrane Your Corpse 02:31
18. Deicide 02:23
19. Reborn With Atavistic Signs 02:04
20. Seven Blows 00:14
21. Calm Waters 02:28
22. Five-Six 01:56
******************************
Total playing time: 41:25

[more=Extended info]Отличное переиздание от Metal Race (MR 051) двух знаковых grindcore релизов нашей сцены - демо 1992 года Outpouring Of Reasons Sterility и Ep 1993 года Misunderstood (Ep).
Однозначный musthave!

Пока еще можно успеть приобрести тут :
[/more]

[more=Technical info]
Input File: 01 - The Killing Doze (Endless Geterogenetic Manufactory).mp3
Channels : 2
Sample Rate : 44100
Precision : 16-bit
Duration : 00:00:51.21 = 2258493 samples = 3840.97 CDDA sectors
File Size : 2.06M
Bit Rate : 321k
Sample Encoding: MPEG audio (layer I, II or III)
Comments :
Title=The Killing Doze (Endless Geterogenetic Manufactory)
Artist=NecroK.I.L.L.Dozer
Album=Misunderstood - Outpouring Of Reasons Sterility (Compilation)
Tracknumber=1/22
Year=2018
Genre=Death Metal

[/more]

Register
(17) A.L.Rapsod, alikkon, as71, caro, DarkHorde, dcatagua, DMIYUR, gwar, Lux, Mucupurulence, older68, Olethros, Proteus_666, rominow, StoneTemple, Unknown, VerminGhost,
Oct 18 2021, 13:02:11 Necrok.i.l.l.dozer - Missunderstood Unicum (1993)
NecroK.I.L.L.Dozer - 2018 - Misunderstood - Outpouring Of Reasons Sterility (CD-Rip, mp3@CBR320, 117MB, Covers)
Register

Поскольку это официальная компиляция, залил на портал отдельно.
(2) A.L.Rapsod, Penetralia,
Oct 14 2021, 15:21:46 Necrok.i.l.l.dozer - Missunderstood Unicum (1993)
Взял себе в коллекцию на CD)
(2) KKK1488, Proteus_666,
Oct 11 2021, 08:29:56 Epidemic Cause - Xylograph (1999)
Уже залил, когда увидел, что GorAtheist обновил ссылку. Так что пускай еще и mediafire будет:
Epidemic Cause - 1999 - Xylograph (mp3@CBR192kbps, 63MB, Cover)
Register
(2) as71, SyncestrA,
Oct 9 2021, 18:50:36 Limited Mutanter - Ощути Себя Смертным [demo] (1993)
Подборочка из всего что нашлось:
Chaotic Disintegration Compilation Tracks & Live In Kharkiv 2.04.1994 (Live)
Register
(2) julianotidre, Svafrlami,
Oct 8 2021, 15:32:50 Limited Mutanter - Ощути Себя Смертным [demo] (1993)


*Artist: Limited Mutanter
*Album: Ощути Себя Смертным [demo]
*Year: 1993
*Genre: Death Metal
*Country: Ukraine
*Format: mp3@CBR320kbps
*Size: 28MB

Tracklist:
01. Unknown 02:33
02. Unknown 03:07
03. Unknown 02:44
04. Unknown 03:12
******************************
Total playing time: 11:36

[more=Extended info]Треки представленные тут получены мной еще в 2016 году от одного из основателей Limited Mutanter и нынешнего участника Mutanter Артура М. Поскольку никакой конкретики кроме того , что это «4 трека 93 года» у меня не было, я не стал их выкладывать, а с удовольствием послушал и оставил до лучших времен. Оснований представлять их как демо 1993 «Ощути себя смертным» не было.
Однако, недавно я наткнулся на обновленную информацию на страничке Mutanter на Discogs, и собственно обнаружил, что характеристики данных треков cходятся с имеющимися у меня треками по количеству, таймингу и аннэймингу.
Все это побудило провести небольшое исследование тех крох матчасти, которые остались по данной теме. Поскольку фактических данных практически нет, пришлось идти по методу «от противного», т.е. не противоречат ли факты выводам.
Как известно из био, данный релиз готовился для выпуска на печально известном Final Holocaust. По факту, Final Holocaust занимался конкретно винилом, в частности выпустил LP Autopsy, My Dying Bride, Great Sorrow а также 7ки отечественных NecroK.I.L.L.Dozer и Corpse. В любом случае ни Ep ни MC так официально и не был издан вследствие банкротства лейбла. Имеющиеся сведения на discogs и имеющиеся у меня треки вполне подходят по форме под понятие Ep или Promo Demo для Ep - т.е. четыре стандартных трека - вписываются на 7 Ep. Сведений о релизах команды в 1993 году, кроме как о демо «Ощути себя смертным» не имеется ни в одном из источников. Пришлось перелопатить кучу старых зинов, но кроме как в Gothic и Железном Марше (да, пришлось немного испачкаться)) я ничего полезного не нашел.
Имеющиеся в сети треки с Chaotic Disintegration явно взяты с 1992 - Бессмыслие над существованием (Demo), согласно нарытому в Железном Марше треклисту - 02. Уран 235, 03. Бессмыслие над существованием. Убедиться о том, что это разный материал можно просто прослушав и сравнив треки из компиляции с представлеными композициями).
Все вышеизложенное позволяет утверждать, что представленный релиз является не чем иным кроме как Limited Mutanter -1993 - «Ощути себя смертным» (Demo).
Ну и остается надеяться, что ребята из Mutanter все такие оцифруют с бобины демо «Бессмыслие над существованием» и дадут прикоснуться к истории.
Чуть позже выложу еще доп. материалы - треки с компиляции и live.

За помощь с файлами спасибо unit731.

Обложка неофициальная, но для плеера что-то должно быть, пока не найдется оригинал.[/more]

[more=Technical info]
Input File: 01 - Limited Mutanter - Untitled.mp3
Channels : 2
Sample Rate : 44100
Precision : 16-bit
Duration : 00:02:33.77 = 6781169 samples = 11532.6 CDDA sectors
File Size : 6.15M
Bit Rate : 320k
Sample Encoding: MPEG audio (layer I, II or III)
Comments :
Title=Untitled
Artist=Limited Mutanter
Year=1993
Genre=Death Metal

[/more]

Register
(11) caro, enslaver, julianotidre, lordsloth, Olethros, Proteus_666, recber, stumpheavyrock, Svafrlami, Taakeferd, unit731,
Oct 5 2021, 20:47:41 Bestial Deform - Together We'll Destroy The World [re-release] (2015)


*Artist: Bestial Deform
*Album: Together We'll Destroy The World [compilation]
*Year: 2015
*Genre: Death Metal
*Country: Russian Federation
*Format: mp3@CBR320kbps
*Size: 90MB

Tracklist:
Together We'll Destroy The World (1994):
01. Intro / I Am Evil, I Am Death! 04:00
02. Conjuration 03:14
03. Re-Animator 02:46
04. Name Of The Light 02:23
05. Piece Of Flesh 03:05
06. For The Great Evil 04:06
07. Outro 01:27
Worship To Madness (Demo, 1992):
08. Intro 01:37
09. Mad House 02:57
10. Death's Head 03:27
11. Treponem Pale 03:10
12. Asmodeus 04:39
******************************
Total playing time: 36:51

[more=Extended info]Группа не нуждающаяся в особом представлении. Ветераны санкт-петербургской сцены и российского Death Metal в целом. Компиляция из двух ранних демо-релизов Together We'll Destroy The World и Worship To Madness (а по сути и Malebranche (Ep)) прошедших ремастеринг в 2015.
Релиз вышел на CD More Hate Productions и Symbol Of Domination Prod, а также в виде MC от Grotesque Sounds
Ознакомится и приобрести можно тут:

Full MC Scans included + some CD Artwork

Self-released by band in 1994.
Re-release includes new artwork & 5 bonus tracks from Demo '92.
Remastered in 2015. Includes 8-page booklet. First edition: 500 copies.[/more]

[more=Technical info]
Input File: 01 - Intro - I Am Evil, I Am Death.mp3
Channels : 2
Sample Rate : 44100
Precision : 16-bit
Duration : 00:04:00.32 = 10597936 samples = 18023.7 CDDA sectors
File Size : 9.76M
Bit Rate : 325k
Sample Encoding: MPEG audio (layer I, II or III)
Comments :
Title=Intro / I Am Evil, I Am Death
Artist=Bestial Deform
Album=Together We'll Destroy the World / Worship to Madness
Tracknumber=1
Year=2015

[/more]

Register
(7) caro, Marek, Occultas, Olethros, stumpheavyrock, supremo, Svafrlami,
Oct 5 2021, 20:02:49 Napalm Death & Melt-Banana - Napalm Death & Melt-Banana [split] (2016)


*Artist: Napalm Death & Melt-Banana
*Album: Napalm Death & Melt-Banana [split]
*Year: 2016
*Genre: Death Metal/Grindcore | Experimental Grindcore/Noise Rock
*Country: United Kingdom | Japan
*Format: mp3@CBR320kbps
*Size: 34MB

Tracklist:
Napalm Death:
1. Like Piss To A Sting 01:29
2. Where The Barren Is Fertile 02:22
Melt-Banana:
3. Killer Garden In The Bottle 01:48
4. Sakura Spiral 01:35
******************************
Total playing time: 7:14

[more=Extended info]Full Scans inside.
Ipecac Recordings – IPC179[/more]

[more=Technical info]
Input File: 01 - Napalm Death - Like Piss To A Sting.mp3
Channels : 2
Sample Rate : 44100
Precision : 16-bit
Duration : 00:01:29.37 = 3941349 samples = 6702.97 CDDA sectors
File Size : 3.61M
Bit Rate : 323k
Sample Encoding: MPEG audio (layer I, II or III)
Comments :
Title=Like Piss To A Sting
Artist=Napalm Death
Album=Napalm Death & Melt-Banana
Tracknumber=01/04
Year=2016
Genre=Grindcore/Punk

[/more]

Register
(10) Carcharoth, caro, comradEnemy, ger_man_thorn, kimkayoung, kryptor, Lanceatum, Occultas, Svafrlami, VALERY,
Oct 4 2021, 21:23:01 Tsatthoggua
INDARKNESS, спасибо! Материал на демке отличный. Еще бы Demo 1990 "Manaic Depressiom" найти
(1) Occultas,
Oct 1 2021, 21:46:55 Pharmacist - Carnal Pollution [ep] (2021)
Опередил на пару минут)
Одни из самых интересных представителей goregrind семейства каркасооборазных, "молодые перспективные". В принципе, логическое продолжение линии Symphonies Of Sickness, с оглядкой на то, что это, конечно, не Carcass.. Но в любом случае лучше последнего "баклажана". Pharmacist'у жиржный плюс, но побольше отсебятины бы...
(1) Occultas,
Sep 30 2021, 14:28:20 Tsatthoggua - German Black Metal [ep] (1999)
Оказывается в сети облоги нормальной для этой EP нет. Так что ловите кому нужно - ссылка mediafire 320 + облога и немног ковриков.
Register

(3) kimkayoung, Mencae77, Occultas,
Sep 27 2021, 09:00:25 Lord Belial - Unholy Crusade (1999)
Lord Belial - 1999 - Unholy Crusade (mp3CBR@320, 136MB, Full Scans)
Register
(6) Chasm, FullofHate, NathanSS, Occultas, rickzammuto, vasiljev_sergej,
Sep 21 2021, 14:50:01 16 - Deep Cuts From Dark Clouds (2012)
16 - 2012 - Deep Cuts From Dark Clouds (mp3@CBR320kbps, 112MB, Full Scans)
Register

(2) Mencae77, stumpheavyrock,
Sep 21 2021, 14:46:11 16 - Bridges To Burn (2009)
16 - 2009 - Bridges To Burn (mp3@CBR320kbps, 128MB, Full Scans)
Register
(1) Mencae77,
Sep 21 2021, 13:25:22 Lymphatic Phlegm - Roughly Excised - Putrefindings, Morbidescriptions And Necrognoses (2021)
Весьма самобытная и интересная команда, с практически уникальным легкоузнаваемым звуком. В первое прослушивание Lymphatic Phlegm я совершенно их не догнал, особенно "отстраненный" гитарный звук. Но по прошествии некоторого времени и знакомства с полноформатами, - можно даже сказать подсел на них. По общему настрою мне напоминают Catasexual Urge Motivation, хотя эти две команды весьма разные по звуку.
(5) Chasm, Mucupurulence, smes, stabilizator, vyacheslav,
Sep 17 2021, 23:29:21 Delirium - Zzooouhh [compilation] (2016)
Да, заливаю. Но первый раз слышу что у кого то не тянет mediafire
Register

В архиве + сканы оригинального первого альбома Zzooouhh , в шапке нет, сорри
(11) AHBAnep, Hell_Is_Here, metala, Proteus_666, Reverend, SaintVitus, sergsazan, Svafrlami, volostakoeto, vyacheslav, Winterdark,
Sep 17 2021, 16:18:57 Delirium - Zzooouhh [compilation] (2016)


*Artist: Delirium
*Album: Zzooouhh [compilation]
*Year: 2016
*Genre: Doom/Death Metal
*Country: Netherlands
*Format: mp3@CBR320kbps
*Size: 317MB

Tracklist:
CD1: Zzooouhh & Delirium
01. The Ninth Dimension 02:35
02. The Warrior 06:03
03. Bitch 03:37
04. Amputation 06:26
05. Voices From Zzooouhh 04:29
06. Floods Of Intricate 05:58
07. Menace Unseen 04:31
08. The Sign Of Urth 03:50
09. Beyond The Gates Of Afterdead 09:45
10. Delirium 03:58
11. Desert Winds 4:56
12. (Beyond) The Gates Of Afterdead 07:38

CD2: Amputation & Live in Belgium 1991
01. The Warrior 05:52
02. Menace Unseen 04:28
03. Floods Of Intricate 05:46
04. Amputation 05:56
05. The Ninth Dimension (Intro) / The Warrior 07:19
06. Bitch 04:17
07. Circle Of The Tyrants 04:55
08. Amputation 06:57
09. Floods Of Intricate 06:44
10. The Sign Of Urth 04:14
11. Beyond The Gates Of Afterdead 10:25
******************************
Total playing time: 2:10:39

[more=Extended info]FLAC Rip + Full Scans
Ремастированное переиздание единственного полноформатника Zzooouhh
в виде 2CD компиляции-дискографии, включающей все демо записи команды, а также Live.

От себя скажу, что команда действительно невероятно крутая. Очень атмосферно и лампово. Практически эталонный Doom/Death Metal, по печальному стечению обстоятельств канувший в безвестность.
2 часа чистого кайфа.

Tracks 1-1 to 1-9 are from the 1990 album "Zzooouhh".
Tracks 1-10 to 1-12 are from the 1988 "Delirium" demo 1.
Tracks 2-1 to 2-4 are from the 1989 "Amputation" demo.
Tracks 2-5 to 2-11 are "Live in Aalst, Belgium".

Tracks 1-1 to 1-9 recorded and produced June / July / August 1990 at the Beufort Studio's Berkhout (NH).
Tracks 1-10 to 1-12 recorded at Han Swagerman's (Sr) Home-Studio, August- September 1988 in Berkhout, NH.
Tracks 2-1 to 2-4 recorded at Beaufort's, October 1989.
Tracks 2-5 to 2-11 recorded live 31/3/1991, Netwerk, Aalst, Belgium.

Track 2-7 originally performed by Celtic Frost.

All tracks mastered for CD / LP at The Ancient Way Mastering September 2015.[/more]

[more=Technical info]
Input File: 01 - The Ninth Dimension.mp3
Channels : 2
Sample Rate : 44100
Precision : 16-bit
Duration : 00:02:35.07 = 6838763 samples = 11630.5 CDDA sectors
File Size : 6.33M
Bit Rate : 326k
Sample Encoding: MPEG audio (layer I, II or III)
Comments :
Title=The Ninth Dimension
Album=Zzooouhh + Delirium (Demo 1988)
Tracknumber=1
Year=2016
Genre=Death/Doom Metal

[/more]

Register
(30) aditus, andreikun, as71, BladeOvDarkness, canadaspaceman, caro, FUDEDOR, gav-gafi, hell_armageddon, kluval, lacrimoza, metala, METALHUNTER, Olethros, Proteus_666, Reverend, rominow, skidnik, stumpheavyrock, supremo, Svafrlami, Taakeferd, thenecromancer, volostakoeto, vyacheslav, Wail, wanderer73, wreak, Xtohar, Дерсу Узала,

38 Pages V   1 2 3 > » 
- Lo-Fi Version Support form
Copyrights and abuse reports form
Time is now: 24th October 2021 - 13:12:43