Welcome Guest ( Log In | Register )

История благодарностей участнику Sjelekval ::: Спасибо сказали: 6612 раз(а)
Дата поста: В теме: За сообщение: Спасибо сказали:
Jun 28 2020, 12:20:26 Various Artists - Sonic Seducer: Cold Hands Seduction Vol. 219 [compilation] (2020)


*Artist: Various Artists
*Album: Sonic Seducer: Cold Hands Seduction Vol. 219 [compilation]
*Year: 2020
*Genre: Various Gothic/Electro
*Country: Many
*Format: mp3@CBR320kbps
*Size: 160MB

Tracklist:
01. Frozen Plasma - Another Girl
02. Arcana Obscura - Restless Dreams
03. Von Mollestein - Run Little Rabbit
04. The Slow Readers Club - Killing Me
05. 808 Dot Pop - Ultraviolet
06. Marco Gahrig (Illusion Of Light) - Create Yourself (Extended Version 2020)
07. Steril - Black Jesus (7 Inch Version)
08. Lights A.M. - Surrender & Evolve
09. Telepathy - Pariah
10. Cemetery Sex Fairies - Mystery
11. Elvis De Sade - Cheerings From The Other Side
12. N A T U R E - The Architect
13. H.O.W. - Happiness Imperative
14. p.c.n Ambiloco - Awaiting The Ascension Of Darkness
15. Kariti - Sky Burial
16. Grave Circles - Faith That Fades (Edit)
17. Demonum - Before The Law (Edit)
******************************
Total playing time: 1:11:00

[more=Technical info]
Input File: 12 The Architect.mp3
Channels : 2
Sample Rate : 44100
Precision : 16-bit
Duration : 00:01:52.20 = 4948108 samples = 8415.15 CDDA sectors
File Size : 4.58M
Bit Rate : 326k
Sample Encoding: MPEG audio (layer I, II or III)
Comments :
Title=The Architect
Artist=N A T U R E
Album=Cold Hands Seduction Vol. 219
Tracknumber=12/17
Year=2020
Genre=50

[/more]

Register
(6) Cartman223, HMHamster, infiltrator, Svafrlami, VALERY, varlam4,
Jun 28 2020, 12:15:02 Various Artists - Sonic Seducer: Cold Hands Seduction Vol. 218 [compilation] (2020)


*Artist: Various Artists
*Album: Sonic Seducer: Cold Hands Seduction Vol. 218 [compilation]
*Year: 2020
*Genre: Various Gothic/Electro
*Country: Many
*Format: mp3@CBR320kbps
*Size: 170MB

Tracklist:
01. Paradise Lost - Fall From Grace
02. Die Kreatur - Mensch / Maschine
03. Near Earth Orbit - Critical Mass
04. Ehrenfeld feat. Felix Flaucher - Flowers Burn All Evil (Weed Remix)
05. Orange Sector - Zerstörer
06. Armageddon Dildos - Heut Nacht
07. Xotox - UFO
08. Alphamay - The Heir Of Eternity
09. Feline And Strange - Restart From Zero
10. minusheart. - They Shout
11. Avarice In Audio - Trojan Horse
12. Danheim - Kala
13. Welicoruss - Siberian Heathen Horde
14. Ocean Thief - Den Tredje Dagen (Edit)
15. Left Hand Black - Murder On My Mind
16. Megatherium - The Strength (Radio Edit)
17. Rome Burns - The Salamander
******************************
Total playing time: 1:15:40

[more=Technical info]
Input File: 02 Mensch - Maschine.mp3
Channels : 2
Sample Rate : 44100
Precision : 16-bit
Duration : 00:05:31.30 = 14610462 samples = 24847.7 CDDA sectors
File Size : 13.4M
Bit Rate : 323k
Sample Encoding: MPEG audio (layer I, II or III)
Comments :
Title=Mensch / Maschine
Artist=Die Kreatur
Album=Cold Hands Seduction Vol. 218
Tracknumber=02/17
Year=2020
Genre=50

[/more]

Register
(6) Cartman223, HMHamster, infiltrator, Svafrlami, VALERY, varlam4,
May 23 2020, 18:48:07 Ophthalamia - II Elishia II [compilation] (2019)
QUOTE(Machine Head @ May 22 2020, 12:23:40) *
Please re-up. Download limit reached...


Try it again, I was getting "download limit reached" yesterday as well but today it's working OK.
(1) Occultas,
May 2 2020, 11:38:13 Various Artists - Sonic Seducer: Cold Hands Seduction Vol. 217 [compilation] (2020)


*Artist: Various Artists
*Album: Sonic Seducer: Cold Hands Seduction Vol. 217 [compilation]
*Year: 2020
*Genre: Various Gothic/Electro/Medieval
*Country: Many
*Format: mp3@CBR320kbps
*Size: 346MB

Tracklist:
CD 1

01. Joachim Witt - Geist An Das Licht
02. The Birthday Massacre - The Sky Will Turn
03. Pouppée Fabrikk - Only Control
04. Absurd Minds - Dead End
05. Sündenrausch - Sirenia
06. Neuroactive - Night Flights
07. Chorea Minor - Trickle Of Life (Rotersand Remix)
08. Chainreactor - Grey
09. Unterschicht - Chernobog
10. Neat Noir Deluxe - Allein
11. Van Bloomen - Choros II
12. Subject:2 - Nobody's There (Light Into Dark Remix By EON:Aurora)
13. Liquid Grey - Transfusion (Bloodsucking Mallory Mix)
14. Studio-X vs. Simon Carter - Disconnected
15. First Class & Coach - Wasser
16. Cantus Levitas - Narben

CD 2 - Mittelalter-Special XV

01. Subway To Sally - Tag Der Rache (Live)
02. Fiddler's Green - The Night Pat Murphy Died (Live)
03. In Extremo - Horizont (Live At Mera Luna)
04. Odroerir - Teja
05. Schëppe Siwen - De Leschten Danz
06. Zackenflanke - Asmodeus (Live)
07. Waldtraene - Irrlicht (Edit)
08. Surturs Lohne - Unter Der Linden
09. Bella Donna - Cold Song / King Arthur Suite
10. Tibetréa - Book Of The Dead
11. Uhlenflug - Flotte Charlotte
12. Bianca Stücker & Rafaela Schützner - Rodrigo Martinez
13. Allwald - Entfaltung
14. Feuerdorn - Der Kraken
15. PurPur - Furienfluch
16. Tuatha De Danann - The Tribes Of Witching Souls
17. Vitae - The Dream (Sheonator Pseak Mix)
18. The Ceili Family - Voices
******************************
Total playing time: 2:26:28

[more=Technical info]
Input File: 14 Disconnected.mp3
Channels : 2
Sample Rate : 44100
Precision : 16-bit
Duration : 00:04:48.22 = 12710678 samples = 21616.8 CDDA sectors
File Size : 11.6M
Bit Rate : 323k
Sample Encoding: MPEG audio (layer I, II or III)
Comments :
Title=Disconnected
Artist=Studio-X vs. Simon Carter
Album=Cold Hands Seduction Vol. 217
Tracknumber=14/16
Year=2020
Genre=50
Discnumber=01/02

[/more]

Register
(4) Cartman223, Svafrlami, varlam4, Xor,
Mar 14 2020, 15:39:12 Various Artists - Sonic Seducer: Cold Hands Seduction 216 [compilation] (2020)


*Artist: Various Artists
*Album: Sonic Seducer: Cold Hands Seduction 216 [compilation]
*Year: 2020
*Genre: Various Gothic
*Country: Many
*Format: mp3@CBR320kbps
*Size: 171MB

Tracklist:
1. Nightwish - Noise
2. Fakeba & John Fryer - Mother Africa
3. Not My God - Fiction
4. Salt - We Never Sleep
5. Croona - Dare To Die (Single Version)
6. Third Realm feat. Chiasm - Tides Of The Sea
7. Chrome Corpse - Detecting Movement (Bewegungserfassung)
8. Galahad - Our Sweet Lady
9. XIV Dark Centuries - Ich Bin Das Feuer
10. Devil-M - Faszination
11. Shuulak - Altar Of Gods
12. Aeons Confer - Impactors
13. Sandkamper - Himmel Und Zur Hölle
14. Poisoned Hestia - The Garden
15. Nerves - Weltende
16. Zeit - Hexe (Hydroxie Remix)
******************************
Total playing time: 1:16:26

[more=Technical info]
Input File: 13 Himmel und zur Hölle.mp3
Channels : 2
Sample Rate : 44100
Precision : 16-bit
Duration : 00:06:03.31 = 16021751 samples = 27247.9 CDDA sectors
File Size : 14.7M
Bit Rate : 323k
Sample Encoding: MPEG audio (layer I, II or III)
Comments :
Title=Himmel und zur Hölle
Artist=Sandkamper
Album=Cold Hands Seduction Vol. 216
Tracknumber=13/16
Year=2020
Genre=19

[/more]

Register
(4) Cartman223, infiltrator, Svafrlami, varlam4,
Feb 9 2020, 13:19:31 Various Artists - Sonic Seducer: Cold Hands Seduction 215 [compilation] (2020)


*Artist: Various Artists
*Album: Sonic Seducer: Cold Hands Seduction 215 [compilation]
*Year: 2020
*Genre: Various Gothic
*Country: Many
*Format: mp3@CBR320kbps
*Size: 151MB

Tracklist:
01. Snakeskin - Fuck U 2
02. Eisfabrik - Grim Reaper
03. Bianca Stücker & Rafaela Schützner - Aus Den Vier Elementen Kommen Alle Ding
04. Uhlenflug - Mirie It Is While Sumer Ilast
05. Edward Ka-Spel feat. Motion Kapture - Why We Live
06. 808 Dot Pop - Blackbodies (Pulsation)
07. Sun Of The Dying - White Skies And Grey Lands
08. A Line Of Crows - Devil In His Bones
09. Corde Oblique - Le Torri Di Maddaloni
10. Jack Torrance - Harbour
11. Arctic Sunrise - Emptiness
12. Circumpolar - We Will Remain (Second Seal)
13. Ghost Motel feat. Alina Von Der Gathen - The Long Night
14. Cygnotic - Iridium Dawn
15. Antivote - Stages To Verity
******************************
Total playing time: 1:07:17

[more=Technical info]
Input File: 03 Aus den vier Elementen kommen alle Ding.mp3
Channels : 2
Sample Rate : 44100
Precision : 16-bit
Duration : 00:04:41.17 = 12399641 samples = 21087.8 CDDA sectors
File Size : 11.3M
Bit Rate : 323k
Sample Encoding: MPEG audio (layer I, II or III)
Comments :
Title=Aus den vier Elementen kommen alle Ding
Artist=Bianca Stücker & Rafaela Schützner
Album=Cold Hands Seduction Vol. 215
Tracknumber=03/15
Year=2020
Genre=50

[/more]

Register
(5) Bruce, Cartman223, infiltrator, Svafrlami, varlam4,
Feb 1 2020, 12:09:18 Various Artists - Black Metal Agenda Volume 8 [best of/compilation] (2010)
Register
(3) kim666, varlam4, Wail,
Jan 29 2020, 10:29:15 Various Artists - Absolute Hair Metal Vol. 83 [best of/compilation] (2008)
Register
(2) infiltrator, Wail,
Jan 7 2020, 19:53:20 Various Artists - Sonic Seducer: Cold Hands Seduction 214 [compilation] (2019)


*Artist: Various Artists
*Album: Sonic Seducer: Cold Hands Seduction 214 [compilation]
*Year: 2019
*Genre: Various Gothic
*Country: Many
*Format: mp3@CBR320kbps
*Size: 110MB

Tracklist:
01. Leaves' Eyes - Serkland
02. Eden Weint Im Grab - Himmelsstürmer
03. Heiter Bis Folkig - Saufen Für Den Weltfrieden
04. Mills - Engel
05. Fractal Age - Not Yet
06. Tension Control - The World Is Going Down
07. DaGeist - Kiss Or Kill
08. On The Floor - Chain
09. Formicarius - Early Will I Seek Thee
10. Reichsfeind - Riots
11. Intent:Outtake - Singularity
******************************
Total playing time: 49:16

[more=Technical info]
Input File: 07 Kiss Or Kill.mp3
Channels : 2
Sample Rate : 44100
Precision : 16-bit
Duration : 00:03:47.78 = 10044966 samples = 17083.3 CDDA sectors
File Size : 9.27M
Bit Rate : 326k
Sample Encoding: MPEG audio (layer I, II or III)
Comments :
Title=Kiss Or Kill
Artist=DaGeist
Album=Cold Hands Seduction Vol. 214
Tracknumber=07/11
Year=2019
Genre=Darkwave

[/more]

Register
(5) Bruce, Cartman223, infiltrator, Svafrlami, varlam4,
Jan 7 2020, 19:49:01 Various Artists - Sonic Seducer: Cold Hands Seduction 213 [compilation] (2019)


*Artist: Various Artists
*Album: Sonic Seducer: Cold Hands Seduction 213 [compilation]
*Year: 2019
*Genre: Various Gothic
*Country: Many
*Format: mp3@CBR320kbps
*Size: 164MB

Tracklist:
1. Die Krupps - Fuck You
2. Faun - Hagazussa (Remix)
3. Uhlenflug - Dulcis Amor
4. Memoria feat. Henric De La Cour - Lights Out
5. Hoffen - Calisto
6. Ground Nero - Jabez
7. Projekt Ich feat. Asia Wolf (End Of New) - Lullaby For Alisa (Alex Stroeer Remix)
8. Mirrorplain - Judgement Day
9. Elm - Death Of The North
10. POS.:2 - Kein Weg
11. Totem - A Night In Reverse
12. Alpgeist - Im Woid Dahoam
13. Nachtfalter - Anderes Leben
14. First Aid 4 Souls - Increased Sensory Perception
15. Perfection Doll - Garden Of Delight
16. Dr. Drexler Project - Beton Muss Her
******************************
Total playing time: 1:13:32

[more=Technical info]
Input File: 05 Calisto.mp3
Channels : 2
Sample Rate : 44100
Precision : 16-bit
Duration : 00:04:38.98 = 12303018 samples = 20923.5 CDDA sectors
File Size : 11.3M
Bit Rate : 324k
Sample Encoding: MPEG audio (layer I, II or III)
Comments :
Title=Calisto
Artist=Hoffen
Album=Cold Hands Seduction Vol. 213
Tracknumber=05/16
Year=2019
Genre=Electronic

[/more]

Register
(5) Cartman223, infiltrator, stone88, Svafrlami, varlam4,
Nov 14 2019, 10:28:39 Semen Datura - Black Wings [ep] (1999)
Register
(2) James817, kim666,
Oct 28 2019, 15:00:06 Various Artists - Sonic Seducer: Cold Hands Seduction 212 [compilation] (2019)


*Artist: Various Artists
*Album: Sonic Seducer: Cold Hands Seduction 212 [compilation]
*Year: 2019
*Genre: Various Gothic
*Country: Many
*Format: mp3@CBR320kbps
*Size: 165MB

Tracklist:
1. Mister Misery - Alive
2. Lacuna Coil - Reckless (Etage Music Mix)
3. Maerzfeld - Einer Wie Alle
4. Merciful Nuns - Black Halo
5. Elane - The Tavern Song
6. Dreadthesun - Liquid
7. Empirion - Too Many Masters Part 2
8. Psy'Aviah feat. Mari Kattman - Searching
9. Rue Oberkampf - Es Versucht
10. Fïx8:Sëd8 - Empyrean
11. Collapse Under The Empire - Everything Disappears
12. Unity One - Reality (Frozen Plasma Remix)
13. Bysmarque & Snowwhyte - Menschmaschine
14. Mental Exile - Falling
15. Cantus Levitas - Karges Land
16. Inadream - Red Light
******************************
Total playing time: 1:13:44

[more=Technical info]
Input File: 10 Empyrean.mp3
Channels : 2
Sample Rate : 44100
Precision : 16-bit
Duration : 00:07:23.74 = 19569066 samples = 33280.7 CDDA sectors
File Size : 17.9M
Bit Rate : 322k
Sample Encoding: MPEG audio (layer I, II or III)
Comments :
Title=Empyrean
Artist=Fïx8:Sëd8
Album=Cold Hands Seduction Vol. 212
Tracknumber=10/16
Year=2019

[/more]

Register
(4) Cartman223, metalwoman, Svafrlami, varlam4,
Sep 14 2019, 11:29:09 Various Artists - Sonic Seducer: Cold Hands Seduction 211 [compilation] (2019)


*Artist: Various Artists
*Album: Sonic Seducer: Cold Hands Seduction 211 [compilation]
*Year: 2019
*Genre: Various Gothic
*Country: Many
*Format: mp3@CBR320kbps
*Size: 148MB

Tracklist:
01. Fairytale - Elfenwege
02. The 69 Eyes - 27 & Done (Exklusiv-Version)
03. New Model Army - End Of Days
04. La Scaltra - The Sentinel's Lot
05. Spitfish - Swallow The Dust
06. Stoppenberg - Get Ready
07. Alienare - Neon
08. Arise-X - Tanzschlacht
09. Les Berrtas - Meister, Der
10. Aesthetische - An End In Itself
11. Eggvn - Mantis
12. Unhuman - Seven Days
13. JanRevolution - Chasing Through The Night (H2G Remix)
14. The Snatcher - Material Mensch
15. Stromblefix - Gloomy Sunday Morning
16. Ashburn County - Threat: Sirens Call
******************************
Total playing time: 1:05:47

[more=Technical info]
Input File: 08 Tanzschlacht.mp3
Channels : 2
Sample Rate : 44100
Precision : 16-bit
Duration : 00:04:27.46 = 11794942 samples = 20059.4 CDDA sectors
File Size : 10.8M
Bit Rate : 324k
Sample Encoding: MPEG audio (layer I, II or III)
Comments :
Title=Tanzschlacht
Artist=Arise-X
Album=Cold Hands Seduction Vol. 211
Tracknumber=08/16
Year=2019
Genre=Darkwave

[/more]

Register
(3) Cartman223, metalwoman, varlam4,
Sep 14 2019, 11:26:42 Various Artists - Sonic Seducer: Cold Hands Seduction 210 [compilation] (2019)


*Artist: Various Artists
*Album: Sonic Seducer: Cold Hands Seduction 210 [compilation]
*Year: 2019
*Genre: Various Gothic
*Country: Many
*Format: mp3@CBR320kbps
*Size: 163MB

Tracklist:
01. Near Earth Orbit - Singularity
02. Versengold - Der Tag, An Dem Die Götter Sich Betranken (Live)
03. Theatre Of Tragedy - Motion (Funker Vogt Remix)
04. Astari Nite - As If You Were Dead (Das Ich Remix)
05. Golden Apes - Deliverance
06. Mondträume - All You Cannot See (Crytek Remix)
07. The Halo Trees - Bullet For Peace
08. Schwarzer Schnee - Schwarzer Schnee
09. Synapsyche - The Ghost DNA
10. The Devil & The Universe - Kali's Tongue
11. Darkenhöld - Marche Des Betes Sylvestres
12. FÏX8:SËD8 - Within Cells Interlinked
13. Kontrast - Plänterwald
14. Virgin In Veil - Kiss Kill
15. Skyler - Crack
16. Pythia - Spirits Of The Trees
******************************
Total playing time: 1:13:01

[more=Technical info]
Input File: 10 Kali\'s Tongue.mp3
Channels : 2
Sample Rate : 44100
Precision : 16-bit
Duration : 00:04:14.84 = 11238488 samples = 19113.1 CDDA sectors
File Size : 10.3M
Bit Rate : 324k
Sample Encoding: MPEG audio (layer I, II or III)
Comments :
Title=Kali's Tongue
Artist=The Devil & the Universe
Album=Cold Hands Seduction Vol. 210
Tracknumber=10/16
Year=2019
Genre=Darkwave

[/more]

Register
(3) Cartman223, metalwoman, varlam4,
Jul 13 2019, 10:36:39 Turdus Merula - The Paths Of Life [demo] (2007)
Register

(2) Svafrlami, thenecromancer,
Jun 29 2019, 08:49:06 Various Artists - Sonic Seducer: Cold Hands Seduction 209 [compilation] (2019)


*Artist: Various Artists
*Album: Sonic Seducer: Cold Hands Seduction 209 [compilation]
*Year: 2019
*Genre: Various Gothic
*Country: Many
*Format: mp3@CBR320kbps
*Size: 158MB

Tracklist:
1. Tanzwut - Schwarzes Gold
2. Centhron - Heer Der Woelfe
3. A Spell Inside - Fehlermeldung
4. The Black Water Panic Project - Church Ov Iron
5. Behind Your Fear - From The North
6. Munarheim - Dein Ist Der Tag
7. Auger - When We Are Apart
8. Radare - Eternal Love
9. Eigenraum - Seelenhaus
10. Othuum - Infernal Tentacle Wars (Edit)
11. Descendants Of Cain - Back At Me
12. Cat O' Nine - Weit, Weit Hinaus
13. Red Dead Roadkill - Somewhere, Mr. Fate
14. Frame Of Mind - Devil In Disguise (Single Edit)
15. SynthAttack - Enjoy The Pain
16. Six Turns Nine - Souls
******************************
Total playing time: 1:10:56

[more=Technical info]
Input File: 03 Fehlermeldung.mp3
Channels : 2
Sample Rate : 44100
Precision : 16-bit
Duration : 00:04:27.38 = 11791502 samples = 20053.6 CDDA sectors
File Size : 10.8M
Bit Rate : 323k
Sample Encoding: MPEG audio (layer I, II or III)
Comments :
Title=Fehlermeldung
Artist=A Spell Inside
Album=Cold Hands Seduction Vol. 209
Tracknumber=03/16
Year=2019

[/more]

Register
(7) artscald, Cartman223, Jurmagund, Legacy100, stone88, varlam4, Zenial,
Jun 29 2019, 08:44:16 Various Artists - Sonic Seducer: Cold Hands Seduction 208 [compilation] (2019)


*Artist: Various Artists
*Album: Sonic Seducer: Cold Hands Seduction 208 [compilation]
*Year: 2019
*Genre: Electronic
*Country: Many
*Format: mp3@CBR320kbps
*Size: 158MB

Tracklist:
1. Apoptygma Berzerk - Backdraft (Deviced By The Invincible Spirit)
2. Frozen Plasma feat. Xavier Morales - Morderous Trap
3. Amnistia - Package Of Regrets
4. Harmjoy - Heart Shaped Shadow (Inside Out Edit)
5. !Distain - SynthPopBoy (Oren Amram Synthesize Me Club Remix)
6. Mirexxx - Bleeding Sky
7. Sabbath Assembly - Worthless
8. Ellende - Die Wege)
9. Once Awake - Live Life On
10. Donnergroll - Black Second Clarity
11. State Of The Union - Slither (Assemblage 23 Remix)
12. m.o.l.pro.ject. - Can't Stand The Night
13. Sea Of Sin - Contamination
14. Projekt Ich feat. Caroline McLavy - The Sleepy Time
******************************
Total playing time: 1:10:11

[more=Technical info]
Input File: 07 Worthless.mp3
Channels : 2
Sample Rate : 44100
Precision : 16-bit
Duration : 00:05:07.87 = 13577199 samples = 23090.5 CDDA sectors
File Size : 12.5M
Bit Rate : 324k
Sample Encoding: MPEG audio (layer I, II or III)
Comments :
Title=Worthless
Artist=Sabbath Assembly
Album=Cold Hands Seduction Vol. 208
Tracknumber=07/14
Year=2019

[/more]

Register
(4) artscald, Cartman223, Jurmagund, varlam4,
Jun 29 2019, 08:30:08 Various Artists - Darkness Is Thy Kingdom - A Journey Into Dark Metal Sounds Volume 3 [best of/compilation] (2000)
Register
(1) James817,
Jun 29 2019, 08:26:44 Various Artists - Darkness Is Thy Kingdom - A Journey Into Dark Metal Sounds Volume 2 [best of/compilation] (1999)
Register
(1) James817,
May 12 2019, 12:45:39 Various Artists - Ablaze 01-02 1999 [best of/compilation] (1999)
Register
(3) James817, Pinhead666, stumpheavyrock,
May 6 2019, 11:06:26 Goat - Sacred Pilgrim - Alle Hader Goat (1996)
Register
(3) James817, stumpheavyrock, thenecromancer,
Apr 23 2019, 08:08:29 Blot - Victory For The Damned [demo] (2001)
Register

(3) INDARKNESS, thenecromancer, unit731,
Apr 2 2019, 11:21:32 Various Artists - Sonic Seducer: Cold Hands Seduction 206 - Mittelaletr Special [compilation] (2019)


*Artist: Various Artists
*Album: Sonic Seducer: Cold Hands Seduction 206 - Mittelalter-Special [compilation]
*Year: 2019
*Genre: Folk/Medieval
*Country: Many
*Format: mp3@CBR320kbps
*Size: 174MB

Tracklist:
01. Subway To Sally - Messias (Voicians Godlight Mix)
02. Fiddler's Green - Together As One (Pub Version)
03. Versengold - Auf In Den Wind (Live Balladen-Version)
04. Bella Donna - Awakening (Vision Mix)
05. Cesair - Umbra
06. Waldkauz - Mati Syra Zemlya
07. Odroerir - Idisi Eiti (Edit)
08. Delva feat. Benni Cellini - Black Is The Colour
09. Zackenflanke - Aestivus
10. The Ceili Family - Band Of Bowsies
11. Haggefugg - Brennende Welt
12. Totus Gaudeo - Schachmatt (Live Beim Festival Mediaval)
13. Vitae - The Druids
14. Irdorath - Drachen
15. Joyosa - A Virgen, Que De Dèus Madre
16. Kyoll - Legion
17. Shireen - Values In Blood
18. Brachmond - In Tiefster Nacht
******************************
Total playing time: 1:17:37

[more=Technical info]
Input File: 07 Idisi Eiti (Edit).mp3
Channels : 2
Sample Rate : 44100
Precision : 16-bit
Duration : 00:05:00.61 = 13256901 samples = 22545.8 CDDA sectors
File Size : 12.2M
Bit Rate : 325k
Sample Encoding: MPEG audio (layer I, II or III)
Comments :
Title=Idisi Eiti (Edit)
Artist=Odroerir
Album=Cold Hands Seduction Vol. 206 - Mittelalter Special
Tracknumber=07
Year=2019
Genre=Medieval/Folk Rock

[/more]

Register
(4) Bruce, Cartman223, dimmannius, Jurmagund,
Apr 2 2019, 11:18:38 Various Artists - Sonic Seducer: Cold Hands Seduction 205 [compilation] (2019)


*Artist: Various Artists
*Album: Sonic Seducer: Cold Hands Seduction 205 [compilation]
*Year: 2019
*Genre: Various Gothic
*Country: Many
*Format: mp3@CBR320kbps
*Size: 168MB

Tracklist:
01 - Joachim Witt - Das Geht Tief (Orchester Version)
02 - Front Line Assembly feat. Robert Görl - Eye On You
03 - Acretongue - Minutia's Curse
04 - Die Klute - It's All In Vain
05 - Eden Synthetic Corps - AOKIGAHARA
06 - Chontaraz - Fences
07 - Johnny Deathshadow - Sugar Like Salt
08 - MDD - Breath
09 - Happines Project - Big Cities
10 - Long Night - The Night's Ablaze
11 - The Arch - Joan's In Prison
12 - Metroland - Speed Of Life (Elektroklänge 1-2-3 Mix)
13 - Xotox - Paleodisco
14 - Frank The Baptist - Textured Messages
15 - Synapsyche - Mirror Terror
16 - Antilles - The Great Unknown
17 - Angel's Arcana - Metamorphosis Pt. 1 - Burn Yourself With A Flaming Sword
******************************
Total playing time: 1:16:06

[more=Technical info]
Input File: 07 Sugar Like Salt.mp3
Channels : 2
Sample Rate : 44100
Precision : 16-bit
Duration : 00:03:30.56 = 9285740 samples = 15792.1 CDDA sectors
File Size : 8.49M
Bit Rate : 323k
Sample Encoding: MPEG audio (layer I, II or III)
Comments :
Title=Sugar Like Salt
Artist=Johnny Deathshadow
Album=Cold Hands Seduction Vol. 205
Tracknumber=07/17
Year=2019

[/more]

Register
(3) Cartman223, dimmannius, Jurmagund,
Mar 7 2019, 23:04:49 Gnipahålan - Vid De Vånnalösas/Häxbål [compilation] (2019)
QUOTE(WolfFenrir @ Mar 7 2019, 21:15:36) *
Mirror, please?


Register

(5) dad, marilin, vasiljev_sergej, WolfFenrir, zargonath,

53 Pages V   1 2 3 > » 
- Lo-Fi Version Support form
Copyrights and abuse reports form
Time is now: 11th August 2020 - 08:09:43