Welcome Guest ( Log In | Register )

История благодарностей участнику Yarri ::: Спасибо сказали: 5759 раз(а)
Дата поста: В теме: За сообщение: Спасибо сказали:
Yesterday, 10:39:48 Stratovarius
И это только пилотная серия. Скоро будут "Эпизод" и "Видения".
(1) Exorcist,
Jul 28 2021, 22:09:29 Гробовая Доска - Ведьма​-​сивуха [single] (2021)
ЦИТАТА(Shadowman @ Jul 29 2021, 00:00:35) *
Можно подумать, что на МА все диалоги прям такие нужные ))

Ну мазохистических истерик не так уж и много. Последний раз, когда мне не зашёл альбом, хватило одного слова. А тут какая-то майская демонстрация.
(7) 6666666, Deze, infiltrator, Lux, plfan93, Samaritianin, xax,
Jul 28 2021, 21:47:50 Гробовая Доска - Ведьма​-​сивуха [single] (2021)
Как бы закоротить друг на друга CTPEMLEHIE и Zyozic_Bandutto. Отличный бы получился никому не нужный диалог. smile3.gif
(3) infiltrator, Old Vyaine, xax,
Jul 27 2021, 19:59:43 Гробовая Доска - Ведьма​-​сивуха [single] (2021)
Чё это ютюбчик выпилили.
[youtube]DRNBHea32rg[/youtube]
(2) infiltrator, Samaritianin,
Jul 26 2021, 21:05:40 Гробовая Доска - Ведьма​-​сивуха [single] (2021)
Ништяковский трек.
(2) infiltrator, Samaritianin,
Jul 26 2021, 20:20:03 Yngwie Malmsteen - Parabellum (2021)
ЦИТАТА(Old Vyaine @ Jul 26 2021, 22:16:10) *
Только второй лучше.

Да! Только докрутил его. 9.gif
(1) Old Vyaine,
Jul 26 2021, 20:07:59 Yngwie Malmsteen - Parabellum (2021)
Я вот щас включил третий альбом Вая и понимаю, что на фиг не нужен никакой новый Мальм.
(1) Rhoads,
Jul 22 2021, 10:17:20 Новости Experimental/Progressive Metal
Soen выпустят EP с песнями, не вошедшими в Lotus (EMDR, Thurifer, Virtue).

[youtube]xhs5NuL_mHM[/youtube]
(1) скептик,
Jul 17 2021, 11:16:16 Bulb - Moderately Fast, Adequately Furious (2021)
Шняга.
(2) infiltrator, Луч,
Jul 16 2021, 18:30:26 Space Chaser - Give Us Life (2021)
Не знаю, как альбом, но уже вошли в историю этим клипом.

[youtube]9l0bUp6WCtk[/youtube]
(4) AHBAnep, infiltrator, metalboll, mirotvorets,
Jul 15 2021, 19:38:53 Новости Heavy/Power металла
[youtube]FhBnW7bZHEE[/youtube]
(2) maxmagmas, Tular,
Jul 7 2021, 19:45:27 Новости Experimental/Progressive Metal
Threshold вовсю пишут новый альбом.
(2) Deze, Emm Human,
Jun 30 2021, 10:30:37 Helloween - Helloween (2021)
ЦИТАТА(DennyAleshine @ Jun 30 2021, 11:58:49) *
Чуть лучше каждой из работ последних 20 лет.

Гэмблинг недосягаемая глыба!
(1) plfan93,
Jun 24 2021, 20:22:10 Helloween - Helloween (2021)
ЦИТАТА(Mick Dundee @ Jun 24 2021, 21:40:15) *
Как может Киске кого то дополнять ? Он основная фигура даже в таком альбоме.

При всей любви к вокалу Киске - не соглашусь. Хансен тут не нужен, а Дерис на своём месте, делает отличную работу.
(1) Exorcist,
Jun 23 2021, 09:55:17 Helloween - Helloween (2021)
Сперва немного выбивались "кроличьи" композиции, хотелось их отфигачить. Но чё-то потом привык, что ли. В целом - хороший альбом, Киске приятно дополняет Дериса, а Хансен на минималке. Есть и ударные треки.
(1) Lucifer,
May 30 2021, 15:26:45 If These Trees Could Talk - Red Forest (2012)
Register
(1) carla667,
May 30 2021, 12:46:55 Новости Thrash Metal направления
ЦИТАТА(troll_swamp @ May 25 2021, 19:19:56) *
[youtube]9l0bUp6WCtk[/youtube]

Зачётнейший клип. 9.gif
(3) infiltrator, troll_swamp, скептик,
May 4 2021, 09:13:11 Mariusz Duda - Lockdown Spaces [ep] (2020)
Добавил мегу.
(2) infiltrator, Old Vyaine,
May 3 2021, 10:41:05 __________, или Голосовалка за лучший альбом 2020 года, ФИНАЛ
Таки Беня!
(1) Alexis The Best,
May 2 2021, 20:37:37 Axxis - Kingdom Of The Night (1989)
Спасибо, камрад, за реап темы. Скачал - послушал - пропёрся. Приятная вещь во всех отношениях.
(1) vam1972,
May 2 2021, 17:27:25 Mariusz Duda - Lockdown Spaces [ep] (2020)


*Artist: Mariusz Duda
*Album: Lockdown Spaces [ep]
*Year: 2020
*Genre: Ambient
*Country: Poland
*Format: mp3@CBR320kbps
*Size: 77MB

Tracklist:
01. Isolated 05:51
02. Lockdown Spaces 02:54
03. Bricks 06:32
04. Waiting 02:08
05. Thought Invaders 04:20
06. Pixel Heart 05:26
07. Silent Hall 01:09
08. Unboxing Hope 05:00
09. Screensaver 00:55
******************************
Total playing time: 34:15




[more=Extended info]Released June 26, 2020
Composed and performed by Mariusz Duda
Recorded during two weeks in June 2020 at Serakos Studio, Warszawa by Magda and Robert Srzedniccy
Artwork by Hajo Muller[/more]

[more=Technical info]
Input File: 01. Isolated.mp3
Channels : 2
Sample Rate : 44100
Precision : 16-bit
Duration : 00:05:51.66 = 15508030 samples = 26374.2 CDDA sectors
File Size : 14.1M
Bit Rate : 320k
Sample Encoding: MPEG audio (layer I, II or III)
Comments :
Title=Isolated
Artist=Mariusz Duda
Album=Lockdown Spaces
Tracknumber=01
Year=2020
Genre=Ambient

[/more]

Register
(6) as71, gena, infiltrator, leks, Old Vyaine, Olethros,
Apr 29 2021, 19:22:09 Новости Heavy/Power металла
[youtube]eA9k8xcN938[/youtube]

Составчик!

Udo Dirkschneider
Peter Baltes
Stefan Kaufmann

Sven Dirkschneider
Manuela Markewitz
Mathias Dieth
(2) avather, infiltrator,
Apr 22 2021, 13:43:21 Кино - Черный Альбом (1990)
Я бы из этого альбома выкинул почти половину песен. По сравнению с Группой крови и Звездой это резкий уход вниз, в попсу. Почти потеряли атмосферу, которая сохранилась лишь в паре старых песен. Ну и звук тут откровенно говённый, что это за ударные вообще, Айзеншпис.
(1) Kazoth,
Apr 17 2021, 15:21:00 __________, или Голосовалка за лучший альбом 2020 года, Тур 2
Любой альбом-года не из прога является версией а-о. dwarf-1.gif
(2) Alexis The Best, infiltrator,
Apr 14 2021, 09:15:49 __________, или Голосовалка за лучший альбом 2020 года, Тур 2
ЦИТАТА(Deze @ Apr 14 2021, 10:13:34) *
Здесь Психотик Вальтц и Дельту просто усыпали минусами - ты видел хоть одно возмущение от меня или Ярри (при том, что мы очень даже возмущены)?

Ответствую. Где мой сука говномёт. Дима, пригнись. bye.gif
(3) Deze, infiltrator, mirotvorets,

85 Pages V   1 2 3 > » 
- Lo-Fi Version Support form
Copyrights and abuse reports form
Time is now: 6th August 2021 - 04:47:54