Welcome Guest ( Log In | Register )

История благодарностей участнику Yarri ::: Спасибо сказали: 5930 раз(а)
Дата поста: В теме: За сообщение: Спасибо сказали:
Nov 23 2021, 17:02:20 Bestial Invasion - The Divine Comedy: Inferno (2021)
Formaldehyd,
Лучше стихи пиши.
(1) hammer,
Nov 22 2021, 18:04:58 Exodus - Persona Non Grata (2021)
Спорят тут, а ведь многие не знают, что такое треш.
(2) BleedingSun, Deze,
Nov 18 2021, 23:54:03 Bestial Invasion - The Divine Comedy: Inferno (2021)
"Штирлица неудержимо рвало на Родину" (с)
(1) WOLAND,
Nov 17 2021, 10:19:51 Metallica - ...And Justice For All (1988)
Terrorizer,
Мнение очень странное. Эти два альбома (+Мастер) очень близки к прогу именно в том, что касается "композиторски". Лично я никакой кашеобразности не слышу, думаю, это у тебя в голове. Маслица добавь. 12.gif
(5) Alesha, Emm Human, Exorcist, mittal, Shadowman,
Nov 17 2021, 10:09:17 BESTIAL INVASION (TECHNICAL THRASH METAL)
Мне лично сложно слушать обзоры MP, но мнение никому не навязываю.
А вот музон качественный. Все, кто говорит иначе, в музыке просто не шарят. Dixi.
(4) Exorcist, Mpriest1, Old Vyaine, WOLAND,
Nov 14 2021, 20:19:26 Bestial Invasion - The Divine Comedy: Inferno (2021)
Альбом не на одно прослушивание. По первому прогону не так интересно, как Мономания, но это мнение может измениться.
(1) MetalPriest7,
Nov 6 2021, 18:50:24 Within Progress - Inner (2021)
[youtube]kAcj46UNVRc[/youtube]
(1) Old Vyaine,
Nov 5 2021, 15:25:06 Кто какие альбомы ждёт? Albums you are waiting for
ЦИТАТА(Yarri @ Oct 5 2021, 10:49:44) *
Трешолд, Фейтсы и Мега.

И Поркупайн Тру!
(1) Exorcist,
Nov 1 2021, 15:23:46 Новости Experimental/Progressive Metal
Жаль только, что Колина Эдвина потеряли.
(1) Faust_Vulkan_16,
Nov 1 2021, 11:21:12 Новости Experimental/Progressive Metal
ЦИТАТА(Faust_Vulkan_16 @ Oct 30 2021, 18:12:33) *
Ходят слухи, что 1.11.2021 будет новый...
Porcupine Tree 17.gif

ААААА! 24.06.2022.

[youtube]AW5v4Ohxk5k[/youtube]
(2) Black Cat, mirotvorets,
Oct 28 2021, 22:27:23 Running Wild - Blood On Blood (2021)
Скепсис был напрасным. Хороший альбом. Молодцы стариканы.
(1) Winterdark,
Oct 28 2021, 15:22:20 Beast In Black - Dark Connection (2021)
Стиль: Disco
(2) isvili, Winterdark,
Oct 27 2021, 14:04:58 Новости Experimental/Progressive Metal
О, нежданчик-офигенчик.

[youtube]6ADV7NYDfQs[/youtube]

with Roy Khan, Tony Martin, Marcela and Irene, Steve Vai
This 10-minute epic is the first video clip/single of the new Star One album Revel in Time. The lyrics are inspired by the movie Interstellar.
(1) mirotvorets,
Oct 25 2021, 17:31:45 Новости Experimental/Progressive Metal
[youtube]o923cCjAkyo[/youtube]
(3) Emm Human, mirotvorets, Old Vyaine,
Oct 24 2021, 18:49:32 ILTI MILTA - Sectors (2013)
Ilti Milta - Sectors (2013)

P.S. I'm far from understanding this project, though.
(1) thenecromancer,
Oct 20 2021, 21:26:20 U.D.O. - Game Over (2021)
На удивление бодрый и мелодичный альбом. Я прям в лёгком обалдении. Могёт ведь дед, могёт! metaler.gif
(3) MetalgeR, Samaritianin, WOLAND,
Oct 20 2021, 19:20:27 Mindscape - Get Used To It (1994)


*Artist: Mindscape
*Album: Get Used To It
*Year: 1994
*Genre: Heavy Metal
*Country: Italy
*Format: mp3@CBR320kbps
*Size: 127MB

Tracklist:
01. Heal Your Heart 04:49
02. Electric Mind 03:40
03. Tearin' us Apart 03:43
04. This Time 04:14
05. Tear Down The Walls 03:22
06. Keep It All 05:49
07. Strip Me Up 04:15
08. Days Like Cazy 03:45
09. Hard Warning 07:01
10. Shut Yor Mounth 04:33
11. Heartache Calling 06:05
******************************
Total playing time: 51:16



[more=Extended info]Line-up

Alessandro Verdelli - Vocals
Fabrizio Appetito - Guitar
Dario Bergamo - Guitar
Sabina Feraiorni - Bass
Armando Appetito - Drums

Maurizio "Duka" Moroni - Guest keyboards
Gioia Rebecchi - Additional Lead Vocals on 09
Roberta Petteruti, Mauro Matteucci, Gioia Rebecchi, Paola Feraiorni and Mindscape crew - Backing Vocals[/more]

[more=Technical info]
Input File: 01. Heal Your Heart.mp3
Channels : 2
Sample Rate : 44100
Precision : 16-bit
Duration : 00:04:49.33 = 12759233 samples = 21699.4 CDDA sectors
File Size : 11.6M
Bit Rate : 320k
Sample Encoding: MPEG audio (layer I, II or III)
Comments :
Title=Heal Your Heart
Artist=Mindscape (Ita)
Album=Get Used To It
Tracknumber=01
Year=1993
Genre=Heavy Metal

[/more]

Register
(15) andgrek28, caro, dcatagua, doomsword11, julianotidre, Lukittaz, Marek, metala, Mogozoz, Olethros, postal67, sergsazan, Svafrlami, Taakeferd, wreak,
Oct 11 2021, 19:15:51 Helloween
ЦИТАТА(Exorcist @ Oct 11 2021, 21:14:13) *
Пушистость прямо прёт, ага.

Если от слова Push, то норм ваще.
(3) Exorcist, plfan93, Tular,
Oct 11 2021, 08:10:24 Helloween
ЦИТАТА(CTPEMLEHIE @ Oct 10 2021, 21:24:21) *
Короч., я упустил... когда у нас Дарк Райд стал иметь столько последователей? и, главное, за какие такие заслуги.

По той же причине, почему его антипод Rabbit я лично считаю дном группы.
Самый мрачный и атмосферный альбом группы, под завязку набитый хитами.
У меня входит в топ-5 легко, а то и в топ-3.
(2) CTPEMLEHIE, Formaldehyd,
Oct 10 2021, 14:57:15 Кипелов - Часы Судного Дня [ep] (2021)
Никогда такого не было!
(1) BleedingSun,
Oct 5 2021, 10:58:07 Tuesday The Sky - The Blurred Horizon (2021)


*Artist: Tuesday The Sky
*Album: The Blurred Horizon
*Year: 2021
*Genre: Progressive Rock/Ambient
*Country: United States
*Format: mp3@CBR320kbps
*Size: 104MB

Tracklist:
01. Half Remembered 4:51
02. Near Light 4:33
03. Cwmwl 3:49
04. Where the Enemy Sleeps 3:51
05. Laudanum Dream 5:25
06. Hypneurotic 4:05
07. Later, Then Now 3:36
08. Near Dark 3:49
09. Half Forgotten 4:25
10. The Blurred Horizon 3:57
11. Everything is Free 4:08
******************************
Total playing time: 46:29



[more=Extended info]Line-up

Jim Matheos (Fates Warning, OSI) - Guitars, Keyboards, Bass
Gavin Harisson (Porcupine Tree, ex-Blackfield, The Pineapple Thief) - Drums
Tim Bowness (No-Man, Steven Wilson, Henry Fool) - Vocals (11)[/more]

[more=Technical info]
Input File: 01. Half Remembered.mp3
Channels : 2
Sample Rate : 44100
Precision : 16-bit
Duration : 00:04:51.21 = 12842185 samples = 21840.5 CDDA sectors
File Size : 11.6M
Bit Rate : 320k
Sample Encoding: MPEG audio (layer I, II or III)
Comments :
Title=Half Remembered
Artist=Tuesday The Sky
Album=The Blurred Horizon
Tracknumber=01
Year=2021
Genre=Progressive Rock

[/more]

Register
(6) Cartman223, Diflock, garml2, mirotvorets, Nattfodd, Olethros,
Oct 5 2021, 10:56:29 Tuesday The Sky - Drift (2017)


*Artist: Tuesday The Sky
*Album: Drift
*Year: 2017
*Genre: Progressive Rock/Ambient
*Country: United States
*Format: mp3@CBR320kbps
*Size: 109MB

Tracklist:
01. Today The Sky 4:15
02. Kite 5:10
03. Vortex Street 4:46
04. It Comes In Waves 4:30
05. Dyatlov Pass 7:29
06. Far And Away 4:19
07. Westerlies 5:27
08. Roger, Gordo 4:06
09. The Rowing Endeth 4:31
10. Drift 4:09
******************************
Total playing time: 48:42



[more=Extended info]Line-up

Jim Matheos (Fates Warning, OSI and Arch/Matheos, Gordian Knot and Memories of Machines) - Guitars, Bass
Lloyd Hanney - Drums
Anna-Lynne Williams (Trespassers William, Lotte Kestner) - Vocals (3, 7)
Kevin Moore (OSI, Dream Theater) - Keyboards (4, 10)[/more]

[more=Technical info]
Input File: 01. Today The Sky.mp3
Channels : 2
Sample Rate : 44100
Precision : 16-bit
Duration : 00:04:15.68 = 11275356 samples = 19175.8 CDDA sectors
File Size : 10.2M
Bit Rate : 320k
Sample Encoding: MPEG audio (layer I, II or III)
Comments :
Title=Today The Sky
Artist=Tuesday The Sky
Album=Drift
Tracknumber=01
Year=2017
Genre=Progressive Rock
Discnumber=1/1

[/more]

Register
(4) Cartman223, Diflock, mirotvorets, Olethros,
Oct 5 2021, 08:49:44 Кто какие альбомы ждёт? Albums you are waiting for
Трешолд, Фейтсы и Мега.
(1) BleedingSun,
Sep 22 2021, 15:43:32 Iron Maiden - Senjutsu (2021)
6666666,
Подыши на диск и протри тряпочкой, буквы должны проступить.
(1) Winterdark,
Sep 19 2021, 13:11:55 Fierce Atmospheres - Pariahs, Misfits And Sinners (2020)


*Artist: Fierce Atmospheres
*Album: Pariahs, Misfits And Sinners
*Year: 2020
*Genre: Progressive Metal
*Country: United States
*Format: mp3@CBR320kbps
*Size: 116MB

Tracklist:
01. Intro (Pariahs, Misfits and Sinners) 1:23
02. Hail to the King 4:00
03. Savior 5:15
04. The Hypnotized 5:21
05. One on One 5:11
06. Rise 4:03
07. Heaven to Pay 5:16
08. Forsaken 3:27
09. Fear the Blue Sky 6:55
10. Black and White Horizon 6:43
11. The Last Words 4:06
******************************
Total playing time: 51:40



[more=Technical info]
Input File: 02. Hail to the King.mp3
Channels : 2
Sample Rate : 44100
Precision : 16-bit
Duration : 00:04:00.24 = 10594496 samples = 18017.9 CDDA sectors
File Size : 9.16M
Bit Rate : 324k
Sample Encoding: MPEG audio (layer I, II or III)
Comments :
Title=Hail to the King
Artist=Fierce Atmospheres
Album=Pariahs, Misfits and Sinners
Tracknumber=02/11
Year=2020
Genre=Progressive Metal
Discnumber=1/1

[/more]

Register
(12) ace73pq, AHBAnep, caro, dimitriusk, julianotidre, Marek, MMMMM, Mogozoz, Olethros, Rover, Wail, wreak,

87 Pages V   1 2 3 > » 
- Lo-Fi Version Support form
Copyrights and abuse reports form
Time is now: 29th November 2021 - 22:40:20