Welcome Guest ( Log In | Register )

Объявления

* gmail.com упорно продолжает считать почту с нас "unsolicited" и отбивает в том числе и письма активации, поэтому просьба использовать альтернативные почтовые ящики.
------------
* gmail.com continues reject all mail from us as "unsolicited" (activation mails too) therefore please use alternate mail servers.
История благодарностей участнику Yarri ::: Спасибо сказали: 9786 раз(а)
Дата поста: В теме: За сообщение: Спасибо сказали:
Jul 20 2024, 12:23:20 Vultress - Distance: Definitive Collection (2019)


*Artist: Vultress
*Album: Distance: Definitive Collection
*Year: 2019
*Genre: Progressive Metal
*Country: United States
*Format: mp3@CBR320kbps
*Size: 156MB

Tracklist:
01. A Chord from Heaven (I) 09:29
02. Returned to Earth (II) 09:23
03. The Path (III) 05:52
04. Reinvocation (IV) 09:29
05. The Siren Screams (V) 07:55
06. At the Edge (VI) 24:46
******************************
Total playing time: 1:06:54







[more=Extended info]Jordan Gaboian - guitar
Paul Uhrina - drums
Anthony Capuano - vox/keys[/more]

[more=Technical info]
Input File: 01. A Chord from Heaven (I).mp3
Channels : 2
Sample Rate : 44100
Precision : 16-bit
Duration : 00:09:29.35 = 25108203 samples = 42701 CDDA sectors
File Size : 22.9M
Bit Rate : 322k
Sample Encoding: MPEG audio (layer I, II or III)
Comments :
Title=A Chord from Heaven (I)
Artist=Vultress
Album=Distance: Definitive Collection
Tracknumber=1
Year=2019
Genre=Progressive Metal

[/more]

Register
(2) artscald, RodJohnson,
Jul 20 2024, 12:22:09 Vultress - Hypnopompia (2020)


*Artist: Vultress
*Album: Hypnopompia
*Year: 2020
*Genre: Progressive Metal
*Country: United States
*Format: mp3@CBR320kbps
*Size: 71MB

Tracklist:
01. Hypnopompia 00:35
02. Cmdr Hall and Wherewithal 04:55
03. Tether 05:56
04. Fall into Then 04:12
05. L'appel du Vide 05:06
06. New Sun 09:50
******************************
Total playing time: 30:34







[more=Extended info]Jordan Gaboian - guitar
Paul Uhrina - drums
Anthony Capuano - vox/keys[/more]

[more=Technical info]
Input File: 02. Cmdr Hall and Wherewithal.mp3
Channels : 2
Sample Rate : 44100
Precision : 16-bit
Duration : 00:04:56.07 = 13056467 samples = 22204.9 CDDA sectors
File Size : 11.9M
Bit Rate : 322k
Sample Encoding: MPEG audio (layer I, II or III)
Comments :
Title=Cmdr Hall and Wherewithal
Artist=Vultress
Album=Hypnopompia
Tracknumber=2
Year=2020
Genre=Progressive Metal

[/more]

Register
(6) andgrek28, artscald, mirotvorets, nikolay81, RodJohnson, stumpheavyrock,
Jul 18 2024, 18:45:16 Inner Strength - Demo '95 [demo] (1995)
Register
(1) Wail,
Jul 18 2024, 18:38:44 Inner Strength - Within The Dream [demo] (1991)
Register
(1) Wail,
Jul 18 2024, 17:13:44 Inner Strength - Beyond Tomorrow [demo] (1992)


*Artist: Inner Strength
*Album: Beyond Tomorrow [demo]
*Year: 1992
*Genre: Progressive Metal
*Country: United States
*Format: mp3@CBR320kbps
*Size: 185MB

Tracklist:
01. Pull the Strings 04:29
02. A Choice of Reason 02:25
03. The Human Error 04:16
04. Sea of Scarlet 06:10
05. Questions of Fear 03:43
06. Here We Are (1992-1993) 06:26
07. The Strength Within (1992-1993) 07:29
08. Sunrise Dreamer (1992-1993) 04:53
09. Mirage (1992-1993) 05:30
10. Shallow Reflections (1992-1993) 02:41
11. You’re Walking Blind (1992-1993) 05:07
12. Empathy (1992-1993) 05:28
13. Doors of Deception (1992-1993 unreleased track) 05:52
14. Threshold (1992-1993) 00:55
15. Weapons of Mass Deconstruction (2019 new track) 13:44
******************************
Total playing time: 1:19:08




[more=Extended info]2019 re-release

Original line-up
Justin Hosman - Bass
Frank Todarello - Drums
Joe Marselle - Guitars
Scott Oliva - Vocals[/more]

[more=Technical info]
Input File: 01. Pull The Strings.mp3
Channels : 2
Sample Rate : 44100
Precision : 16-bit
Duration : 00:04:29.58 = 11888258 samples = 20218.1 CDDA sectors
File Size : 10.8M
Bit Rate : 320k
Sample Encoding: MPEG audio (layer I, II or III)
Comments :
Title=Pull The Strings
Artist=Inner Strength
Album=Beyond Tomorrow
Tracknumber=1
Year=2019
Genre=Heavy Metal

[/more]

Register
(4) after21allD, artscald, stumpheavyrock, Wail,
Jul 17 2024, 17:43:50 Astralizard - Eternal (2024)
Первый раз слышу вокалиста с диапазоном в пол-октавы.
(1) AHBAnep,
Jul 14 2024, 17:05:14 Monarchs To Oblivion - I Am (2020)


*Artist: Monarchs To Oblivion
*Album: I Am
*Year: 2020
*Genre: Progressive Metal
*Country: United States
*Format: mp3@CBR320kbps
*Size: 104MB

Tracklist:
01. Darkness Falls 03:53
02. If Two 05:20
03. Fade 04:06
04. Blindside 04:18
05. Prophetic 02:53
06. My Will 04:14
07. Fallen Lion Living Hound 05:20
08. Haunting Me 04:09
09. 12th Hour 04:02
10. I Am 05:50
******************************
Total playing time: 44:05




[more=Extended info]Mike Ricke - Vocals
Ryan Burchett - Guitar
JD Maurer - Bass
Chad Williamson - Drums[/more]

[more=Technical info]
Input File: 01. Darkness Falls.mp3
Channels : 2
Sample Rate : 44100
Precision : 16-bit
Duration : 00:03:53.84 = 10312256 samples = 17537.9 CDDA sectors
File Size : 9.43M
Bit Rate : 323k
Sample Encoding: MPEG audio (layer I, II or III)
Comments :
Title=Darkness Falls
Artist=Monarchs to Oblivion
Album=I Am
Tracknumber=1
Year=2020
Genre=Progressive Metal

[/more]

Register
(8) andgrek28, artscald, Marek, metala, Reverend, RodJohnson, Strid, stumpheavyrock,
Jul 14 2024, 17:03:40 Monarchs To Oblivion - Monarchs To Oblivion (2018)


*Artist: Monarchs To Oblivion
*Album: Monarchs To Oblivion
*Year: 2018
*Genre: Progressive Metal
*Country: United States
*Format: mp3@CBR320kbps
*Size: 87MB

Tracklist:
01. Intro 01:15
02. Repentance 03:06
03. Virga 04:06
04. Lullaby 05:22
05. Infected Direction 04:22
06. The Walk 04:14
07. 70 X 7 03:05
08. False Gods 03:26
09. Arise 04:02
10. My Misdeeds 03:43
******************************
Total playing time: 36:41






[more=Extended info]Mike Ricke - Vocals
Ryan Burchett - Guitar
JD Maurer - Bass
Chad Williamson - Drums[/more]

[more=Technical info]
Input File: 02 - Repentance.mp3
Channels : 2
Sample Rate : 44100
Precision : 16-bit
Duration : 00:03:06.32 = 8216624 samples = 13973.9 CDDA sectors
File Size : 7.52M
Bit Rate : 323k
Sample Encoding: MPEG audio (layer I, II or III)
Comments :
Title=Repentance
Artist=Monarchs to Oblivion
Album=Monarchs to Oblivion
Tracknumber=2
Year=2018
Genre=Progressive Metal
Discnumber=1

[/more]

Register
(5) andgrek28, artscald, Reverend, RodJohnson, stumpheavyrock,
Jul 12 2024, 00:18:18 Helfir - Still Bleeding (2015)
Register


ЦИТАТА(aesteticvice @ Aug 6 2015, 05:16:12) *
Influences: Antimatter, Anathema, Katatonia, Porcupine Tree, Alternative 4...

+ Riverside. В одном из треков постоянно ловил себя на мысли: ща как вступит Мариуш Дуда.
И я бы не настаивал на форматности, проект скорее в прог-роке. Очень одарённый автор, поёт чисто, без характерного для итальянцев акцента.
Вообще великолепный проект и отличный альбом.
Закинул на форум ещё два косячка на раскурку.

Helfir - The Human Defeat (2017)
Helfir - The Journey (2020)
(3) BlackTroll, Cooperalex, Wail,
Jul 12 2024, 00:08:18 Helfir - The Journey (2020)


*Artist: Helfir
*Album: The Journey
*Year: 2020
*Genre: Atmospheric Progressive Metal/Rock
*Country: Italy
*Format: mp3@CBR320kbps
*Size: 112MB

Tracklist:
01. The Game 04:28
02. In My Dream 04:48
03. The Past 04:47
04. Clouds 04:19
05. In the Pale Land 04:06
06. The Gathering 03:20
07. No Escape 05:18
08. Traces of You 05:35
09. Tied to the Ground 03:44
10. Uncensored 02:13
11. Silent Path 05:48
******************************
Total playing time: 48:26






[more=Extended info]Luca Mazzotta - all[/more]

[more=Technical info]
Input File: 01. The Game.mp3
Channels : 2
Sample Rate : 44100
Precision : 16-bit
Duration : 00:04:28.82 = 11854874 samples = 20161.4 CDDA sectors
File Size : 10.8M
Bit Rate : 321k
Sample Encoding: MPEG audio (layer I, II or III)
Comments :
Title=The Game
Artist=Helfir
Album=The Journey
Tracknumber=1
Year=2020
Genre=Atmospheric Progressive Metal

[/more]

Register
(6) artscald, metala, Reverend, Wail, Weikai, ZamanFu,
Jul 12 2024, 00:04:39 Helfir - The Human Defeat (2017)


*Artist: Helfir
*Album: The Human Defeat
*Year: 2017
*Genre: Atmospheric Progressive Metal/Rock
*Country: Italy
*Format: mp3@CBR320kbps
*Size: 111MB

Tracklist:
01. Time in Our Minds 04:07
02. Light 04:32
03. Tide 04:47
04. Protect Me 04:32
05. Chant d'automne 03:27
06. Mechanical God 03:42
07. Climax 2.0 07:57
08. Golden Tongue 05:17
09. The Last Sun 06:42
10. Chant d'automne (Instrumental) 03:27
******************************
Total playing time: 48:30




[more=Extended info]Luca Mazzotta - all[/more]

[more=Technical info]
Input File: 01. Time in Our Minds.mp3
Channels : 2
Sample Rate : 44100
Precision : 16-bit
Duration : 00:04:07.08 = 10896360 samples = 18531.2 CDDA sectors
File Size : 9.94M
Bit Rate : 322k
Sample Encoding: MPEG audio (layer I, II or III)
Comments :
Title=Time in Our Minds
Artist=Helfir
Album=The Human Defeat
Tracknumber=1
Year=2017
Genre=Progressive Metal

[/more]

Register
(5) artscald, Reverend, Wail, Weikai, ZamanFu,
Jul 11 2024, 11:10:30 Violent Passion Surrogate - Rhizomorphic (2017)


*Artist: Violent Passion Surrogate
*Album: Rhizomorphic
*Year: 2017
*Genre: Progressive Metal
*Country: Chile
*Format: mp3@CBR320kbps
*Size: 104MB

Tracklist:
01. Fear Index 03:55
02. Echelons 05:09
03. Eternal Oblivion 03:53
04. Propaganda Within 05:02
05. Blind Zone 03:56
06. Sound of Hate 04:01
07. Silent Enemy 03:53
08. For I have dissapeared 03:50
09. Shadow Government 03:12
10. Cephalic 05:53
******************************
Total playing time: 42:44







[more=Extended info]Gabriel Hidalgo - Guitars
Sergio Domínguez - Vocals
Diego Contreras - Bass
Guillermo Pereira - Drums[/more]

[more=Technical info]
Input File: 01. Fear Index.mp3
Channels : 2
Sample Rate : 44100
Precision : 16-bit
Duration : 00:03:56.03 = 10409011 samples = 17702.4 CDDA sectors
File Size : 10.1M
Bit Rate : 341k
Sample Encoding: MPEG audio (layer I, II or III)
Comments :
Title=Fear Index
Artist=Violent Passion Surrogate
Album=Rhizomorphic
Tracknumber=1
Year=2017
Genre=Progressive Metal

[/more]

Register
(3) artscald, metala, stumpheavyrock,
Jul 10 2024, 18:05:35 Destruction - No Kings - No Masters [single] (2024)
Неожиданно вполне годный трек. Да и каверок зачётный. Возвращение к корням? 20.gif
(2) Andrew, GorAtheist,
Jul 6 2024, 21:57:08 Proximal Cause - Sky Engine (2020)


*Artist: Proximal Cause
*Album: Sky Engine
*Year: 2020
*Genre: Progressive Metal
*Country: Finland
*Format: mp3@CBR320kbps
*Size: 177MB

Tracklist:
01. Leaves' Island 02:59
02. The Runners at the World's End 05:18
03. Cloud Walkers 06:21
04. Sleep Deprived 07:13
05. Blackform 07:31
06. The Isolation Circle 06:42
07. The Sky Engine 11:58
08. Once Upon the Outbreak 05:55
09. The Sweetest of Tales 07:24
10. Deadlock 05:36
11. All the Possible Worlds 09:06
******************************
Total playing time: 1:16:03


Yandex

[more=Extended info]Sampo Heikkinen - Music, Production.
Margit Tornio - Vocals & Vocal Arrangements.[/more]

[more=Technical info]
Input File: 02. The Runners at the World\'s End.mp3
Channels : 2
Sample Rate : 44100
Precision : 16-bit
Duration : 00:05:18.14 = 14029930 samples = 23860.4 CDDA sectors
File Size : 12.8M
Bit Rate : 321k
Sample Encoding: MPEG audio (layer I, II or III)
Comments :
Title=The Runners at the World's End
Artist=Proximal Cause
Album=Sky Engine
Tracknumber=2
Year=2020
Genre=Progressive Metal

[/more]

Register
(11) after21allD, artscald, Dante_D, Grev, LiarOfAngmar, markblasi, metala, MMMMM, OmegaBlade696, RotAnus, wreak,
Jul 6 2024, 21:49:23 Strange To Believe - Asylum (2021)


*Artist: Strange To Believe
*Album: Asylum
*Year: 2021
*Genre: Progressive Metal
*Country: United States
*Format: mp3@CBR320kbps
*Size: 177MB

Tracklist:
01. PHASE I The Lure 01:38
02. What You Need 04:14
03. The Philosopher 03:59
04. A Delicate Promise 04:58
05. Injections 03:57
06. PHASE II Recollections 01:21
07. Resistance 03:17
08. Fractured 03:38
09. Emeralds 04:20
10. Delictum 02:24
11. PHASE III Insinuation 01:09
12. Hypnotic Trance (The Labyrinth) 03:51
13. Elysian Fields 03:26
14. Victimized 03:54
15. The Ones Who Walk Away 04:43
16. PHASE IV Gateway of the Mind 02:16
17. Into the Cave 04:14
18. The Astral Plane 08:13
19. Hush 04:27
20. The Revenant 06:06
******************************
Total playing time: 1:16:05

Apple
Spotify

[more=Technical info]
Input File: 02. What You Need.mp3
Channels : 2
Sample Rate : 44100
Precision : 16-bit
Duration : 00:04:14.40 = 11218908 samples = 19079.8 CDDA sectors
File Size : 10.2M
Bit Rate : 322k
Sample Encoding: MPEG audio (layer I, II or III)
Comments :
Title=What You Need
Artist=Strange to Believe
Album=Asylum
Tracknumber=2
Year=2021
Genre=Progressive Metal

[/more]

Register
(6) artscald, Dante_D, metala, MMMMM, RodJohnson, wreak,
Jul 5 2024, 11:14:51 Void - Interstellar Voyage (2021)


*Artist: Void
*Album: Interstellar Voyage
*Year: 2021
*Genre: Extreme Progressive Metal
*Country: United States
*Format: mp3@CBR320kbps
*Size: 116MB

Tracklist:
01. Pulsar Lighthouse 06:54
02. Electronic Fog 07:32
03. Atomic Particle Evaporation 08:22
04. Caught In A Forever Moment 06:44
05. Lost In The Red 02:09
06. Magnetar 04:19
07. Drifting Between Voids 02:13
08. Evading Time 06:08
09. Beyond The Red 02:02
10. Caught In A Forever Moment (Remix) 03:17
******************************
Total playing time: 49:40




[more=Extended info]One man band[/more]

[more=Technical info]
Input File: 01. Pulsar Lighthouse.mp3
Channels : 2
Sample Rate : 44100
Precision : 16-bit
Duration : 00:06:54.09 = 18261501 samples = 31057 CDDA sectors
File Size : 16.6M
Bit Rate : 321k
Sample Encoding: MPEG audio (layer I, II or III)
Comments :
Title=Pulsar Lighthouse
Artist=Void Music Universe
Album=Interstellar Voyage
Tracknumber=1
Year=2021
Genre=Extreme Progressive Metal

[/more]

Register
(9) artscald, Dante_D, dcatagua, kimkayoung, maochen, metala, MMMMM, RodJohnson, wreak,
Jul 5 2024, 11:00:38 Violent Passion Surrogate - Privatopia (2021)


*Artist: Violent Passion Surrogate
*Album: Privatopia
*Year: 2021
*Genre: Progressive Metal
*Country: Chile
*Format: mp3@CBR320kbps
*Size: 109MB

Tracklist:
01. Nessen 01:32
02. Killchain 04:16
03. Legasov Tapes 03:48
04. Call Of The Void 04:55
05. Privatopia 07:08
06. History Of Madness 04:30
07. Unfolding Symmetry 04:25
08. Electric Clocks 03:20
09. Dying Mycelium 02:11
10. Awareness 10:38
******************************
Total playing time: 46:43







[more=Extended info]Gabriel Hidalgo - Guitars
Sergio Domínguez - Vocals
Diego Contreras - Bass
Guillermo Pereira - Drums[/more]

[more=Technical info]
Input File: 02. Killchain.mp3
Channels : 2
Sample Rate : 44100
Precision : 16-bit
Duration : 00:04:16.17 = 11297273 samples = 19213 CDDA sectors
File Size : 10.3M
Bit Rate : 321k
Sample Encoding: MPEG audio (layer I, II or III)
Comments :
Title=Killchain
Artist=Violent Passion Surrogate
Album=Privatopia
Tracknumber=2
Year=2021
Genre=Progressive Metal

[/more]

Register
(6) artscald, metala, MMMMM, stumpheavyrock, wreak, yuratroll,
Jul 3 2024, 12:08:42 Humanity Gone - Everything Nothing (2024)


*Artist: Humanity Gone
*Album: Everything Nothing
*Year: 2024
*Genre: Progressive Metal
*Country: United States
*Format: mp3@CBR320kbps
*Size: 143MB

Tracklist:
01. Everything 07:52
02. Nothing 09:39
03. Tossing Stones 05:55
04. EMP 07:06
05. So Close 06:41
06. Divoc (Symphony #19) 07:02
07. Prometheus' Revenge 05:21
08. The Other Side 04:45
09. Galaxies Swallowed 06:27
******************************
Total playing time: 1:00:48





[more=Extended info]Angelo Rivera - Vocals, Drums
Thelmo Rego - Guitars
Matthew Howard - Bass[/more]

[more=Technical info]
Input File: 01. Everything.mp3
Channels : 2
Sample Rate : 44100
Precision : 16-bit
Duration : 00:07:52.69 = 20845541 samples = 35451.6 CDDA sectors
File Size : 19.1M
Bit Rate : 324k
Sample Encoding: MPEG audio (layer I, II or III)
Comments :
Title=Everything
Artist=Humanity Gone
Album=Everything Nothing
Tracknumber=1
Year=2024
Genre=Progressive Metal

[/more]

Register
(13) andgrek28, artscald, Bannanik, cesar, Cooperalex, Marek, metala, MMMMM, RodJohnson, Rover, stumpheavyrock, Wail, wreak,
Jul 2 2024, 22:32:39 Humanity Gone - The Seven Deadly Sins (2021)


*Artist: Humanity Gone
*Album: The Seven Deadly Sins
*Year: 2021
*Genre: Progressive Metal
*Country: United States
*Format: mp3@CBR320kbps
*Size: 128MB

Tracklist:
01. Pride 07:30
02. Wrath 05:57
03. Gluttony 07:19
04. Lust 07:50
05. Sloth 07:13
06. Greed 07:15
07. Envy 07:12
08. Egyptian Tie Fighter (Bonus Track) 04:17
******************************
Total playing time: 54:33







[more=Extended info]Angelo Rivera - Vocals, Drums
Thelmo Rego - Guitars
Matthew Howard - Bass[/more]

[more=Technical info]
Input File: 01. Pride.mp3
Channels : 2
Sample Rate : 44100
Precision : 16-bit
Duration : 00:07:30.22 = 19854790 samples = 33766.6 CDDA sectors
File Size : 18.1M
Bit Rate : 321k
Sample Encoding: MPEG audio (layer I, II or III)
Comments :
Title=Pride
Artist=Humanity Gone
Album=The Seven Deadly Sins
Tracknumber=1
Year=2021
Genre=Progressive Metal

[/more]

Register
(9) artscald, chipsgott, Marek, metala, mirotvorets, RodJohnson, stumpheavyrock, Wail, wreak,
Jul 2 2024, 22:23:46 Exodus To Infinity - Archetype Asylum (2021)


*Artist: Exodus To Infinity
*Album: Archetype Asylum
*Year: 2021
*Genre: Progressive Metal/Rock
*Country: United States
*Format: mp3@CBR320kbps
*Size: 105MB

Tracklist:
01. King Other 05:36
02. Shadow Self 08:50
03. Just Like Us (feat. Dr. Gabor Maté) 01:45
04. The Body, the Drive, and the Dreamer 04:32
05. Trickster 04:56
06. Plaza Thursday 01:22
07. Right Now 03:43
08. Second Innocence 14:17
******************************
Total playing time: 45:01







[more=Extended info]Danny Mulligan - all[/more]

[more=Technical info]
Input File: 01. King Other.mp3
Channels : 2
Sample Rate : 44100
Precision : 16-bit
Duration : 00:05:36.32 = 14831800 samples = 25224.1 CDDA sectors
File Size : 13.5M
Bit Rate : 322k
Sample Encoding: MPEG audio (layer I, II or III)
Comments :
Title=King Other
Artist=Exodus to Infinity
Album=Archetype Asylum
Tracknumber=1
Year=2021
Genre=Progressive Metal

[/more]

Register
(7) artscald, kimkayoung, metala, RodJohnson, stumpheavyrock, Wail, wreak,
Jun 30 2024, 17:51:57 Blue Hour Ghosts - Due (2021)


*Artist: Blue Hour Ghosts
*Album: Due
*Year: 2021
*Genre: Progressive Metal
*Country: Italy
*Format: mp3@CBR320kbps
*Size: 91MB

Tracklist:
01. Walking Backwards 04:01
02. On Black Clouds 03:45
03. Dead in August 05:12
04. Damn Wrong 04:23
05. Shine 05:19
06. Fearless 04:00
07. Lower the Wires 03:56
08. Disheartened 04:27
09. Involved/Bored 03:52
******************************
Total playing time: 38:55





[more=Extended info]Ricky DC - Vocals
Diego Angeli - Guitars
Francesco Poggi - Guitars
Simone Pedrazzi - Keyboards
Matteo Malmusi - Bass
Andrew Gunner - Drums[/more]

[more=Technical info]
Input File: 01. Walking Backwards.mp3
Channels : 2
Sample Rate : 44100
Precision : 16-bit
Duration : 00:04:01.86 = 10665938 samples = 18139.4 CDDA sectors
File Size : 9.72M
Bit Rate : 321k
Sample Encoding: MPEG audio (layer I, II or III)
Comments :
Title=Walking Backwards
Artist=Blue Hour Ghosts
Album=Due
Tracknumber=1
Year=2021
Genre=Progressive Metal

[/more]

Register
(11) andgrek28, artscald, aviacademy, metala, mirotvorets, MMMMM, Piriaka_Power_Station, Reverend, stumpheavyrock, Wail, wreak,
Jun 30 2024, 17:50:24 Blue Hour Ghosts - Blue Hour Ghosts (2016)


*Artist: Blue Hour Ghosts
*Album: Blue Hour Ghosts
*Year: 2016
*Genre: Progressive Metal
*Country: Italy
*Format: mp3@CBR320kbps
*Size: 102MB

Tracklist:
01. Dreadful Faces And Fiery Arms 04:08
02. Unsolved 04:31
03. A Ton Of Feathers 05:49
04. The Rogue Wave 05:12
05. Death And The Lover 07:21
06. Secrets Of The Night 04:00
07. Ballad Of The Wrecked 03:54
08. Leftovers 04:26
09. The Missing Void 04:50
******************************
Total playing time: 44:11






[more=Extended info]Ricky DC - Vocals
Diego Angeli - Guitars
Francesco Poggi - Guitars
Simone Pedrazzi - Keyboards
Matteo Malmusi - Bass
Andrew Gunner - Drums[/more]

[more=Technical info]
Input File: 01. Dreadful Faces and Fiery Arms.mp3
Channels : 2
Sample Rate : 44100
Precision : 16-bit
Duration : 00:04:08.10 = 10941254 samples = 18607.6 CDDA sectors
File Size : 9.94M
Bit Rate : 320k
Sample Encoding: MPEG audio (layer I, II or III)
Comments :
Title=Dreadful Faces and Fiery Arms
Artist=Blue Hour Ghosts
Album=Blue Hour Ghosts
Tracknumber=1
Year=2016
Genre=Progressive Metal

[/more]

Register
(8) andgrek28, artscald, aviacademy, mirotvorets, Reverend, stumpheavyrock, Wail, wreak,
Jun 27 2024, 21:28:27 Hourglass - Voids And Visions (2024)
(1) after21allD,
Jun 27 2024, 21:09:10 Hourglass - Subconscious (2004)
Register


(1) stumpheavyrock,
Jun 27 2024, 21:08:52 Hourglass - The Journey Into (2002)
Register


(1) stumpheavyrock,

119 Pages V   1 2 3 > » 
- Lo-Fi Version Support form
Copyrights and abuse reports form
Time is now: 23rd July 2024 - 19:14:44