Welcome Guest ( Log In | Register )

История благодарностей участнику Yarri ::: Спасибо сказали: 7869 раз(а)
Дата поста: В теме: За сообщение: Спасибо сказали:
Dec 1 2022, 11:20:18 Metallica - Lux Æterna [single] (2022)
Ну зачем впадать в тотал-хейтинг? Ещё как минимум маникюр у Хэммита не говённый.
(3) BleedingSun, NeonKnight, valash,
Nov 30 2022, 13:00:24 Metallica - Lux Æterna [single] (2022)
Что это за классический спид, который медленнее классического спида минимум в 1,3 раза?
(1) BleedingSun,
Nov 30 2022, 11:20:49 Metallica - Lux Æterna [single] (2022)
ЦИТАТА(vosmidesijatye @ Nov 30 2022, 12:04:59) *
У этого авторитета у самого всего лишь одна шикарная песня за всю карьеру есть - Плот. 25.gif Хотя она стоит творчества многих групп, говоря правду)))

Ну если только продвигаемых нашим другом Ассоником русрокеров. У меня вот ни одной ассоциации не возникло - творчество какой группы затмевает вышеназванный "Плот". На моём компе таких нет, ответственно заявляю. И "Плота" тоже нет.
(1) BleedingSun,
Nov 27 2022, 08:40:40 David Maxim Micic - Bilo IV (2022)


*Artist: David Maxim Micic
*Album: Bilo IV
*Year: 2022
*Genre: Progressive Rock/Metal
*Country: Serbia
*Format: mp3@CBR320kbps
*Size: 122MB

Tracklist:
01. Crumbs 03:31
02. of bliss 01:53
03. Itch_'nʌθɪŋ_ 05:53
04. Dx2 is me 05:26
05. of grief 02:22
06. Fading Memories 03:37
07. Away 02:44
08. Cry 09:21
09. of hope 03:56
10. Wedding 09:50
11. Are We There Yet 04:39
******************************
Total playing time: 53:12




[more=Extended info]Vocals:
Aleksandra Djelmash
Vladimir Lalic

Narration:
Simona Markovic
Jelena Micic
Aleksandra Radosavljevic
Vladimir Lalic
David Maxim Micic
Arsen Micic

Percussion:
Dragan Micic

Saxophone/Clarinet:
Sotz Nakary

Violins:
Larissa Terescenko
Aj Brett

Cello:
Helen Hutchings

The Thing:
Simon Grove

BILO CHOIR:
Aaron Pinion-McClure
Anastasiya Fakeeva
Antoine Carriot
Derek Geoffroy
Diane Siew
Dorian Pied
Dragan Kalinovic
Felix Mae Knight
Fonteny Mélissa
Henintsoa Ramparany
Iashua Navarro Jimenez
James Graham
Jordyn Entwisle
Julien Leprette
Lav Patel
Nick Macchione
Niklas Meads
Piotr Ludynia
Reece Philip Van Atta
Robert McCarthy
Ryz Clyd Sabucido
Sam Taylor
Sergio Ruiz Sánchez
Shane Golden
Simon Deleruyelle
Sven Hegen
Tao Diaz-Goujon

Guitar / Keys / Bass / Programming:
David Maxim Micic[/more]

[more=Technical info]
Input File: 02. of bliss.mp3
Channels : 2
Sample Rate : 44100
Precision : 16-bit
Duration : 00:01:53.67 = 5012759 samples = 8525.1 CDDA sectors
File Size : 4.55M
Bit Rate : 320k
Sample Encoding: MPEG audio (layer I, II or III)
Comments :
Title=of bliss
Artist=David Maxim Micic
Album=BILO IV
Tracknumber=2
Year=2022
Genre=Progressive Metal

[/more]

Register
(8) AHBAnep, artscald, Dante_D, Ignativs, KLOP, LiarOfAngmar, yuratroll, __wffwwffw777___,
Nov 25 2022, 11:56:09 Unwise - Humanation (2021)
apple

На прогархивах пишут For fans of QUEENSRYCHE, FATES WARNING, IRON MAIDEN.

Я бы сказал, что похожи больше всего на Фейтсов и немного на Райков. Альбом хороший.
(1) KLOP,
Nov 21 2022, 10:57:50 Raimund Burke's Spirit Of Lao Dan - Secret Life (2021)
ЦИТАТА(KLOP @ Nov 21 2022, 12:41:32) *
Ху из Грапов?

Гитарист Helloween в 1989-2001 гг.
(1) KLOP,
Nov 20 2022, 12:56:30 Minutian - Magical Thinking (2021)


*Artist: Minutian
*Album: Magical Thinking
*Year: 2021
*Genre: Progressive Metal
*Country: Finland
*Format: mp3@CBR320kbps
*Size: 107MB

Tracklist:
01. Alien Reflection 04:53
02. Suspicious Smiles 04:09
03. Doublespeak 06:21
04. Supersymmetry 07:33
05. Magical Thinking 04:39
06. Vacant Eyes 06:53
07. Scarefire 07:55
08. The Grand Scheme 04:11
******************************
Total playing time: 46:34




[more=Extended info]Mikko Heino - vocals
Jesper Johnson - guitars
Pekka Loponen - guitars, vocals
Jouni Mikkola - bass
Antti Ruokola - drums, percussion & synths[/more]

[more=Technical info]
Input File: 01. Alien Reflection.mp3
Channels : 2
Sample Rate : 44100
Precision : 16-bit
Duration : 00:04:53.45 = 12941233 samples = 22008.9 CDDA sectors
File Size : 11.7M
Bit Rate : 320k
Sample Encoding: MPEG audio (layer I, II or III)
Comments :
Title=Alien Reflection
Artist=Minutian
Album=Magical Thinking
Tracknumber=1
Year=2021
Genre=Progressive Metal

[/more]

Register
(8) artscald, gwynnbleid, KLOP, LiarOfAngmar, LordOvDarkness, metala, Rover, wreak,
Nov 20 2022, 09:47:12 Framing Skeletons - The Blueprint Exchange (2019)


*Artist: Framing Skeletons
*Album: The Blueprint Exchange
*Year: 2019
*Genre: Progressive Metal
*Country: United States
*Format: mp3@CBR320kbps
*Size: 122MB

Tracklist:
01. Catalyst 03:57
02. Feed the Monkey 05:59
03. The Seduction 04:14
04. Kaleidoscope Eyes 03:47
05. Pipe Dream 07:05
06. Demigod Complex 04:55
07. Spiraling 02:12
08. Solitary Mind 04:55
09. Fortress of Serenity 15:28
******************************
Total playing time: 52:32





[more=Technical info]
Input File: 01. Catalyst.mp3
Channels : 2
Sample Rate : 44100
Precision : 16-bit
Duration : 00:03:57.99 = 10495403 samples = 17849.3 CDDA sectors
File Size : 9.52M
Bit Rate : 320k
Sample Encoding: MPEG audio (layer I, II or III)
Comments :
Title=Catalyst
Artist=Framing Skeletons
Album=The Blueprint Exchange
Tracknumber=1
Year=2019
Genre=Progressive Metal

[/more]

Register
(6) artscald, metala, Rhoads, Rover, varlam4, wreak,
Nov 20 2022, 07:38:21 Yossi Sassi & The Oriental Rock Orchestra - Hear And Dare (2021)


*Artist: Yossi Sassi & The Oriental Rock Orchestra
*Album: Hear And Dare
*Year: 2021
*Genre: Oriental Progressive Metal
*Country: Israel
*Format: mp3@CBR320kbps
*Size: 112MB

Tracklist:
01. Brotherhood 04:30
02. The Mind Spirit 03:43
03. Hear and Dare 04:00
04. Benjamin's Journey 05:29
05. Gates of Ishtar 02:45
06. Gia Sigouria 03:24
07. Levitating 04:22
08. Night Flight 09:44
09. Kostas 03:23
10. Hope 05:12
11. Mayim Mayim 02:21
******************************
Total playing time: 48:53





[more=Extended info]Yossi Sassi – Vocals, Guitars, Bouzoukitara, Bouzouki, Charango, Saz
Or Lubianiker – Electric Bass
Shay Ifrah – Drums
Ben Azar – Guitars, solos on "Hear & Dare" & “Gia Sigouria”
Roei Fridman – Percussion
Danielle Sassi – Flute, Tenor Flute
Sarel Ha’cohen - Kanun
Yogev Levy - Ney

Guests
Mats Levén - Lead Vocals (3)
Christos Dantis – Vocals (6)
Emil Guseinov – Viola[/more]

[more=Technical info]
Input File: 01. Brotherhood.mp3
Channels : 2
Sample Rate : 44100
Precision : 16-bit
Duration : 00:04:30.28 = 11919392 samples = 20271.1 CDDA sectors
File Size : 10.8M
Bit Rate : 320k
Sample Encoding: MPEG audio (layer I, II or III)
Comments :
Title=Brotherhood
Artist=Yossi Sassi & The Oriental Rock Orchestra
Album=Hear and Dare
Tracknumber=1
Year=2021
Genre=Oriental Progressive Metal

[/more]

Register
(10) after21allD, AHBAnep, artscald, Blancos00, Cartman223, Druidir, MMMMM, Old Vyaine, postal67, wreak,
Nov 19 2022, 19:57:33 The King's Head - The King's Head (2020)


*Artist: The King's Head
*Album: The King's Head
*Year: 2020
*Genre: Progressive Heavy Metal
*Country: Netherlands
*Format: mp3@CBR320kbps
*Size: 110MB

Tracklist:
01. Rise 03:22
02. The Far Beyond 03:33
03. The Fall 05:07
04. Anymore 03:46
05. Older 04:29
06. Miss Comprehension 04:35
07. Borderline 04:02
08. Should I Be Home 03:21
09. Mountainess 05:09
10. Waiting 04:45
11. The White Horse 05:32
******************************
Total playing time: 47:41







[more=Extended info]Tim van Bokhoven - vocals, guitar
Koen Koniuszek - lead guitar
Jasper van der Hoeven - bass and vocals
Chris Stadhouders - drums[/more]

[more=Technical info]
Input File: 02. The Far Beyond.mp3
Channels : 2
Sample Rate : 44100
Precision : 16-bit
Duration : 00:03:33.98 = 9436694 samples = 16048.8 CDDA sectors
File Size : 8.56M
Bit Rate : 320k
Sample Encoding: MPEG audio (layer I, II or III)
Comments :
Title=The Far Beyond
Artist=The King's Head
Album=The King's Head
Tracknumber=2
Year=2020
Genre=Heavy Metal

[/more]

Register
(6) andreikun, artscald, metala, Rover, varlam4, wreak,
Nov 19 2022, 19:46:54 Red Eye Temple - Vortex (2021)


*Artist: Red Eye Temple
*Album: Vortex
*Year: 2021
*Genre: Progressive Metal
*Country: Austria (ex-Russia )
*Format: mp3@CBR320kbps
*Size: 106MB

Tracklist:
01. Pareidolia 05:03
02. Mind and Matter 03:52
03. Flow 05:24
04. Vortex 06:01
05. Patterns 05:30
06. Proteus 05:36
07. Monomyth 07:09
08. Ashes Fall 07:14
******************************
Total playing time: 45:49




[more=Extended info]Maria Nesh - Vocals
Mat Plekhanov - Guitar, Drums
Sam Plekhanov - Bass[/more]

[more=Technical info]
Input File: 01. Pareidolia.mp3
Channels : 2
Sample Rate : 44100
Precision : 16-bit
Duration : 00:05:03.90 = 13402078 samples = 22792.6 CDDA sectors
File Size : 12.2M
Bit Rate : 320k
Sample Encoding: MPEG audio (layer I, II or III)
Comments :
Title=Pareidolia
Artist=Red Eye Temple
Album=Vortex
Tracknumber=1
Year=2021
Genre=Progressive Metal

[/more]

Register
(4) artscald, metala, Rover, wreak,
Nov 19 2022, 19:10:33 Konom - Konom (2021)


*Artist: Konom
*Album: Konom
*Year: 2021
*Genre: Progressive Metal
*Country: United Kingdom
*Format: mp3@CBR320kbps
*Size: 119MB

Tracklist:
01. A Welcome Change 10:34
02. Birotunda 7:20
03. As the Waters Rise 9:34
04. The Great Harvest: I. Epiphany 3:53
05. The Great Harvest: II. Dilate My World 5:41
06. The Great Harvest: III. Mutating Light 2:39
07. The Great Harvest: IV. Reflections 6:50
08. The Great Harvest: V. Heedless Breath 5:24
******************************
Total playing time: 51:55




[more=Extended info]Arya Bobaie - Lead Vocals
Benjamin Edwards - Bass Guitar
Tom Rice - Drums
Dan White - Guitars & backing vocals
Jonathan Worsley - Keyboards & Orchestration[/more]

[more=Technical info]
Input File: 02. Birotunda.mp3
Channels : 2
Sample Rate : 44100
Precision : 16-bit
Duration : 00:07:19.59 = 19385919 samples = 32969.2 CDDA sectors
File Size : 17.6M
Bit Rate : 320k
Sample Encoding: MPEG audio (layer I, II or III)
Comments :
Title=Birotunda
Artist=Konom
Album=Konom
Tracknumber=2
Year=2021
Genre=Progressive Metal

[/more]

Register
(5) artscald, KLOP, metala, Rover, wreak,
Nov 19 2022, 18:50:03 Sullen - Nodus Tollens - Act 1: Oblivion [ep] (2021)


*Artist: Sullen
*Album: Nodus Tollens - Act 1: Oblivion [ep]
*Year: 2021
*Genre: Progressive Metal
*Country: Portugal
*Format: mp3@CBR320kbps
*Size: 77MB

Tracklist:
01. The Prodigal Son 04:28
02. Skylines 04:23
03. Soul Interrupted 01:46
04. Acheronta Movebo 05:33
05. Memento 04:24
06. Human 03:08
07. The After 02:31
08. Fail-Safe 06:53
******************************
Total playing time: 33:06




[more=Extended info]David Pais - Vocals
André Ribeiro - Guitar
Pedro Mendes - Guitar
Ricardo Pinto - Bass
Marcelo Aires - Drums & Keys[/more]

[more=Technical info]
Input File: 01. The Prodigal Son.mp3
Channels : 2
Sample Rate : 44100
Precision : 16-bit
Duration : 00:04:28.95 = 11860607 samples = 20171.1 CDDA sectors
File Size : 10.8M
Bit Rate : 320k
Sample Encoding: MPEG audio (layer I, II or III)
Comments :
Title=The Prodigal Son
Artist=Sullen
Album=Nodus Tollens - Act I: Oblivion
Tracknumber=1
Year=2021
Genre=Progressive Metal

[/more]

Register
(6) artscald, KLOP, metala, respect, wreak, yuratroll,
Nov 19 2022, 17:51:59 Corporain - Purge//Purity (2021)


*Artist: Corporain
*Album: Purge//Purity
*Year: 2021
*Genre: Progressive Metal/Rock
*Country: Italy
*Format: mp3@CBR320kbps
*Size: 117MB

Tracklist:
01. Millenium 02:26
02. Inception 04:29
03. The Purge 04:42
04. Apocalypse 06:57
05. Hollow 06:52
06. Pitch Black 05:17
07. Never Forget 07:15
08. Rage 05:34
09. Whispering The Wind 07:12
******************************
Total playing time: 50:44




[more=Technical info]
Input File: 01. Millenium.mp3
Channels : 2
Sample Rate : 44100
Precision : 16-bit
Duration : 00:02:26.17 = 6445921 samples = 10962.5 CDDA sectors
File Size : 5.85M
Bit Rate : 320k
Sample Encoding: MPEG audio (layer I, II or III)
Comments :
Title=Millenium
Artist=Corporain
Album=Purge//Purity
Tracknumber=1
Year=2021
Genre=Progressive Metal

[/more]

Register
(3) artscald, metala, wreak,
Nov 19 2022, 16:04:08 Framing Skeletons - Luminescence (2021)


*Artist: Framing Skeletons
*Album: Luminescence
*Year: 2021
*Genre: Progressive Metal
*Country: United States
*Format: mp3@CBR320kbps
*Size: 91MB

Tracklist:
01. Change The Channel 03:12
02. I. The Pariah 03:36
03. II. The Progression 08:21
04. Flight In The Failing Knot 04:17
05. Your Vessel 05:57
06. III. The Passing 07:57
07. IV. Rising Dragon 06:02
******************************
Total playing time: 39:22







[more=Extended info]Jeremy Burke - Vocals, Guitars
Ethan Berry - Bass, Backing Vocals
Bryan Holub - Drums, Backing Vocals[/more]

[more=Technical info]
Input File: 01. Change the Channel.mp3
Channels : 2
Sample Rate : 44100
Precision : 16-bit
Duration : 00:03:12.64 = 8495424 samples = 14448 CDDA sectors
File Size : 7.71M
Bit Rate : 320k
Sample Encoding: MPEG audio (layer I, II or III)
Comments :
Title=Change the Channel
Artist=Framing Skeletons
Album=Luminescence
Tracknumber=1
Year=2021
Genre=Progressive Metal

[/more]

Register
(8) aesteticvice, artscald, KLOP, metala, Rhoads, Rover, varlam4, wreak,
Nov 19 2022, 15:54:04 Karmanjakah - A Book About Itself (2021)


*Artist: Karmanjakah
*Album: A Book About Itself
*Year: 2021
*Genre: Progressive Metal
*Country: Sweden
*Format: mp3@CBR320kbps
*Size: 115MB

Tracklist:
01. Nautilus 04:31
02. Vardkasar 03:55
03. Wild Horse 05:01
04. Unseen 04:01
05. Paper Boats 04:55
06. Starling 03:33
07. Julia 06:58
08. Samples 04:53
09. First Sun 04:24
10. Nausta 07:35
******************************
Total playing time: 49:46







[more=Extended info]Jonas Lundquist - Vocals
Viggo Orsan - Guitars
Lukas Ohlsson - Bass
Sebastian Brydniak - Drums[/more]

[more=Technical info]
Input File: 01. Nautilus.mp3
Channels : 2
Sample Rate : 44100
Precision : 16-bit
Duration : 00:04:31.20 = 11959700 samples = 20339.6 CDDA sectors
File Size : 10.8M
Bit Rate : 320k
Sample Encoding: MPEG audio (layer I, II or III)
Comments :
Title=Nautilus
Artist=Karmanjakah
Album=A Book About Itself
Tracknumber=1
Year=2021
Genre=Progressive Metal

[/more]

Register
(7) ace73pq, artscald, gwynnbleid, KLOP, metala, Rover, wreak,
Nov 19 2022, 15:45:27 Intrøspect - Midnight Sun [ep] (2021)


*Artist: Intrøspect
*Album: Midnight Sun [ep]
*Year: 2021
*Genre: Progressive Metal
*Country: Australia
*Format: mp3@CBR320kbps
*Size: 68MB

Tracklist:
01. Cosmic Arena 01:47
02. Mjolnir 05:22
03. Itomori 05:02
04. The Wisdom of Mountains 05:46
05. Leap of Faith 03:44
06. Star's End 07:20
******************************
Total playing time: 29:01




[more=Technical info]
Input File: 01. Cosmic Arena.mp3
Channels : 2
Sample Rate : 44100
Precision : 16-bit
Duration : 00:01:47.71 = 4750055 samples = 8078.32 CDDA sectors
File Size : 4.31M
Bit Rate : 320k
Sample Encoding: MPEG audio (layer I, II or III)
Comments :
Title=Cosmic Arena
Artist=Introspect
Album=Midnight Sun
Tracknumber=1
Year=2021
Genre=Progressive Metal

[/more]

Register
(5) artscald, gwynnbleid, KLOP, metala, wreak,
Nov 19 2022, 15:13:48 Unwise - Humanation (2021)


*Artist: Unwise
*Album: Humanation
*Year: 2021
*Genre: Progressive Metal
*Country: Italy
*Format: mp3@CBR320kbps
*Size: 134MB

Tracklist:
01. Mindwalk 02:18
02. Unexpected 04:42
03. Rave Nu World 02:55
04. Behind Closed Doors 04:30
05. The Dirtier Job 06:32
06. iGod 02:59
07. Twilight Of Morning (The Sun Also Rises Pt. 1) 02:03
08. The Mirror (The Sun Also Rises Pt. 2) 02:48
09. Hidden 05:16
10. Nothing Important Happened Today 03:28
11. After The Fire 02:53
12. Escape 03:37
13. Silent Hands 03:43
14. Never Again 01:58
15. Ripple Effect 08:33
******************************
Total playing time: 58:15







[more=Extended info]Luca Zontini - Vocals
Alessandro Codazzi - Guitars
Mauro Colombo - Bass
Roberto Pintus - Drums[/more]

[more=Technical info]
Input File: 02. Unexpected.mp3
Channels : 2
Sample Rate : 44100
Precision : 16-bit
Duration : 00:04:42.85 = 12473509 samples = 21213.5 CDDA sectors
File Size : 11.3M
Bit Rate : 320k
Sample Encoding: MPEG audio (layer I, II or III)
Comments :
Title=Unexpected
Artist=Unwise
Album=Humanation
Tracknumber=2
Year=2021
Genre=Progressive Metal

[/more]

Register
(6) ace73pq, artscald, gwynnbleid, metala, Rover, wreak,
Nov 19 2022, 15:09:19 Oyra - Ouroboros (2021)


*Artist: Oyra
*Album: Ouroboros
*Year: 2021
*Genre: Progressive Metal
*Country: Spain
*Format: mp3@CBR320kbps
*Size: 93MB

Tracklist:
01. The Vault 02:09
02. Ouroboros 07:16
03. Luminessense 08:57
04. Weakness 06:42
05. Pulse 07:43
06. Gathered in Exaltation 08:02
******************************
Total playing time: 40:49




[more=Technical info]
Input File: 01. The Vault.mp3
Channels : 2
Sample Rate : 44100
Precision : 16-bit
Duration : 00:02:09.60 = 5715492 samples = 9720.22 CDDA sectors
File Size : 5.18M
Bit Rate : 320k
Sample Encoding: MPEG audio (layer I, II or III)
Comments :
Title=The Vault
Artist=Oyra
Album=Ouroboros
Tracknumber=1
Year=2021
Genre=Progressive Metal

[/more]

Register
(6) artscald, gwynnbleid, KLOP, metala, Rover, wreak,
Nov 18 2022, 18:39:34 Soen - Atlantis (2022)
Вона чё. А я и подвоха не заметил.

ЦИТАТА
"FORTUNE" is taken from a very special concert film, ATLANTIS, which features thirteen of SOEN’s most popular compositions reinterpreted with live orchestral accompaniment and the fantastic rendition of Slipknot's "Snuff".
(2) BleedingSun, Rhoads,
Nov 18 2022, 16:21:54 The Stranger - Kaleidoscope (2021)
Продолжение их шикардосного дебютника. 20.gif

The Stranger - The Stranger (2017)
(1) aesteticvice,
Nov 18 2022, 12:54:37 The Prowlers - Closing Circle (2021)


*Artist: The Prowlers
*Album: Closing Circle
*Year: 2021
*Genre: Progressive Metal
*Country: Italy
*Format: mp3@CBR320kbps
*Size: 103MB

Tracklist:
01. Closing Circle 01:23
02. Rush Hour 03:40
03. Absolution 03:46
04. I’ll Never Be (A Rich Man) 03:46
05. Another Night 05:07
06. Business Day 04:55
07. Liar 04:55
08. Walter White 04:51
09. Fight Till the End 04:49
10. Where is Love 03:53
11. Take on Me 03:35
******************************
Total playing time: 44:40






[more=Extended info]Claudio "Dr.K" Cappabianca - Drums
Massimiliano De Stefano - Keyboards
Fabio Minchillo - Vocals
Massimo Canfora - Guitars[/more]

[more=Technical info]
Input File: 02. Rush Hour.mp3
Channels : 2
Sample Rate : 44100
Precision : 16-bit
Duration : 00:03:40.20 = 9710864 samples = 16515.1 CDDA sectors
File Size : 8.81M
Bit Rate : 320k
Sample Encoding: MPEG audio (layer I, II or III)
Comments :
Title=Rush Hour
Artist=The Prowlers
Album=Closing Circle
Tracknumber=2
Year=2021
Genre=Progressive Metal

[/more]

Register
(9) ace73pq, artscald, aviacademy, Grev, metala, MMMMM, postal67, Rover, wreak,
Nov 18 2022, 09:50:13 Retrospective - Introvert (2022)


*Artist: Retrospective
*Album: Introvert
*Year: 2022
*Genre: Progressive Rock/Metal
*Country: Poland
*Format: mp3@CBR320kbps
*Size: 105MB

Tracklist:
01. Log Out 08:52
02. New Perspective 08:48
03. Invincible Man 04:58
04. Intoxicated Generation 09:51
05. Away 06:52
06. Self-Control 05:29
******************************
Total playing time: 44:50




[more=Extended info]Jakub Roszak - Vocals
Maciej Klimek - Guitars
Darek Kazmierczak - Guitars
Lukasz Marszalek - Bass
Beata Lagoda - Keyboards, Backing Vocals
Robert Kusik - Drums[/more]

[more=Technical info]
Input File: 01. Log Out.mp3
Channels : 2
Sample Rate : 44100
Precision : 16-bit
Duration : 00:08:52.09 = 23465345 samples = 39907 CDDA sectors
File Size : 21.3M
Bit Rate : 321k
Sample Encoding: MPEG audio (layer I, II or III)
Comments :
Title=Log Out
Artist=Retrospective
Album=Introvert
Tracknumber=1
Year=2022
Genre=Progressive Metal

[/more]

Register
(11) after21allD, artscald, as71, Dante_D, dimitriusk, gwynnbleid, KLOP, metala, Rover, stumpheavyrock, скептик,
Nov 18 2022, 05:43:10 The Stranger - Kaleidoscope (2021)


*Artist: The Stranger
*Album: Kaleidoscope
*Year: 2021
*Genre: Progressive Metal
*Country: Australia
*Format: mp3@CBR320kbps
*Size: 112MB

Tracklist:
01. Eleventh Hour 5:35
02. The Gemini 4:53
03. Jungles 6:00
04. Jester 6:41
05. Coming Home 1:59
06. Siren 5:23
07. Creatures in the Canopy 4:50
08. The Devil You Dont 6:18
09. Kaleidoscope 6:39
******************************
Total playing time: 48:18






[more=Extended info]Tom Frayne - vocals
Kalen Austin - guitars, vocals
Andrew Taylor - guitars
Daniel O'Brien - drums
Linc Morse - bass[/more]

[more=Technical info]
Input File: 01. Eleventh Hour.mp3
Channels : 2
Sample Rate : 44100
Precision : 16-bit
Duration : 00:05:35.02 = 14774206 samples = 25126.2 CDDA sectors
File Size : 13.4M
Bit Rate : 320k
Sample Encoding: MPEG audio (layer I, II or III)
Comments :
Title=Eleventh Hour
Artist=The Stranger
Album=Kaleidoscope
Tracknumber=1
Year=2021
Genre=Progressive Metal

[/more]

Register
(11) ace73pq, aesteticvice, artscald, gwynnbleid, KLOP, leks, metala, MMMMM, Rover, SaintVitus, wreak,
Nov 18 2022, 04:47:38 Last Of The Sane - Drowning In Noise (2021)


*Artist: Last Of The Sane
*Album: Drowning In Noise
*Year: 2021
*Genre: Progressive Metal
*Country: United States
*Format: mp3@CBR320kbps
*Size: 113MB

Tracklist:
01. By Design 04:17
02. The Lowest Part 04:52
03. Drowning in Noise 04:19
04. Death of the Conversation 04:08
05. 3 Weeks 04:38
06. Runnin' Down A Dream 03:20
07. Preacher 04:40
08. I Lie Awake 05:42
09. Tides 03:27
10. She Suffers 04:36
11. Face the Day 04:11
******************************
Total playing time: 48:10







[more=Technical info]
Input File: 02. The Lowest Part.mp3
Channels : 2
Sample Rate : 44100
Precision : 16-bit
Duration : 00:04:52.98 = 12920506 samples = 21973.6 CDDA sectors
File Size : 11.8M
Bit Rate : 322k
Sample Encoding: MPEG audio (layer I, II or III)
Comments :
Title=The Lowest Part
Artist=Last of the Sane
Album=Drowning in Noise
Tracknumber=2
Year=2021
Genre=Progressive Metal

[/more]

Register
(4) artscald, metala, Rover, wreak,

103 Pages V   1 2 3 > » 
- Lo-Fi Version Support form
Copyrights and abuse reports form
Time is now: 4th December 2022 - 06:28:47