Welcome Guest ( Log In | Register )

История благодарностей участнику Yarri ::: Спасибо сказали: 4521 раз(а)
Дата поста: В теме: За сообщение: Спасибо сказали:
Jul 20 2019, 15:55:15 Новости Thrash Metal направления
Ды. Но таки Шмир.
(1) Deze,
Jul 12 2019, 17:22:51 Scorpions
ЦИТАТА(vosmidesijatye @ Jul 12 2019, 18:15:03) *
Рад, ибо в 99,9% случаев все фапают на 1982 и 1984

Больше на 1984, который являет собой разумный компромисс между драйвом и коммерцией.
(1) Ghostb,
Jul 10 2019, 16:52:03 Blind Guardian - Beyond The Red Mirror (2015)
Чё деется. popcorn.gif
(1) vosmidesijatye,
Jul 8 2019, 18:58:54 King's X - Gretchen Goes To Nebraska (1989)


*Artist: King's X
*Album: Gretchen Goes To Nebraska
*Year: 1989
*Genre: Progressive Metal/Rock
*Country: United States
*Format: mp3@CBR320kbps
*Size: 119MB

Tracklist:
1. Out of the Silent Planet 5:44
2. Over My Head 4:47
3. Summerland 3:17
4. Everybody Knows a Little Bit of Something 3:57
5. The Difference (In the Garden of St. Anne's-on-the-Hill) 3:08
6. I'll Never Be the Same 4:56
7. Mission 5:01
8. Fall on Me 4:05
9. Pleiades 4:41
10. Don't Believe It (It's Easier Said than Done) 3:07
11. Send a Message 4:02
12. The Burning Down 5:35
******************************
Total playing time: 52:20



[more=Extended info]Line-up

Doug Pinnick – bass guitar, lead vocals
Ty Tabor – guitar, dulcimer, sitar, wooden flute, vocals
Jerry Gaskill – drums, percussion, vocals[/more]

[more=Technical info]
Input File: 01. Out of the Silent Planet.mp3
Channels : 2
Sample Rate : 44100
Precision : 16-bit
Duration : 00:05:44.24 = 15180852 samples = 25817.8 CDDA sectors
File Size : 13.9M
Bit Rate : 322k
Sample Encoding: MPEG audio (layer I, II or III)
Comments :
Title=Out of the Silent Planet
Artist=King's X
Album=Gretchen Goes to Nebraska
Tracknumber=01/12
Year=1989
Genre=Progressive Rock

[/more]

Register
(6) avkruchinin, dimitriusk, fuoco, Olethros, thenecromancer, wreak,
Jul 8 2019, 18:45:19 King's X - Out Of The Silent Planet (1988)


*Artist: King's X
*Album: Out Of The Silent Planet
*Year: 1988
*Genre: Progressive Metal/Rock
*Country: United States
*Format: mp3@CBR320kbps
*Size: 97MB

Tracklist:
1. In the New Age 5:23
2. Goldilox 4:41
3. Power of Love 4:57
4. Wonder 4:13
5. Sometimes 3:40
6. King 3:01
7. What Is This? 3:48
8. Far, Far Away 4:14
9. Shot of Love 3:15
10. Visions 5:11
******************************
Total playing time: 42:23



[more=Extended info]Line-up
Doug Pinnick – vocals & bass
Ty Tabor – guitar & vocals
Jerry Gaskill – drums & vocals[/more]

[more=Technical info]
Input File: 01. In the New Age.mp3
Channels : 2
Sample Rate : 44100
Precision : 16-bit
Duration : 00:05:24.10 = 14292634 samples = 24307.2 CDDA sectors
File Size : 13.0M
Bit Rate : 321k
Sample Encoding: MPEG audio (layer I, II or III)
Comments :
Title=In the New Age
Artist=King's X
Album=Out of the Silent Planet
Tracknumber=01/10
Year=1988
Genre=Progressive Rock

[/more]

Register
(8) avkruchinin, dimitriusk, fabriziomagno, fuoco, infiltrator, Olethros, thenecromancer, wreak,
Jul 3 2019, 18:51:29 Fake Logic - Fake Logic (2019)
[more="Youtube"]
[youtube]AmBTx3zhZXc[/youtube]
[youtube]RlfWeMbtHK8[/youtube]
[youtube]syTk1SuJBgA[/youtube]
[youtube]wM5k80mUnY8[/youtube]
[youtube]2ke5YvO_qgA[/youtube]
[youtube]D0Cfdo15QdU[/youtube]
[/more]


Line-up:
Vocals - Krzysztof Dylewski
Keyboards - Maciej Antosz
Guitars - Michał Marciniak, Przemysław Perycz
Bass - Piotr Grotecki
Drums - Dan Wolski
(3) ace73pq, AHBAnep, Old Vyaine,
Jul 2 2019, 18:22:55 Новости Experimental/Progressive Metal
Пока нигде в сети нет, но уже есть в ВК live-альбом Threshold под названием Two-Zero-One-Seven (2018). Интересен тем, что некоторые классические вещи Мака исполняет вернувшийся за микрофон Глинн Морган.
(1) Ghostb,
Jul 2 2019, 13:42:36 Лучший Speed Metal
Что у СПИДа, что у металла, всё одно корни африканские. А вы тут про хохлов с кацапами.
(1) vosmidesijatye,
Jul 1 2019, 12:36:54 Sidë Effects - Expedition (2019)
Крутое превью.
(1) Phlebotomized,
Jun 27 2019, 11:26:20 Лучший Speed Metal
Немного статистики.

На метал-архивах на данный момент тегается как Thrash 26684 коллектива (строго, без примесей, ~8700), как Power - 7715 (~2100), как Heavy - 18583 (строго ~8620), Black - 33864 (~16150). И как Speed - 2411 (строго: ~230).

То есть:
1) очевидно: спид - гораздо более редкий жанр, чем выбранные четыре.
2) неочевидно: четыре выбранных жанра, которые граничат со спидом, то есть трэш, пауэр, хэви и блэк, имеют большее жанровое "ядро" (32,6%, 27,2%, 46,3%, 47,7% соответственно), нежели спид (9,5%).
Стоит оговориться, что речь идёт о жанровом определении группы в целом, то есть всей дискографии. К сожалению, выявить статистику спид-альбомов по сравнению с Т/П/Х/Б-альбомами затруднительно.

У меня целых несколько объяснений - почему так.
1) жанр спида труднее поддаётся дефиниции (что могут проиллюстрировать, например, дискуссии в теме выше).
2) переходность жанра. Что такое, например, дебютник Метлы? Это скоростной трэш, или спид-трэш. Дебютник Хеллов? Скоростной хэви, спид-хэви. Всё время "ускорение" вытекает из какого-то другого жанра (куда потом, как правило, и мутирует группа, записавшая "скоростной" альбом).

Но могут быть и другие объяснения.
(5) avkruchinin, Deze, infiltrator, vam1972, vosmidesijatye,
Jun 27 2019, 05:34:47 Jolly - Family (2019)
Ghostb,
Это сейчас один из самых интересных коллективов в прог-роке, который на подступах к металлу.
(3) Diflock, Ghostb, infiltrator,
Jun 26 2019, 21:55:26 Лучший Speed Metal
[youtube]HIYKxKEXwhA[/youtube]
(2) infiltrator, older68,
Jun 26 2019, 20:07:05 Jolly - Family (2019)


*Artist: Jolly
*Album: Family
*Year: 2019
*Genre: Progressive Rock
*Country: United States
*Format: mp3@CBR320kbps
*Size: 181MB

Tracklist:
CD1
01. Lie to Me (6:37)
02. Lazarus (Space Masala) (6:26)
03. Rain (4:56)
04. Ava (4:52)
05. Who Will Remember (When You Forget) (2:12)
06. Let Go (10:42)
07. Violet (4:40)
08. Circuit Heaven (6:55)
09. With Me (4:36)

CD2
01. Love (4:27)
02. Endless Ground (Let Go Reprise) (5:43)
03. Ava (Acoustic) (4:17)
04. Masquerade (5:26)
05. For Isaac (5:01)
******************************
Total playing time: 1:16:50





[more=Extended info]Line-up:

Anadale: Guitar, Vocals
Joe Reilly: Keyboards
Anthony Rondinone: Bass, Vocals
Louis Abramson: Drums[/more]

[more=Technical info]
Input File: 01. Lie to Me.mp3
Channels : 2
Sample Rate : 44100
Precision : 16-bit
Duration : 00:06:37.32 = 17521856 samples = 29799.1 CDDA sectors
File Size : 16.0M
Bit Rate : 321k
Sample Encoding: MPEG audio (layer I, II or III)
Comments :
Title=Lie to Me
Artist=Jolly
Album=Family (Deluxe Edition)
Tracknumber=1/9
Year=2019
Genre=Progressive Rock
Discnumber=1/2

[/more]

Register
(5) Diflock, Ghostb, Hedgehog666, infiltrator, Olethros,
Jun 26 2019, 19:06:10 Tharsis - Ortum Solis [ep] (2019)
[youtube]fkn9lIv1Ozo[/youtube]
(1) AHBAnep,
Jun 26 2019, 19:01:03 Ningen-Isu - Shinseinen (新青年) (2019)
Хороший уровень музыкантов, которые относятся к старшему поколению, начали мутить ещё в конце 80-х. Туземный вокал - пожалуй, единственное, что отличает эту музыку от западного металла.
(1) paganheart,
Jun 26 2019, 13:33:46 Лучший Speed Metal
[youtube]yDi1y7L1Wbs[/youtube]
(2) infiltrator, quicksand,
Jun 25 2019, 20:29:48 Лучший Speed Metal
ЦИТАТА(adeptus_custodes @ Jun 25 2019, 22:05:52) *
Ну расскажи мне например чем отличается дюссельдорфская школа краутрока от берлинской.

Ахаха, вот это реально смешно. Обо[мат->бан]ийся со спидом чувак щас будет нас учить рок-жанрам. 1488.gif
(5) 6666666, Alexis The Best, Deze, Exorcist, Old Vyaine,
Jun 19 2019, 22:43:48 Metallica - Metallica (1991)
Про Штангер уже на три месяца тянет.
(2) infiltrator, slack,
Jun 19 2019, 17:52:53 Amorphis - Queen Of Time (2018)
Феде отсидка пошла на пользу. Заблистал прямо, фонтаном бьёт мысля!
(1) Exorcist,
Jun 14 2019, 16:55:58 Metallica - Metallica (1991)
И сломанные часы дважды в сутки показывают точное время. 1488.gif
(2) infiltrator, Old Vyaine,
Jun 12 2019, 11:24:43 Crimson Glory - Astronomica (1999)
Вот какая поправка. В 1986-1988 гг. была именно тройка, Дримсы ведь ещё не разродились дебютником.
(1) Eisbar,
Jun 12 2019, 00:41:25 Crimson Glory - Astronomica (1999)
Хороший альбом. Сейчас переслушал всё с самого начала. После невнятно-хардового третьего альбома не совсем камбэк, но движение в правильную сторону - звук стал чистым и рафинированным, мелодии уже не такие безумные, но мелодичность никуда не делась. Даже хардовые влияния предыдущего альбома не портят картины.
(3) Eisbar, Ingvar, vam1972,
Jun 7 2019, 21:58:26 Nirvana - Nevermind (1991)
По определению же всё - говно, что этот персонаж приносит на форум. Разве были исключения?
(1) vam1972,
Jun 5 2019, 15:44:42 Cid Hemlock - Enouement (2019)
[youtube]Elxs0a6Vn5U[/youtube]
[youtube]QAu9xEDEAKU[/youtube]
(1) Foneg,
Jun 5 2019, 12:25:06 Spock's Beard - Noise Floor (2018)
Перезалил. Ссылка в стартовом сообщении.
(1) Maniakk,

69 Pages V   1 2 3 > » 
- Lo-Fi Version Support form
Copyrights and abuse reports form
Time is now: 22nd July 2019 - 02:37:49