Welcome Guest ( Log In | Register )

Объявления

* gmail.com упорно продолжает считать почту с нас "unsolicited" и отбивает в том числе и письма активации, поэтому просьба использовать альтернативные почтовые ящики.
------------
* gmail.com continues reject all mail from us as "unsolicited" (activation mails too) therefore please use alternate mail servers.
История благодарностей участнику klesch ::: Спасибо сказали: 16156 раз(а)
Дата поста: В теме: За сообщение: Спасибо сказали:
Mar 5 2017, 08:02:19 Altered Throne - At Night [single] (2013)


*Artist: Altered Throne
*Album: At Night [single]
*Year: 2013
*Genre: Melodic Death Metal
*Country: Canada
*Format: mp3@VBR285kbps
*Size: 7MB

Tracklist:
1. At Night
******************************
Total playing time: 3:18



[more=Extended info]http://www.metal-archives.com/bands/Altered_Throne/3540347388[/more]

Register
(3) Rosen, SymbyoticEntity, varlam4,
Mar 4 2017, 14:10:30 Altered Symmetry - Prologue (2011)


*Artist: Altered Symmetry
*Album: Prologue
*Year: 2011
*Genre: Progressive Metal
*Country: Colombia
*Format: mp3@VBR131kbps
*Size: 47MB

Tracklist:
01. Life Sentence
02. A Jokers Vengeance
03. A Justified Crime
04. Dream Of Tomorrow
05. The Longest Journey
06. Long Lost Love
07. A Day That Changed All
08. Slave Without A Master
09. When No One Cares
10. Walker
11. Lies And Fairy Tales
******************************
Total playing time: 52:42



Register
(2) metala, Rosen,
Mar 4 2017, 11:53:11 Altered Aeon - Reborn As Gods [demo] (2007)


*Artist: Altered Aeon
*Album: Reborn As Gods [demo]
*Year: 2007
*Genre: Thrash Metal
*Country: Sweden
*Format: mp3@VBR168kbps
*Size: 14MB

Tracklist:
1. Reborn As Gods
2. Vortex
3. Darkness Profound
4. Hollow Planet (Subterranean World)
******************************
Total playing time: 12:09



Register
(3) METALHUNTER, Rosen, SymbyoticEntity,
Mar 4 2017, 10:54:09 Altered Perceptions - From Rise To Ruins (2016)


*Artist: Altered Perceptions
*Album: From Rise To Ruins
*Year: 2016
*Genre: Progressive/Technical Deathcore/Djent
*Country: United States
*Format: mp3@VBR272kbps
*Size: 66MB

Tracklist:
01. Rise
02. Equalize
03. Luminescent
04. Sacrifice
05. Hellfire
06. Archives
07. Frequency
08. Death
09. Immortal
10. Ruin
******************************
Total playing time: 33:24




Register
(4) Rosen, SymbyoticEntity, Utugg, varlam4,
Mar 4 2017, 09:45:11 Altercation - Phase None [ep] (2010)


*Artist: Altercation
*Album: Phase None [ep]
*Year: 2010
*Genre: Groove Metal/Metalcore
*Country: United States
*Format: mp3@CBR128kbps
*Size: 17MB

Tracklist:
1. Jailbait
2. Buried Within
3. Nacht Der Untoten
4. Torture Tranquility
******************************
Total playing time: 18:51



Register
(1) Rosen,
Mar 3 2017, 21:28:37 Alter Reign - American Carnivore [ep] (2009)


*Artist: Alter Reign
*Album: American Carnivore [ep]
*Year: 2009
*Genre: Thrash Metal
*Country: United States
*Format: mp3@CBR192kbps
*Size: 26MB

Tracklist:
1. American Carnivore
2. And The Lord Taketh Away
3. Inhale The Fire
4. Brothers In Blood
5. Killer Instinct
******************************
Total playing time: 19:19



Register
(5) boby9052, ExeThrash, gwar, METALHUNTER, Rosen,
Mar 3 2017, 19:16:55 Alter Ego - Poker [ep] (1985)


*Artist: Alter Ego
*Album: Poker [ep]
*Year: 1985
*Genre: Heavy Metal
*Country: Italy
*Format: mp3@CBR128kbps
*Size: 14MB

Tracklist:
1. Corri Più Che Puoi
2. Rock On
3. Faida Finimondo
4. Vecchio Eroe
******************************
Total playing time: 15:15



Register
(3) Rosen, thenecromancer, wgs73,
Mar 3 2017, 18:41:29 Alter Bridge - The Last Hero (2016)


*Artist: Alter Bridge
*Album: The Last Hero
*Year: 2016
*Genre: Hard Rock, Alternative Metal
*Country: United States
*Format: mp3@CBR320kbps
*Size: 165MB

Tracklist:
01. Show Me A Leader
02. The Writing On The Wall
03. The Other Side
04. My Champion
05. Poison In Your Veins
06. Cradle To The Grave
07. Losing Patience
08. This Side Of Fate
09. You Will Be Remembered
10. Crows On A Wire
11. Twilight
12. Island Of Fools
13. The Last Hero
14. Last Of Our Kind (Bonustrack)
******************************
Total playing time: 1:12:12



[more=Technical info]
Input File: 01 Show Me a Leader.mp3
Channels : 2
Sample Rate : 44100
Precision : 16-bit
Duration : 00:05:05.12 = 13455572 samples = 22883.6 CDDA sectors
File Size : 12.3M
Bit Rate : 322k
Sample Encoding: MPEG audio (layer I, II or III)
Comments :
Title=Show Me a Leader
Artist=Alter Bridge
Album=The Last Hero
Tracknumber=1
Year=2016
Genre=Alternative

[/more]

Register
(2) Typhoid, некрософ,
Mar 3 2017, 18:08:49 Alter Bridge - Fortress (2013)


*Artist: Alter Bridge
*Album: Fortress
*Year: 2013
*Genre: Alternative Metal
*Country: United States
*Format: mp3@CBR320kbps
*Size: 170MB

Tracklist:
01. Cry Of Achilles
02. Addicted To Pain
03. Bleed It Dry
04. Lover
05. The Uninvited
06. Peace Is Broken
07. Calm The Fire
08. Waters Rising
09. Farther Than The Sun
10. Cry A River
11. All Ends Well
12. Fortress
13. Never Say Die (Bonustrack Best Buy Exclusive)
14. Zero (Bonustracks Japanese Edition)
15. Home (Bonustracks Japanese Edition)
******************************
Total playing time: 1:15:24



[more=Technical info]
Input File: 01 - Cry of Achilles.mp3
Channels : 2
Sample Rate : 44100
Precision : 16-bit
Duration : 00:06:30.99 = 17242571 samples = 29324.1 CDDA sectors
File Size : 15.7M
Bit Rate : 321k
Sample Encoding: MPEG audio (layer I, II or III)
Comments :
Title=Cry of Achilles
Artist=Alter Bridge
Album=Fortress
Tracknumber=1
Year=2013
Genre=Alternative

[/more]

Register
(1) AndreFrancis,
Mar 2 2017, 19:12:21 Alter Bridge - AB III.5 (2011)


*Artist: Alter Bridge
*Album: AB III.5
*Year: 2011
*Genre: Hard Rock, Post-Grunge
*Country: United States
*Format: mp3@CBR320kbps
*Size: 176MB

Tracklist:
01. Slip To The Void
02. Isolation
03. Ghost Of Days Gone By
04. All Hope Is Gone
05. Still Remains
06. Make It Right
07. Wonderful Life
08. I Know It Hurts
09. Show Me A Sign
10. Fallout
11. Breathe Again
12. Coeur D'Alene
13. Life Must Go On
14. Words Darker Than Their Wings
15. Zero (Bonustracks US Edition)
16. Home (Bonustracks US Edition)
17. Never Born To Follow (Bonustrack Japanese Edition)
******************************
Total playing time: 1:18:06



[more=Technical info]
Input File: 01. Slip To The Void.mp3
Channels : 2
Sample Rate : 44100
Precision : 16-bit
Duration : 00:04:50.56 = 12813872 samples = 21792.3 CDDA sectors
File Size : 11.8M
Bit Rate : 324k
Sample Encoding: MPEG audio (layer I, II or III)
Comments :
Title=Slip To The Void
Artist=Alter Bridge
Album=AB III.5
Tracknumber=1
Year=2011
Genre=Alternative Metal

[/more]

Register
(2) AndreFrancis, Bruce,
Mar 2 2017, 17:48:21 Altars Of Madness - The Man [single] (2016)


*Artist: Altars Of Madness
*Album: The Man [single]
*Year: 2016
*Genre: Gothic/Progressive Metal
*Country: Mexico
*Format: mp3@VBR267kbps
*Size: 9MB

Tracklist:
1. The Man
******************************
Total playing time: 4:45




Register
(4) Cartman223, csgmnk, Rosen, varlam4,
Mar 2 2017, 17:38:49 Altars Of Madness - Nine Circles (2015)


*Artist: Altars Of Madness
*Album: Nine Circles
*Year: 2015
*Genre: Gothic/Progressive Metal
*Country: Mexico
*Format: mp3@VBR306kbps
*Size: 67MB

Tracklist:
1. Hope
2. Nothing To Die For
3. Enter To The Realms Of Death
4. Son Of Asterion
5. Cast In Stone
6. Shatered
7. Shepherd
8. Abandon All Hope
9. Nine Circles
******************************
Total playing time: 31:03



[more=Technical info]
Input File: 1. Hope.mp3
Channels : 2
Sample Rate : 44100
Precision : 16-bit
Duration : 00:01:00.22 = 2655746 samples = 4516.57 CDDA sectors
File Size : 2.41M
Bit Rate : 320k
Sample Encoding: MPEG audio (layer I, II or III)
Comments :
Title=Hope
Artist=Altars Of Madness
Album=Nine Circles
Tracknumber=1
Year=2015
Genre=Gothic/Progressive Metal

[/more]

Register
(5) Cartman223, csgmnk, Rosen, VALERY, varlam4,
Mar 1 2017, 18:54:51 Altars Of Grief - Only Our Scars [single] (2014)


*Artist: Altars Of Grief
*Album: Only Our Scars [single]
*Year: 2014
*Genre: Blackened Death/Doom Metal
*Country: Canada
*Format: mp3@VBR293kbps
*Size: 17MB

Tracklist:
1. Only Our Scars
******************************
Total playing time: 7:47



[more=Extended info]http://www.metal-archives.com/bands/Altars_of_Grief/3540384521[/more]

Register
(6) artscald, Hell_Is_Here, Rosen, Sanc, satanist666, varlam4,
Mar 1 2017, 18:12:53 Altarium - Thule (2014)


*Artist: Altarium
*Album: Thule
*Year: 2014
*Genre: Dark Ambient
*Country: Australia
*Format: mp3@CBR320kbps
*Size: 156MB

Tracklist:
01. Thulean Calling
02. To Cross The Ocean Sea
03. Thulean Shores
04. Through The Forest Of Fear
05. Skogsfru
06. Warriors Burial
07. Forgotten Sword In The Woods
08. Beneath Oak
09. Before Me, The Gods Had Their War
10. Enveloped In Ragnarok
******************************
Total playing time: 1:09:42



[more=Technical info]
Input File: 02. To Cross The Ocean Sea.mp3
Channels : 2
Sample Rate : 44100
Precision : 16-bit
Duration : 00:07:11.66 = 19036382 samples = 32374.8 CDDA sectors
File Size : 17.3M
Bit Rate : 320k
Sample Encoding: MPEG audio (layer I, II or III)
Comments :
Title=To Cross The Ocean Sea
Artist=Altarium
Album=Thule
Tracknumber=2
Year=2014
Genre=Dark Ambient

[/more]

Register
(3) artscald, stub888, vasilisk,
Mar 1 2017, 17:57:18 Altarium - Altarium (Demo Cuts) [demo] (2013)


*Artist: Altarium
*Album: Altarium (Demo Cuts) [demo]
*Year: 2013
*Genre: Dark Ambient
*Country: Australia
*Format: mp3@VBR240kbps
*Size: 19MB

Tracklist:
1. Await Me, Valhalla
2. Jötunheimr
3. Northern Silence
4. Sky Shrine
******************************
Total playing time: 11:15



Register
(1) vlad74,
Mar 1 2017, 17:47:05 Altarium - The Forest Of Time [ep] (2013)


*Artist: Altarium
*Album: The Forest Of Time [ep]
*Year: 2013
*Genre: Dark Ambient
*Country: Australia
*Format: mp3@VBR249kbps
*Size: 40MB

Tracklist:
1. Amongst The Ruins
2. Judgement
3. Ominous Calling
4. The Forest Of Time
5. The Winter Of Eternity
6. Ljósálfar
******************************
Total playing time: 22:20



Register
(4) artscald, Buregon, stub888, vlad74,
Feb 28 2017, 18:04:33 Altar Whore - Comatose Dementia [demo] (2011)


*Artist: Altar Whore
*Album: Comatose Dementia [demo]
*Year: 2011
*Genre: Death Metal
*Country: United States
*Format: mp3@VBR260kbps
*Size: 45MB

Tracklist:
1. Comatose Dementia
2. Genetic Reanimation
3. Ominous Illusions
4. Intellectual Void (Re-Record)
5. Reactor 7 (Re-Record)
******************************
Total playing time: 23:32



Register
(4) Rosen, varlam4, vyacheslav, wgs73,
Feb 28 2017, 17:54:09 Altar Whore - Shattered Soldiers [demo] (2010)


*Artist: Altar Whore
*Album: Shattered Soldiers [demo]
*Year: 2010
*Genre: Death Metal
*Country: United States
*Format: mp3@VBR211kbps
*Size: 29MB

Tracklist:
1. Shattered Soldiers
2. Echoes Of Iniquitous Glory
3. Intellectual Void
4. Reactor 7
******************************
Total playing time: 19:07



Register
(4) Rosen, varlam4, vyacheslav, wgs73,
Feb 28 2017, 17:44:59 Altar Whore - Trail Of Flesh [demo] (2009)


*Artist: Altar Whore
*Album: Trail Of Flesh [demo]
*Year: 2009
*Genre: Death Metal
*Country: United States
*Format: mp3@VBR281kbps
*Size: 33MB

Tracklist:
1. Legions Of Hate
2. Spawning Vats
3. Indigenous Cannibalistic Decrepancy
4. Trail Of Flesh
5. Indomitable
******************************
Total playing time: 16:36



Register
(4) Rosen, varlam4, vyacheslav, wgs73,
Feb 28 2017, 17:16:31 Altar Of Profanation - Eye In The Poisoned Mind [ep] (2016)


*Artist: Altar Of Profanation
*Album: Eye In The Poisoned Mind [ep]
*Year: 2016
*Genre: Black/Death/Sludge Metal
*Country: United States
*Format: mp3@CBR128kbps
*Size: 24MB

Tracklist:
1. Mudhabbah Alttadnis
2. Pervaded By Darkness
3. And Now The Darkness Takes Over
4. Eye In The Poisoned Mind
5. Astral Invasion Of Unfathomable Proportion
******************************
Total playing time: 26:37



Register
(2) marilin, Rosen,
Feb 27 2017, 19:41:03 Altar Of Profanation - Rehearsal 1 [demo] (2012)


*Artist: Altar Of Profanation
*Album: Rehearsal 1 [demo]
*Year: 2012
*Genre: Black/Death Metal/Sludge
*Country: United States
*Format: mp3@VBR213kbps
*Size: 36MB

Tracklist:
1. As The Black Candles Flame Dances...
2. ...87 Churches Burned
3. Theiving Purity from An Angels Soul
4. Blasphemous Incantation
5. Eternal Crucifixion
******************************
Total playing time: 23:57



[more=Extended info]https://www.discogs.com/Altar-Of-Profanation-Rehearsal-1-12162012/release/9246302[/more]

Register
(6) Hell_Is_Here, marilin, Rosen, RUSP73, VALERY, varlam4,
Feb 27 2017, 18:42:47 Altar Of Flesh - Unholy Angel [single] (2013)


*Artist: Altar Of Flesh
*Album: Unholy Angel [single]
*Year: 2013
*Genre: Death Metal
*Country: United States
*Format: mp3@VBR281kbps
*Size: 8MB

Tracklist:
1. Unholy Angel
******************************
Total playing time: 4:00



Register
(3) Rosen, spiritualdecay666, varlam4,
Feb 27 2017, 18:37:48 Altar Of Flesh - Unleashing The Angelgrinder [best of/compilation] (2005)


*Artist: Altar Of Flesh
*Album: Unleashing The Angelgrinder [best of/compilation]
*Year: 2005
*Genre: Death Metal
*Country: United States
*Format: mp3@VBR252kbps
*Size: 77MB

Tracklist:
01. Absolution Through The Axe
02. Strangulation And Dismemberment
03. Draconic Reverie
04. Revenge
05. Faithful Forlorn
06. Angelgrinder
07. Crucified Again
08. Absolution Through The Axe
09. Gone Mainstream
10. Fetus Kabab
11. Back From The Grave
12. Closed Casket
13. Strangulation And Dismemberment
14. Bandsaw Lobotomy
15. Into The Morgue
******************************
Total playing time: 42:46



Register
(6) andreikun, kombinator, Rosen, Storky, varlam4, vyacheslav,
Feb 27 2017, 18:26:12 Altar Of Dagon - Crawling Chaos [ep] (2011)


*Artist: Altar Of Dagon
*Album: Crawling Chaos [ep]
*Year: 2011
*Genre: Doom Metal
*Country: United States
*Format: mp3@VBR287kbps
*Size: 52MB

Tracklist:
1. Crawling Chaos
2. The Witch
3. Forever War
4. Cimmerian
5. Power Of The One
6. The Black Horde
******************************
Total playing time: 25:09



Register
(5) Buregon, Rosen, SAPOGi, VALERY, varlam4,
Feb 24 2017, 09:11:36 Altar Blood - Torture And Desecration [ep] (2017)


*Artist: Altar Blood
*Album: Torture And Desecration [ep]
*Year: 2017
*Genre: Blackened Death Metal
*Country: United States
*Format: mp3@CBR128kbps
*Size: 17MB

Tracklist:
1. Bestial Slavery
2. Abducted, Mutilated And Eaten
3. Impaled On Your Symbol Of Salvation
4. Nocturnal Bloodlust
******************************
Total playing time: 18:07



Register
(8) andrey010577, marilin, Rosen, Sanctus, varlam4, wendigo, Wolftribes, wreak,

154 Pages V  < 1 2 3 4 5 > » 
- Lo-Fi Version Support form
Copyrights and abuse reports form
Time is now: 26th May 2024 - 19:35:46