Welcome Guest ( Log In | Register )

История благодарностей участнику Evrom ::: Спасибо сказали: 4670 раз(а)
Дата поста: В теме: За сообщение: Спасибо сказали:
Yesterday, 10:22:48 Soliloque - Bassal De Fel [single] (2024)


*Artist: Soliloque
*Album: Bassal De Fel [single]
*Year: 2024
*Genre: Avant-Garde Black Metal/Gothic Rock
*Country: Spain
*Format: mp3@CBR320kbps
*Size: 29MB

Tracklist:
1. Bassal de fel 12:27
******************************
Total playing time: 12:27



[more=Extended info]"Name your price" on bandcamp[/more]

[more=Technical info]
Input File: Soliloque - Bassal de fel - 01 Bassal de fel.mp3
Channels : 2
Sample Rate : 44100
Precision : 16-bit
Duration : 00:12:27.74 = 32975510 samples = 56080.8 CDDA sectors
File Size : 30.0M
Bit Rate : 321k
Sample Encoding: MPEG audio (layer I, II or III)
Comments :
Title=Bassal de fel
Artist=Soliloque
Album=Bassal de fel
Tracknumber=1
Year=2024

[/more]

Register
(2) vasiljev_sergej, Weikai,
Mar 3 2024, 10:12:12 Vile Rebirth - Bornless One [demo] (2020)


*Artist: Vile Rebirth
*Album: Bornless One [demo]
*Year: 2020
*Genre: Death/Doom Metal
*Country: United States
*Format: mp3@CBR320kbps
*Size: 31MB

Tracklist:
1. Bornless One 04:42
2. Crawling Chaos 04:52
3. You I Will Keep 03:40
******************************
Total playing time: 13:14



[more=Extended info]"Name your price" on bandcamp[/more]

[more=Technical info]
Input File: Vile Rebirth - Bornless One (Demo) - 03 You I Will Keep.mp3
Channels : 2
Sample Rate : 44100
Precision : 16-bit
Duration : 00:03:40.49 = 9723389 samples = 16536.4 CDDA sectors
File Size : 8.95M
Bit Rate : 325k
Sample Encoding: MPEG audio (layer I, II or III)
Comments :
Title=You I Will Keep
Artist=Vile Rebirth
Album=Bornless One (Demo)
Tracknumber=3
Year=2020

[/more]

Register
(5) artscald, sergsazan, stumpheavyrock, vlad74, vyacheslav,
Mar 3 2024, 10:08:35 Vile Rebirth - The Ritual [demo] (2021)


*Artist: Vile Rebirth
*Album: The Ritual [demo]
*Year: 2021
*Genre: Death/Doom Metal
*Country: United States
*Format: mp3@CBR320kbps
*Size: 30MB

Tracklist:
1. The Conjuring 03:35
2. The Rite 04:56
3. The Dismissal 04:11
******************************
Total playing time: 12:42



[more=Extended info]"Name your price" on bandcamp[/more]

[more=Technical info]
Input File: Vile Rebirth - The Ritual (Demo) - 01 The Conjuring.mp3
Channels : 2
Sample Rate : 44100
Precision : 16-bit
Duration : 00:03:35.97 = 9524101 samples = 16197.5 CDDA sectors
File Size : 8.85M
Bit Rate : 328k
Sample Encoding: MPEG audio (layer I, II or III)
Comments :
Title=The Conjuring
Artist=Vile Rebirth
Album=The Ritual (Demo)
Tracknumber=1
Year=2021

[/more]

Register
(5) artscald, sergsazan, stumpheavyrock, vlad74, vyacheslav,
Mar 2 2024, 17:10:02 Hild - ValFreiya (2022)
excelent black/thrash in the vein of Aura Noir, with hardcore/punk influences , thank you !! 20.gif
(1) Wail,
Feb 20 2024, 09:53:53 Ancst & King Apathy - Ancst/King Apathy [split] (2017)


*Artist: Ancst & King Apathy
*Album: Ancst/King Apathy [split]
*Year: 2017
*Genre: Black Metal/Crust | Post-Black Metal/Crust
*Country: Germany | Germany
*Format: mp3@CBR320kbps
*Size: 49MB

Tracklist:
Ancst:
1. Gehenna Of Fire 07:17
2. King Apathy (Thränenkind cover) 03:00
King Apathy:
3. Disguise 03:34
4. Entropie (Ancst cover)
******************************
Total playing time: 13:51



[more=Extended info]"name your price" on bandcamp[/more]

[more=Technical info]
Input File: Ancst - Ancst - King Apathy SPLIT - 02 Ancst - King Apathy (Cover).mp3
Channels : 2
Sample Rate : 44100
Precision : 16-bit
Duration : 00:03:00.73 = 7969973 samples = 13554.4 CDDA sectors
File Size : 7.40M
Bit Rate : 327k
Sample Encoding: MPEG audio (layer I, II or III)
Comments :
Title=Ancst - King Apathy (Cover)
Artist=Ancst
Album=Ancst / King Apathy SPLIT
Tracknumber=2
Year=2017

[/more]

Register
(7) aleon, artscald, ErickLeoni, hell_armageddon, Piriaka_Power_Station, Weikai, wreak,
Feb 20 2024, 09:50:16 Ancst - Zorn [ep] (2022)
QUOTE(Weltenfeind666 @ May 13 2023, 22:40:39) *
pls reup, thx

best I can do is bandcamp rip mp3@128 smile2.gif
Register
(1) hell_armageddon,
Feb 16 2024, 10:01:00 Bulldozer - Neurodeliri (1988)
my link
Register
(1) thenecromancer,
Feb 15 2024, 11:10:26 K​ø​ldbrynger - Hate Against Humanity [ep] (2023)


*Artist: K​ø​ldbrynger
*Album: Hate Against Humanity [ep]
*Year: 2023
*Genre: Raw Black Metal
*Country: Germany
*Format: mp3@CBR320kbps
*Size: 48MB

Tracklist:
1. Intro - Lebe für den Tod 01:23
2. Der Schnitter 02:29
3. A Life of Melancholy 04:41
4. Seelenlos 05:34
5. Manifest of Misanthropy 02:05
6. Im Tode vereint 02:31
7. Antitheistic Elitism 02:45
8. Outro - Sterbe in Einsamkeit 00:40
******************************
Total playing time: 22:08



[more=Extended info]"Name your price" on bandcamp[/more]

[more=Technical info]
Input File: 08 Outro - Sterbe in Einsamkeit.mp3
Channels : 2
Sample Rate : 44100
Precision : 16-bit
Duration : 00:00:40.81 = 1799501 samples = 3060.38 CDDA sectors
File Size : 1.73M
Bit Rate : 339k
Sample Encoding: MPEG audio (layer I, II or III)
Comments :
Title=Outro - Sterbe in Einsamkeit
Artist=Køldbrynger
Album=Hate Against Humanity
Tracknumber=8
Year=2023

[/more]

Register
(8) artscald, Carcharoth, Grev, kim666, sacrut, supremo, vasiljev_sergej, wreak,
Feb 15 2024, 11:05:41 Frontline Despair - Demo [demo] (2023)


*Artist: Frontline Despair
*Album: Demo [demo]
*Year: 2023
*Genre: Raw Black Metal
*Country: Netherlands
*Format: mp3@CBR320kbps
*Size: 32MB

Tracklist:
1. Guns a' Blazing 03:27
2. Tot De Dood 04:00
3. Weltkrieg 03:48
4. U.R. 02:33
******************************
Total playing time: 13:48



[more=Extended info]"Name your price" on bandcamp[/more]

[more=Technical info]
Input File: 04 U.R..mp3
Channels : 2
Sample Rate : 44100
Precision : 16-bit
Duration : 00:02:33.53 = 6770673 samples = 11514.8 CDDA sectors
File Size : 6.25M
Bit Rate : 326k
Sample Encoding: MPEG audio (layer I, II or III)
Comments :
Title=U.R.
Artist=Frontline Despair
Album=Demo 2023
Tracknumber=4
Year=2023

[/more]

Register
(6) artscald, Grev, kim666, sacrut, vasiljev_sergej, wreak,
Feb 13 2024, 15:38:08 Barbaros - Godoff [demo] (2009)
wma@192 CD rip + cover
Register
(2) INDARKNESS, Wail,
Feb 12 2024, 09:39:45 Tanork - Destined To Die... (2023)
thanks, this band if from my region smile1.gif
new youtube link
https://youtu.be/-7EHURbHPTU?si=XQOg3HRy5shhrgYN
(1) Samaritianin,
Feb 9 2024, 11:23:46 Hatilh - Demo [demo] (2020)
very good & professionnal demo 20.gif
"name your pice" on bandcamp
(1) Wail,
Feb 9 2024, 10:26:40 Nox Sinister - Knight Terrors (2023)
epic, clean heavy/thrash
new bandcamp page
(2) Genuine Thrashiac, Phlebotomized,
Feb 7 2024, 14:16:42 Ouroborosum & Apokryphos - Penile Hymnen III: Antisomatische Kl​ä​nge [split] (2023)


*Artist: Ouroborosum & Apokryphos
*Album: Penile Hymnen III: Antisomatische Kl​ä​nge [split]
*Year: 2023
*Genre: Black Metal | Accoustic Ambient
*Country: Germany | Germany
*Format: mp3@CBR320kbps
*Size: 40MB

Tracklist:
Apokryphos :
1. Herr Mannelig 02:31
2. Antisoma 1 03:02
3. Antisoma 2 02:26
Ouroborosum :
4. Des Biestes Ruf 04:30
5. Ouroborosum - Antisoma 3 02:44
6. Ouroborosum - Antisoma 4 02:35
******************************
Total playing time: 17:48



[more=Extended info]"name your price" on bandcamp[/more]

[more=Technical info]
Input File: Rat Covenant - DIS-011 - Apokryphos - Ouroborosum - Penile Hymnen III- Antisomatische Klänge - 01 Apokryphos - Herr Mannelig.mp3
Channels : 2
Sample Rate : 44100
Precision : 16-bit
Duration : 00:02:31.91 = 6699231 samples = 11393.2 CDDA sectors
File Size : 6.20M
Bit Rate : 326k
Sample Encoding: MPEG audio (layer I, II or III)
Comments :
Title=Apokryphos - Herr Mannelig
Artist=Apokryphos
Album=DIS-011 - Apokryphos / Ouroborosum - Penile Hymnen III: Antisomatische Klänge
Tracknumber=1
Year=2023

[/more]

Register
(9) artscald, Carcharoth, kim666, sacrut, SilentNidhogg, stub888, vasiljev_sergej, vlad74, wreak,
Feb 7 2024, 14:14:19 Knochen - Knochen [demo] (2023)


*Artist: Knochen
*Album: Knochen [demo]
*Year: 2023
*Genre: Raw Black Metal/Punk
*Country: Germany
*Format: mp3@CBR320kbps
*Size: 34MB

Tracklist:
1. Ende 01:39
2. Sterben sollen sie (feat. Yhorm) 02:37
3. Knochen 2.0 02:27
4. Weltsterben 02:19
5. Die stummen Schreie der Kinderleiche 03:22
6. Alles brennt 02:22
******************************
Total playing time: 14:46



[more=Extended info]"name your price" on bandcamp[/more]

[more=Technical info]
Input File: Rat Covenant - DIS-010 - Knochen - Knochen - 01 Ende.mp3
Channels : 2
Sample Rate : 44100
Precision : 16-bit
Duration : 00:01:39.98 = 4408942 samples = 7498.2 CDDA sectors
File Size : 4.14M
Bit Rate : 331k
Sample Encoding: MPEG audio (layer I, II or III)
Comments :
Title=Ende
Artist=Knochen
Album=Knochen
Tracknumber=1
Year=2023

[/more]

Register
(6) artscald, kim666, sacrut, SilentNidhogg, vasiljev_sergej, wreak,
Feb 7 2024, 10:19:36 Lentokenttä - The Astral Void [ep] (2023)


*Artist: Lentokenttä
*Album: The Astral Void [ep]
*Year: 2023
*Genre: Black Metal
*Country: Germany
*Format: mp3@CBR320kbps
*Size: 35MB

Tracklist:
1. Die ewige Flamme 04:51
2. Hinter tiefschwarzen Gittern 05:48
3. Perceiving the Silence of the Astral Void 04:42
******************************
Total playing time: 15:21



[more=Extended info]"name your price" on bandcamp[/more]

[more=Technical info]
Input File: Rat Covenant - DIS-013 - Lentokenttä -The Astral Void - 01 Die ewige Flamme.mp3
Channels : 2
Sample Rate : 44100
Precision : 16-bit
Duration : 00:04:51.28 = 12845492 samples = 21846.1 CDDA sectors
File Size : 11.8M
Bit Rate : 323k
Sample Encoding: MPEG audio (layer I, II or III)
Comments :
Title=Die ewige Flamme
Artist=Lentokenttä
Album=The Astral Void
Tracknumber=1
Year=2023

[/more]

Register
(10) artscald, Carcharoth, Grev, kim666, SilentNidhogg, stub888, VALERY, vasiljev_sergej, Weikai, wreak,
Feb 6 2024, 15:20:58 Viharukous - Viimeisiä Houreita [ep] (2024)


*Artist: Viharukous
*Album: Viimeisiä Houreita [ep]
*Year: 2024
*Genre: Raw Black Metal
*Country: Finland
*Format: mp3@CBR320kbps
*Size: 46MB

Tracklist:
1. Intro 00:40
2. Vapahtajan mytologia 04:57
3. Huorien jumala 06:51
4. Maailmojen lävistäjä 07:24
******************************
Total playing time: 19:52



[more=Extended info]"name your price" on bandcamp[/more]

[more=Technical info]
Input File: Rat Covenant - RAT-150 - Viharukous - Viimeisiä houreita - 01 Intro.mp3
Channels : 2
Sample Rate : 44100
Precision : 16-bit
Duration : 00:00:40.41 = 1782213 samples = 3030.97 CDDA sectors
File Size : 1.73M
Bit Rate : 343k
Sample Encoding: MPEG audio (layer I, II or III)
Comments :
Title=Intro
Artist=Viharukous
Album=Viimeisiä houreita
Tracknumber=1
Year=2023

[/more]

Register
(11) artscald, Farfarello, Grev, kim666, nemx, obituarydark, SilentNidhogg, stub888, VALERY, vasiljev_sergej, wreak,
Feb 6 2024, 12:07:15 Dischrist - Whoredom (2024)


*Artist: Dischrist
*Album: Whoredom
*Year: 2024
*Genre: Raw Black Metal/Crust
*Country: Philippines
*Format: mp3@CBR320kbps
*Size: 39MB

Tracklist:
1. Intro 00:18
2. Dechristinized Era 01:04
3. Summoning The Impaler 01:09
4. The Whoredom 00:57
5. Disease, Syndrome, No Cure 01:03
6. Poison Clouds 01:04
7. Mirror And The Lying Whore 01:04
8. Rapture 01:11
9. Outro 00:47
10. Never Again (Discharge cover) 02:23
11. Drowning In The Mainstream (Doom cover) 02:03
12. Death To All 00:52
13. Eternal Suffering / Outro : Bursting Until The End 02:43
******************************
Total playing time: 16:38



[more=Extended info]"name your price" on bandcamp[/more]

[more=Technical info]
Input File: Rat Covenant - RAT-154 - Dischrist - Whoredom - 09 Outro.mp3
Channels : 2
Sample Rate : 44100
Precision : 16-bit
Duration : 00:00:47.10 = 2077154 samples = 3532.57 CDDA sectors
File Size : 1.98M
Bit Rate : 337k
Sample Encoding: MPEG audio (layer I, II or III)
Comments :
Title=Outro
Artist=Dischrist
Album=Whoredom
Tracknumber=9
Year=2024

[/more]

Register
(8) artscald, Grev, nemx, SilentNidhogg, uk82grind, vasiljev_sergej, Weikai, wreak,
Feb 6 2024, 12:01:19 War Damned - No Funeral [ep] (2024)


*Artist: War Damned
*Album: No Funeral [ep]
*Year: 2024
*Genre: Raw Black Metal
*Country: Germany
*Format: mp3@CBR320kbps
*Size: 47MB

Tracklist:
1. Cemetary Call 01:46
2. Whore 02:01
3. Midnight 02:52
4. Deathcrush (Mayhem cover) 03:25
5. Anti-Life 02:33
6. Werwolf (Marduk cover) 02:00
7. Ghoul 01:50
8. Carnage 04:08
9. No Funeral 00:11
******************************
Total playing time: 20:46



[more=Extended info]"name your price" on bandcamp[/more]

[more=Technical info]
Input File: Rat Covenant - RAT-155 - War Damned - No Funeral - 09 No Funeral.mp3
Channels : 2
Sample Rate : 44100
Precision : 16-bit
Duration : 00:00:11.76 = 518396 samples = 881.626 CDDA sectors
File Size : 558k
Bit Rate : 379k
Sample Encoding: MPEG audio (layer I, II or III)
Comments :
Title=No Funeral
Artist=War Damned
Album=No Funeral
Tracknumber=9
Year=2024

[/more]

Register
(11) artscald, Carcharoth, kim666, nemx, SilentNidhogg, stub888, supremo, VALERY, vasiljev_sergej, Vitald, wreak,
Feb 6 2024, 09:51:07 Faded Colors - Winter​/​Vampiric Black Metal (2024)


*Artist: Faded Colors
*Album: Winter​/​Vampiric Black Metal
*Year: 2024
*Genre: Atmospheric Raw Black Metal
*Country: Russian Federation
*Format: mp3@CBR320kbps
*Size: 113MB

Tracklist:
1. Untitled Pt. 1 18:24
2. Untitled Pt. 2 03:40
3. Let Their Bodies Tell Their Story 26:13
4. (Spoken Word) Outro 01:16
******************************
Total playing time: 49:33



[more=Extended info]"name your price" on bandcamp[/more]

[more=Technical info]
Input File: Faded Colors - Winter-Vampiric Black Metal - 04 (Spoken Word) Outro.mp3
Channels : 2
Sample Rate : 44100
Precision : 16-bit
Duration : 00:01:16.86 = 3389350 samples = 5764.2 CDDA sectors
File Size : 3.19M
Bit Rate : 332k
Sample Encoding: MPEG audio (layer I, II or III)
Comments :
Title=(Spoken Word) Outro
Artist=Faded Colors
Album=Winter/Vampiric Black Metal
Tracknumber=4
Year=2024

[/more]

Register
(13) aleon, AlexSmith, Altkiller, artscald, kim666, sacrut, SilentNidhogg, supremo, VALERY, vasiljev_sergej, vlad74, Weikai, wreak,
Feb 6 2024, 09:27:55 Irradiated Marrow - Ruined Forms [ep] (2021)


*Artist: Irradiated Marrow
*Album: Ruined Forms [ep]
*Year: 2021
*Genre: Brutal Death Metal/Grindcore
*Country: United States
*Format: mp3@CBR320kbps
*Size: 24MB

Tracklist:
1. Despised Repugnance 01:36
2. Abominate 01:50
3. Revulsion Impulse 01:14
4. Compulsion 01:21
5. Bloodvomit Infections 01:54
6. Explosion Hypothesis 01:29
7. Nuclear Fuel 00:51
******************************
Total playing time: 10:15



[more=Extended info]"Name your price" on bandcamp[/more]

[more=Technical info]
Input File: Rat Covenant - RAT-003 - Irradiated Marrow - Ruined Forms - 07 Nuclear Fuel.mp3
Channels : 2
Sample Rate : 44100
Precision : 16-bit
Duration : 00:00:51.28 = 2261492 samples = 3846.07 CDDA sectors
File Size : 2.16M
Bit Rate : 337k
Sample Encoding: MPEG audio (layer I, II or III)
Comments :
Title=Nuclear Fuel
Artist=Rat Covenant
Album=RAT-003 - Irradiated Marrow - Ruined Forms
Tracknumber=7
Year=2021

[/more]

Register
(2) artscald, wreak,
Feb 5 2024, 09:44:47 Traquenard - Fuck The Landlord (2023)
thanks!! good speed/thrash/punk banana.gif
update : new bandcamp
(1) Genuine Thrashiac,
Feb 2 2024, 09:26:40 Gegenentwurf - Erste Skizze [single] (2023)


*Artist: Gegenentwurf
*Album: Erste Skizze [single]
*Year: 2023
*Genre: Black Metal
*Country: Germany
*Format: mp3@CBR320kbps
*Size: 18MB

Tracklist:
1. Erste Skizze 07:47
******************************
Total playing time: 7:47



[more=Extended info]Free on bandcamp[/more]

[more=Technical info]
Input File: Gegenentwurf - Erste Skizze - 01 Erste Skizze.mp3
Channels : 2
Sample Rate : 44100
Precision : 16-bit
Duration : 00:07:48.06 = 20641490 samples = 35104.6 CDDA sectors
File Size : 18.8M
Bit Rate : 322k
Sample Encoding: MPEG audio (layer I, II or III)
Comments :
Title=Erste Skizze
Artist=Gegenentwurf
Album=Erste Skizze
Tracknumber=1
Year=2023

[/more]

Register
(5) artscald, Grev, khestanow3001, vasiljev_sergej, wreak,
Jan 29 2024, 16:27:51 Kiloton - Conquer In Unity [compilation] (2023)


*Artist: Kiloton
*Album: Conquer In Unity [compilation]
*Year: 2023
*Genre: Black/Death Metal
*Country: Canada
*Format: mp3@CBR320kbps
*Size: 51MB

Tracklist:
1. Murmurs Of Agonizing Warfare Unleashed By The Atomic Embrace Of Nightmarish Desolation 01:37
2. Amidst The Ruins Of Civilization: Violence Unleashes Death's Dark Kiss 00:58
3. Violent Conflagration In The Cold Nuclear Twilight 01:38
4. Eternal Echoes Of The Tortured: The Debris Of A Ravaged World 02:22
5. Postmortem Transformation 01:50
6. Necrobiome Dynamics (From Mortis To Molecules) 02:24
7. Deciphering The Riddle Of Death On The Frontline 01:04
8. The Profound Decay Of A Sniper's Heart 01:12
9. Ravens Of Retribution 01:10
10. Nightmare Squadron 01:46
11. No Mercy In The Clouds 00:52
12. Cruel Sands 01:38
13. Operation Scorpion 01:38
14. Silent Wings Of Desolation 01:56
******************************
Total playing time: 22:05



[more=Extended info]"CONQUER IN UNITY" is a compilation of the three KILOTON demos that were published digitally under the 7SPIRITUAL7WARFARE7 banner. An announcement for a cassette version will be made before the end of the year.[/more]

[more=Technical info]
Input File: KILOTON - CONQUER IN UNITY - 11 NO MERCY IN THE CLOUDS.mp3
Channels : 2
Sample Rate : 44100
Precision : 16-bit
Duration : 00:00:52.06 = 2296022 samples = 3904.8 CDDA sectors
File Size : 2.17M
Bit Rate : 333k
Sample Encoding: MPEG audio (layer I, II or III)
Comments :
Title=NO MERCY IN THE CLOUDS
Artist=KILOTON
Album=CONQUER IN UNITY
Tracknumber=11
Year=2023

[/more]

Register
(10) artscald, Carcharoth, dermarsoran, Grev, infozahist, LiarOfAngmar, SilentNidhogg, supremo, VALERY, wreak,
Jan 26 2024, 10:30:43 Non Serviam & Biollante - Sainte​-​Soline [split] (2023)


*Artist: Non Serviam & Biollante
*Album: Sainte​-​Soline [split]
*Year: 2023
*Genre: Industrial Sludge Metal | Dark Hip-Hop
*Country: France | France
*Format: mp3@CBR320kbps
*Size: 23MB

Tracklist:
Non Serviam :
1. Sainte-Soline 04:00
Biollante :
2. Que le soleil est froid, que la colère est noire 06:00
******************************
Total playing time: 10:00



[more=Extended info]On Saturday 25 March in Sainte Soline (France), our comrade Serge was hit in the head by an explosive grenade during the demonstration against the water basins. In spite of his state of absolute emergency, the prefecture knowingly prevented the emergency services from intervening in a first time and to engage his transport in an adapted care unit in a second time. He is currently in neurosurgical intensive care. His vital prognosis is still engaged. Another comrade, Mickael, was hit in the throat by an LBD shot and had to undergo delicate brain surgery. Others lost an eye, a foot, a hand, their hearing, etc. There were 200 injured after an hour of confrontation with the cops.

Serge, we know that metal is not your thing (to quote you: "you know, what I listen to is rap and Corsican songs"), but we prepared this for when you wake up, because that's how we wanted and how we were able to express ourselves after you fell into a coma two weeks ago, with rage in our bellies. Comrades, parents, relative, we think of you and long live the revolution.

This EP is "Name your price", all donations will be given to the following support funds :
- Kitty for the relatives of Serge and the injured of Sainte Soline : www.helloasso.com/associations/la-galere/collectes/solidarite-pour-les-proches-de-serge-et-de-blesses-de-ste-soline
- Kitty for Mickaël : www.leetchi.com/c/mycka-gj-41?

The site of the comrades of the S. (contains translations): lescamaradesdus.noblogs.org

On Youtube: youtu.be/6Nua34aJKM0[/more]

[more=Technical info]
Input File: Non Serviam - Non Serviam - Biollante - Sainte-Soline (Benefit split EP) - 01 NON SERVIAM- Sainte-Soline.mp3
Channels : 2
Sample Rate : 44100
Precision : 16-bit
Duration : 00:04:00.08 = 10587440 samples = 18005.9 CDDA sectors
File Size : 9.77M
Bit Rate : 326k
Sample Encoding: MPEG audio (layer I, II or III)
Comments :
Title=NON SERVIAM| Sainte-Soline
Artist=Non Serviam
Album=Non Serviam / Biollante - Sainte-Soline (Benefit split EP)
Tracknumber=1
Year=2023

[/more]

Register
(2) gwar, Lanceatum,

53 Pages V   1 2 3 > » 
- Lo-Fi Version Support form
Copyrights and abuse reports form
Time is now: 5th March 2024 - 10:44:56