Welcome Guest ( Log In | Register )

История благодарностей участнику Necrokilldozer ::: Спасибо сказали: 38880 раз(а)
Дата поста: В теме: За сообщение: Спасибо сказали:
Yesterday, 18:17:22 Goatscorge - Worthless Witchcraft In The Presence Of The Holy Anointing [ep] (2021)


*Artist: Goatscorge
*Album: Worthless Witchcraft In The Presence Of The Holy Anointing [ep]
*Year: 2021
*Genre: Raw Black Metal
*Country: United States
*Format: flac
*Size: 116MB

Tracklist:
1. Vain Feeble Spell of a Powerless Old Woman 01:32 instrumental
2. Worthless Witchcraft in the Presence of the Holy Anointing 05:26
3. Invocation of the Wrath of the Holy Spirit 02:46
******************************
Total playing time: 9:44



Register
(2) nemx, Olethros,
Yesterday, 18:03:25 Stand Alone Evil - Evil In Everyone (2021)


*Artist: Stand Alone Evil
*Album: Evil In Everyone
*Year: 2021
*Genre: Experimental Black Metal
*Country: Ukraine
*Format: mp3@CBR320kbps
*Size: 103MB

Tracklist:
1. Thirst for Evil 05:58
2. Primal Instinct 05:22
3. In the Dark 05:38
4. Slough of Despond 06:32
5. Holy Atrocity 04:20
6. The Voice of Sin 05:30
7. Act of Darkness 05:14
8. Miroprizrenie 04:58
******************************
Total playing time: 43:32



[more=Technical info]
Input File: 01. Thirst for evil.mp3
Channels : 2
Sample Rate : 44100
Precision : 16-bit
Duration : 00:05:58.08 = 15791460 samples = 26856.2 CDDA sectors
File Size : 14.3M
Bit Rate : 320k
Sample Encoding: MPEG audio (layer I, II or III)
Comments :
Title=Thirst for evil
Artist=Stand Alone Evil
Album=Evil in Everyone
Tracknumber=1
Year=2021
Genre=Experimental Black Metal

[/more]

Register
(1) metala,
Yesterday, 17:04:40 Lifeless - Anhedonia (2021)


*Artist: Lifeless
*Album: Anhedonia
*Year: 2021
*Genre: Ambient/Depressive Black Metal
*Country: International
*Format: mp3@CBR320kbps
*Size: 170MB

Tracklist:
1. Emp-Ti-Ness 04:08
2. Ashes of Hopes and Dreams 05:24
3. Trapped in the Void 11:54
4. Giving up Everything 13:40
5. Anhedonia 16:40
6. Half-Hearted 04:12
7. Time to Go Away from You 11:46
8. Something Inside Me Dies 03:22
******************************
Total playing time: 1:11:06



[more=Extended info]Line - up:

L. Nergot - Guitars, Bass, Drums, Keyboards, Vocals (lead) (track 01), Vocals (additional) (track 06) (Ars Goecia, Broken Life, Coldnight, Dismal Suffering, Path Sad, Sacrimoon, Traurigkeit, ex-V.E.G., Dark Fallen Star, Diasgrises, ex-Black Whispers)
Kjiel - Guitars, Vocals, Lyrics (Angor Animi, Eyelessight, Freitodt, Sacrimoon, ex-Black Faith, ex-Black Whispers, ex-Hibernus, ex-Solo)
Hypothermia - Vocals (lead), Piano, Lyrics (Coldnight, Zenith Maudlin, ex-Lament)[/more]

[more=Technical info]
Input File: 02 - Ashes of Hopes and Dreams.mp3
Channels : 2
Sample Rate : 44100
Precision : 16-bit
Duration : 00:05:23.57 = 14269569 samples = 24268 CDDA sectors
File Size : 13.0M
Bit Rate : 321k
Sample Encoding: MPEG audio (layer I, II or III)
Comments :
Title=Ashes of Hopes and Dreams
Artist=Lifeless
Album=Anhedonia
Tracknumber=2
Year=2020
Genre=Ambient/Depressive Black Metal

[/more]

Register
(1) WOLAND,
Yesterday, 16:38:09 Serration - The Fortress Of Fear [demo] (2021)


*Artist: Serration
*Album: The Fortress Of Fear [demo]
*Year: 2021
*Genre: Death Metal
*Country: United States
*Format: flac
*Size: 53MB

Tracklist:
1. Divided by Hatred 03:50
2. The Fortress of Fear 03:20
******************************
Total playing time: 7:10



[more=Extended info]Line - up:

Juan Pablo - Drums (Extremely Rotten, Hatred Unleashed, Sar Isatum, ex-Dead Flesh, ex-Nakhiel, ex-Vomit God, ex-Xaphan, ex-Secrets She Kept, ex-Asylumeic Splatterfest)
Tony Sepulveda - Vocals (Arcade Killer, ex-Slaughtered Abomination)
Zack Plunkett - Vocals (backing), Guitars, Bass (Abated Mass of Flesh, Attest, Cadaverous Contingency, Cryptic Rising, Flayed Alive, I Destroy I, Numbered with the Transgressors, Phlegmlord, Propitious Vegetation, ex-Widow and the Son, Formergraces, ex-Christageddon, ex-Double-Barrel Vasectomy, ex-Dysfunctional Rotout, ex-Willow Mount, ex-Parallax Withering)[/more]

Register
(1) Olethros,
May 16 2021, 18:10:06 Abolizion - Névtelen [ep] (2021)


*Artist: Abolizion
*Album: Névtelen [ep]
*Year: 2021
*Genre: Death Metal
*Country: Hungary
*Format: flac
*Size: 45MB

Tracklist:
1. Katalepszia 02:02
2. Utolsó Szívdobbanás 02:40
3. Magány 02:00
******************************
Total playing time: 6:42



Register
(2) Olethros, wanderer73,
May 16 2021, 17:59:21 Oblivion Throne - Infernal Savage Demo 2021 [demo] (2021)


*Artist: Oblivion Throne
*Album: Infernal Savage Demo 2021 [demo]
*Year: 2021
*Genre: Speed/Thrash Metal
*Country: United States
*Format: flac
*Size: 141MB

Tracklist:
1. Death By Misadventure 04:02
2. Infernal Savage 03:05
3. Hell Breaks Loose 04:17
4. Frightstryke 03:42
5. Into the Crypts of Rays (Celtic Frost cover) 03:40
******************************
Total playing time: 18:46



[more=Extended info]Line - up:

Anubis - Drums, Vocals
A.C. Savage - Vocals (lead), Guitars[/more]

Register
(3) Marek, Olethros, wgs73,
May 16 2021, 17:50:21 Tom Gekas - Deliverance (2021)


*Artist: Tom Gekas
*Album: Deliverance
*Year: 2021
*Genre: Black/Death Metal
*Country: Germany
*Format: mp3@CBR320kbps
*Size: 122MB

Tracklist:
1. Self-Genocide 03:17
2. God Forsaken 05:27
3. The Descent 03:55
4. God Will Not Help 05:17
5. Hurt & Confused 03:45
6. Into The Abyss 01:19 instrumental
7. Obscura 05:14
8. Full Circle 04:29
9. Benevolance Broken 07:06
10. The Recoiled Hate 04:48
11. The Opening 02:49
12. Farewell 04:59
******************************
Total playing time: 52:25



[more=Technical info]
Input File: 04. God Will Not Help.mp3
Channels : 2
Sample Rate : 44100
Precision : 16-bit
Duration : 00:05:17.54 = 14003470 samples = 23815.4 CDDA sectors
File Size : 12.7M
Bit Rate : 321k
Sample Encoding: MPEG audio (layer I, II or III)
Comments :
Title=God Will Not Help
Artist=Tom Gekas
Album=Deliverance
Tracknumber=4
Year=2021
Genre=Black/Death Metal

[/more]

Register
(8) AlexSmith, caro, Marek, metala, Olethros, tim47, VALERY, wanderer73,
May 16 2021, 16:59:14 Inner Axis - Steelbladed Avenger [single] (2021)


*Artist: Inner Axis
*Album: Steelbladed Avenger [single]
*Year: 2021
*Genre: Heavy Metal
*Country: Germany
*Format: mp3@CBR320kbps
*Size: 20MB

Tracklist:
1. Steelbladed Avenger 04:10
2. Steelbladed Avenger (Instrumental) 04:11
******************************
Total playing time: 8:21



[more=Extended info]Line - up:

Thies Jacobsen - Drums (ex-Midgard)
Zacharias Drosos - Guitars (lead) (ex-Midgard)
Kai Hagemann - Vocals
Nino Helfrich - Guitars (Iron Angel, Neopera, Nino Helfrich, ex-Entera)[/more]

[more=Technical info]
Input File: 02 - Steelbladed Avenger (Instrumental).mp3
Channels : 2
Sample Rate : 44100
Precision : 16-bit
Duration : 00:04:11.00 = 11069100 samples = 18825 CDDA sectors
File Size : 10.1M
Bit Rate : 322k
Sample Encoding: MPEG audio (layer I, II or III)
Comments :
Title=Steelbladed Avenger (Instrumental)
Artist=Inner Axis
Album=Steelbladed Avenger (Single)
Tracknumber=2
Year=2021-05-14
Genre=137

[/more]

Register
(5) caro, Marek, Olethros, SAPOGi, stumpheavyrock,
May 16 2021, 16:32:17 Teatro Del Mal - Apocalipsis [ep] (2021)


*Artist: Teatro Del Mal
*Album: Apocalipsis [ep]
*Year: 2021
*Genre: Death Metal
*Country: Mexico
*Format: mp3@CBR320kbps
*Size: 66MB

Tracklist:
1. Peste 02:55
2. Hambre 05:39
3. Abren Fuego 02:26
4. Asesinos en Masa 03:48
5. Guerra 03:47
6. Muerte 05:27
7. Pozoléalos (Japonés) 03:19
******************************
Total playing time: 27:21



[more=Technical info]
Input File: 02. Hambre.mp3
Channels : 2
Sample Rate : 44100
Precision : 16-bit
Duration : 00:05:39.59 = 14975787 samples = 25469 CDDA sectors
File Size : 13.6M
Bit Rate : 320k
Sample Encoding: MPEG audio (layer I, II or III)
Comments :
Title=Hambre
Artist=Teatro del Mal
Album=Apocalipsis (EP)
Tracknumber=2
Year=2021
Genre=22

[/more]

Register
(3) Olethros, VALERY, wanderer73,
May 15 2021, 16:25:15 Guthmensch - Beneath The Light [ep] (2021)


*Artist: Guthmensch
*Album: Beneath The Light [ep]
*Year: 2021
*Genre: Black Metal
*Country: Germany
*Format: mp3@CBR320kbps
*Size: 34MB

Tracklist:
1. Reaper of Despair 03:34
2. The 45th Shame 03:20
3. Manifest Destiny 04:30
4. The Lesser of Two Evils 02:54
******************************
Total playing time: 14:18



[more=Extended info]Line - up:

Lewis C. Fur - Drums, Guitars
Tim Rule - Vocals (Carnivore Crusher, Castigator, Forward to Eden, Through Chaos & Solitude)[/more]

[more=Technical info]
Input File: 03. Manifest Destiny.mp3
Channels : 2
Sample Rate : 44100
Precision : 16-bit
Duration : 00:04:30.75 = 11940119 samples = 20306.3 CDDA sectors
File Size : 10.8M
Bit Rate : 320k
Sample Encoding: MPEG audio (layer I, II or III)
Comments :
Title=Manifest Destiny
Artist=Guthmensch
Album=Beneath The Light (EP)
Tracknumber=3
Year=2021
Genre=138

[/more]

Register
(9) caro, kim666, Marek, Olethros, satanist666, Taakeferd, VALERY, varlam4, vasiljev_sergej,
May 15 2021, 15:54:02 High Reeper & Hippie Death Cult - Doom Sessions Vol. 5 [split] (2021)


*Artist: High Reeper & Hippie Death Cult
*Album: Doom Sessions Vol. 5 [split]
*Year: 2021
*Genre: Doom Metal/Hard Rock | Stoner/Doom Metal/Rock
*Country: United States | United States
*Format: mp3@CBR320kbps
*Size: 78MB

Tracklist:
High Reeper:
1. Vermillion Iron 04:45
2. Winter King/Devil's Grip 04:28
3. Withering Decay 06:38
Hippie Death Cult:
4. Fill the Fires 08:43
5. Towards Infinity 07:51
******************************
Total playing time: 32:25



[more=Technical info]
Input File: 05 Towards Infinity.mp3
Channels : 2
Sample Rate : 44100
Precision : 16-bit
Duration : 00:07:51.93 = 20812157 samples = 35394.8 CDDA sectors
File Size : 18.9M
Bit Rate : 320k
Sample Encoding: MPEG audio (layer I, II or III)
Comments :
Title=Towards Infinity
Artist=Hippie Death Cult
Album=Doom Sessions, Vol. 5 (Split)
Tracknumber=5
Year=2021-21-20
Genre=Stoner/Doom Metal/Rock

[/more]

Register
(5) caro, kauyumari, stumpheavyrock, VALERY, Wail,
May 15 2021, 15:32:26 Orbyssmal - Execration (2021)


*Artist: Orbyssmal
*Album: Execration
*Year: 2021
*Genre: Experimental Black/Death Metal
*Country: Australia
*Format: mp3@CBR320kbps
*Size: 61MB

Tracklist:
1. Segment 01:29
2. Erasore 02:59
3. 0hmlecure 03:15
4. Paralysaer 03:19
5. Theomboais 02:32
6. Aeonmin 02:01
7. Swel 03:37
8. Ecchelhedrion 03:42
9. Enraptuured 02:52
******************************
Total playing time: 25:46



[more=Extended info]Line - up:
Orbyssmal - All instruments, Vocals

Guest/Session:
Trevor Strnad - Vocals (Track 8) (The Black Dahlia Murder)[/more]

[more=Technical info]
Input File: 06. Aeonmin.mp3
Channels : 2
Sample Rate : 44100
Precision : 16-bit
Duration : 00:02:01.32 = 5350300 samples = 9099.15 CDDA sectors
File Size : 4.92M
Bit Rate : 324k
Sample Encoding: MPEG audio (layer I, II or III)
Comments :
Title=Aeonmin
Artist=Orbyssmal
Album=Execration
Tracknumber=6
Year=2021
Genre=Experimental Black/Death Metal

[/more]

Register
(8) kimkayoung, metala, Occultas, Olethros, Sanctus, VALERY, varlam4, vasiljev_sergej,
May 15 2021, 14:21:14 Avtotheism - Second Sun Constellation [single] (2021)


*Artist: Avtotheism
*Album: Second Sun Constellation [single]
*Year: 2021
*Genre: Brutal Death Metal
*Country: Italy
*Format: flac
*Size: 38MB

Tracklist:
1. Second Sun Constellation
******************************
Total playing time: 5:47



[more=Extended info]Line - up:

L - Bass
N - Drums (Cerebral Extinction, Nehet, ex-Blessed Dead, Atomic Factory, ex-Blaskhyrt, ex-Riexhumation)
R - Guitars
P - Vocals (Undead Medical Division, Gospel of Wolves (live), Lost Kadath, ex-(Echo), ex-Cerebral Extinction, ex-Deathscythe, ex-Akathisia)[/more]

Register
(1) Olethros,
May 14 2021, 19:40:37 Acolyte - Entropy (2021)


*Artist: Acolyte
*Album: Entropy
*Year: 2021
*Genre: Progressive Metal
*Country: Australia
*Format: mp3@CBR320kbps
*Size: 133MB

Tracklist:
1. Prelude 01:11
2. Entropy 09:40
3. Resentment 04:28
4. Clarity 10:43
5. Resilience 02:48
6. Idiosyncrasy 11:14
7. Solitude 02:07
8. Recovery 05:06
9. Acceptance 09:31
******************************
Total playing time: 56:48



[more=Extended info]Melbourne quintet Acolyte stand tall in the Australian music scene as a powerful and exploratory presence of modern progressive music.

Painting a vibrant musical landscape of theatrical melodies, crushing riffs, soaring leads and exemplary technical musicianship, the ascension of Acolyte is inevitable.

Hailing from Melbourne, Acolyte stands tall in the Australian music scene as a powerful and exploratory blend of classical and modern progressive rock.

Painting a vibrant musical landscape of theatrical melodies, crushing riffs, soaring leads and exemplary technical musicianship, Acolyte’s extensive achievements are somewhat surprising for a band so early in their career.

The band are now poised for success in 2021 with a stunning sophomore offering, brought to life by award-winning producers Prasheen Naran and Forester Savell (Karnivool, Dead Letter Circus) at Melbourne’s Sing Sing Recording Studios.

‘Entropy’ is a confrontationally dark, raw, emotional, conceptual body of work, containing career defining performances from all members that is both crushingly cinematic and timeless in character.

Recorded at Sing Sing Recording Studios and Oaklands Recording Studios in Melbourne, Australia
All drum tracking engineered by Luke Cincotta
Tracks 1 & 2 Produced and Engineered by Luke Cincotta
Engineering assistant on tracks 1 & 2 by Callum McNab
Tracks 3-9 Produced and Engineered by Prasheen Naran
Mixed and Mastered by Forrester Savell


Guest vocals on Clarity by Ben Rechter
Double Bass on tracks 4 & 6 by Oscar Neyland
Oboe on track 5 by Edward Wang
Clarinet on tracks 5 & 6 by Greg Sher
Flute on tracks 5, 6 & 8 by Erica Tucceri
Additional percussion on track 6 by Jonty Cameron & Max Cameron
Guitars on album performed by Ben Cameron[/more]

[more=Technical info]
Input File: 05. Resilience.mp3
Channels : 2
Sample Rate : 44100
Precision : 16-bit
Duration : 00:02:48.97 = 7451665 samples = 12672.9 CDDA sectors
File Size : 6.77M
Bit Rate : 321k
Sample Encoding: MPEG audio (layer I, II or III)
Comments :
Title=Resilience
Artist=Acolyte
Album=Entropy
Tracknumber=5
Year=2021
Genre=Progressive Metal| Metal

[/more]

Register
(13) ace73pq, after21allD, aviacademy, BlackTroll, chipsgott, Forest, gwynnbleid, Marek, metala, Olethros, Rover, varlam4, Yarri,
May 14 2021, 19:28:47 Otargos - 20 Years Of Human Termination [live] (2021)


*Artist: Otargos
*Album: 20 Years Of Human Termination [live]
*Year: 2021
*Genre: Black Metal
*Country: France
*Format: mp3@CBR320kbps
*Size: 109MB

Tracklist:
1. Introduction 01:01
2. Dominatrix 03:55
3. Apex Terror 03:38
4. Kinetic Zero 04:59
5. The Ruinous Powers 04:11
6. Origin 04:13
7. Fleshless Deathless 05:52
8. Infernal Legions Strike A.E. 05:41
9. Human Terminate 02:46
10. Xeno Kaos 03:26
11. Remnants of a Long Dead Star 06:15
******************************
Total playing time: 45:57



[more=Extended info]Line - up:

Ulrich "Dagoth" Wegrich - Vocals, Guitars (Blóð, Sagitarius Alpha, Volker, ex-Regarde les Hommes Tomber, ex-Sworn)
M. Pliszke - Bass (ex-Sunken, ex-Demented, Dreamland 51, Volker)
John A. - Drums (Lifestream, ex-Bolvangar, ex-Demented, Volker)
Hindrik Horvard A.S. - Guitars (ex-NightCreepers, ex-Cave Growl)[/more]

[more=Technical info]
Input File: 03. Apex Terror.mp3
Channels : 2
Sample Rate : 44100
Precision : 16-bit
Duration : 00:03:38.32 = 9627912 samples = 16374 CDDA sectors
File Size : 8.83M
Bit Rate : 323k
Sample Encoding: MPEG audio (layer I, II or III)
Comments :
Title=Apex Terror
Artist=Otargos
Album=20 Years of Human Termination [Live]
Tracknumber=3
Year=2021
Genre=138

[/more]

Register
(8) Constantinus I, Olethros, Reverend, supremo, Taakeferd, VALERY, varlam4, vasiljev_sergej,
May 14 2021, 18:39:15 Internal Organs External - Apocalyptic Domination [ep] (2021)


*Artist: Internal Organs External
*Album: Apocalyptic Domination [ep]
*Year: 2021
*Genre: Slam/Brutal Death Metal/Deathcore
*Country: United States
*Format: mp3@CBR320kbps
*Size: 40MB

Tracklist:
1. Grotesque Monstrosity
2. Cannibalistic Tendencies
3. Feeding Off the Weak
4. S.S.M [Slam Saved Me]
5. The Beast Within
******************************
Total playing time: 16:45



[more=Extended info]Line - up:
Vince Otero - All instruments, Vocals

Guest/Session:
Jack Christensen - Vocals (track 4) (Kraanium, Septic Congestion, ex-Decay of Existence, ex-Brutal Mutilation)
Larry Wang - Vocals (track 5) (Coprocephalic, acelift Deformation, Fatuous Rump, Gorepot, Guttural Corpora Cavernosa, Lesbian Tribbing Squirt, Maggot Colony, Perverse Imagery, Tracriomy, Umbilical Asphyxia, Virginity Fraud, ex-Beyond Cure, ex-Flesh Juicer, ex-Lethality (live))[/more]

[more=Technical info]
Input File: 04. S.S.M.mp3
Channels : 2
Sample Rate : 44100
Precision : 16-bit
Duration : 00:03:07.02 = 8247758 samples = 14026.8 CDDA sectors
File Size : 7.48M
Bit Rate : 320k
Sample Encoding: MPEG audio (layer I, II or III)
Comments :
Title=S.S.M
Artist=Internal Organs External
Album=Apocalyptic Domination (EP)
Tracknumber=4
Year=2021
Genre=Slam/Brutal Death Metal/Deathcore

[/more]

Register
(9) caro, cesar, chipsgott, June, Lukittaz, Olethros, satanist666, sludge666, Taakeferd,
May 14 2021, 17:54:13 Flayed God - Symbols Of Hatred (2021)


*Artist: Flayed God
*Album: Symbols Of Hatred
*Year: 2021
*Genre: Black Metal
*Country: United States
*Format: mp3@CBR320kbps
*Size: 135MB

Tracklist:
1. It Stops Today 04:35
2. The Misery And Pain 02:55
3. Vow 04:23
4. Feigned Suffering 02:39
5. Another Chain 03:24
6. Immortal Soul 03:01
7. Save Yourself Another Prayer 02:54
8. You Mean Nothing 03:13
9. Another Lovesick Lie 03:56
10. Dishonoring Me 03:20
11. Fallen To Your Archetype 03:31
12. Forget About Me (I Give Up) 02:59
13. A Twisted Fate 05:12
14. Traitor 04:03
15. They Want The Fire To Stop 02:49
16. No Witnesses 03:16
******************************
Total playing time: 56:10



[more=Technical info]
Input File: 14. Traitor.mp3
Channels : 2
Sample Rate : 44100
Precision : 16-bit
Duration : 00:04:03.03 = 10717755 samples = 18227.5 CDDA sectors
File Size : 9.72M
Bit Rate : 320k
Sample Encoding: MPEG audio (layer I, II or III)
Comments :
Title=Traitor
Artist=Flayed God
Album=Symbols of Hatred
Tracknumber=14
Year=2021
Genre=138

[/more]

Register
(16) AlexSmith, atavist, caro, kim666, kimkayoung, Olethros, Reverend, robertho777, Rover, sagratan, satanist666, SilentNidhogg, Taakeferd, VALERY, varlam4, vasiljev_sergej,
May 14 2021, 16:18:14 Throat - Smile Less (2021)


*Artist: Throat
*Album: Smile Less
*Year: 2021
*Genre: Sludge/Noise Rock
*Country: Finland
*Format: mp3@CBR320kbps
*Size: 91MB

Tracklist:
1. Conveyer Line 06:50
2. Grounding 05:31
3. Shots 02:53
4. Deadpan 04:42
5. Home Is Where Your Hurt Is 08:19
6. Vanilla Cuts 03:42
7. Hospice 05:59
******************************
Total playing time: 37:56



[more=Extended info]Line - up:

Aleksis Juhakoski - Guitars (ex-Harvest Bell)
Jukka Mattila - Guitars, Vocals (ex-Stumm, ex-A.M., Anon Plus)
Lauri Leppänen - Bass
A Kinnunen - Drums[/more]

[more=Technical info]
Input File: 07 - Hospice.mp3
Channels : 2
Sample Rate : 44100
Precision : 16-bit
Duration : 00:05:59.00 = 15831900 samples = 26925 CDDA sectors
File Size : 14.4M
Bit Rate : 320k
Sample Encoding: MPEG audio (layer I, II or III)
Comments :
Title=Hospice
Artist=Throat
Album=Smile Less
Tracknumber=7
Year=2021-14-05
Genre=Sludge Metal/Noise Rock

[/more]

Register
(2) gena, Olethros,
May 14 2021, 15:49:23 The Ember, The Ash - Fixation (2021)


*Artist: The Ember, The Ash
*Album: Fixation
*Year: 2021
*Genre: Symphonic Deathcore
*Country: Canada
*Format: mp3@CBR320kbps
*Size: 88MB

Tracklist:
1. Strychnine 02:30
2. Fixation 03:57
3. Becoming the Eidolon 04:38
4. The Colossal Void 06:11
5. Celestial Fracture (The Tempest) 03:31
6. A Growing Emptiness 06:13
7. Consciousness Torn from the Void 09:53
******************************
Total playing time: 36:53



[more=Technical info]
Input File: 07 - Consciousness Torn from the Void.mp3
Channels : 2
Sample Rate : 44100
Precision : 16-bit
Duration : 00:09:53.00 = 26151300 samples = 44475 CDDA sectors
File Size : 23.8M
Bit Rate : 322k
Sample Encoding: MPEG audio (layer I, II or III)
Comments :
Title=Consciousness Torn from the Void
Artist=The Ember, The Ash
Album=Fixation
Tracknumber=7
Year=2021-14-05
Genre=Symphonic Deathcore

[/more]

Register
(8) chipsgott, DenisKov, kimkayoung, Lukittaz, Olethros, Shadechaser, Taakeferd, zhol,
May 13 2021, 18:30:35 The Monolith Deathcult - V3 - Vernedering: Connect The Goddamn Dots (2021)


*Artist: The Monolith Deathcult
*Album: V3 - Vernedering: Connect The Goddamn Dots
*Year: 2021
*Genre: Atmospheric Death Metal/Electronic
*Country: Netherlands
*Format: mp3@CBR320kbps
*Size: 128MB

Tracklist:
1. Connect the Goddamn Dots
2. Gone Sour, Doomed
3. Vernedering
4. L’ouverture de Morose
5. The White Silence
6. Feet of Jeremiah
7. They Drew First Blood
8. Blood Libels
******************************
Total playing time: 53:15



[more=Extended info]Line - up:
Michiel Dekker - Guitars, Vocals (additional) (Witchcult 71, ex-Beyond Belief, ex-Eternal Conspiracy, ex-Monolith, ex-Dead Head, ex-Temple)
Carsten Altena - Keyboards, Guitars (lead) (Itself, Remember That You Will Die, ex-Izegrim)
Robin Kok - Vocals, Bass (Witchcult 71, ex-Exposing Innards, ex-Slayne, ex-Monolith, ex-VATT)

Guest/Session:
Frank Schilperoort - Drums (Shining, The Scarlet Claw, Dictated (live), Soulemission (live), ex-Devious, ex-Irmin, ex-Altar, ex-Grand Supreme Blood Court, ex-Diabolical (live), ex-Funerus (live), ex-Incantation (live), ex-Rockzooi Karaokeband)

[youtube]h1Ml_2aHm-4[/youtube]
[youtube]-Ga6c6UmQWg[/youtube]
[youtube]8LL3aRJBMOo[/youtube]
[youtube]v4oQ8Qy5DDo[/youtube][/more]

[more=Technical info]
Input File: 05. Blood Libels.mp3
Channels : 2
Sample Rate : 44100
Precision : 16-bit
Duration : 00:04:36.00 = 12171600 samples = 20700 CDDA sectors
File Size : 11.2M
Bit Rate : 323k
Sample Encoding: MPEG audio (layer I, II or III)
Comments :
Title=Blood Libels
Artist=The Monolith Deathcult
Album=V3 - Vernedering: Connect the Goddamn Dots
Tracknumber=5
Year=2021
Genre=Atmospheric Death Metal with Electronic influences

[/more]

Register
(25) andreikun, Buregon, Chasm, eternald, Geisteswaffe, gwar, jollo, judaz, kimkayoung, LEGION69, Lukittaz, Metalass, nemx, Old Vyaine, Olethros, Ostinato, ripper33, SaintVitus, Shadechaser, Taakeferd, TeamatSE, VALERY, wtk.412, yuratroll, zyklon,
May 13 2021, 17:44:35 Wintercorpse - Exorbitant Gloom​.​.​. (2021)


*Artist: Wintercorpse
*Album: Exorbitant Gloom​.​.​.
*Year: 2021
*Genre: Black Metal
*Country: Australia
*Format: mp3@CBR320kbps
*Size: 123MB

Tracklist:
1. Traurigkeit 06:59
2. Azalea 05:56 instrumental
3. Saudade 06:13 instrumental
4. Lilith Spawn 08:31 instrumental
5. Exorbitant Gloom... 09:35 instrumental
6. Black Widowed 07:51 instrumental
7. Naturmystikk (Ulver cover) 04:50 instrumental
******************************
Total playing time: 49:55



[more=Technical info]
Input File: 06. Black Widowed (instrumental).mp3
Channels : 2
Sample Rate : 44100
Precision : 16-bit
Duration : 00:07:51.83 = 20807527 samples = 35387 CDDA sectors
File Size : 18.9M
Bit Rate : 320k
Sample Encoding: MPEG audio (layer I, II or III)
Comments :
Title=Black Widowed (instrumental)
Artist=Wintercorpse
Album=Exorbitant Gloom...
Tracknumber=6
Year=2021
Genre=138

[/more]

Register
(14) AlexSmith, Constantinus I, kim666, kimkayoung, Marek, Olethros, Rover, sacrut, SilentNidhogg, Taakeferd, undeadlich, VALERY, varlam4, vasiljev_sergej,
May 13 2021, 17:37:06 Vile Impalement - Rivers Of Nihil [ep] (2021)


*Artist: Vile Impalement
*Album: Rivers Of Nihil [ep]
*Year: 2021
*Genre: Death Metal
*Country: India
*Format: mp3@CBR320kbps
*Size: 33MB

Tracklist:
1. Cycles of Suffering 02:10
2. Incision Torture 04:52
3. Cremated Remains 03:12
4. Reek of the rotten 04:23
******************************
Total playing time: 14:37



[more=Extended info]FLAC RIP

Line - up:

Gajinder Singh - Bass
Biswajit Borah - Drums
Nishant Saxena - Guitars
Rajat Kaushal - Guitars
Sagar Anand - Vocals[/more]

[more=Technical info]
Input File: 01. Cycles Of Suffering.mp3
Channels : 2
Sample Rate : 44100
Precision : 16-bit
Duration : 00:02:10.31 = 5746627 samples = 9773.18 CDDA sectors
File Size : 5.26M
Bit Rate : 323k
Sample Encoding: MPEG audio (layer I, II or III)
Comments :
Title=Cycles Of Suffering
Artist=Vile Impalement
Album=Rivers of Nihil (EP)
Tracknumber=1
Year=2021
Genre=22

[/more]

Register
(6) cesar, chipsgott, Olethros, Taakeferd, VALERY, wanderer73,
May 13 2021, 17:31:18 Inmundus - Vae Victis (2021)


*Artist: Inmundus
*Album: Vae Victis
*Year: 2021
*Genre: Progressive Metal
*Country: Sweden
*Format: mp3@CBR320kbps
*Size: 122MB

Tracklist:
1. No Sanctuary 04:45
2. Black Arrival 05:10
3. Vestige Remains 05:28
4. Ready to Ride 04:06
5. Oathkeeper 05:09
6. Heimferd 05:14
7. Watchtower West 05:45
8. Outcast 04:22
9. Apophis 07:06
10. Frozen 05:25
******************************
Total playing time: 52:30



[more=Technical info]
Input File: 03. Vestige Remains.mp3
Channels : 2
Sample Rate : 44100
Precision : 16-bit
Duration : 00:05:28.49 = 14486189 samples = 24636.4 CDDA sectors
File Size : 13.2M
Bit Rate : 322k
Sample Encoding: MPEG audio (layer I, II or III)
Comments :
Title=Vestige Remains
Artist=Inmundus
Album=Vae Victis
Tracknumber=3
Year=2021
Genre=Progressive Metal

[/more]

Register
(14) after21allD, aviacademy, caro, chipsgott, eyes0re, HMHamster, Lukittaz, Marek, metala, Olethros, postal67, Rover, stumpheavyrock, Луч,
May 12 2021, 16:19:34 Today Needed
у кого есть регистрация на usenet.nl? Очень надо скачать файл этот
(1) Veggr,
May 11 2021, 18:07:55 Gonemage - Mystical Extraction (2021)


*Artist: Gonemage
*Album: Mystical Extraction
*Year: 2021
*Genre: Experimental/Post-Black Metal/Chiptune
*Country: United States
*Format: mp3@CBR320kbps
*Size: 65MB

Tracklist:
1. The Gullying and the Purple Hoax 04:48
2. Chained Castle 03:46
3. Dust Merchant 05:29
4. Dream Moat 03:06
5. Uncast 03:38
6. Ipinta 06:30
******************************
Total playing time: 27:17



[more=Extended info]Solo project of Garry Brents from Cara Neir. The lyrics act as an off-shoot from the band's album, Phase Out.[/more]

[more=Technical info]
Input File: 05. Uncast.mp3
Channels : 2
Sample Rate : 44100
Precision : 16-bit
Duration : 00:03:38.11 = 9618695 samples = 16358.3 CDDA sectors
File Size : 8.73M
Bit Rate : 320k
Sample Encoding: MPEG audio (layer I, II or III)
Comments :
Title=Uncast
Artist=Gonemage
Album=Mystical Extraction
Tracknumber=5
Year=2021
Genre=Experimental/Post-Black Metal/Chiptune

[/more]

Register
(10) AlexSmith, caro, infiltrator, kimkayoung, metala, Olethros, Taakeferd, varlam4, vasiljev_sergej, yuratroll,

150 Pages V   1 2 3 > » 
- Lo-Fi Version Support form
Copyrights and abuse reports form
Time is now: 18th May 2021 - 02:21:12