Welcome Guest ( Log In | Register )

История благодарностей участнику Necrokilldozer ::: Спасибо сказали: 41736 раз(а)
Дата поста: В теме: За сообщение: Спасибо сказали:
Yesterday, 08:46:44 Swallow The Sun - 20 Years Of Gloom, Beauty And Despair: Live In Helsinki [live] (2021)


*Artist: Swallow The Sun
*Album: 20 Years Of Gloom, Beauty And Despair: Live In Helsinki [live]
*Year: 2021
*Genre: Melodic Doom/Death Metal
*Country: Finland
*Format: mp3@CBR320kbps
*Size: 279MB

Tracklist:
Disc 1:
1. The Womb of Winter
2. The Heart of a Cold White Land
3. Away
4. Pray for the Winds to Come
5. Songs from the North
6. 66°50'N, 28°40'E
7. Autumn Fire
8. Before the Summer Dies

Disc 2:
9. Lost and Catatonic
10. Empires of Loneliness
11. Falling World
12. Cathedral Walls
13. Plague of Butterflies
14. Don't Fall Asleep (Horror Pt. II)
15. Stone Wings
16. The Giant
17. Swallow (Horror Pt. I)
18. Here on the Black Earth
******************************
Total playing time: 1:58:30

iTunes

[more=Extended info]Recorded live on February 26th, 2020 at Tavastia Club, Helsinki on their 20th anniversary tour. The first eight tracks are an acoustic set featuring the entire second disc of the Songs from the North album. The other songs were selected via a fan poll on social media asking for their favourite tracks from the remaining albums in their catalogue.[/more]

[more=Technical info]
Input File: 04. Cathedral Walls.mp3
Channels : 2
Sample Rate : 44100
Precision : 16-bit
Duration : 00:07:22.70 = 19522982 samples = 33202.4 CDDA sectors
File Size : 17.7M
Bit Rate : 320k
Sample Encoding: MPEG audio (layer I, II or III)
Comments :
Title=Cathedral Walls
Artist=Swallow The Sun
Album=20 Years of Gloom, Beauty and Despair - Live in Helsinki (Live)
Tracknumber=4
Year=2021
Genre=Melodic Doom/Death Metal
Discnumber=2

[/more]

Register
(4) caro, ENDSMOUTH, Taakeferd, yuratroll,
Yesterday, 07:06:56 Sennight - New Takes The Old (2021)


*Artist: Sennight
*Album: New Takes The Old
*Year: 2021
*Genre: Progressive Metal/Rock
*Country: United States
*Format: mp3@CBR320kbps
*Size: 89MB

Tracklist:
1. Perfect Symmetry
2. New Takes the Old
3. Tearing Free
4. When Daylight Dies
5. Golden Crown
6. Who Am I
7. Arise
8. I Am
9. Misbegotten
10. Go
******************************
Total playing time: 37:05



[more=Technical info]
Input File: 10 - Go.mp3
Channels : 2
Sample Rate : 44100
Precision : 16-bit
Duration : 00:03:30.00 = 9261000 samples = 15750 CDDA sectors
File Size : 8.43M
Bit Rate : 321k
Sample Encoding: MPEG audio (layer I, II or III)
Comments :
Title=Go
Artist=Sennight
Album=New Takes The Old
Tracknumber=10
Year=2021
Genre=Progressive Metal/Rock

[/more]

Register
(2) caro, metala,
Jul 28 2021, 19:40:32 Lantlôs - Wildhund (2021)


*Artist: Lantlôs
*Album: Wildhund
*Year: 2021
*Genre: Post-Metal/Rock/Shoegaze
*Country: Germany
*Format: mp3@CBR320kbps
*Size: 123MB

Tracklist:
1. Lake Fantasy 04:13
2. Magnolia 03:42
3. Cocoon Tree House 04:47
4. Home 04:25
5. Vertigo 03:43
6. The Bubble 04:19
7. Amber 04:16
8. Cloud Inhaler 02:27 instrumental
9. Planetarium 05:31
10. Dream Machine 05:38
11. Dog in the Wild 05:16
12. Lich 03:04
******************************
Total playing time: 51:21



[more=Technical info]
Input File: 04. Home.mp3
Channels : 2
Sample Rate : 44100
Precision : 16-bit
Duration : 00:04:25.60 = 11713136 samples = 19920.3 CDDA sectors
File Size : 10.7M
Bit Rate : 323k
Sample Encoding: MPEG audio (layer I, II or III)
Comments :
Title=Home
Artist=Lantlôs
Album=Wildhund
Tracknumber=04
Year=2021
Genre=Post-Metal/Rock/Shoegaze

[/more]

Register
(10) Black Cat, caro, doomTemplar, gena, Leolomb, Olethros, Ostinato, smes, supremo, yuratroll,
Jul 28 2021, 18:32:07 Incantations Of Cadaver Mutilation - As Long As I Can Remember [ep] (2021)


*Artist: Incantations Of Cadaver Mutilation
*Album: As Long As I Can Remember [ep]
*Year: 2021
*Genre: Black Metal
*Country: United States
*Format: flac
*Size: 36MB

Tracklist:
1. What Made You Do It 01:39
2. Marked 00:55
3. Look What You Have Created 01:02
4. Why Touch Me like This 01:20
5. They Saw Us 00:56
6. Not Deep Enough 02:02
7. Where Did All My Blood Go 02:09
8. Haunting My Every Memory 02:13
******************************
Total playing time: 12:16



Register
(1) vasiljev_sergej,
Jul 28 2021, 18:23:39 Inverted Tomb - As Light Fades... (2021)


*Artist: Inverted Tomb
*Album: As Light Fades...
*Year: 2021
*Genre: Black Metal
*Country: Australia
*Format: mp3@CBR320kbps
*Size: 110MB

Tracklist:
1. Spectral Silence 06:12
2. Cold & Bleak 05:28
3. As Light Fades 08:19
4. Earth Rot 04:53
5. Binded in Chains 04:24
6. Shadowlands 06:32
7. Embrace the Infinite 04:22
8. Aeons 06:25
******************************
Total playing time: 46:35



[more=Extended info]flac rip[/more]

[more=Technical info]
Input File: 04. Earth Rot.mp3
Channels : 2
Sample Rate : 44100
Precision : 16-bit
Duration : 00:04:53.95 = 12963151 samples = 22046.2 CDDA sectors
File Size : 11.8M
Bit Rate : 321k
Sample Encoding: MPEG audio (layer I, II or III)
Comments :
Title=Earth Rot
Artist=Inverted Tomb
Album=As Light Fades...
Tracknumber=4
Year=2021
Genre=138

[/more]

Register
(7) AlexSmith, caro, kim666, Olethros, supremo, varlam4, vasiljev_sergej,
Jul 25 2021, 17:38:48 Acursian - Black Mass [ep] (2021)


*Artist: Acursian
*Album: Black Mass [ep]
*Year: 2021
*Genre: Melodic Black Metal
*Country: United States
*Format: flac
*Size: 95MB

Tracklist:
1. Grand Theatrical Sabbath 03:13
2. A Curse Wrought 04:23
******************************
Total playing time: 7:36



[more=Extended info]Line - up:

Sitheos - Drums (Vile Blood)
Anaxis - Guitars, Bass, Keyboards
Morbissus - Vocals (Vile Blood)[/more]

Register
(5) Marek, Olethros, sergsazan, vasiljev_sergej, zhol,
Jul 23 2021, 18:25:48 Blacnk - Scars Of Absolution ​/​scorched [ep] (2021)


*Artist: Blacnk
*Album: Scars Of Absolution ​/​scorched [ep]
*Year: 2021
*Genre: Black Metal
*Country: Australia
*Format: flac
*Size: 76MB

Tracklist:
1. Scars of Absolution 06:43
2. Scorched 03:50
******************************
Total playing time: 10:33



Register
(2) Olethros, vasiljev_sergej,
Jul 23 2021, 18:07:58 Skorbvstr - Akkurat Min Kopp Te [demo] (2021)


*Artist: Skorbvstr
*Album: Akkurat Min Kopp Te [demo]
*Year: 2021
*Genre: Raw Black Metal
*Country: United States
*Format: mp3@CBR320kbps
*Size: 71MB

Tracklist:
1. Null 06:06
2. Øre Godteri 06:53
3. Jeg er en Herre 01:04 instrumental
4. Svar På Spørsmålet 05:03
5. Projeksjon 05:29
6. Ekte Black Metal Er For Mainstream 05:06
******************************
Total playing time: 29:41



[more=Extended info]flac rip[/more]

[more=Technical info]
Input File: 05. projeksjon.mp3
Channels : 2
Sample Rate : 44100
Precision : 16-bit
Duration : 00:05:29.24 = 14519572 samples = 24693.1 CDDA sectors
File Size : 13.2M
Bit Rate : 320k
Sample Encoding: MPEG audio (layer I, II or III)
Comments :
Title=projeksjon
Artist=Skorbvstr
Album=Akkurat Min Kopp Te (Demo)
Tracknumber=5
Year=2021
Genre=Raw Black Metal

[/more]

Register
(9) caro, infiltrator, kim666, Olethros, SilentNidhogg, smysl, stub888, Taakeferd, vasiljev_sergej,
Jul 23 2021, 17:37:44 Death Device - Human Synthesize [ep] (2021)


*Artist: Death Device
*Album: Human Synthesize [ep]
*Year: 2021
*Genre: Synthwave
*Country: Germany
*Format: flac
*Size: 69MB

Tracklist:
1. Sudden Death (Synthwave Version) 02:53
2. 75 (Synthwave Version) 03:11
3. Consume (Synthwave Version) 02:11
4. Eternal Hate (Synthwave Version) 03:38
******************************
Total playing time: 11:53



[more=Extended info]This is an EP with synthwave versions of some songs from the band's first album Human Parasites and one new song also in its synthwave version.[/more]

Register
(4) Diflock, gwar, Olethros, Vitald,
Jul 23 2021, 16:41:05 Immunize - Do Unto Others [ep] (2021)


*Artist: Immunize
*Album: Do Unto Others [ep]
*Year: 2021
*Genre: Melodic Death Metal/Metalcore
*Country: Canada
*Format: mp3@CBR320kbps
*Size: 54MB

Tracklist:
1. Do unto Others
2. Eye for a Tooth
3. Inhumane Restraint
4. Shepherd to the Sheep
5. Primal Instinct
******************************
Total playing time: 22:43



[more=Extended info]Line - up:

Curtis Berg - Bass (ex-Skepsis)
Tyler Letourneau - Guitars (lead) (Quietus)
Jordan Paras - Guitars (rhythm)
Calvin Campbell - Vocals[/more]

[more=Technical info]
Input File: 03 - Inhumane Restraint.mp3
Channels : 2
Sample Rate : 44100
Precision : 16-bit
Duration : 00:05:00.51 = 13252315 samples = 22538 CDDA sectors
File Size : 12.0M
Bit Rate : 320k
Sample Encoding: MPEG audio (layer I, II or III)
Comments :
Title=Inhumane Restraint
Artist=Immunize
Album=Do Unto Others (EP)
Tracknumber=3
Year=2021
Genre=Melodic Death Metal/Metalcore

[/more]

Register
(8) caro, infiltrator, Marek, Olethros, sludge666, Taakeferd, VALERY, zhol,
Jul 23 2021, 16:13:15 Dream Theater - A Dramatic Tour Of Events – Select Board Mixes [live] (2021)


*Artist: Dream Theater
*Album: A Dramatic Tour Of Events – Select Board Mixes [live]
*Year: 2021
*Genre: Progressive Metal
*Country: United States
*Format: mp3@CBR320kbps
*Size: 289MB

Tracklist:
1. Under a Glass Moon
2. Forsaken
3. Peruvian Skies
4. Endless Sacrifice
5. Drum Solo
6. Ytse Jam
7. The Great Debate
8. Another Day
9. Through My Words/Fatal Tragedy
10. To Live Forever
11. The Count of Tuscany
12. Learning To Live
13. As I Am
******************************
Total playing time: 2:00:39

iTunes

[more=Extended info]Selection of tracks recorded during 2011/2012’s ‘A Dramatic Tour of Events’.

Line - up:

John Myung - Bass ( The Jelly Jam, ex-Majesty, ex-Platypus)
John Petrucci - Guitars, Vocals (additional) (John Petrucci, Liquid Tension Experiment, ex-Liquid Trio Experiment (live), ex-Majesty, ex-Nightmare Cinema, ex-G3 (live))
James LaBrie - Vocals (James LaBrie, ex-Mullmuzzler, True Symphonic Rockestra, ex-Frameshift, ex-Coney Hatch, ex-Nightmare Cinema, ex-Winter Rose)
Jordan Rudess - Keyboards (Jordan Rudess, Liquid Tension Experiment, Deep Purple (live), ex-Liquid Trio Experiment, Levin Minnemann Rudess, ex-Vinnie Moore, ex-Dixie Dregs, ex-Speedway Blvd.)
Mike Mangini - Drums (John Petrucci (live), ex-Mullmuzzler, ex-Annihilator, ex-James LaBrie, ex-Stygia, ex-Extreme, ex-Steve Vai)[/more]

[more=Technical info]
Input File: 10 - To Live Forever (Live in Huntington, NY 7_19_12).mp3
Channels : 2
Sample Rate : 44100
Precision : 16-bit
Duration : 00:06:08.00 = 16228800 samples = 27600 CDDA sectors
File Size : 14.7M
Bit Rate : 321k
Sample Encoding: MPEG audio (layer I, II or III)
Comments :
Title=To Live Forever (Live In Huntington, Ny 7/19/12)
Artist=Dream Theater
Album=A Dramatic Tour of Events – Select Board Mixes (Live)
Tracknumber=10
Year=2021
Genre=Progressive Metal

[/more]

Register
(16) ace73pq, after21allD, BERZERK, caro, Cartman223, Firestone, infiltrator, LEGION69, Marek, multizwilling, Olethros, Reverend, Rhoads, Rover, VALERY, yuratroll,
Jul 23 2021, 09:03:35 Sjenovik - Dissolution Of Innocence (2021)


*Artist: Sjenovik
*Album: Dissolution Of Innocence
*Year: 2021
*Genre: Industrial/Folk/Black Metal
*Country: United States
*Format: mp3@CBR320kbps
*Size: 86MB

Tracklist:
1. Light of Trepidation
2. Beyond This Destined Path
3. Sorrow's Timeless Construct
4. Unyielding Mercy
5. Innocence
6. Disciples to the Great Kingdom
7. Order and Archaic Rule
8. Untethered Fear
******************************
Total playing time: 35:49



[more=Extended info]Line - up:

Shane Ball - Drums, Electronics
James Johnson - Vocals, Guitars[/more]

[more=Technical info]
Input File: 07 - Order and Archaic Rule.mp3
Channels : 2
Sample Rate : 44100
Precision : 16-bit
Duration : 00:05:53.00 = 15567300 samples = 26475 CDDA sectors
File Size : 14.1M
Bit Rate : 320k
Sample Encoding: MPEG audio (layer I, II or III)
Comments :
Title=Order and Archaic Rule
Artist=Sjenovik
Album=Dissolution of Innocence
Tracknumber=7
Year=2021-23-07
Genre=Industrial/Folk/Black Metal

[/more]

Register
(18) AlexSmith, andivi, caro, Cartman223, gwar, infiltrator, infozahist, kim666, metala, Olethros, robertho777, supremo, Taakeferd, VALERY, Vitald, vlad74, yuratroll, дивин,
Jul 23 2021, 08:14:32 Ghorot - Loss Of Light (2021)


*Artist: Ghorot
*Album: Loss Of Light
*Year: 2021
*Genre: Blackened Doom Metal
*Country: United States
*Format: mp3@CBR320kbps
*Size: 97MB

Tracklist:
1. Harbinger 06:20
2. Charioteer of Fire 11:05
3. Woven Furnace 03:53
4. Dead Gods 06:54
5. In Endless Grief 12:26
******************************
Total playing time: 40:38



[more=Extended info]Line - up:

Carson Russell - Bass, Vocals
Brandon Walker - Drums, Vocals
Chad Remains - Guitar, Vocals (ex-Uzala, Nihil Jung, Old Cloud, Old Growth, Past Master, Raw Headless Tiger, ex-Pussygutt (live))[/more]

[more=Technical info]
Input File: 03. Woven Furnace.mp3
Channels : 2
Sample Rate : 44100
Precision : 16-bit
Duration : 00:03:53.08 = 10278828 samples = 17481 CDDA sectors
File Size : 9.42M
Bit Rate : 323k
Sample Encoding: MPEG audio (layer I, II or III)
Comments :
Title=Woven Furnace
Artist=Ghorot
Album=Loss of Light
Tracknumber=3
Year=2021
Genre=Blackened Doom Metal

[/more]

Register
(12) AlexSmith, caro, infiltrator, Olethros, Ostinato, robertho777, Sabbathian, sergsazan, supremo, Taakeferd, VALERY, vlad74,
Jul 23 2021, 07:54:29 Mama Doom - Ash Bone Skin N Stone (2021)


*Artist: Mama Doom
*Album: Ash Bone Skin N Stone
*Year: 2021
*Genre: Doom/Stoner Metal/Rock
*Country: United States
*Format: mp3@CBR320kbps
*Size: 63MB

Tracklist:
1. Batshit Crazy
2. Vodka
3. Blood Moon
4. Indigo
5. Oh, Lucifer
6. Werewolf
7. Slither
8. Cherry
******************************
Total playing time: 26:11



[more=Extended info]Line - up:

Smak - Drums, Vocals (ex-The Gentling, ex-Devil May Care)
Chuckie Rumbles - Guitars, Bass (ex-Abominatrix, ex-The Gentling, ex-Devil May Care, ex-Dissolve, ex-Implode)
D.Lolli - Vocals, Keyboards (ex-Abominatrix, ex-The Gentling, ex-Mouth of Disaster)[/more]

[more=Technical info]
Input File: 07 - Slither.mp3
Channels : 2
Sample Rate : 44100
Precision : 16-bit
Duration : 00:02:56.00 = 7761600 samples = 13200 CDDA sectors
File Size : 7.08M
Bit Rate : 322k
Sample Encoding: MPEG audio (layer I, II or III)
Comments :
Title=Slither
Artist=Mama Doom
Album=Ash Bone Skin N Stone
Tracknumber=7
Year=2021-23-07
Genre=Doom/Stoner Metal/Rock

[/more]

Register
(11) AHBAnep, BladeOvDarkness, caro, djsema4, HMHamster, infiltrator, Olethros, Ostinato, VALERY, vlad74, WX419,
Jul 22 2021, 18:34:15 The Old Black Dog - Eternal Fight [ep] (2021)


*Artist: The Old Black Dog
*Album: Eternal Fight [ep]
*Year: 2021
*Genre: Groove Metal
*Country: Australia
*Format: mp3@CBR320kbps
*Size: 30MB

Tracklist:
1. Pressure of the Storm 03:02
2. Sweet Valentine 03:21
3. Plague 02:36
4. Eternal Fight 03:37
******************************
Total playing time: 12:36



[more=Extended info]Line - up:

Bradley Frost - Drums
Dylan Leggett - Guitars (lead)
Ben Millard - Guitars (rhythm), Vocals
Cheryl Bass - Bass (Stitches, The Lazarus Theory, ex-Queen Akini)[/more]

[more=Technical info]
Input File: 02. Sweet Valentine.mp3
Channels : 2
Sample Rate : 44100
Precision : 16-bit
Duration : 00:03:21.68 = 8894044 samples = 15125.9 CDDA sectors
File Size : 8.07M
Bit Rate : 320k
Sample Encoding: MPEG audio (layer I, II or III)
Comments :
Title=Sweet Valentine
Artist=The Old Black Dog
Album=Eternal Fight (EP)
Tracknumber=2
Year=2021
Genre=Groove Metal

[/more]

Register
(4) caro, infiltrator, Olethros, stumpheavyrock,
Jul 22 2021, 18:27:19 Moist - Under The Influences [compilation] (2021)


*Artist: Moist
*Album: Under The Influences [compilation]
*Year: 2021
*Genre: Brutal Death Metal/Deathcore
*Country: United States
*Format: mp3@CBR320kbps
*Size: 49MB

Tracklist:
1. Liege of Inveracity (Suffocation) 04:29
2. Maze of Torment (Morbid Angel) 04:19
3. Overactive Imagination (Death) 03:32
4. Dead by Dawn (Deicide) 03:50
5. December Flower (In Flames) 04:15
******************************
Total playing time: 20:25



[more=Technical info]
Input File: 02. Maze of Torment (Morbid Angel).mp3
Channels : 2
Sample Rate : 44100
Precision : 16-bit
Duration : 00:04:19.73 = 11453917 samples = 19479.5 CDDA sectors
File Size : 10.4M
Bit Rate : 320k
Sample Encoding: MPEG audio (layer I, II or III)
Comments :
Title=Maze of Torment (Morbid Angel)
Artist=Moist
Album=Under the Influences (Compilation)
Tracknumber=2
Year=2021
Genre=Brutal Death Metal/Deathcore

[/more]

Register
(6) caro, infiltrator, Olethros, supremo, vyacheslav, WX419,
Jul 22 2021, 18:17:19 Visceral Call - Vile (2021)


*Artist: Visceral Call
*Album: Vile
*Year: 2021
*Genre: Raw/Atmospheric Black Metal
*Country: Canada
*Format: mp3@CBR320kbps
*Size: 143MB

Tracklist:
1. Degeneration 06:25
2. Fallen 06:47
3. Pierced Flesh Defiled 06:28
4. Festering Wound 05:03
5. Gutter Bile 05:38
6. Void 05:47
7. Drug 06:51
8. Grave 06:33
9. Filth 05:00
10. Rotten Core 05:48
******************************
Total playing time: 1:00:20



[more=Extended info]flac rip[/more]

[more=Technical info]
Input File: 02. Fallen.mp3
Channels : 2
Sample Rate : 44100
Precision : 16-bit
Duration : 00:06:47.54 = 17972294 samples = 30565.1 CDDA sectors
File Size : 16.4M
Bit Rate : 321k
Sample Encoding: MPEG audio (layer I, II or III)
Comments :
Title=Fallen
Artist=Visceral Call
Album=Vile
Tracknumber=2
Year=2021
Genre=Raw/Atmospheric Black Metal

[/more]

Register
(11) AlexSmith, caro, infiltrator, kim666, Olethros, robertho777, SilentNidhogg, stub888, supremo, VALERY, vasiljev_sergej,
Jul 22 2021, 17:47:52 Bangthyhead - When I Die [demo] (2021)


*Artist: Bangthyhead
*Album: When I Die [demo]
*Year: 2021
*Genre: Death 'n' Roll
*Country: United States
*Format: flac
*Size: 45MB

Tracklist:
1. When I Die 01:23
2. BangThyHeadRIP - WMDDDD 00:59
3. BangThyHeadRIP - In Therapy (Explicit) 00:57
4. TZ 03:08
******************************
Total playing time: 6:27



[more=Extended info]Line - up:

GeoFFry Von Vengyence - Bass
Marlot Von Mysterio - Drums
RiffnStein Von AxeWilder - Guitars
Viven Von Mort - Vocals[/more]

Register
(1) Olethros,
Jul 21 2021, 18:13:12 Ischemic Necrosis - Autolysis [ep] (2021)


*Artist: Ischemic Necrosis
*Album: Autolysis [ep]
*Year: 2021
*Genre: Grindcore/Goregrind
*Country: United States
*Format: flac
*Size: 71MB

Tracklist:
1. Autolytic Debridement 00:36
2. Organ Liquefaction 00:33
3. Pleural Effusion 00:44
4. Curdled Suppuration 00:38
5. Gangrenous Wounds 00:27
6. Hematemesis 00:32
7. Chronic Menorrhagia 00:30
8. Bowel Occlusion 00:29
9. Delayed Putrefaction 00:42
10. Oozing Purulence 01:15
******************************
Total playing time: 6:26



Register
(2) GorAtheist, kefka,
Jul 21 2021, 17:58:57 Noctis Avem - Cuando La Luz Se Va [demo] (2021)


*Artist: Noctis Avem
*Album: Cuando La Luz Se Va [demo]
*Year: 2021
*Genre: Black Metal
*Country: Paraguay
*Format: flac
*Size: 97MB

Tracklist:
1. Obertura 01:24
2. La Cúspide 05:13
3. La Célula Fría 07:24
******************************
Total playing time: 14:01



Register
(5) kim666, Olethros, thenecromancer, varlam4, vasiljev_sergej,
Jul 21 2021, 17:24:07 Brooticus - Shredded To Life [ep] (2021)


*Artist: Brooticus
*Album: Shredded To Life [ep]
*Year: 2021
*Genre: Progressive Metal/Shred
*Country: United States
*Format: flac
*Size: 56MB

Tracklist:
1. It's BROOTICUS Time! 03:16
2. Johann's Lament 01:04 instrumental
3. Goodbye, Jake 04:42 instrumental
******************************
Total playing time: 9:02



[more=Extended info]Line - up:

Xavier DeCamps - Bass
Daniel Warren Johnson - Guitars[/more]

Register
(1) Olethros,
Jul 21 2021, 17:01:18 Antti Martikainen - Carmina Gloria (2021)


*Artist: Antti Martikainen
*Album: Carmina Gloria
*Year: 2021
*Genre: Instrumental Symphonic Metal/Soundtrack
*Country: Finland
*Format: mp3@CBR320kbps
*Size: 188MB

Tracklist:
1. Divine Alliance 06:55
2. Durandal 06:37
3. Metal Crusade 06:37
4. Terra Sancta 06:48
5. Blood of Glory 05:45
6. Deliverance 07:41
7. Claymore in the Face 04:39
8. Shining Fate 05:24
9. Defenders of the Cross 08:03
10. The March of the Templars 09:15
11. Victoria Ultima 10:57
******************************
Total playing time: 1:18:41



[more=Extended info]Line - up:
Antti Martikainen - Everything

Guest/Session:
Simone Mularoni - Guitars (lead), Guitars (acoustic) (DGM, Lalu, Lione / Conti, Sunstorm, ex-Empyrios, ex-Sweet Oblivion, ex-Frontiers All Stars)
Francesco Mattei - Guitars (rhythm) (Ethernity, Noveria, Immunity for the Masses)
Ian Fontova - Folk instruments (Frozen Shield, Haunted Gods, Sabaton)
Ruben Monteiro - Oud, Saz baglama, Hurdy gurdy (Alluminia)
Paul Johnston - Gaita, Gralla, Tarota (Bliss, Cathedral, Dorsal Atlântica, Gomorrah)
Natalia Dmukhovskaia - Violin (classical)
Jocelyn Fields - Vocals
Angela Schleihauf - Oboe, English horn (Woods of Ypres)[/more]

[more=Technical info]
Input File: 10 - The March of the Templars.mp3
Channels : 2
Sample Rate : 44100
Precision : 16-bit
Duration : 00:09:15.29 = 24488377 samples = 41646.9 CDDA sectors
File Size : 22.2M
Bit Rate : 320k
Sample Encoding: MPEG audio (layer I, II or III)
Comments :
Title=The March of the Templars
Artist=Antti Martikainen
Album=Carmina Gloria
Tracknumber=10
Year=2021
Genre=Instrumental Symphonic Metal/Soundtrack

[/more]

Register
(13) Bregon, caro, Cartman223, djsema4, gav-gafi, infiltrator, KLOP, markblasi, Nitais_Ter, Oath19, Olethros, teleskop, Сварог Барг,
Jul 20 2021, 18:21:52 Gristmill - Heavy Everything (2021)


*Artist: Gristmill
*Album: Heavy Everything
*Year: 2021
*Genre: Stoner/Doom Metal
*Country: United States
*Format: mp3@CBR320kbps
*Size: 115MB

Tracklist:
1. Mitch 05:16
2. Mute 04:26
3. Irony 04:12
4. The Goblin 04:34
5. Remains Nameless 04:56
6. Glass Door 08:42
7. Interlude 01:08
8. Stone Rodeo 07:48
9. Loon 07:34
******************************
Total playing time: 48:36



[more=Technical info]
Input File: 02. Mute.mp3
Channels : 2
Sample Rate : 44100
Precision : 16-bit
Duration : 00:04:26.41 = 11748857 samples = 19981 CDDA sectors
File Size : 10.7M
Bit Rate : 322k
Sample Encoding: MPEG audio (layer I, II or III)
Comments :
Title=Mute
Artist=Gristmill
Album=Heavy Everything
Tracknumber=2
Year=2021
Genre=Stoner/Doom Metal

[/more]

Register
(9) caro, chipsgott, denver, HMHamster, infiltrator, Olethros, sludge666, VALERY, vlad74,
Jul 18 2021, 18:58:36 Darah Perawan - Formidable Fetish F​uck Bbq [ep] (2021)


*Artist: Darah Perawan
*Album: Formidable Fetish F​uck Bbq [ep]
*Year: 2021
*Genre: Grindcore/Death Metal
*Country: Indonesia
*Format: flac
*Size: 84MB

Tracklist:
1. Bondage Bukkake Queen 01:29
2. Freezer Geezer 01:02
3. Bummed by the Orderlies 01:03
4. Kitchen Sink Abortions 01:30
5. Formidable Fetish Fuck BBQ 00:56
6. Human Offal Gateaux 00:57
7. Hardgore Lawn (The Lawnmower Diaries) 00:54
8. Penis Flytrap 01:31
******************************
Total playing time: 9:22



Register
(2) GorAtheist, Olethros,
Jul 18 2021, 18:26:55 Crowbar Facefuck - Let There Be Blood [ep] (2021)


*Artist: Crowbar Facefuck
*Album: Let There Be Blood [ep]
*Year: 2021
*Genre: Brutal Death Metal/Goregrind
*Country: International
*Format: mp3@CBR320kbps
*Size: 31MB

Tracklist:
1. Let There Be Blood! 02:45
2. 12 Guage To Her Cunt 01:18
3. My Crowbar Vs. Your Skull 04:18
4. No Where to Hide 01:38
5. Psychotic Rampaging Meat Slicer 01:15
6. Exterminate the Human Race 01:15
7. Entrail Noose 01:17
******************************
Total playing time: 13:46



[more=Technical info]
Input File: 04. No Where To Hide.mp3
Channels : 2
Sample Rate : 44100
Precision : 16-bit
Duration : 00:01:38.64 = 4350068 samples = 7398.07 CDDA sectors
File Size : 3.95M
Bit Rate : 320k
Sample Encoding: MPEG audio (layer I, II or III)
Comments :
Title=No Where To Hide
Artist=Crowbar FaceFuck
Album=Let There Be Blood (EP)
Tracknumber=4
Year=2021
Genre=Brutal Death Metal/Goregrind

[/more]

Register
(7) caro, chipsgott, GorAtheist, infiltrator, Olethros, Taakeferd, vyacheslav,

158 Pages V   1 2 3 > » 
- Lo-Fi Version Support form
Copyrights and abuse reports form
Time is now: 31st July 2021 - 06:25:31