Welcome Guest ( Log In | Register )

История благодарностей участнику Necrokilldozer ::: Спасибо сказали: 54336 раз(а)
Дата поста: В теме: За сообщение: Спасибо сказали:
Yesterday, 18:37:10 Mark Sinestra - Impera Discordia [ep] (2022)


*Artist: Mark Sinestra
*Album: Impera Discordia [ep]
*Year: 2022
*Genre: Deathcore
*Country: Mexico
*Format: mp3@CBR320kbps
*Size: 22MB

Tracklist:
1. Instinto Asesino 04:20
2. Of Eternal Damnation 04:29
******************************
Total playing time: 8:49



[more=Extended info]Line - up:

Daniel Mora - Bass
Chema Cardenas - Drums
Saúl Herrera - Guitars
Omar Rivera - Guitars
Marcos Bernal - Vocals (ex-Abrogar, ex-Ab Intus, ex-Dance Now Bitch)[/more]

[more=Technical info]
Input File: 01-mark_sinestra-instinto_asesino-027d01b8.mp3
Channels : 2
Sample Rate : 44100
Precision : 16-bit
Duration : 00:04:20.90 = 11505778 samples = 19567.6 CDDA sectors
File Size : 10.4M
Bit Rate : 320k
Sample Encoding: MPEG audio (layer I, II or III)
Comments :
Title=Instinto Asesino
Artist=Mark Sinestra
Album=Impera Discordia (EP)
Tracknumber=1
Year=2022
Genre=Deathcore

[/more]

Register
(1) chipsgott,
Yesterday, 17:54:39 Nitrogods - 10 Years Of Crap - Live [live] (2022)


*Artist: Nitrogods
*Album: 10 Years Of Crap - Live [live]
*Year: 2022
*Genre: Heavy Metal/Hard Rock
*Country: Germany
*Format: mp3@CBR320kbps
*Size: 185MB

Tracklist:
Disc 1
1. Black Car Driving Man
2. Gasoline
3. At Least I'm Drunk
4. Breaking Loose
5. Boogeyman
6. A Los Muertos
7. Back Home
8. Rifle Down
9. Lipsynch Stars
Disc 2
10. Nothing But Trouble
11. Damn Right
12. Rancid Rock
13. Drum Solo
14. Wheelin'
15. Rats & Rumours
16. Take It to the Highway
17. Whiskey Wonderland
18. Wasted in Berlin
19. We'll Bring the House Down
******************************
Total playing time: 1:16:58



[more=Extended info]Line - up:

Claus "Oimel" Larcher - Bass, Vocals (ex-Chinchilla)
Klaus Sperling - Drums (MP, My Darkest Hate, Freedom Call (live), ex-Donnerkopf, ex-Insanity, ex-Prolopower, ex-Wasteland, ex-Primal Fear, ex-Sinner, ex-Mystic Prophecy (live), ex-Saidian, ex-Chinchilla (live))
Henny Wolter - Guitars (lead), Vocals (ex-Donnerkopf, ex-Sweethard, ex-Primal Fear, ex-Sinner, ex-Talon, ex-Viva, ex-Thunderhead, ex-Fair Warning (live))

[youtube]yX6lTt5vPpQ[/youtube][/more]

[more=Technical info]
Input File: 08-nitrogods-rifle_down_(live)-8cdfae06.mp3
Channels : 2
Sample Rate : 44100
Precision : 16-bit
Duration : 00:06:29.33 = 17169321 samples = 29199.5 CDDA sectors
File Size : 15.6M
Bit Rate : 320k
Sample Encoding: MPEG audio (layer I, II or III)
Comments :
Title=Rifle Down (Live)
Artist=Nitrogods
Album=Ten Years Of Crap - Live (Live)
Tracknumber=8
Year=2022
Genre=Heavy Metal | Hard Rock

[/more]

Register
(2) Marek, varlam4,
Yesterday, 17:34:35 Pentarium - Abgott (2022)


*Artist: Pentarium
*Album: Abgott
*Year: 2022
*Genre: Melodic Death Metal
*Country: Germany
*Format: mp3@CBR320kbps
*Size: 259MB

Tracklist:
Disc 1
1. Aufbruch
2. Weltenwanderer
3. Enigma
4. Road to Nowhere
5. Eremit
6. Abgott
7. Revenge
8. Thronebreaker
9. Project Hellfire
10. Omen Omega
11. Marsch der Maschinen
12. Only for the Weak
Disc 2
13. Widerstand
14. Macht durch Angst
15. 13
16. Nimmermehr
17. Rise of the Outer Gods
18. Kronzeuge
19. Memoria
20. Nekropolis
21. Vanitas
22. Flames
23. Beyond
24. Stare into Darkness
25. Auf schwarzen Schwingen
26. Schwarzmaler
******************************
Total playing time: 1:48:08

iTunes

[more=Extended info]CD 2 contains re-recordings of older songs.

Line - up:

Carsten Linhs - Vocals
Florian Jahn - Guitars
Philip Burkhard - Keyboards
Max Peev - Drums (Last Asylum)
Fabian Laurentzsch - Bass[/more]

[more=Technical info]
Input File: 01 - Pentarium - Aufbruch.mp3
Channels : 2
Sample Rate : 44100
Precision : 16-bit
Duration : 00:01:28.17 = 3888341 samples = 6612.82 CDDA sectors
File Size : 3.53M
Bit Rate : 320k
Sample Encoding: MPEG audio (layer I, II or III)
Comments :
Title=Aufbruch
Artist=Pentarium
Album=Abgott
Tracknumber=1/26
Year=2022
Genre=Melodic Death Metal
Discnumber=1/2

[/more]

Register
(2) chipsgott, zhol,
Yesterday, 17:20:15 Black Lung - Dark Waves (2022)


*Artist: Black Lung
*Album: Dark Waves
*Year: 2022
*Genre: Psychedelic Doom Metal/Rock
*Country: United States
*Format: mp3@CBR320kbps
*Size: 96MB

Tracklist:
1. Demons 05:49
2. Dark Waves 05:08
3. The Cog 04:17
4. Awaken 06:56
5. Hollow Dreams 06:21
6. Death Grip 03:38
7. The Path 03:45
8. Mad King 04:56
******************************
Total playing time: 40:50



[more=Extended info]Line - up:
Elias Schutzman - Drums, Percussion, Mellotron, Synths (The Flying Eyes)
Dave Cavalier - Guitars, Vocals, Mellotron (Snakefeast)
Charles Braese - Bass
Dave Fullerton - Guitars

Guest/Session:
Shawna Potter - Vocals (track 6) (Avec)
Blake Mobley - Keyboards (track 3)
Devree Lewis - Cello (track 5) (Primitivity)

The year 2019 marked significant changes for Baltimore psychedelic-doom trio, Black Lung. Following the release of their third album, Ancients, guitarist and founding member Adam Bufano amiably departed the band and in November 2019, was replaced by guitarist Dave Fullerton. Just four months later, the reconfigured trio’s plans for touring in support of Ancients were canceled as the world entered COVID-19 lockdown. It was time to reconcile their touring ambition with the reality that live music was effectively shut down indefinitely. In the existential dread, loss and uncertainty of the global pandemic, with the backdrop of malignant fascism and cultural enmity in the USA, Black Lung began writing the songs that would comprise their next record.

There is no question that Dark Waves, Black Lung’s newest release via Heavy Psych Sounds Records, was conceived in hostile times. Dave Cavaliers lyrics reflect this hostility. Songs like ‘The Cog’ and ‘Mad King’ lament the weaponized ignorance of the propagandized American citizen, while ‘Awaken’ and ‘The Path’ muse on escapism and the false protection of dreams. On the title track, ‘Dark Waves’, the band channels this mood of bitterness through their instruments, as a meditative bridge is slowly transformed into a foreboding storm front centered around Dave Fullerton’s hypnotic guitar melodies.
Despite the apparent darkness, Dark Waves is not a cold or desolate sounding record. The band leaps forward from their previous releases with warmer, brighter sound crafting and more audacious songwriting. There are passages with a tangible sense of jubilation and excitement, as the band members revel in the recording process after more than a year of uncertainty and frustration. While in some ways Dark Waves offers a departure from prior Black Lung records, the band stays true to their roots in doom and psychedelic music, delivering eight songs packed with the frenzied, fuzzed-out guitar breakdowns, booming drums, and soulful vocals that longtime fans will appreciate. The decision to bring bass guitar prominently into the mix on Dark Waves adds new levels of depth and heaviness to Black Lung’s songs, which may be the album’s most notable and exciting development.
Underpinning everything about Dark Waves is the band's decision to shed conventions and their ability to adapt to change. For Black Lung, making it through these dark times meant reflecting on the past while pushing forward without knowing what the future may hold. The result is a record that sees Black Lung rising to new sonic heights. Dark Waves is set for global release through Heavy Psych Sounds Records May 27th, 2022.

For fans of: All Them Witches, Queens of the Stone Age, The Flying Eyes.[/more]

[more=Technical info]
Input File: 03. The Cog.mp3
Channels : 2
Sample Rate : 44100
Precision : 16-bit
Duration : 00:04:17.22 = 11343358 samples = 19291.4 CDDA sectors
File Size : 10.3M
Bit Rate : 320k
Sample Encoding: MPEG audio (layer I, II or III)
Comments :
Title=The Cog
Artist=Black Lung
Album=Dark Waves
Tracknumber=3
Year=2022
Genre=Psychedelic Doom Metal | Rock

[/more]

Register
(6) chipsgott, kauyumari, metala, metaljosue, scorn33, vosmidesijatye,
Yesterday, 05:49:14 Trolldom - I Nattens Sken (Genom Hemligheternas Dunkel) (2022)


*Artist: Trolldom
*Album: I Nattens Sken (Genom Hemligheternas Dunkel)
*Year: 2022
*Genre: Atmospheric Black Metal
*Country: Sweden
*Format: mp3@CBR320kbps
*Size: 115MB

Tracklist:
1. Under vinternattens dystra fullmåne 05:16
2. Ondskans svarta broderskap 06:53
3. Nattens furste 04:29
4. Inom nattens eviga rit 07:07
5. Nattmörkrets svarta skugga 06:41
6. Vid hans tron mörkret vilar 06:52
7. Dräparen av livets veke 05:32
8. Till ruinens svarta rike 08:05
******************************
Total playing time: 50:55



[more=Extended info]В ЛОУ

Line - up:

Swartadauþuz - Guitars, Bass, Keyboards (Ars Hmu, Azelisassath, Bekëth Nexëhmü, Demonomantic, Digerdöden, Gardsghastr, Gnipahålan, Greve, Iniquitatem, Insikt, Lykta, Musmahhu, Muvitium, Mystik, Summum, Tyranni, Urkaos, ex-Blood Soaked Horror, ex-Daudadagr, ex-Goatfuck, Balwezo Westijiz, Hëxeris, Remigius, ex-Grav, ex-Helgedom, ex-Svartrit)

IRON BONEHEAD PRODUCTIONS is proud to present one of TROLLDOM's two highly anticipated debut albums, I Nattens Sken, on CD and vinyl LP formats. The band's other Av Gudars Ätt will be released simultaneously.

TROLLDOM is a name that goes back many years. While the band's date of origin is unknown, the first demo, Av gudablod röd..., was released in 2016. That TROLLDOM played authentically vintage second-wave black metal should hardly be surprising considering it came under the banner of Ancient Records linchpin Swartadauþuz (Azelisassath, Bekëth Nexëhmü, Muvitium, Greve, MUSMAHHU, Digerdöden, Gnipahålan, Mystik, Summum, Daudadagr). Back then, his rabidly prolific nature was just starting to blossom, and TROLLDOM was yet another new-yet-old creation that contributed to his wider cosmology whilst standing on its own.

Alas, tireless as he was with his myriad bands, Swartadauþuz didn't publicly revisit TROLLDOM...until now, with the simultaneous release of TWO albums. Of them, I Nattens Sken is the more overtly cosmic creation of his second-wave sensibilities. The album's music was written between 2004 and 2008, with the recording taking place in 2018 and the mixing/mastering in 2021. While TROLLDOM's spectral 'n' stargazing style of black metal mysticism remains firm between the two full-lengths, I Nattens Sken retains a ceaselessly roiling drama steeped in classic definitions of symphonic black metal - meaning, when the idiom was at its peak, roughly around 1996 or '97 - and the clarity conveyed within does nothing to damper Swartadauþuz 's pitch-black fire. Taken another way, I Nattens Sken's cover art perfectly illustrates its contents just as its counterpart's does.

If any doubt ever lingered about the power and poignancy of Swartadauþuz's projects despite their prolific nature, TROLLDOM trounces all doubters with the twin-attack of I Nattens Sken and Av Gudars Ätt. Purer expressions of '90s black metal classicism one will not find nowadays, and both effortlessly transport the listener to forgotten realms and glorious times.[/more]

[more=Technical info]
Input File: 03. Nattens Furste.mp3
Channels : 2
Sample Rate : 44100
Precision : 16-bit
Duration : 00:04:28.69 = 11849097 samples = 20151.5 CDDA sectors
File Size : 10.7M
Bit Rate : 320k
Sample Encoding: MPEG audio (layer I, II or III)
Comments :
Title=Nattens Furste
Artist=Trolldom
Album=I Nattens Sken (Genom Hemligheternas Dunkel)
Tracknumber=3
Year=2022
Genre=Atmospheric Black Metal

[/more]

Register
(13) aleon, AlexSmith, Carcharoth, Fallen Soul, Ignativs, kim666, Melusinara, murian, rammmirez, sabr, sergsazan, varlam4, Vidder242,
Yesterday, 05:31:57 Trolldom - Av Gudars Ätt... (2022)


*Artist: Trolldom
*Album: Av Gudars Ätt...
*Year: 2022
*Genre: Atmospheric Black Metal
*Country: Sweden
*Format: mp3@CBR320kbps
*Size: 109MB

Tracklist:
1. Av nagelbyggt, från döda män... 13:23
2. Avtryck i tiden, vävens sista stycke 09:06
3. Tomma ögonhalor spå tidens ände 01:18
4. En eldbeklädd begravningsritual... 09:34
5. Ur nattsvart dimma, mot mossens mörka vatten 14:06
******************************
Total playing time: 47:27



[more=Extended info]В ЛОУ

Line - up:

Swartadauþuz - Guitars, Bass, Keyboards (Ars Hmu, Azelisassath, Bekëth Nexëhmü, Demonomantic, Digerdöden, Gardsghastr, Gnipahålan, Greve, Iniquitatem, Insikt, Lykta, Musmahhu, Muvitium, Mystik, Summum, Tyranni, Urkaos, ex-Blood Soaked Horror, ex-Daudadagr, ex-Goatfuck, Balwezo Westijiz, Hëxeris, Remigius, ex-Grav, ex-Helgedom, ex-Svartrit)

IRON BONEHEAD PRODUCTIONS is proud to present one of TROLLDOM's two highly anticipated debut albums, Av Gudars Ätt, on CD and vinyl LP formats. The band's other I Nattens Sken will be released simultaneously.

TROLLDOM is a name that goes back many years. While the band's date of origin is unknown, the first demo, Av gudablod röd..., was released in 2016. That TROLLDOM played authentically vintage second-wave black metal should hardly be suprising considering it came under the banner of Ancient Records linchpin Swartadauþuz (Azelisassath, Bekëth Nexëhmü, Muvitium, Greve, MUSMAHHU, Digerdöden, Gnipahålan, Mystik, Summum, Daudadagr). Back then, his rabidly prolific nature was just starting to blossom, and TROLLDOM was yet another new-yet-old creation that contributed to his wider cosmology whilst standing on its own.

Alas, tireless as he was with his myriad bands, Swartadauþuz didn't publicly revisit TROLLDOM...until now, with the simultaneous release of TWO albums. Of them, Av Gudars Ätt highlights both dynamics and desolation within his second-wave sensibilities. The album's music was written between 2014 and 2017 and recorded in 2018, while the mixing/mastering came in 2021. While TROLLDOM's spectral 'n' stargazing style of black metal mysticism remains firm between the two full-lengths, the five (mostly) epic tracks comprising Av Gudars Ätt unfurl a vast landscape of sonic/psychic color, going from sparse and almost-comforting tundras of ambience to majestic, stained-glass spirals of malevolence and plenty more in between; nearly every moment sounds monolithic and regal, no matter the tempo. Taken another way, Av Gudars Ätt's cover art perfectly illustrates its contents just as its counterpart's does.

If any doubt ever lingered about the power and poignancy of Swartadauþuz's projects despite their prolific nature, TROLLDOM trounces all doubters with the twin-attack of Av Gudars Ätt and I Nattens Sken. Purer expressions of '90s black metal classicism one will not find nowadays, and both effortlessly transport the listener to forgotten realms and glorious times.[/more]

[more=Technical info]
Input File: 02 Avtryck I Tiden, Vävens Sista Stycke.mp3
Channels : 2
Sample Rate : 44100
Precision : 16-bit
Duration : 00:09:06.49 = 24100121 samples = 40986.6 CDDA sectors
File Size : 21.9M
Bit Rate : 320k
Sample Encoding: MPEG audio (layer I, II or III)
Comments :
Title=Avtryck I Tiden, Vävens Sista Stycke
Artist=Trolldom
Album=Av Gudars Ätt...
Tracknumber=2
Year=2022
Genre=Atmospheric Black Metal

[/more]

Register
(15) aleon, AlexSmith, Carcharoth, Ignativs, judaz, kim666, Melusinara, murian, Narasimha, rammmirez, sabr, sergsazan, Sigue, varlam4, Vidder242,
May 26 2022, 18:34:09 Besvärjelsen - Atlas (2022)


*Artist: Besvärjelsen
*Album: Atlas
*Year: 2022
*Genre: Stoner/Doom Metal/Psychedelic Rock
*Country: Sweden
*Format: mp3@CBR320kbps
*Size: 113MB

Tracklist:
1. The Cardinal Ride 03:28
2. Acheron 05:48
3. Clouds 04:39
4. House of the Burning Light 05:27
5. Paradise 04:59
6. Digerliden 04:42
7. Descent 03:41
8. Celestial 02:16
9. Obscured by Darkness 04:19
10. Divided Ends 07:51
******************************
Total playing time: 47:10



[more=Extended info]Line - up:

Erik Bäckwall - Drums (ex-Dozer, ex-Greenleaf)
Staffan Winroth - Guitars, Vocals (ex-Enemy Is Us, Döda Havet, ex-The Mist of Avalon, ex-Dislife, ex-Lastkaj 14)
Andreas Baier - Guitars, Vocals (Afgrund, Hilning, Oak, V, Novarupta (live), ex-Afgrund)
Lea Amling Alazam - Vocals
Johan Rockner - Bass (Dozer, Greenleaf)

[youtube]https://youtu.be/p_5t6fi_vA8[/youtube]

What to do when you like rock and doom born from the desert but your surroundings offer anything but arid lands? BESVÄRJELSEN found an impressive answer in the grim forests of their homeland in Dalarna, Sweden. Having grown up in the far north at the meeting grounds of ancient Norse and Finnish cultures amongst echoes of runes and gods, shamans and spirits, the spellbinding five-piece crafted their name from the Swedish word for "conjuring" while drawing heavy inspiration from local lore, mysticism, and the dark, old musical traditions. Yet BESVÄRJELSEN are anything but another "pagan" outfit longing for a time that never was. With its wistful melodies and towering riff-power their sophomore full-length "Atlas" represents a logical step along the course that BESVÄRJELSEN charted from the start. The band was co-founded by guitarists and vocalists Andreas Baier and Staffan Stensland Vinrot in 2014 with a clear vision to channel the spirit and traditions of the vast Dalarna forests, a region otherwise famous for its painted wooden horses, into contemporary heavy music. Once vocalist Lea Amling Alazam arrived with a fiery passion for punk and stoner rock that had begun at the local skate park when she was just counting 13 years, Andreas and Staffan happily relegated their shared vocal duties to a supporting role – an easy choice as Lea's distinctive voice summoned the intimacy and charisma of singers like NINA SIMONE or AMY WINEHOUSE. BESVÄRJELSEN released their debut EP "Villfarelser" in 2015, which was followed quickly by the "Exil" EP in 2016. The Swedes' debut full-length "Vallmo" hit the streets of Stockholm and elsewhere in 2018. The album merged crushing riffs and storming drums with increasingly sophisticated melodies and thoughtful themes. With the mini-album "Frost", BESVÄRJELSEN intended to crush stages all over Europe in 2019, before being forced into involuntary live performance hibernation for two years. Although compelled to write separately, the band used the spare time to compile a wealth of ideas, amassed remotely and shared across the miles and months of relative solitude, which would finally result in the recording of "Atlas" with producer Karl Daniel Lidén in 2021. Re-purposing melancholic harmonies that could have been derived from the playbook of ALICE IN CHAINS, adding gravity that would make Windhand proud, and topping their upgraded sound with exciting yet intimate vocal lines, BESVÄRJELSEN have carved a towering monolith from solid rock and planted it firmly into the magical woods of their homeland to send its heavy lay-lines around the globe that is burdening the shoulders of the titan "Atlas".[/more]

[more=Technical info]
Input File: 06 - Digerliden.mp3
Channels : 2
Sample Rate : 44100
Precision : 16-bit
Duration : 00:04:42.00 = 12436200 samples = 21150 CDDA sectors
File Size : 11.3M
Bit Rate : 321k
Sample Encoding: MPEG audio (layer I, II or III)
Comments :
Title=Digerliden
Artist=Besvärjelsen
Album=Atlas
Tracknumber=6
Year=2022
Genre=Stoner | Doom Metal | Psychedelic Rock

[/more]

Register
(3) robertho777, VALERY, дивин,
May 26 2022, 16:31:26 IATT - Magnum Opus (2022)


*Artist: IATT
*Album: Magnum Opus
*Year: 2022
*Genre: Blackened Melodic Death Metal
*Country: United States
*Format: mp3@CBR320kbps
*Size: 130MB

Tracklist:
1. Servitude, Subjugate
2. Ouroboros
3. Prima Materia
4. Elixir of Immortality
5. Exculpate, Exonerate
6. Demiurgos (Architect of Disaster)
7. Planes of Our Existence
8. Seven Wandering Stars
9. Chrysopoeia
******************************
Total playing time: 55:02




[more=Extended info]Line - up:
Paul Cole - Drums
Joe Cantamessa - Guitars (lead) (Primitive Fuck, Remnants of Winter)
Alec Pezzano - Guitars, Orchestrations
Jay Briscoe - Vocals, Bass

Guest/Session:
Ben Karas - Violin (tracks 1, 4, 5, 8) (Windfaerer, ex-Mjollnir, Thank You Scientist, ex-Bog)
Jake Superchi - Vocals (track 8) (Ceremonial Castings, MotörThrone, Thy Emptiness, Uada, ex-Serpent Lord, ex-The Dead, Ornæmental Shine, ex-Mysticism Black (live), ex-Detrusion)
Jørgen Munkeby - Saxophone (track 2) (Altaar, Emperor (live), Damp / Chrome Hill, Shining, ex-Marty Friedman (live), ex-Jaga Jazzist)
Zach Strouse - Saxophone (tracks 3, 7) (Burial in the Sky, ex-Burn the Empire)
Daryl Baker - Guitar solo (track 3)

IATT is pleased to once again team up with Black Lion Records for the follow up to 2019’s Nomenclature; our new full length album entitled Magnum Opus.
We’ve meticulously crafted this album to leap from where Nomenclature left us thematically. The listener is catapulted from the 1700s (Arsenic Ways) further back in time to a much darker, older world and the esoteric sciences of Alchemy.
It was in this time man aimed to harness the world around him, bending the natural elements in a quest to obtain power, knowledge, control, and even immortality itself. Alchemy was the key to unlocking the secrets of existence and elevating
one’s self to the pinnacle of enlightenment through transmutation and
manipulation of the earthly elements. It was only through the process of Magnum Opus (the great work) that alchemists could harness the elementals in their purest form to create the Philosopher’s Stone - the key to power, enlightenment, and immortality.
Just as in alchemy itself, creating this album has been a journey of transformation for us; a period of great growth as individuals and as a unit. It’s through adversity, struggles, and the forging of the elements - of literal blood, sweat, and tears - we strive to transcend and elevate to our highest selves, “the great work”, Magnum Opus.[/more]

[more=Technical info]
Input File: 08. Seven Wandering Stars.mp3
Channels : 2
Sample Rate : 44100
Precision : 16-bit
Duration : 00:06:03.44 = 16027616 samples = 27257.9 CDDA sectors
File Size : 14.5M
Bit Rate : 320k
Sample Encoding: MPEG audio (layer I, II or III)
Comments :
Title=Seven Wandering Stars
Artist=IATT
Album=Magnum Opus
Tracknumber=8
Year=2022
Genre=Blackened Melodic Death Metal

[/more]

Register
(12) chipsgott, infozahist, madera, Marek, Mencae77, postal67, SadistikSlayer, sergsazan, VALERY, yuratroll, zhol, Сварог Барг,
May 26 2022, 04:57:33 Tamer İşli Projects - Children Of The Architect (2022)


*Artist: Tamer İşli Projects
*Album: Children Of The Architect
*Year: 2022
*Genre: Blackened Ethnic Symphonic/Folk Metal/Rock/Acoustic
*Country: Turkey
*Format: mp3@CBR320kbps
*Size: 101MB

Tracklist:
1. Deep 04:27
2. Earth 05:28
3. Depresreefs 01:49 instrumental
4. Children of the Architect 05:46
5. Dark 04:56
6. Nothingness 04:14
7. Primitive 15:16
******************************
Total playing time: 41:56



[more=Technical info]
Input File: 05 - Dark (feat. Berzan Onen).mp3
Channels : 2
Sample Rate : 44100
Precision : 16-bit
Duration : 00:04:56.00 = 13053600 samples = 22200 CDDA sectors
File Size : 11.9M
Bit Rate : 321k
Sample Encoding: MPEG audio (layer I, II or III)
Comments :
Title=Dark (feat. Berzan Onen)
Artist=Tamer Isli Projects;Berzan Önen
Album=Children Of The Architect
Tracknumber=5
Year=2022-05-22
Genre=Symphonic | Folk Metal, Symphonic | Folk | Rock, Acoustic

[/more]

Register
(7) aleon, artscald, chipsgott, Dante_D, kimkayoung, VALERY, varlam4,
May 25 2022, 17:25:29 Blacnk - Between The Darkness And Dawn [ep] (2022)


*Artist: Blacnk
*Album: Between The Darkness And Dawn [ep]
*Year: 2022
*Genre: Black Metal
*Country: Australia
*Format: mp3@CBR320kbps
*Size: 58MB

Tracklist:
1. Resting Wicked Fears 03:53
2. In the Mist, in Anguish for 100 Years Alone 04:07
3. Forest of the Solemn North 03:47
4. Between the Darkness and Dawn 04:13
5. Ashes of the Lost 03:51
6. They, Who Read Aloud the Darkest Words 04:48
******************************
Total playing time: 24:39



[more=Technical info]
Input File: 01. Resting Wicked Fears.mp3
Channels : 2
Sample Rate : 44100
Precision : 16-bit
Duration : 00:03:53.86 = 10313402 samples = 17539.8 CDDA sectors
File Size : 9.36M
Bit Rate : 320k
Sample Encoding: MPEG audio (layer I, II or III)
Comments :
Title=Resting Wicked Fears
Artist=Blacnk
Album=Between The Darkness and Dawn (EP)
Tracknumber=1
Year=2022
Genre=138

[/more]

Register
(10) artscald, dermarsoran, kim666, Marek, Mencae77, robertho777, stormhatt, VALERY, varlam4, vasiljev_sergej,
May 25 2022, 16:44:30 Tears Of Tragedy - & (2022)


*Artist: Tears Of Tragedy
*Album: &
*Year: 2022
*Genre: Acoustic
*Country: Japan
*Format: mp3@CBR320kbps
*Size: 117MB

Tracklist:
1. クロノメトリー
2. Spring Memory
3. Anfillia
4. Voice
5. It Like Snow...
6. Blue Lotus
7. The Arclight of the Sky
8. Frost Flower
9. Euclase
10. Always
******************************
Total playing time: 48:57



[more=Extended info]An album featuring acoustic rearrangements of the band's previous songs.

Line - up:

Toru - Guitars (Thousand Eyes, ex-Mardelas (live))
Hayato - Keyboards
Haruka - Vocals

[youtube]dr5w52ea55s[/youtube][/more]

[more=Technical info]
Input File: 05. It Like Snow (Acoustic).mp3
Channels : 2
Sample Rate : 44100
Precision : 16-bit
Duration : 00:04:42.53 = 12459705 samples = 21190 CDDA sectors
File Size : 11.4M
Bit Rate : 322k
Sample Encoding: MPEG audio (layer I, II or III)
Comments :
Title=It Like Snow (Acoustic)
Artist=Tears of Tragedy
Album=&
Tracknumber=05
Year=2022
Genre=Symphonic | Melodic Power Metal

[/more]

Register
(1) VALERY,
May 24 2022, 18:05:12 Oblivion Castle - Mircarlla II + Countess Mircarlla II Reign [compilation] (2021)


*Artist: Oblivion Castle
*Album: Mircarlla II + Countess Mircarlla II Reign [compilation]
*Year: 2021
*Genre: Black/Doom Metal/Dungeon Synth
*Country: Mexico
*Format: mp3@CBR320kbps
*Size: 109MB

Tracklist:
1. The Edge of Immortality 04:10
2. Countess Mircalla 05:24
3. Biting Curse 06:12
4. Empty Tomb 00:55 instrumental
5. The Edge of Immortality (Orchestral Version) 04:08 instrumental
6. Rising from the Grave 01:04 instrumental
7. Wampyric Strigoi 01:48
8. Enchantment 01:38
9. Hypnotizing Eyes 02:27 instrumental
10. Suspiro 02:39 instrumental
11. Victoria Carmilla H. 02:57 instrumental
12. Mater Tenebrarum 02:03 instrumental
13. Bury Me 01:39 instrumental
14. Cursed for Eternity 01:06
15. The Abyss 01:58 instrumental
16. Anhelo 02:36
17. En los eternos recuerdos medievales 01:30
18. Hidden Track (V.C.H.) 01:28 instrumental
******************************
Total playing time: 45:42




[more=Extended info]Line - up:
Victoria Carmilla H. - All instruments (IAA 7, Cantodea Dianthus, Entität, Luna Pythonissam, Micarlla II, Oculi Melancholiarum, Persephone's Legacy, ex-Lacrimal, Cora's Heart, The Last Days)
Wampyric Strigoi - Vocals (Avstral Forest, Dungeon Steel, Heinous Tyrant, Wampyric Rites, Winterstorm, Nightly Storms, ex-Le Délire des Négations, ex-Broken Mirror, ex-Life Depression)

Guest/Session:
Erica Woolf - Narration (track 16)[/more]

[more=Technical info]
Input File: 06. Rising from the Grave.mp3
Channels : 2
Sample Rate : 44100
Precision : 16-bit
Duration : 00:01:04.58 = 2848022 samples = 4843.57 CDDA sectors
File Size : 2.59M
Bit Rate : 320k
Sample Encoding: MPEG audio (layer I, II or III)
Comments :
Title=Rising from the Grave
Artist=Oblivion Castle
Album=Mircarlla II + Countess Mircarlla II Reign (Compilation)
Tracknumber=6
Year=2021
Genre=Black | Doom Metal | Dark Ambient

[/more]

Register
(4) artscald, stormhatt, vasiljev_sergej, Wail,
May 24 2022, 17:32:26 Obelos - Green Giant [ep] (2022)


*Artist: Obelos
*Album: Green Giant [ep]
*Year: 2022
*Genre: Sludge/Doom Metal
*Country: United Kingdom
*Format: mp3@CBR320kbps
*Size: 65MB

Tracklist:
1. Off the Sun 04:30
2. Paranoise 01:47 instrumental
3. Doomsday Sleeper 05:26
4. Episode IV: A New Dope 08:02
5. Holy Smokes 02:02 instrumental
6. Back Woods 05:19
******************************
Total playing time: 27:06



[more=Extended info]Line - up:

Xavier Oakley - Bass
Alfie Walshe - Drums
Oscar Corriette - Guitars
Kesari Gorin - Vocals[/more]

[more=Technical info]
Input File: 06 Back Woods.mp3
Channels : 2
Sample Rate : 44100
Precision : 16-bit
Duration : 00:05:19.73 = 14100225 samples = 23980 CDDA sectors
File Size : 12.8M
Bit Rate : 320k
Sample Encoding: MPEG audio (layer I, II or III)
Comments :
Title=Back Woods
Artist=Onelos
Album=Green Giant (EP)
Tracknumber=6
Year=2022
Genre=Stoner | Doom Metal

[/more]

Register
(4) artscald, Dante_D, VALERY, Wail,
May 24 2022, 16:51:11 Magnitudo - Demo 2022 [demo] (2022)


*Artist: Magnitudo
*Album: Demo 2022 [demo]
*Year: 2022
*Genre: Sludge/Doom Metal
*Country: Italy
*Format: flac
*Size: 90MB

Tracklist:
1. Rebirth 03:21
2. The Algorithm 03:34
******************************
Total playing time: 6:55



[more=Extended info]Line - up:

Dario - Vocals, Guitars
Antonio Cassella - Drums (ex-Winter of Souls, ex-Vøid, Jimson Weed, Metide, ex-Bloody Wings)[/more]

Register
(2) Dante_D, stumpheavyrock,
May 24 2022, 16:39:43 ZubZero - Lost Sun [demo] (2022)


*Artist: ZubZero
*Album: Lost Sun [demo]
*Year: 2022
*Genre: Groove/Thrash Metal
*Country: Netherlands
*Format: flac
*Size: 49MB

Tracklist:
1. Lost 02:48
2. Liquid Sun 03:23
******************************
Total playing time: 6:11



[more=Extended info]Line - up:

Lars 'Göran' Draaisma - Drums
Dirk Jacob Draaisma - Guitars (ex-Mycose)
Herman Mulder - Bass (ex-Coremass)
Ferdinand Wanders - Vocals (ex-Unothera, ex-Dimæon, ex-Soaking in Entrails, ex-Insidiae (live))[/more]

Register
(1) stumpheavyrock,
May 23 2022, 18:21:29 Nothingnew - In This Together (2021)


*Artist: Nothingnew
*Album: In This Together
*Year: 2021
*Genre: Doom/Stoner Metal
*Country: United States
*Format: mp3@CBR320kbps
*Size: 110MB

Tracklist:
1. The Mountain Erodes 03:40
2. Deathbed Confession 04:23
3. The Paradigm of Social War 03:59
4. Made Equal By Hubris 03:55
5. Bump Stock 03:59
6. Active Shooter 05:31
7. Victimized (The Sadness) 04:04
8. Victimized (The Anger) 05:39
9. Galvanized 05:16
10. Convince (Accusation) 06:13
******************************
Total playing time: 46:39



[more=Extended info]Line - up:

Jerry Clayton - Guitars (ex-POS, ex-Red Priestess and the Death Card, ex-Shedd, ex-Stand Strong, ex-White Trash)
Andrew C. Zinn - Vocals (The Demon Core, ex-Trokar, ex-Head Not Found, ex-We Must Build, ex-Black Ink for a Black Letter, ex-Mouth Full of Fist, ex-Unrelent, ex-Zero)
Sean Lyons - Guitars[/more]

[more=Technical info]
Input File: 03. 03 - The Paradigm of Social War.mp3
Channels : 2
Sample Rate : 48000
Precision : 16-bit
Duration : 00:03:59.40 = 11491344 samples ~ 17955.2 CDDA sectors
File Size : 9.60M
Bit Rate : 321k
Sample Encoding: MPEG audio (layer I, II or III)
Comments :
Title=03 - The Paradigm of Social War
Artist=NothingNew
Album=Volume Three
Tracknumber=3
Year=2021
Genre=Black | Stoner Metal

[/more]

Register
(4) artscald, caro, Dante_D, VALERY,
May 23 2022, 18:03:55 Wasteland Coven & Nothing Is Real - Turmoil [split] (2022)


*Artist: Wasteland Coven & Nothing Is Real
*Album: Turmoil [split]
*Year: 2022
*Genre: Epic Doom Metal | Stoner/Doom Metal
*Country: United States | United States
*Format: mp3@CBR320kbps
*Size: 103MB

Tracklist:
Wasteland Coven:
1. I Arise 08:45
2. Solomon 04:42
3. The Mist 05:20
Nothing Is Real:
4. Dark Night of the Soul pt. 1(Fear and Self-Doubt) 07:38
5. Dark Night of the Soul pt.2(Depression and Loneliness) 07:54
6. Dark Night of the Soul pt.3(Revelation of Twisted Truth) 09:24
******************************
Total playing time: 43:43



[more=Technical info]
Input File: 05. Nothing is Real - Dark Night of the Soul pt.2(Depression and Loneliness).mp3
Channels : 2
Sample Rate : 44100
Precision : 16-bit
Duration : 00:07:54.67 = 20933123 samples = 35600.5 CDDA sectors
File Size : 19.0M
Bit Rate : 320k
Sample Encoding: MPEG audio (layer I, II or III)
Comments :
Title=Dark Night of the Soul pt.2(Depression and Loneliness)
Artist=Nothing is Real
Album=Turmoil (Split)
Tracknumber=5
Year=2021
Genre=Stoner | Doom Metal

[/more]

Register
(8) artscald, caro, Dante_D, Lux, quarantine, s810ic1, stumpheavyrock, VALERY,
May 23 2022, 17:11:10 Goremouth - Dance On The Grave [ep] (2022)


*Artist: Goremouth
*Album: Dance On The Grave [ep]
*Year: 2022
*Genre: Death/Thrash Metal
*Country: United Kingdom
*Format: flac
*Size: 131MB

Tracklist:
1. Cost of Lies 02:47
2. Dance on the Grave 02:18
3. Plague of Temptation 02:45
4. Purgatory 03:08
5. Dying Words 03:15
6. Butcherism 03:11
******************************
Total playing time: 17:24



Register
(4) boby9052, Marek, stumpheavyrock, wgs73,
May 23 2022, 16:48:31 Witch Hill - Leaving The Black Abyss [demo] (2022)


*Artist: Witch Hill
*Album: Leaving The Black Abyss [demo]
*Year: 2022
*Genre: Raw Black Metal
*Country: United States
*Format: mp3@CBR320kbps
*Size: 59MB

Tracklist:
1. Intro 03:38
2. Warmth of Winter 06:19
3. Two Faced Whore 05:18
4. The Birds Don't Sing Anymore 05:15
5. Kill Yourself 04:24
******************************
Total playing time: 24:54



[more=Extended info]Line - up:

Crudus - Drums
Triste - Guitars, Vocals[/more]

[more=Technical info]
Input File: 03. Two Faced Whore.mp3
Channels : 2
Sample Rate : 44100
Precision : 16-bit
Duration : 00:05:18.09 = 14027637 samples = 23856.5 CDDA sectors
File Size : 12.7M
Bit Rate : 320k
Sample Encoding: MPEG audio (layer I, II or III)
Comments :
Title=Two Faced Whore
Artist=Witch Hill
Album=Leaving the Black Abyss (Demo)
Tracknumber=3
Year=2022
Genre=Raw Black Metal

[/more]

Register
(8) Alexis The Best, artscald, caro, eisigerwind, kim666, stormhatt, varlam4, vasiljev_sergej,
May 22 2022, 20:13:14 Pagan Reign - Огни Мироздания [ep] (2022)


*Artist: Pagan Reign
*Album: Огни Мироздания [ep]
*Year: 2022
*Genre: Folk/Pagan Black Metal
*Country: Russian Federation
*Format: mp3@CBR320kbps
*Size: 57MB

Tracklist:
1. Огни Мироздания 05:41
2. Огни Китеж-града 06:05
3. Предание Светлого Яра 08:41
4. Рассвет (Live in Tokyo) 03:45
******************************
Total playing time: 24:12



[more=Extended info]Line - up:

Orey - Vocals, Guitars, Domra, Mandolin, Bass (Твердь (live), ex-Folkearth)
Vetrodar - Guitars, Bass, Mandolin, Domra, Zhaleika, Flute, Sopilka (Твердь, ex-Folkearth)
Dimosthen - Drums (Твердь, ex-Funeral Speech)
Rus - Drums

EP includes new single "Ogni Mirozdaniya" from the upcoming album "VEKHA".
The main idea of ​​EP is dedicated to the ancient Russian legend about the invisible city - Kitezh on Lake Svetloyar, hiding under the water column. With the help of pagan folk metal music we ventured to draw a whole picture for you and created a hymn to the Russian spirit and the Slavic folk worldview going back centuries for many millennia...[/more]

[more=Technical info]
Input File: 02. Ogni Kitezh-grada.mp3
Channels : 2
Sample Rate : 44100
Precision : 16-bit
Duration : 00:06:05.35 = 16111715 samples = 27400.9 CDDA sectors
File Size : 14.6M
Bit Rate : 320k
Sample Encoding: MPEG audio (layer I, II or III)
Comments :
Title=Ogni Kitezh-grada
Artist=Pagan Reign
Album=Ogni Mirozdaniya (EP)
Tracknumber=2
Year=2022
Genre=Folk | Pagan Black Metal

[/more]

Register
(25) Altkiller, Aresson, artscald, BladeOvDarkness, caro, Dante_D, dermarsoran, Femto, GorAtheist, gwar, kostja, legion01, Mihalik, NSGM, obituarydark, RotAnus, stormhatt, tt2008, VALERY, varlam4, vasilisk, vasiljev_sergej, Wail, Авел, Сварог Барг,
May 22 2022, 19:36:18 Godsfarm - Balkum Origins (2022)


*Artist: Godsfarm
*Album: Balkum Origins
*Year: 2022
*Genre: Deathcore/Brutal Death Metal
*Country: Netherlands
*Format: mp3@CBR320kbps
*Size: 62MB

Tracklist:
1. Tavern Slam Jam
2. Differ in Withered Revelation
3. Wizard of ‘Cth-Kohm
4. Balkum Origins
5. The Gathering of Archangelic Entities
6. Imperius, Herald of Damnation
7. XI Legion
8. Lords in Collision
******************************
Total playing time: 25:00






[more=Extended info][youtube]https://youtu.be/bAexXkikVZ4[/youtube][/more]

[more=Technical info]
Input File: 06. Imperius, Herald of Damnation.mp3
Channels : 2
Sample Rate : 44100
Precision : 16-bit
Duration : 00:02:49.02 = 7453694 samples = 12676.4 CDDA sectors
File Size : 6.76M
Bit Rate : 320k
Sample Encoding: MPEG audio (layer I, II or III)
Comments :
Title=Imperius, Herald of Damnation
Artist=Godsfarm
Album=Balkum Origins
Tracknumber=06
Year=2022
Genre=Brutal Death Metal

[/more]

Register
(8) artscald, caro, Dante_D, grobator, noel666, older68, vyacheslav, Wail,
May 22 2022, 18:37:48 Eucalyptus - Quebrantahuesos [ep] (2022)


*Artist: Eucalyptus
*Album: Quebrantahuesos [ep]
*Year: 2022
*Genre: Instrumental Black/Doom Metal
*Country: Argentina
*Format: mp3@CBR320kbps
*Size: 81MB

Tracklist:
1. Sacrificio 04:52
2. Hurto voraz 02:53
3. La solemnidad del paisaje 07:39
4. Ruptura inminente 03:47
5. Conclusión: / Aterrizaje / Festín /_ Letargo 15:23
******************************
Total playing time: 34:34



[more=Extended info]Line - up:

Pedro Belisario - Bass (Vöid)
Negro - Drums (ex-Grieta)
Pepo Quintar - Guitars[/more]

[more=Technical info]
Input File: 02. Hurto voraz.mp3
Channels : 2
Sample Rate : 44100
Precision : 16-bit
Duration : 00:02:53.36 = 7645220 samples = 13002.1 CDDA sectors
File Size : 6.94M
Bit Rate : 320k
Sample Encoding: MPEG audio (layer I, II or III)
Comments :
Title=Hurto voraz
Artist=Eucalyptus
Album=Quebrantahuesos (EP)
Tracknumber=2
Year=2022
Genre=Instrumental Post-Black | Doom Metal

[/more]

Register
(7) artscald, caro, Dante_D, legion01, metala, stormhatt, Wail,
May 22 2022, 18:04:24 Infecto - Descarnado Y Repulsivo Fin De Una Especie (2022)


*Artist: Infecto
*Album: Descarnado Y Repulsivo Fin De Una Especie
*Year: 2022
*Genre: Slamming Brutal Death Metal/Deathcore
*Country: Mexico
*Format: mp3@CBR320kbps
*Size: 81MB

Tracklist:
1. Intervención
2. Anatómico anagrama
3. La necesidad de devorar
4. Profanando putrefacción
5. El nuevo orden del canibalismo
6. Necrolatría sexual
7. Slamming with the Bros
8. Íntima descomposición lésbica
9. Intervención (demo)
10. El nuevo orden del canibalismo (demo)
******************************
Total playing time: 34:17



[more=Extended info]FLAC RIP

Line - up:
Edgar López - Guitars (Chaotic Goat, Ataliyatl, ex-Caligatum)
Edgar Guzmán - Vocals

Guest/Session:
Seyerot - Vocals (additional) (track 7) (Carnivorous Voracity, Ergosphere, Harsh, Scrumptious Putrescence, With All My Hate, ex-Servants of the Sword, ex-Waldheim)
Zack - Vocals (additional) (track 7) (Ectomyectomy, Phalloplasty, Spilling Entrails, ex-Guttural Jesus, ex-To Decay, ex-Laparotomy)
Keru - Vocals (additional) (track 7) (Acephaly, Pandegoreium, ex-Undead, ex-Worship the Pestilence, ex-Effigy of Gods)
Nicolás - Vocals (additional) (track 7) (Cobentrice, Disoluto, Endoparasitic, Fragments of Paroxysm, Murder Pussy)
Axel - Vocals (additional) (track 7) (Worship the Pestilence)
James - Vocals (additional) (track 7) (Big Huge Bag of Cans with the Lads, Cranial Discharge)
Rodro - Vocals (additional) (track 7) (Enemy 906)
Sonny - Vocals (additional) (track 7)
Cristian - Vocals (additional) (track 7) (Rotten Evisceration)

Mexican slamming brutal death zombies INFECTO in their first full length
DESCARNADO Y REPULSIVO FIN DE UNA ESPECIE will be released by Coyote Records
23 may 2022. They are inspired by perversions and depravities, corspses in lust, grotesque
pandemic galleries of rotten meat and all that gory exquicites for your brain.

[youtube]necGh5DTBI4[/youtube][/more]

[more=Technical info]
Input File: 02. Anatómico Anagrama.mp3
Channels : 2
Sample Rate : 44100
Precision : 16-bit
Duration : 00:03:28.11 = 9177475 samples = 15608 CDDA sectors
File Size : 8.33M
Bit Rate : 320k
Sample Encoding: MPEG audio (layer I, II or III)
Comments :
Title=Anatomico Anagrama
Artist=Infecto
Album=Descarnado y Repulsivo Fin de una Especie
Tracknumber=2
Year=2022
Genre=Brutal Death Metal | Deathcore

[/more]

Register
(7) artscald, caro, cesar, Dante_D, jollo, vyacheslav, Wail,
May 22 2022, 07:26:08 Vronski - Ephemeral (2022)


*Artist: Vronski
*Album: Ephemeral
*Year: 2022
*Genre: Post-Black Metal
*Country: Poland
*Format: mp3@CBR320kbps
*Size: 80MB

Tracklist:
1. Mad Song 03:58
2. To Disperse 06:26
3. Burnt Bridges 04:28
4. Sweet Oblivion 04:31
5. Embraced by the Waves 04:57
6. Threshold 04:24
7. Farewell 05:06
******************************
Total playing time: 33:50



[more=Extended info]Lyrics for track 1 taken from William Blake's poem with the same title.[/more]

[more=Technical info]
Input File: 01. Mad Song.mp3
Channels : 2
Sample Rate : 44100
Precision : 16-bit
Duration : 00:03:58.12 = 10501180 samples = 17859.1 CDDA sectors
File Size : 9.53M
Bit Rate : 320k
Sample Encoding: MPEG audio (layer I, II or III)
Comments :
Title=Mad Song
Artist=Vronski
Album=Ephemeral
Tracknumber=1
Year=2022
Genre=Post-Black Metal

[/more]

Register
(19) aleon, AlexSmith, artscald, Carcharoth, caro, dermarsoran, fuoco, judaz, kim666, Mencae77, metaljosue, Reverend, robertho777, SatanicPanzer, stormhatt, VALERY, varlam4, vasiljev_sergej, Wail,
May 21 2022, 19:28:14 When The Deadbolt Breaks - Live In Harrisburg [live] (2022)


*Artist: When The Deadbolt Breaks
*Album: Live In Harrisburg [live]
*Year: 2022
*Genre: Sludge/Doom Metal
*Country: United States
*Format: flac
*Size: 150MB

Tracklist:
1. Intro – Fist Full of Flowers and an Empty Handgun 07:32
2. The Hanged Woman 08:04
3. GlassEye 05:00
******************************
Total playing time: 20:36



[more=Extended info]Line - up:

Cherilynne - Vocals (female), Piano
Aaron Lewis - Vocals, Guitars (Élan, ex-Tamrin, Buzzard Canyon, ex-Serpents of Secrecy, ex-Cable, ex-BurningKind, ex-ClockSeed, ex-Distorted Youth, ex-Kemmler Standard, ex-The Walking Ghost, ex-ThunderHoof, ex-Vexation)
Mike Parkyn - Bass, Vocals (ex-Aimed Aggression, burningKind., denythefallout, Fatedream, Kill-9)
Rich Kalinowski - Drums[/more]

Register
(2) Dante_D, Wail,

194 Pages V   1 2 3 > » 
- Lo-Fi Version Support form
Copyrights and abuse reports form
Time is now: 28th May 2022 - 08:07:53