Welcome Guest ( Log In | Register )

История благодарностей участнику Necrokilldozer ::: Спасибо сказали: 77387 раз(а)
Дата поста: В теме: За сообщение: Спасибо сказали:
Yesterday, 19:57:13 Gonemage - Spell Piercings (2024)


*Artist: Gonemage
*Album: Spell Piercings
*Year: 2024
*Genre: Experimental/Post-Black Metal/Chiptune
*Country: United States
*Format: mp3@CBR320kbps
*Size: 89MB

Tracklist:
1. Crawlspace 03:39
2. Bouncing Scroll 03:34
3. Screambled 03:27
4. Sliced in the Chamber 04:00
5. C U 06:51
6. Tattered Cloak 03:41
7. Cave of Trials 04:09
8. Spell Piercings 07:24
******************************
Total playing time: 36:45



[more=Extended info]Line - up:
Galimgim - All instruments, Vocals (lead) (Cara Neir, KSSL, ex-Dire, ex-Garrsinn, ex-Ghastrah Proxiima, ex-Homeskin, ex-Parabstruse, ex-Sallow Moth, ex-Semen Across Lips, ex-Thō, Lev'myr, Memorrhage, Perfumed Saturnine Angels, ex-Wildspeaker, ex-Bunrage, ex-Lunarian Sea, ex-Nautilusk, ex-Smoosz, ex-Sugar Highlands, ex-Synthetic Onslaught, ex-They Mostly Come Out at Night, ex-Vision Éternel, ex-Writhe)

Guest/Session:
Adaline G - Vocals (backing) [tracks 3, 4]
Alec A. Head - Vocals (track 4) (Kosmodemonic, Ghostbound)
Cain Borgia - Vocals (additional lead) [track 6]
Cory Peterson - Vocals (track 8) (.springofdrownedpanda., Aberrated, Kevorkianesque, Thætas, Asystole)
Detox - Vocals (backing) [track 3]
James Schechet - DJ tag (track 2)
Lunar Cult - Outro (track 8) (Lunar Cult)
Mabelstyx - Intro (track 1)
Tricky Youth - Vocals (additional) [tracks 3, 6]
tttlllrrr - Turntables (track 2)

It’s 1999. Somebody someone from nondescript suburbia opens a dusty, old toy box tucked away in a crawlspace underneath a bedroom closet. Out comes a purple clown doll, animated with clacking footsteps, smiling, and singing indecipherable words. Stone, ice, and chains suddenly emerge out of purple smoke emitting from the doll, warping all surroundings into a dungeon. All nearby inhabitants become subject to the clown’s morbid sense of amusement and games of magic and mischief.[/more]

[more=Technical info]
Input File: 01 - Crawlspace.mp3
Channels : 2
Sample Rate : 44100
Precision : 16-bit
Duration : 00:03:39.00 = 9657900 samples = 16425 CDDA sectors
File Size : 8.77M
Bit Rate : 320k
Sample Encoding: MPEG audio (layer I, II or III)
Comments :
Title=Crawlspace
Artist=Gonemage
Album=Spell Piercings
Tracknumber=1
Year=2024-02-23
Genre=Experimental | Post-Black Metal | Chiptune

[/more]

Register
(6) artscald, dermarsoran, judaz, madera, nemx, Weikai,
Yesterday, 19:53:08 Le Menhir - Le Menhir [compilation] (2024)


*Artist: Le Menhir
*Album: Le Menhir [compilation]
*Year: 2024
*Genre: Doom/Post-Metal
*Country: United Kingdom
*Format: mp3@CBR320kbps
*Size: 94MB

Tracklist:
1. Rituel 01:26
2. Nocturne 05:20
3. Orage 05:49
4. Monstre 07:56
5. Silice 02:01
6. Fossile 04:58
7. Centenaire 07:26
8. Torrent 04:58
******************************
Total playing time: 39:54



[more=Extended info]WEB FLAC RIP

Line - up:
Paul Sparshott - All instruments, Vocals, Songwriting

Guest/Session:
Catie Williams - Bagpipes (track 1) (Northern Oak)

Le Menhir was conceived as a one man band experiment to write music inspired by the forces of nature that both create and destroy life. Combining the melodic heaviness of post metal with the sombre themes of doom, Le Menhir went on to perform across the UK supporting the likes of Boss Keloid, Dystopian Future Movies, Ba'al, Tuskar, Elephant Tree, Gilmore Trail and Grave Lines. This album collects all of the digital releases into a single physical album as a final farewell.[/more]

[more=Technical info]
Input File: 01. Rituel.mp3
Channels : 2
Sample Rate : 48000
Precision : 16-bit
Duration : 00:01:26.64 = 4158864 samples ~ 6498.22 CDDA sectors
File Size : 3.53M
Bit Rate : 326k
Sample Encoding: MPEG audio (layer I, II or III)
Comments :
Title=Rituel
Artist=Le Menhir
Album=Le Menhir (Compilation)
Tracknumber=1
Year=2024
Genre=Doom | Post-Metal

[/more]

Register
(1) artscald,
Yesterday, 19:01:17 Forlorn Yearning - Inanimate Shades [ep] (2024)


*Artist: Forlorn Yearning
*Album: Inanimate Shades [ep]
*Year: 2024
*Genre: Melodic Black Metal
*Country: Finland
*Format: flac
*Size: 142MB

Tracklist:
1. A Soul in Ruins 06:55
2. Of Bitterness and Duality 07:32
3. Inanimate Shades 06:53
******************************
Total playing time: 21:20



[more=Technical info]
Input File: 01 A Soul in Ruins.flac
Channels : 2
Sample Rate : 48000
Precision : 16-bit
Duration : 00:06:55.81 = 19958694 samples ~ 31185.5 CDDA sectors
File Size : 50.3M
Bit Rate : 968k
Sample Encoding: 16-bit FLAC
Comments :
Title=A Soul in Ruins
TrackNumber=1
Genre=Black Metal
Date=2024
Album=Inanimate Shades (EP)
Artist=Forlorn Yearning
Album Artist=Forlorn Yearning
Description=

[/more]

Register
(4) dermarsoran, Farfarello, Vakhangya, vasiljev_sergej,
Yesterday, 18:51:00 Posthumous Regurgitation - The Coroner's Guide To Cadaveric Cuisine (2024)


*Artist: Posthumous Regurgitation
*Album: The Coroner's Guide To Cadaveric Cuisine
*Year: 2024
*Genre: Death Metal/Grindcore
*Country: United States
*Format: mp3@CBR320kbps
*Size: 54MB

Tracklist:
1. Surgeon's Remorse 01:16
2. Bludgeoned Arterial Eruption 02:33
3. Tomophobia 02:29
4. Nurgle's Rot 03:23
5. Coffin Hypoxia 02:40
6. Corpse Pus Pâté 02:33
7. Graver's Oath 02:45
8. Basted in Amniotic Fluids 01:03
9. Coroner's Guide to Cadaveric Cuisine 02:16
10. Grotesque Laceration of Mortified Flesh (General Surgery Cover) 01:33
******************************
Total playing time: 22:31



[more=Extended info]Line - up:

Dr. Fleshkreep Cadaver Procurement - Bass, Vocals (Funerelic)
Kevin - Guitars (Funerelic, Malignant, ex-Peste Umbrarum, ex-Withermoon)[/more]

[more=Technical info]
Input File: 05. Coffin Hypoxia.mp3
Channels : 2
Sample Rate : 44100
Precision : 16-bit
Duration : 00:02:40.95 = 7097983 samples = 12071.4 CDDA sectors
File Size : 6.44M
Bit Rate : 320k
Sample Encoding: MPEG audio (layer I, II or III)
Comments :
Title=Coffin Hypoxia
Artist=Posthumous Regurgitation
Album=The Coroner's Guide to Cadaveric Cuisine
Tracknumber=5
Year=2024
Genre=Death Metal | Grindcore

[/more]

Register
(4) A.L.Rapsod, artscald, jollo, sludge666,
Yesterday, 17:52:07 Glaumni - Med Ett Er Tanken Død (2024)


*Artist: Glaumni
*Album: Med Ett Er Tanken Død
*Year: 2024
*Genre: Atmospheric Black Metal
*Country: Norway
*Format: mp3@CBR320kbps
*Size: 91MB

Tracklist:
1. Stenet landskap med skyer 03:43
2. Med ett er tanken død 06:56
3. Naar kongens skalle knuses hardt 03:32
4. Escaping Gods & Deceiving Mist of Time 09:43
5. Hvis lyset tar oss (Burzum cover) 04:51
6. Ahrimans hevn 02:26
7. I Am Satan - I Am God 04:04
8. Acknowledge the Confusion Master (Prophecy of Doom cover) 03:11
******************************
Total playing time: 38:26



[more=Technical info]
Input File: 01. Stenet Landskap med Skyer.mp3
Channels : 2
Sample Rate : 44100
Precision : 16-bit
Duration : 00:03:43.57 = 9859481 samples = 16767.8 CDDA sectors
File Size : 8.95M
Bit Rate : 320k
Sample Encoding: MPEG audio (layer I, II or III)
Comments :
Title=Stenet Landskap med Skyer
Artist=Glaumni
Album=Med ett er Tanken Dod
Tracknumber=1
Year=2024
Genre=Atmospheric Black Metal

[/more]

Register
(8) aleon, artscald, dermarsoran, LiarOfAngmar, metala, nemx, vasiljev_sergej, Weikai,
Yesterday, 17:31:12 Helldemon - Helldemon [demo] (2024)


*Artist: Helldemon
*Album: Helldemon [demo]
*Year: 2024
*Genre: Thrash Metal
*Country: United States
*Format: mp3@CBR320kbps
*Size: 41MB

Tracklist:
1. Bred to Kill 03:38
2. Foul Obsession 04:43
3. Prowling Through the Night 04:43
4. Order of the Emperor 04:02
******************************
Total playing time: 17:06



[more=Extended info]Line - up:

Andrew Pedro - Drums
Gus Barr - Guitars, Bass (Detritus, Exfiltraitor, Lago, Dessiderium (live), Variant Velocity, ex-Bethledeign)
Nick Schellbach - Vocals (SaintBreaker, GrindHouse)[/more]

[more=Technical info]
Input File: 01. Bred to Kill.mp3
Channels : 2
Sample Rate : 44100
Precision : 16-bit
Duration : 00:03:38.40 = 9631352 samples = 16379.9 CDDA sectors
File Size : 8.74M
Bit Rate : 320k
Sample Encoding: MPEG audio (layer I, II or III)
Comments :
Title=Bred to Kill
Artist=Helldemon
Album=Helldemon (Demo)
Tracknumber=1
Year=2024
Genre=144

[/more]

Register
(3) 747metaller, artscald, Marek,
Feb 24 2024, 19:31:14 Hirjä - MMXXIV [demo] (2024)


*Artist: Hirjä
*Album: MMXXIV [demo]
*Year: 2024
*Genre: Raw Black/Funeral Doom Metal
*Country: France
*Format: mp3@CBR320kbps
*Size: 72MB

Tracklist:
1. Ore 13:41
2. Hacine 03:39
3. Sandre 12:49
******************************
Total playing time: 30:09



[more=Technical info]
Input File: 03. Sandre.mp3
Channels : 2
Sample Rate : 48000
Precision : 16-bit
Duration : 00:12:49.06 = 36914832 samples ~ 57679.4 CDDA sectors
File Size : 30.9M
Bit Rate : 321k
Sample Encoding: MPEG audio (layer I, II or III)
Comments :
Title=Sandre
Artist=Hirja
Album=MMXXIV (Demo)
Tracknumber=3
Year=2024
Genre=Raw Black | Funeral Doom Metal

[/more]

Register
(8) AlexSmith, dermarsoran, Grev, infozahist, nemx, SilentNidhogg, uk82grind, vasiljev_sergej,
Feb 24 2024, 19:16:11 Harhaoppisten Ylipapitar - Hyl​ä​ttyin Maailmain Kulkija [ep] (2024)


*Artist: Harhaoppisten Ylipapitar
*Album: Hyl​ä​ttyin Maailmain Kulkija [ep]
*Year: 2024
*Genre: Raw Black Metal
*Country: Finland
*Format: mp3@CBR320kbps
*Size: 72MB

Tracklist:
1. Todellinen itsensä toteuttaminen ilmenee ainoastaan uhrissa 04:28
2. Haudantakaisen kostonhimon poltteesta 02:32
3. Harhoihinsa eksyneen sielun viimeiset huudot 05:39
4. Olemme kuolleiden unta 03:30
5. Se viesti saapui yli avaruuden kuilujen 03:20
6. Hylättyin maailmain kulkija 03:24
7. Silloin kun eri maailmojen rajat olivat heikoimillaan 02:48
8. Uuden auringon nousu merkitsee aikamme loppua 04:16
******************************
Total playing time: 29:57



[more=Extended info]Line - up:

Corpus Infernale Tristi - Guitars, Bass (Dark Entity, Saastunut)
Hämärä - Vocals, Drums, Guitars (additional), Bass (additional) (Kurjuus, Saastunut)[/more]

[more=Technical info]
Input File: 08. Uuden auringon nousu merkitsee aikamme loppua.mp3
Channels : 2
Sample Rate : 44100
Precision : 16-bit
Duration : 00:04:16.33 = 11304153 samples = 19224.8 CDDA sectors
File Size : 10.3M
Bit Rate : 320k
Sample Encoding: MPEG audio (layer I, II or III)
Comments :
Title=Uuden auringon nousu merkitsee aikamme loppua
Artist=Harhaoppisten Ylipapitar
Album=Hylattyin maailmain kulkija (EP)
Tracknumber=8
Year=2024
Genre=Raw Black Metal

[/more]

Register
(10) AlexSmith, artscald, dermarsoran, Grev, kim666, nemx, sacrut, SilentNidhogg, stub888, vasiljev_sergej,
Feb 24 2024, 18:55:56 Potvor - С​а​д​и​т​с​я С​о​л​н​ц​е [ep] (2024)


*Artist: Potvor
*Album: С​а​д​и​т​с​я С​о​л​н​ц​е [ep]
*Year: 2024
*Genre: Black Metal/Sludge
*Country: Russian Federation
*Format: mp3@CBR320kbps
*Size: 60MB

Tracklist:
1. Жертвоприношение 04:29
2. Ближе к сердцу 03:02
3. Цепи 04:00
4. Кто ты 03:53
5. Говори, с чем пришёл (Часть первая.) 03:08
6. Говори, с чем пришёл (Часть вторая.) 06:25
******************************
Total playing time: 24:57



[more=Extended info]Line - up:
Dmitry Tretyakov - Drums, Vocals (Ардра)
Dmitry Kuzmin - Guitars, Vocals (Стальные Нервы)

Guest/Session:
Maxim Morozov - Clarinet, Vocals (Ritual Haze)[/more]

[more=Technical info]
Input File: 06. Говори, с чем пришёл (Часть вторая.).mp3
Channels : 2
Sample Rate : 44100
Precision : 16-bit
Duration : 00:06:25.38 = 16995346 samples = 28903.6 CDDA sectors
File Size : 15.4M
Bit Rate : 320k
Sample Encoding: MPEG audio (layer I, II or III)
Comments :
Title=Говори, с чем пришёл (Часть вторая.)
Artist=Potvor
Album=Садится солнце (EP)
Tracknumber=6
Year=2024
Genre=Black | Sludge Metal

[/more]

Register
(3) AlexSmith, dermarsoran, sarcophagus,
Feb 24 2024, 18:36:26 Shylmagoghnar - 2004​-​2006 Demo Album (20th Anniversary Celebration) [compilation] (2024)


*Artist: Shylmagoghnar
*Album: 2004​-​2006 Demo Album (20th Anniversary Celebration) [compilation]
*Year: 2024
*Genre: Progressive/Melodic Death/Black Metal
*Country: Netherlands
*Format: mp3@CBR320kbps
*Size: 98MB

Tracklist:
1. Follow Me to Where the Sun No Longer Warms the Earth 03:12
2. Third Cry of the Raven (Intro) 01:00
3. To Keep in Mind 04:09
4. Squandered Paradise 04:32
5. Eden in Ashes 06:03
6. Within the Hollow 02:33
7. Thorn Diadem 05:09
8. Eternal Forest 04:20
9. Raptures of a Dying World 03:13
10. What Pain Provides 04:03
11. A New Dawn 04:25
******************************
Total playing time: 42:39



[more=Extended info]BANDCAMP FLAC RIP

Line - up:

Nimblkorg - Vocals, Guitars, Bass, Keyboards, Drums
Skirge - Vocals, Keyboards

Recording information:

Nimblkorg - Music, except for Track 1
Skirge - Music on Track 1, Lyrics/Vocals on Track 5.

Shylmagoghnar's original unaltered 2004-2006 demo album, released to celebrate the band's 20th anniversary. The cover art is what was on the jewelcase back then.

A heartfelt thank you to everyone who has supported this project over the years! I didn't think it would ever last this long. Enjoy this glimpse into our early days!

This demo has also been released on Youtube with some added written commentary and bonus video footage of a rehearsal in 2007. You can find it HERE:
www.youtube.com/watch?v=-33NuKHAUsY[/more]

[more=Technical info]
Input File: 02. Third Cry of the Raven (intro) (demo).mp3
Channels : 2
Sample Rate : 44100
Precision : 16-bit
Duration : 00:01:00.40 = 2663684 samples = 4530.07 CDDA sectors
File Size : 2.50M
Bit Rate : 331k
Sample Encoding: MPEG audio (layer I, II or III)
Comments :
Title=Third Cry of the Raven (intro) (demo)
Artist=Shylmagoghnar
Album=2004-2006 Demo Album (20th Anniversary Celebration) (Compilation)
Tracknumber=2
Year=2024
Genre=Progressive | Melodic Death | Black Metal

[/more]

Register
(7) BlackSwordMaster88, dermarsoran, kalmametallinen, Lucifer, Maximvs, Reverend, Weikai,
Feb 24 2024, 17:51:11 Rectoplasm - Liquifying Brutality [ep] (2024)


*Artist: Rectoplasm
*Album: Liquifying Brutality [ep]
*Year: 2024
*Genre: Brutal Death Metal
*Country: United States
*Format: flac
*Size: 144MB

Tracklist:
1. (Blunt) Forced Cranial Cleansing 03:17
2. Dismembering the Third Leg 02:13
3. Gorged into Bits 02:29
4. Leash of Entrails 03:02
******************************
Total playing time: 11:01



[more=Extended info]Main Vocals by Raccoon Thrasher
Drums by Tim Thompson
Bass and Vocals by Grey Westbrook
Guitars by Wyatt Merland[/more]

[more=Technical info]
Input File: Rectoplasm - Liquifying Brutality - 04. Leash of Entrails.flac
Channels : 2
Sample Rate : 44100
Precision : 24-bit
Duration : 00:03:02.50 = 8048250 samples = 13687.5 CDDA sectors
File Size : 40.0M
Bit Rate : 1.75M
Sample Encoding: 24-bit FLAC
Comments :
Date=2024
Artist=Rectoplasm
Album=Liquifying Brutality (EP)
Title=Leash of Entrails
TrackNumber=4
Genre=Brutal Death Metal
Description=

[/more]

Register
(2) infozahist, xariton,
Feb 23 2024, 20:01:59 Fange - Perdition (2024)


*Artist: Fange
*Album: Perdition
*Year: 2024
*Genre: Industrial Metal/Sludge
*Country: France
*Format: mp3@CBR320kbps
*Size: 73MB

Tracklist:
1. Césarienne au noir 05:49
2. Mauvais vivant 04:01
3. Toute honte bue 04:22
4. Foudres fainéantes 01:57 instrumental
5. La haine (Bernard Lavilliers) 05:07
6. Lèche-béton 04:24
7. Désunion sacrée 04:54
******************************
Total playing time: 30:34




[more=Extended info]Line - up:
Benjamin Moreau - Guitars, Vocals (additional), Machines, Songwriting (ex-Huata)
Antoine Perron - Bass, Machines, Vocals (additional) (Grist)
Matthias Jungbluth - Vocals, Machines, Lyrics (Calvaiire)
Titouan le Gal - Guitars, Machines, Vocals (additional) (Epectase, ex-Oes Galliath, ex-Acedia Mundi, ex-Etxegiña, ex-Extravasion, ex-Filthcult)

Guest/Session:
Olivier Guinot - Vocals (additional) (track 3)
Diane Pellotieri - Vocals (additional) (track 7)

[youtube]https://youtu.be/B-t0G4W67QU?si=VlhA_6N6WSdpDmej[/youtube]

France's FANGE has navigated through their most active year yet defending "Privation", engaging in two European tours and making multiple appearances at festivals throughout 2023. Far from dampening their creative fire, the band was in parallel writing "Perdition" — six new tracks and a creeping cover of Bernard Lavilliers. The entire recording and production process was executed by the band, with mixing and mastering duties once again handled by Cyrille Gachet and Alan Douches.

Conceived as a spiritual successor to 2020's machine-driven "Poigne", "Perdition" expands upon the concept of a less riff-focused release while also embracing the cleaner, more desolate atmosphere explored on "Privation". Built and refined during the summer of 2023 upon foundations made of mutilated death industrial loops and grievous melodic guitars, the album serves as a testament to the band's distinctive identity, placing emphasis on the gloom and the martial — spleen and discipline.[/more]

[more=Technical info]
Input File: 02. Mauvais Vivant.mp3
Channels : 2
Sample Rate : 44100
Precision : 16-bit
Duration : 00:04:01.57 = 10653237 samples = 18117.8 CDDA sectors
File Size : 9.66M
Bit Rate : 320k
Sample Encoding: MPEG audio (layer I, II or III)
Comments :
Title=Mauvais Vivant
Artist=Fange
Album=Perdition
Tracknumber=2
Year=2024
Genre=Industrial Sludge | Death Metal

[/more]

Register
(7) as71, gena, Grev, gwar, Hell_Is_Here, marilin, yuratroll,
Feb 23 2024, 19:26:28 Druadan Forest - Dismal Spells Part II: The Night Circus (2024)


*Artist: Druadan Forest
*Album: Dismal Spells Part II: The Night Circus
*Year: 2024
*Genre: Dungeon Synth
*Country: Finland
*Format: mp3@CBR320kbps
*Size: 91MB

Tracklist:
1. Moonlight Sorcery 05:58
2. Witches Lake 04:54
3. Summer Night Orgies 04:26
4. The Devil's Gate 02:40
5. Spells and Magic Potions 05:08
6. Raven and Dagger 04:14
7. Wizard's Hut 03:52
8. Black Towers of Kharanos 06:39
******************************
Total playing time: 37:51

[more=Extended info][youtube]https://youtu.be/qO5aDRhmA1Y[/youtube][/more]

[more=Technical info]
Input File: 07 - Wizard\'s Hut.mp3
Channels : 2
Sample Rate : 44100
Precision : 16-bit
Duration : 00:03:52.00 = 10231200 samples = 17400 CDDA sectors
File Size : 9.29M
Bit Rate : 320k
Sample Encoding: MPEG audio (layer I, II or III)
Comments :
Title=Wizard's Hut
Artist=Druadan Forest
Album=Dismal Spells Part 2 (The Night Circus)
Tracknumber=7
Year=2024-02-23
Genre=Epic Black Metal | Ambient, Dungeon Synth

[/more]

Register
(7) ChaosArcana, deamonmotherloveson, Grev, nemx, thenecromancer, vosmidesijatye, Wail,
Feb 23 2024, 18:56:59 Donor - Triangle Of The Lost: Rarities [compilation] (2024)


*Artist: Donor
*Album: Triangle Of The Lost: Rarities [compilation]
*Year: 2024
*Genre: Progressive Speed/Thrash Metal
*Country: Netherlands
*Format: mp3@CBR320kbps
*Size: 111MB

Tracklist:
1. Inexplicable Knowledge (demo) 06:02
2. Hey Girlie (demo) 01:20
3. Reality in Disguise (demo) 04:13
4. Masked Violence (demo) 04:26
5. Triangle of the Lost (live) 06:38
6. Cimmerian Darkness (live) 03:55
7. Priest Without A God (live) 04:41
8. Crossing Fields ("A Work In Progress") (live) 01:19
9. Derailed (live) 08:21
10. Dying Man (live) 05:01
******************************
Total playing time: 45:56



[more=Extended info]Line - up:

Cees van Petten - Bass
Tony van Petten - Drums (ex-Frozen Sun)
Bart Vreken - Guitars
Richard Dijkman - Vocals
Jelle Bakker - Guitars (1985-1995) (ex-Within Temptation, ex-Frozen Sun)

Collection of rarities from before and during the "Triangle Of The Lost" era of the band. Some tracks are included on the deluxe edition CD of the album, however, due to space restrictions many tracks were omitted.

Live tracks recorded at Markethalle, Hamburg in 1993.[/more]

[more=Technical info]
Input File: 03 - Reality In Disguise (Demo).mp3
Channels : 2
Sample Rate : 44100
Precision : 16-bit
Duration : 00:04:13.00 = 11157300 samples = 18975 CDDA sectors
File Size : 10.2M
Bit Rate : 321k
Sample Encoding: MPEG audio (layer I, II or III)
Comments :
Title=Reality In Disguise (Demo)
Artist=Donor
Album=Triangle Of The Lost: Rarities (Compilation)
Tracknumber=3
Year=2024-02-23
Genre=Progressive Speed | Thrash Metal

[/more]

Register
(16) 747metaller, after21allD, artscald, Bloodline Christian, chipsgott, dafya328, desekrator, gwar, hell_armageddon, infozahist, Marek, METALHUNTER, Proteus_666, strato20, stumpheavyrock, Wail,
Feb 23 2024, 18:35:37 Donor - Release: Rarities [compilation] (2024)


*Artist: Donor
*Album: Release: Rarities [compilation]
*Year: 2024
*Genre: Progressive Speed/Thrash Metal
*Country: Netherlands
*Format: mp3@CBR320kbps
*Size: 108MB

Tracklist:
1. Hidden Truth (alternate version) 04:20
2. Portrayal (alternate version) 05:07
3. Whispering Waves (acoustic version) 03:02
4. Ivory Chair (live) 04:08
5. Portrayal (live) 04:52
6. Void (live) 02:58
7. Hidden Truth (live) 04:23
8. Blessed By Sorrow (live) 04:34
9. Swallowed (live) 03:04
10. Crossing Fields (live) 04:50
11. When the Valykries Ride (live) 03:26
******************************
Total playing time: 44:44



[more=Extended info]Line - up:

Cees van Petten - Bass
Tony van Petten - Drums (ex-Frozen Sun)
Bart Vreken - Guitars
Richard Dijkman - Vocals
Jelle Bakker - Guitars (1985-1995) (ex-Within Temptation, ex-Frozen Sun)

Collection of rarities from the "Release" era of the band. Some tracks are included on the deluxe edition CD of the album, however, due to space restrictions many tracks were omitted.

Live tracks recorded at Melkweg, Amsterdam in 1995.[/more]

[more=Technical info]
Input File: 01 - Whispering Waves (Acoustic Version).mp3
Channels : 2
Sample Rate : 44100
Precision : 16-bit
Duration : 00:03:02.00 = 8026200 samples = 13650 CDDA sectors
File Size : 7.33M
Bit Rate : 322k
Sample Encoding: MPEG audio (layer I, II or III)
Comments :
Title=Whispering Waves (Acoustic Version)
Artist=Donor
Album=Release Rarities (Compilation)
Tracknumber=1
Year=2024-02-23
Genre=Progressive Speed | Thrash Metal

[/more]

Register
(14) 747metaller, after21allD, artscald, Bloodline Christian, dafya328, desekrator, gwar, hell_armageddon, infozahist, Marek, METALHUNTER, Proteus_666, strato20, Wail,
Feb 23 2024, 18:08:05 Toby Knapp - Transmission To Purgatory (2024)


*Artist: Toby Knapp
*Album: Transmission To Purgatory
*Year: 2024
*Genre: Instrumental Technical Progressive/Neoclassical Metal/Shred
*Country: United States
*Format: mp3@CBR320kbps
*Size: 80MB

Tracklist:
1. Damnation's Corridor 03:48
2. No Raid at Dawn 04:33
3. The Law of Malice 04:19
4. Abramelin Carousel 04:13
5. Delirium Hierarchy 04:48
6. Hydrophobia #2 04:08
7. A Vulture's Bane 04:20
8. Black Light Temple 03:08
******************************
Total playing time: 33:17



[more=Extended info]The Highly anticipated 9th album of impeccable instrumental Heavy Metal from the US Guitar virtuoso!

TOBY KNAPP is an internationally renowned American guitar virtuoso schooled in the metal finger-picking styles of Uli Jon Roth and Yngwie Malmsteen. He was just 18 when he signed with the esteemed metal label Shrapnel Records in 1992, and continues to have a productive and prolific career in rock and Heavy Metal! TOBY KNAPP has since released over 22 albums under his own name and with his many bands, including Onward, Toby Knapp, Waxen, Where Evil Follows, Necrytis, Affliktor & Darken. KNAPP is also a full time guitar teacher & session studio and live musician for many world class national artists including Attila Csihar (Mayhem), Godless Rising, Fetid Zombie, Abhor & others, With both feet firmly planted in both progressive Metal as well as Thrash and death metal, he has given nods to the legends of heavy metal while blazing his own electrifying trail.

TOBY KNAPP now returns with his 9th solo album “Transmission to Purgatory”, featuring 8 tracks of unique & patented soaring melodies, searing guitar solos and most importantly solid song crafting with stunning songs! An astounding slab of pure instrumental Hard Rock and Heavy Metal destined to revive and reinvigorate the genre for the 21st century! “Transmission to Purgatory” is a guitar driven instrumental Heavy Metal epic full of killer riffs and searing guitar solos.

PRESS:
“an immaculately-crafted outing that would keep a wide gamut of fans hooked.” -metal-archives
"Toby’s been killing it and making great rock & metal records for almost 3 decades. Wise up and pay attention!" -JOE STUMP (Legendary Guitarist/Berkley College of Music Professor)
"This guitarist gnaws at his solos like a carnivorous Malmsteen" -Guitar World
"Knapp is an axe wizard who is a firestorm of razor sharp riffery"-Brave Words & Bloody Knuckles
“TK doesn’t just “noodle” his guitar, he actually writes SONGS!” -The Old Goat
"Recording guitarists like Yngwie Malmsteen, Paul Gilbert, Marty Friedman & Toby Knapp has been a dream come true for me" -Mike Varney/Shrapnel Records President

* The Highly anticipated 9th solo album of impeccable instrumental Heavy Metal from the US Guitar virtuoso!
* Product Highlight Sticker with sales points!
* Prime band of World renowned axe-shredder, teacher & session musician Toby Knapp (Onward, Waxen, Where Evil
Follows, Godless Rising)!!!
* Composed, performed, mixed and produced by Toby Knapp at Rattlesnake Stomper Studios!
* Ecliptic Cover Art & graphic design by The Old Goat (W.O.T.B.M., Vardan, Waxen, Xasthur).
* Mandatory for fans of Yngwie Malmsteen, Ritchie Blackmore, Uli Roth, Joe Satriani & Eric Johnson !

YOUTUBE VIDEO / AUDIO SAMPLES:
“Damnation's Corridor” Teaser Video:
youtu.be/YJdXkViMZdo[/more]

[more=Technical info]
Input File: 07 - A Vulture\'s Bane.mp3
Channels : 2
Sample Rate : 44100
Precision : 16-bit
Duration : 00:04:19.00 = 11421900 samples = 19425 CDDA sectors
File Size : 10.4M
Bit Rate : 321k
Sample Encoding: MPEG audio (layer I, II or III)
Comments :
Title=A Vulture's Bane
Artist=Toby Knapp
Album=Transmission to Purgatory
Tracknumber=7
Year=2024-02-23
Genre=Instrumental Technical Progressive | Neoclassical Metal | Shred

[/more]

Register
(14) 747metaller, after21allD, artscald, chipsgott, Dante_D, infozahist, krimson1, LiarOfAngmar, Marek, metala, OmegaBlade696, Sanctus, Wail, скептик,
Feb 22 2024, 20:58:09 Craneium - Point Of No Return (2024)


*Artist: Craneium
*Album: Point Of No Return
*Year: 2024
*Genre: Stoner/Doom Metal/Rock
*Country: Finland
*Format: flac
*Size: 261MB

Tracklist:
1. One Thousand Sights 05:33
2. The Sun 05:02
3. A Distant Shore 07:34
4. ...of Laughter and Cries 06:17
5. Things Have Changed 05:09
6. Search Eternal 07:23
******************************
Total playing time: 36:58



[more=Extended info]Line - up:

Jonas Ridberg - Bass
Joel Kronqvist - Drums
Martin Ahlö - Guitars, Vocals
Andreas Kaján - Guitars, Vocals

Craneiums fourth album “Point Of No Return” is a powerful, beautiful and melodic rock album with great psychedelic parts for your mind to set free. Changes in
Crushingly beautiful guitar loops and dynamic post-rock. Topics about the changes in this world and the human responsibility.[/more]

[more=Technical info]
Input File: 04 - ...of Laughter and Cries.flac
Channels : 2
Sample Rate : 44100
Precision : 16-bit
Duration : 00:06:17.81 = 16661568 samples = 28336 CDDA sectors
File Size : 46.3M
Bit Rate : 980k
Sample Encoding: 16-bit FLAC
Comments :
TrackNumber=4
Date=2024
Album Artist=Craneium
Artist=Craneium
Genre=Stoner | Doom Metal | Rock
Title=...of Laughter and Cries
Album=Point of No Return
Description=

[/more]

Register
(5) Grev, Korpse, stumpheavyrock, Vakhangya, Wail,
Feb 22 2024, 20:45:34 The Body & Dis Fig - Orchards Of A Futile Heaven [collaboration] (2024)


*Artist: The Body & Dis Fig
*Album: Orchards Of A Futile Heaven [collaboration]
*Year: 2024
*Genre: Experimental Sludge/Doom Metal/Noise/Industrial | Experimental Sludge/Doom Metal/Noise/Industrial
*Country: United States | Germany
*Format: mp3@CBR320kbps
*Size: 92MB

Tracklist:
1. Eternal Hours 04:58
2. To Walk a Higher Path 03:31
3. Dissent, Shame 04:03
4. Orchards of a Futile Heaven 05:57
5. Holy Lance 03:49
6. Coils of Kaa 09:15
7. Back to the Water 06:43
******************************
Total playing time: 38:16



[more=Extended info]The Body & Dis Fig are a natural pair. Each has pioneered instantly recognizable worlds of sound all their own that defy any traditional categorizations or boundaries. The Body, Lee Buford and Chip King, continually challenge any conventional conception of metal, collaborating with myriad artists and from the folk-leanings of their work with BIG|BRAVE to their groundbreaking work with the Assembly of Light Choir to the intensity of their collaborations with OAA or Thou. Dis Fig, aka Felicia Chen, pushes electronic music into dark extremes, from warped DJ sets to avant production, from being a member of Tianzhuo Chen’s performance-art series TRANCE to being the vocalist with The Bug. The Body and Dis Fig find kinship in reimagining what it means to make “heavy music”. Their debut Orchards of a Futile Heaven is the perfect synthesis of two forces, twisting melodicism and intoxicating rhythms, layering a dense miasma of distortion with intense beats and a soaring voice clawing its way towards absolution.

Orchards of a Futile Heaven’s walls of sputtering texture and tectonic booms are soaked in the reverence and melancholy of sacred spaces brought to life by palpable intensity by Chen’s voice. Crafted during a time of personal fragility, the album’s devastating force lies beyond any of the expected noise and abrasive textures typically associated with both The Body & Dis Fig. Suffused with a raw vulnerability and a longing for catharsis, Chen’s voice searches for escape in the midst of oppressive atmospheres as if determined to find relief from guilt. “Eternal Hours” patiently unfurls waves of surprising sounds, whispered undulations that are punctuated by sudden crashes, all beneath Chen’s haunting harmonies. “Dissent, Shame” evokes grief and shame with a minimalist drone dirge that gradually builds to an enchanting choral passage. King’s guitar on “Holy Lance” matches the uncanny drone of Chen’s accordion in an all-consuming blast, Chen’s voice transforming the moment from anguish to defiance and empowerment. The album’s arc finishes with “Coils of Kaa” acting as a kind of propulsive exorcism, breaking through a suffocating air before the funeral procession of “Back to the Water” lays the album to rest.

While sampling has long been essential to each, The Body & Dis Fig deftly meld their differing approaches to sampling and creating extreme sounds until the boundaries are entirely blurred. The two found kinship in their desire to find new avenues to make heavy music that looked beyond tropes of metal and electronic music by merging the two. “I always wanted the heavier stuff but I also didn’t really like heavier guitar music,” says Buford. “None of it really felt quite heavy enough to me. A human can’t be as heavy as a machine.” Chen counters, “I love the balance. You could never connect to just a machine as well as you could a human. Which is why the combination is so potent for me. I don’t want to hide. I think nothing connects you more empathetically than another human's voice.”

Orchards of a Futile Heaven affirms The Body & Dis Fig as skilled sound sculptors who have an exceptional ability to make deeply affecting music, bracing as it is touching, harrowing as it is awe-inspiring. Together, the two have harnessed their expansive artistry to make music that is profoundly emotional, and staggering in its beauty.[/more]

[more=Technical info]
Input File: 01 - Eternal Hours.mp3
Channels : 2
Sample Rate : 44100
Precision : 16-bit
Duration : 00:04:58.00 = 13141800 samples = 22350 CDDA sectors
File Size : 11.9M
Bit Rate : 320k
Sample Encoding: MPEG audio (layer I, II or III)
Comments :
Title=Eternal Hours
Artist=The Body / Dis Fig
Album=Orchards of a Futile Heaven (Collaboration)
Tracknumber=1
Year=2024-02-23
Genre=Experimental Sludge | Doom Metal | Noise | Industrial

[/more]

Register
(12) artscald, denver, gena, Grev, madera, marilin, p4B10, Sanctus, VALERY, Wail, Zer0, zobero,
Feb 22 2024, 19:11:06 They Came From Visions - The Twilight Robes (2024)


*Artist: They Came From Visions
*Album: The Twilight Robes
*Year: 2024
*Genre: Black Metal
*Country: Ukraine
*Format: mp3@CBR320kbps
*Size: 104MB

Tracklist:
1. Lughnasadh 02:05
2. Equinox Ablaze 07:49
3. Burning Eyes, Blackened Claws 07:24
4. The Blissful Defeat 05:29
5. Petrified Immortality 07:13
6. The Sign of Damnation 07:55
7. Twilight Robes 06:12
******************************
Total playing time: 44:07



[more=Extended info]WEB FLAC RIP

Line - up:

Voice of the Deep - Bass
Voice of Gloom - Guitars, Drums
Voice of Misery - Vocals

With „The Twilight Robes“ the anonymous Ukrainians of They Came From Visions step up to become a household name in the world of folk-horror-inspired black metal. Their music channels the frightening forces that arise directly from each lands ever-beating primordial heart.[/more]

[more=Technical info]
Input File: 01. Lughnasadh.mp3
Channels : 2
Sample Rate : 44100
Precision : 16-bit
Duration : 00:02:05.58 = 5538078 samples = 9418.5 CDDA sectors
File Size : 5.02M
Bit Rate : 320k
Sample Encoding: MPEG audio (layer I, II or III)
Comments :
Title=Lughnasadh
Artist=They Came from Visions
Album=The Twilight Robes
Tracknumber=1
Year=2024
Genre=Black Metal

[/more]

Register
(24) aleon, AlexSmith, artscald, Condehate, Dark_Viking, deamonmotherloveson, Grev, kim666, Messian, mishasha, nemx, Radek, recber, Rover, Sanctus, SilentNidhogg, squall8fr, terron, VALERY, vasiljev_sergej, Wail, Wotanwatch, yuratroll, ZamanFu,
Feb 22 2024, 19:03:59 Lèpoka - Dios Está Borracho (2024)


*Artist: Lèpoka
*Album: Dios Está Borracho
*Year: 2024
*Genre: Folk Metal
*Country: Spain
*Format: mp3@CBR320kbps
*Size: 79MB

Tracklist:
1. Dios está borracho 02:56
2. Brindo por verte 03:23
3. Dónde vas 02:53
4. Antes del amanecer 02:55
5. A las calles 03:26
6. La nit és nostra 03:04
7. Contando al andar 03:04
8. Un año más 03:33
9. El dorado 03:32
10. La misma habitación 03:38
******************************
Total playing time: 32:24

[more=Extended info]Line - up:
Zarach - Bagpipes, Flute
Zaph - Bass
Jaume - Drums
Popez - Guitars
Dani Nogués - Vocals
Dio - Guitars
Daniel Fuentes - Violin (ex-Debler Eternia, ex-Mägo de Oz (live))

Guest/Session:
Tato Latorre - Guitars (Additional), Keyboards, Programming (Maldita Nerea)

[youtube]R_sDAA0xGHo[/youtube][/more]

[more=Technical info]
Input File: 02 - Brindo por verte.mp3
Channels : 2
Sample Rate : 44100
Precision : 16-bit
Duration : 00:03:21.00 = 8864100 samples = 15075 CDDA sectors
File Size : 8.05M
Bit Rate : 320k
Sample Encoding: MPEG audio (layer I, II or III)
Comments :
Title=Brindo por verte
Artist=Lepoka
Album=Dios está borracho
Tracknumber=2
Year=2024-02-23
Genre=Folk Metal

[/more]

Register
(14) Altkiller, artscald, aviacademy, Cartman223, chipsgott, Condehate, Grev, gwar, hellraiser69, talismanFS, tt2008, Wail, ZamanFu, Сварог Барг,
Feb 21 2024, 19:54:28 Life Cycles - Portal To The Unknown [ep] (2024)


*Artist: Life Cycles
*Album: Portal To The Unknown [ep]
*Year: 2024
*Genre: Crossover/Hardcore/Thrash Metal
*Country: United States
*Format: flac
*Size: 139MB

Tracklist:
1. Portal to the Unknown
2. Haunting Spirit
3. Sanctioned Territory
4. End of Days
5. Death from Above
6. Serpent’s Kiss
******************************
Total playing time: 18:01



[more=Extended info]Line - up:

Christopher Sanchez - Bass
Xavier Rios - Drums (Frost Koffin)
Chris Buckner - Guitars
Luis Lopez Jr. - Guitars
Jeremy Cuevas - Vocals

Blazing crossover behemoths LIFE CYCLES are pleased to announce their union with 1126 Records for the release of their fourth EP, Portal To The Unknown, on February 22nd, 2024.

LIFE CYCLES hails from the heart of Texas, a state known for churning out sonic titans. Like fellow Lone Star State heavyweights Power Trip, LIFE CYCLES have set their sights on reshaping the realms of thrash and hardcore with an unyielding intensity through their potent cocktail of thrash metal ferocity and hardcore tenacity. Drawing inspiration from the likes of metal icons Slayer, Pantera, Municipal Waste, Exodus, Testament, and Judas Priest, the band effortlessly bridges the gap between two tumultuous genres. Their music possesses the raw aggression of a hardcore show, punctuated with bone-rattling breakdowns, while simultaneously carrying the blistering speed and precision of a thrash metal performance.

After igniting stages alongside Upon A Burning Body, LIFE CYCLES stands at the precipice of a groundbreaking chapter in their career. With Portal To The Unknown the band delves deep into the trials and tribulations of life, exploring betrayals, confronting toxic memories, and the eternal battle between nostalgia and bitter recollections. It's "us against the world," as drummer Xavier Rios aptly puts it.[/more]

[more=Technical info]
Input File: 03 - Sanctioned Territory.flac
Channels : 2
Sample Rate : 44100
Precision : 16-bit
Duration : 00:02:29.16 = 6577956 samples = 11187 CDDA sectors
File Size : 20.3M
Bit Rate : 1.09M
Sample Encoding: 16-bit FLAC
Comments :
Album=Portal To The Unknown (EP)
Genre=Crossover | Hardcore | Thrash Metal
Album Artist=Life Cycles
Title=Sanctioned Territory
TrackNumber=3
Date=2024
Artist=Life Cycles
Description=

[/more]

Register
(8) amiroo, boby9052, futilitarian, Genuine Thrashiac, lucifix, Marek, stumpheavyrock, Wail,
Feb 21 2024, 19:32:55 Austrian Death Machine - Quad Brutal (2024)


*Artist: Austrian Death Machine
*Album: Quad Brutal
*Year: 2024
*Genre: Modern Groove Metal
*Country: United States
*Format: mp3@CBR320kbps
*Size: 82MB

Tracklist:
1. No Pain, No Gain 04:06
2. Conquer 03:08
3. Hey Bro Can You Spot Me? 03:49
4. Judgement Day 04:06
5. Everybody Pities the Weak 02:56
6. Don't Be Lazy 03:53
7. Get Down 03:29
8. Destroy the Machines 03:06
9. MeatGrinder 02:31
10. I Never Quit 03:13
******************************
Total playing time: 34:17



[more=Extended info]Line - up:
Tim Lambesis - Guitars (rhythm), Vocals, Songwriting (As I Lay Dying, Born Through Fire, Pyrithion, ex-Against the Mark, ex-Life Once Lost, ex-Point of Recognition, ex-Society's Finest)

Guest/Session:
Brandon Short - Drums
Cory Walker - Guitars (rhythm), Vocals (Graey)
Mark MacDonald - Guitars (rhythm) (Crownevict, Mercury Switch, ex-As I Lay Dying (live))
Craig Golias - Vocals (tracks 1, 3, 6, 7, 10)
Angel Vivaldi - Guitars (lead) (track 1) (Angel Vivaldi)
Dany Lambesis - Vocals (track 8), Vocals (backing)
Dylan Burcombe - Guitars (lead) (track 6)
Rob Bailey Vocals - (track 10)
Ricky Hoover - Vocals (track 4) (Ov Sulfur, ex-Suffokate)
Clayton King - Guitars (lead) (track 2) (Designing Creation, So It Begins)
Joey Alarcon - Guitars (lead) (tracks 3, 8) (Born Through Fire, Wolves at the Gate)

[youtube]4B14z80Rfd0[/youtube]
[youtube]7WOR-Yj4fOk[/youtube]
[youtube]cCJDPgEB-PM[/youtube][/more]

[more=Technical info]
Input File: 01 - No Pain No Gain.mp3
Channels : 2
Sample Rate : 44100
Precision : 16-bit
Duration : 00:04:05.49 = 10826065 samples = 18411.7 CDDA sectors
File Size : 9.88M
Bit Rate : 322k
Sample Encoding: MPEG audio (layer I, II or III)
Comments :
Title=No Pain No Gain
Artist=Austrian Death Machine
Album=Quad Brutal
Tracknumber=1
Year=2024
Genre=Thrash Metal | Crossover | Metalcore

[/more]

Register
(22) 747metaller, akym, amiroo, artscald, boby9052, canadaspaceman, chipsgott, Condehate, core_eater, gwar, LiarOfAngmar, Marek, metaljosue, respect, Reverend, Slam91, stumpheavyrock, tschunioronbeer, Wail, Winner, ZamanFu, zhol,
Feb 21 2024, 18:56:20 Burial Rites - Demo 2024 [demo] (2024)


*Artist: Burial Rites
*Album: Demo 2024 [demo]
*Year: 2024
*Genre: Death Metal/Grindcore/Powerviolence
*Country: United States
*Format: flac
*Size: 69MB

Tracklist:
1. Choking on Dirt 00:56
2. Mandatory Violence 01:15
3. Brain Worms 02:04
4. Harm Retention 01:03
5. Salvation Void 01:08
6. Vermin 02:17
******************************
Total playing time: 8:43



[more=Extended info]Line - up:

Zach Hicks - Bass
Nick Nelson - Drums (ex-Hideous Creep, Slugged)
Ian Campbell - Guitars (Hot Death, Urðr, ex-Conjurer)
Brad Mohoric - Vocals (Sacred Serpent)[/more]

[more=Technical info]
Input File: 03. Brain Worms.flac
Channels : 2
Sample Rate : 44100
Precision : 16-bit
Duration : 00:02:04.18 = 5476365 samples = 9313.55 CDDA sectors
File Size : 16.7M
Bit Rate : 1.08M
Sample Encoding: 16-bit FLAC
Comments :
Album=Demo 2024 (Demo)
Genre=Death Metal | Grindcore | Powerviolence
Organization=6550725 Records DK
Album Artist=Burial Rites
Title=Brain Worms
TrackNumber=3
Date=2024
ISRC=QZES52452310
Artist=Burial Rites
BARCODE=198086231477
LENGTH=124000
Description=

[/more]

Register
(2) sludge666, Wail,
Feb 21 2024, 18:40:06 Kra - W Ciszy I Szarości [ep] (2024)


*Artist: Kra
*Album: W Ciszy I Szarości [ep]
*Year: 2024
*Genre: Atmospheric Black Metal
*Country: Poland
*Format: flac
*Size: 116MB

Tracklist:
1. Pustka 05:12
2. Złe 04:45
3. Broken 05:34
******************************
Total playing time: 15:31



[more=Technical info]
Input File: 03 Broken.flac
Channels : 2
Sample Rate : 44100
Precision : 16-bit
Duration : 00:05:34.24 = 14739776 samples = 25067.6 CDDA sectors
File Size : 42.2M
Bit Rate : 1.01M
Sample Encoding: 16-bit FLAC
Comments :
Album=W ciszy i szarości (EP)
Lyrics=Cursed with numbness
Or able to feel nothing.
Unable to see reason
Or blinded by the pride.
Destined to fall
Or rotten to the core.
Not caring for the coming storm
But seeing all the signs.

[/more]

Register
(5) dermarsoran, SilentNidhogg, Vakhangya, vasiljev_sergej, Wail,
Feb 20 2024, 20:00:17 Noor - Les Canadiens Sont Là [single] (2024)


*Artist: Noor
*Album: Les Canadiens Sont Là [single]
*Year: 2024
*Genre: Heavy/Power Metal
*Country: Canada
*Format: flac
*Size: 65MB

Tracklist:
1. Les Canadiens sont là 05:07
******************************
Total playing time: 5:07



[more=Extended info]Line - up:

Olivier Roy - Bass
Nicolas Moro - Drums
Simon Jarmosh - Guitars (rhythm)
Thomas Karam - Vocals, Guitars (lead)[/more]

[more=Technical info]
Input File: 01 Les Canadiens Sont Là.flac
Channels : 2
Sample Rate : 44100
Precision : 24-bit
Duration : 00:05:07.57 = 13563900 samples = 23067.9 CDDA sectors
File Size : 64.6M
Bit Rate : 1.68M
Sample Encoding: 24-bit FLAC
Comments :
Genre=Heavy | Power Metal
Artist=Noor
Title=Les Canadiens Sont Là
TrackNumber=01
Date=2024
Album=Les Canadiens Sont Là (Single)
Description=

[/more]

Register
(3) boby9052, infozahist, Wail,

279 Pages V   1 2 3 > » 
- Lo-Fi Version Support form
Copyrights and abuse reports form
Time is now: 26th February 2024 - 08:26:42