Welcome Guest ( Log In | Register )

История благодарностей участнику Necrokilldozer ::: Спасибо сказали: 44090 раз(а)
Дата поста: В теме: За сообщение: Спасибо сказали:
Yesterday, 17:03:59 Shacram - Mundo En Penumbras (2021)


*Artist: Shacram
*Album: Mundo En Penumbras
*Year: 2021
*Genre: Metalcore/Thrash Metal
*Country: Argentina
*Format: mp3@CBR320kbps
*Size: 87MB

Tracklist:
1. Más allá de los sueños 05:25
2. Principios 04:03
3. Poder 03:50
4. Un Dios 04:35
5. Designios 05:30
6. Desde las profundidades 04:28
7. Ciudad oculta 04:49
8. Necios 04:44
******************************
Total playing time: 37:24

[more=Extended info]Line - up:

Daniel Olivera - Bass (Panal)
Alejo Gómez - Drums
Esteban - Guitars, Vocals (Paganos)
Gabriel Perez - Guitars

[youtube]JYkg5AI3Sak[/youtube]
[youtube]fCMp1vQwEww[/youtube][/more]

[more=Technical info]
Input File: 04 - Un Dios.mp3
Channels : 2
Sample Rate : 44100
Precision : 16-bit
Duration : 00:04:35.48 = 12148624 samples = 20660.9 CDDA sectors
File Size : 11.1M
Bit Rate : 322k
Sample Encoding: MPEG audio (layer I, II or III)
Comments :
Title=Un Dios
Artist=Shacram
Album=Mundo en Penumbras
Tracknumber=4
Year=2021
Genre=Metalcore/Thrash Metal

[/more]

Register
(2) boby9052, dcatagua,
Oct 17 2021, 18:44:13 Hunt The Witch - Live At The Darkroom [live] (2021)


*Artist: Hunt The Witch
*Album: Live At The Darkroom [live]
*Year: 2021
*Genre: Stoner Metal
*Country: New Zealand
*Format: mp3@CBR320kbps
*Size: 60MB

Tracklist:
1. Another Side 02:31
2. Bleed You Dry 03:29
3. City of Lights 04:46
4. Sirens 05:00
5. Fire in the Sky 03:59
6. The Clamoring 05:39
******************************
Total playing time: 25:24



[more=Extended info]Line - up:

Jason Peters - Drums
Bevan Carbines - Vocals (backing), Guitars
Sam Whitley - Vocals
Andrew Woods - Bass[/more]

[more=Technical info]
Input File: 05. Fire In The Sky.mp3
Channels : 2
Sample Rate : 44100
Precision : 16-bit
Duration : 00:03:59.32 = 10554188 samples = 17949.3 CDDA sectors
File Size : 9.58M
Bit Rate : 320k
Sample Encoding: MPEG audio (layer I, II or III)
Comments :
Title=Fire In The Sky
Artist=Hunt The Witch
Album=Live at the Darkroom (Live)
Tracknumber=5
Year=2020
Genre=Stoner Metal

[/more]

Register
(3) caro, HMHamster, stumpheavyrock,
Oct 17 2021, 18:27:24 Humulus - The Deep (2021)


*Artist: Humulus
*Album: The Deep
*Year: 2021
*Genre: Stoner Metal/Rock
*Country: Italy
*Format: mp3@CBR320kbps
*Size: 124MB

Tracklist:
1. Into The Heart Of The Volcano Sun 14:48
2. Gone Again 04:58
3. Hajra 08:04
4. Devil's Peak (We Eventually Eluded Death) 05:23
5. Lunar Queen 03:18
6. Sanctuary III: The Deep 14:58
******************************
Total playing time: 51:29



[more=Extended info]Line - up:

Massimiliano - Drums
Giorgio - Bass (ex-Los Pirates, ex-Nirnaeth, ex-Aleph, ex-Folkstone)
Andrea Van Cleef - Guitars, Keyboards, Vocals (AVC & The Mother Box)[/more]

[more=Technical info]
Input File: 05 - Lunar Queen.mp3
Channels : 2
Sample Rate : 44100
Precision : 16-bit
Duration : 00:03:18.28 = 8744280 samples = 14871.2 CDDA sectors
File Size : 8.03M
Bit Rate : 324k
Sample Encoding: MPEG audio (layer I, II or III)
Comments :
Title=Lunar Queen
Artist=Humulus
Album=The Deep
Tracknumber=05
Year=2020
Genre=Stoner Metal/Rock

[/more]

Register
(7) Aamiinaa, autumnwood, caro, chipsgott, gena, HMHamster, stumpheavyrock,
Oct 17 2021, 17:40:17 Hrad Vallis - Nwomdm (2021)


*Artist: Hrad Vallis
*Album: Nwomdm
*Year: 2021
*Genre: Stoner/Doom Metal
*Country: United States
*Format: mp3@CBR320kbps
*Size: 100MB

Tracklist:
1. Shitty Ass Moon Boots 07:06
2. Greatest Cooler in the Universe 04:47
3. Iguana 09:05
4. Slam Piece Timmy 06:38
5. Space Helmet 09:14
6. Red Death 05:01
******************************
Total playing time: 41:51



[more=Extended info]Line - up:

Kyle Sando - Bass, Vocals
Aaron Domeier - Drums
Steve Svensson - Guitars, Vocals
Brad Mahaffey - Guitars, Vocals[/more]

[more=Technical info]
Input File: 05. Space Helmet.mp3
Channels : 2
Sample Rate : 44100
Precision : 16-bit
Duration : 00:09:15.03 = 24476867 samples = 41627.3 CDDA sectors
File Size : 22.3M
Bit Rate : 321k
Sample Encoding: MPEG audio (layer I, II or III)
Comments :
Title=Space Helmet
Artist=Hrad Vallis
Album=NWOMDM
Tracknumber=5
Year=2021
Genre=Stoner | Doom Metal

[/more]

Register
(4) Cannibal1974, caro, HMHamster, marilin,
Oct 17 2021, 17:10:25 Howling Giant - Alteration [ep] (2021)


*Artist: Howling Giant
*Album: Alteration [ep]
*Year: 2021
*Genre: Stoner/Doom/Psychedelic Rock/Metal
*Country: United States
*Format: mp3@CBR320kbps
*Size: 49MB

Tracklist:
1. Understudy 05:36 instrumental
2. Luring Alluring Rings 06:58 instrumental
3. Enemy Of My Anemone 05:11 instrumental
4. Farmer Maggot's Crop (ft. Mike T. Kerr) 02:41 instrumental
******************************
Total playing time: 20:26



[more=Extended info]Line - up:
Sebastian Baltes - Bass
Zach Wheeler - Drums
Tom Polzine - Guitars
Marshall Bolton - Keyboards

Guest/Session:
Mike T. Kerr - Guitar solos (track 4)[/more]

[more=Technical info]
Input File: 01 Understudy.mp3
Channels : 2
Sample Rate : 44100
Precision : 16-bit
Duration : 00:05:36.43 = 14836387 samples = 25232 CDDA sectors
File Size : 13.5M
Bit Rate : 320k
Sample Encoding: MPEG audio (layer I, II or III)
Comments :
Title=Understudy
Artist=Howling Giant
Album=Alteration (EP)
Tracknumber=1
Year=2021-04-21
Genre=Stoner/Doom/Psychedelic Rock/Metal

[/more]

Register
(4) caro, gena, marilin, Reverend,
Oct 16 2021, 18:43:41 House Of Lud - The Crooked And Thorny Path Of Reckoning (2021)


*Artist: House Of Lud
*Album: The Crooked And Thorny Path Of Reckoning
*Year: 2021
*Genre: Stoner/Doom Metal
*Country: United States
*Format: mp3@CBR320kbps
*Size: 82MB

Tracklist:
1. Unseen Guest 05:21
2. Fools Gold 04:18
3. Motes of Chaf 05:15
4. Cornucopian 03:40
5. Unearth 03:46
6. Besodden 05:32
7. Animal in a Skull 06:23
******************************
Total playing time: 34:15



[more=Extended info]Line - up:

Troy Peterson - Bass, Keyboards, Vocals (Kleptix, ex-Daggermouth, ex-Xenocom)
Joe Cummings - Drums (Bon Scropion, Romero, ex-Cosmic Relic, ex-Kadath, ex-Mortal Fear, ex-Orpheus, ex-Screw City Saints)
Nick Venechuk - Guitars[/more]

[more=Technical info]
Input File: 02. Fools Gold.mp3
Channels : 2
Sample Rate : 44100
Precision : 16-bit
Duration : 00:04:18.71 = 11409023 samples = 19403.1 CDDA sectors
File Size : 10.4M
Bit Rate : 320k
Sample Encoding: MPEG audio (layer I, II or III)
Comments :
Title=Fools Gold
Artist=House of Lud
Album=The Crooked and Thorny Path of Reckoning
Tracknumber=2
Year=2021
Genre=Stoner/Doom Metal

[/more]

Register
(7) autumnwood, caro, chipsgott, HMHamster, julianotidre, Olethros, stumpheavyrock,
Oct 15 2021, 18:55:50 Demiurgon - Cult Of Iconoclasm [ep] (2021)


*Artist: Demiurgon
*Album: Cult Of Iconoclasm [ep]
*Year: 2021
*Genre: Death Metal
*Country: Italy
*Format: flac
*Size: 79MB

Tracklist:
1. Leak Down Empire
2. The Deceptive Civilization
******************************
Total playing time: 10:02



[more=Extended info]Line - up:

Umberto Poncina - Bass (K.T.S., Saturno, Valgrind, ex-Darisam, ex-Discordance, ex-Human, ex-Unbirth)
Riccardo Valenti - Drums (Darkend, Imbolc, ex-Shadowfost, ex-Hatred, ex-Amassado)
Emanuele Ottani - Guitars (Unbirth, Uncreation, ex-Hatred, ex-Imbolc, ex-Valgrind, ex-Electrocution (live))
Dani Benincasa - Guitars (Darkend, ex-Hatred, ex-Fearbringer (live))
Stefano Borciani - Vocals (Instigate, Xenofaction, ex-Hatred)[/more]

Register
(3) Marek, Olethros, yuratroll,
Oct 15 2021, 18:03:26 Scurìu - Score For A Scene Ov Death Underneath A Starry Night [single] (2021)


*Artist: Scurìu
*Album: Score For A Scene Ov Death Underneath A Starry Night [single]
*Year: 2021
*Genre: Dark Ambient
*Country: Italy
*Format: flac
*Size: 57MB

Tracklist:
1. Score for a Scene ov Death Underneath a Starry Night 06:02 instrumental
******************************
Total playing time: 6:02



Register
(1) Olethros,
Oct 15 2021, 17:53:02 Melvins - Five Legged Dog (2021)


*Artist: Melvins
*Album: Five Legged Dog
*Year: 2021
*Genre: Acoustic
*Country: United States
*Format: mp3@CBR320kbps
*Size: 354MB

Tracklist:
1. Edgar the Elephant
2. Up the Dumper
3. Hung Bunny/Roman Dog Bird
4. Hooch
5. Billy Fish
6. Shevil
7. Charlie
8. A Growing Disgust
9. Eye Flys/Woman
10. Pitfalls In Serving Warrants
11. Outside Chance
12. Evil New War God
13. The Bloated Pope
14. Bad Move
15. With Teeth
16. Halo of Flies
17. Oven
18. Sway
19. Anaconda
20. Lovely Butterfly
21. Boris
22. It's Shoved
23. Honey Bucket
24. We Are Doomed
25. Flypaper
26. Let God Be Your Gardener
27. At the Stake
28. Night Goat
29. Queen
30. Everybody's Talking
31. Revolve
32. Suicide In Progress
33. Prig
34. The Bit
35. Civilized Worm
36. Don't Forget to Breathe
******************************
Total playing time: 2:29:50



[more=Extended info]The first ever acoustic record from the Melvins clocking in at 2 1/2 hours, spanning the band's career, plus covers of songs by bands such as The Rolling Stones, Alice Cooper, Redd Kross and more!

Edgar The Elephant (A Walk With Love & Death)
Up The Dumper (The Bootlicker)
Hung Bunny/Roman Dog Bird (Lysol)
Hooch (Houdini)
Billy Fish (Nude With Boots)
Shevil (Stoner Witch)
Charlie (Redd Kross cover from “Escape From LA” single)
A Growing Disgust (Freak Puke)
Eye Flys/Woman (Gluey Porch Treatments – “Woman” is a Free cover)
Pitfalls In Serving Warrants (Honky)
Outside Chance (The Turtles cover from “Slithering Slaughter” single)
Evil New War God (The Bride Screamed Murder)
The Bloated Pope (Pigs of the Roman Empire)
Bad Move (from Dale Crover’s solo album, The Fickle Finger of Fate)
With Teeth (Lysol)
Halo of Flies (Alice Cooper cover from Sieg Howdy!)
Oven (Ozma)
Sway (Rolling Stones cover – previously unrecorded by the Melvins)
Anaconda (Bullhead)
Lovely Butterfly (Honky)
Boris (Bullhead)
It’s Shoved (Bullhead)
Honey Bucket (Houdini)
We Are Doomed (The Bulls & The Bees)
Flypaper (Brainiac cover - previously unrecorded by the Melvins)
Let God Be Your Gardener (Ozma)
At The Stake (Stoner Witch)
Night Goat (Houdini)
Queen (Stoner Witch)
Everybody’s Talking (Fred Neil cover – previously unrecorded by the Melvins)
Revolve (Stoner Witch)
Suicide In Progress (Nude With Boots)
Prig (The Bootlicker)
The Bit (Stag)
Civilized Worm ((A) Senile Animal)
Don’t Forget to Breathe (Pinkus Abortion Technician)[/more]

[more=Technical info]
Input File: 15. With Teeth.mp3
Channels : 2
Sample Rate : 44100
Precision : 16-bit
Duration : 00:02:45.03 = 7277691 samples = 12377 CDDA sectors
File Size : 6.60M
Bit Rate : 320k
Sample Encoding: MPEG audio (layer I, II or III)
Comments :
Title=With Teeth
Artist=Melvins
Album=Five Legged Dog (Acoustic)
Tracknumber=15
Year=2021

[/more]

Register
(4) gwar, Larsuk, Olethros, zobero,
Oct 15 2021, 08:48:53 Shi - Basement Wizard (2021)


*Artist: Shi
*Album: Basement Wizard
*Year: 2021
*Genre: Doom/Stoner Metal
*Country: United States
*Format: mp3@CBR320kbps
*Size: 108MB

Tracklist:
1. Best Laid Plans
2. Rehash
3. Basement Wizard
4. We'll Bang, OK?
5. The Big Sad
6. Interlude
7. Lawn Care for Adults
8. Trough Guzzler
9. High Praise
10. At Wit's End
******************************
Total playing time: 44:41



[more=Extended info]Line - up:

Zach Payne - Bass
Tyler Lewis - Drums
Bob Lowrey - Guitars, Vocals (ex-Demise of the King, ex-Rusty Old Crows, ex-Zgowonto Lizards)[/more]

[more=Technical info]
Input File: 05 - The Big Sad.mp3
Channels : 2
Sample Rate : 44100
Precision : 16-bit
Duration : 00:04:31.00 = 11951100 samples = 20325 CDDA sectors
File Size : 10.9M
Bit Rate : 320k
Sample Encoding: MPEG audio (layer I, II or III)
Comments :
Title=The Big Sad
Artist=Shi - 死
Album=Basement Wizard
Tracknumber=5
Year=2021-10-15
Genre=Doom/Stoner Metal

[/more]

Register
(11) caro, HMHamster, marilin, Mencae77, Olethros, Ostinato, Sabbathian, SaintVitus, sludge666, stumpheavyrock, vosmidesijatye,
Oct 15 2021, 07:16:04 Destinity - In Continuum (2021)


*Artist: Destinity
*Album: In Continuum
*Year: 2021
*Genre: Thrash/Death Metal
*Country: France
*Format: mp3@CBR320kbps
*Size: 123MB

Tracklist:
1. The Sand Remains 06:00
2. Reject the Deceit 05:27
3. Reflections 04:53
4. Shadows 06:35
5. Dawn Never Breaks 05:36
6. Architect of Light 04:01
7. A Lucid Strain 05:53
8. Snakepit 04:34
9. Salvation 08:26
******************************
Total playing time: 51:25



[more=Extended info]Line - up:

Morteüs - Drums, Vocals (backing), Keyboards, Programming (The Reversionist)
Zephiros - Guitars (rhythm) (The Reversionist)
Mick - Vocals (ex-Tenebrum Infectus, ex-No Return)
Seb V.S. - Guitars (lead) (The Reversionist, ex-In Arkadia, ex-Catalyst)
Dave - Bass (The Reversionist)

[youtube]OebUvPJ2rgg[/youtube]
[youtube]6UiG__cYfaw[/youtube][/more]

[more=Technical info]
Input File: 06. Architect of Light.mp3
Channels : 2
Sample Rate : 44100
Precision : 16-bit
Duration : 00:04:01.07 = 10631363 samples = 18080.5 CDDA sectors
File Size : 9.65M
Bit Rate : 320k
Sample Encoding: MPEG audio (layer I, II or III)
Comments :
Title=Architect of Light
Artist=Destinity
Album=In Continuum
Tracknumber=6
Year=2021
Genre=Thrash/Death Metal

[/more]

Register
(15) akym, BERZERK, boby9052, caro, dermarsoran, jollo, jujul, metala, Olethros, Reverend, SS2998, stumpheavyrock, sunska, vitosdemon, Winterdark,
Oct 14 2021, 19:29:40 The Agonist - Days Before The World Wept [ep] (2021)


*Artist: The Agonist
*Album: Days Before The World Wept [ep]
*Year: 2021
*Genre: Melodic Death Metal/Metalcore
*Country: Canada
*Format: mp3@CBR320kbps
*Size: 55MB

Tracklist:
1. Remnants in Time 04:53
2. Immaculate Deception 03:35
3. Resurrection 05:11
4. Feast on the Living 03:22
5. Days Before the World Wept 06:05
******************************
Total playing time: 23:06

[more=Extended info]Line - up:

Chris Kells - Bass, Vocals (backing) (Blackguard (live))
Danny Marino - Guitars
Simon McKay - Drums (ex-Éohum)
Pascal Jobin - Guitars
Vicky Psarakis - Vocals (lead) (E.V.E., Sicksense)

[youtube]qM32rkfA2XQ[/youtube][/more]

[more=Technical info]
Input File: 04. Feast on the Living.mp3
Channels : 2
Sample Rate : 44100
Precision : 16-bit
Duration : 00:03:22.18 = 8915962 samples = 15163.2 CDDA sectors
File Size : 8.09M
Bit Rate : 320k
Sample Encoding: MPEG audio (layer I, II or III)
Comments :
Title=Feast on the Living
Artist=The Agonist
Album=Days Before the World Wept (EP)
Tracknumber=4
Year=2021
Genre=Melodic Death Metal/Metalcore

[/more]

Register
(15) Black Cat, caro, cenzored, chipsgott, Femto, GorAtheist, Hovnoliaty, Lukittaz, Marek, Old Vyaine, Olethros, sadmannn, smes, Taakeferd, TeamatSE,
Oct 14 2021, 19:03:40 Rage In My Eyes - Spiral [ep] (2021)


*Artist: Rage In My Eyes
*Album: Spiral [ep]
*Year: 2021
*Genre: Heavy/Power Metal
*Country: Brazil
*Format: mp3@CBR320kbps
*Size: 46MB

Tracklist:
1. Farewell
2. And Then Came the Storm
3. Dare to Defy
4. Spark of Hope
5. Spiral Seasons
******************************
Total playing time: 19:13



[more=Extended info]Line - up:

Pedro Fauth - Bass (Fighterlord, ex-Scelerata)
Francis Cassol - Drums (ex-Holyfire, ex-Scelerata, ex-Paul Di'Anno (live))
Magnus Wichmann - Guitars (ex-Holyfire, ex-Scelerata, ex-Paul Di'Anno (live))
Jonathas Pozo - Vocals (ex-Scelerata)[/more]

[more=Technical info]
Input File: 04 - Spark of Hope.mp3
Channels : 2
Sample Rate : 44100
Precision : 16-bit
Duration : 00:05:06.46 = 13514974 samples = 22984.6 CDDA sectors
File Size : 12.3M
Bit Rate : 320k
Sample Encoding: MPEG audio (layer I, II or III)
Comments :
Title=Spark of Hope
Artist=Rage In My Eyes
Album=Spiral (EP)
Tracknumber=4
Year=2021
Genre=Heavy/Power Metal
Discnumber=/1

[/more]

Register
(17) after21allD, aviacademy, boby9052, caro, gwar, Herrant, HMHamster, julianotidre, Lukittaz, Marek, metalwoman, Olethros, Rover, Sabbathian, sergsazan, stumpheavyrock, Taakeferd,
Oct 14 2021, 17:53:59 Judas Priest - Reflections - 50 Heavy Metal Years Of Music [compilation] (2021)


*Artist: Judas Priest
*Album: Reflections - 50 Heavy Metal Years Of Music [compilation]
*Year: 2021
*Genre: Heavy Metal
*Country: United Kingdom
*Format: mp3@CBR320kbps
*Size: 188MB

Tracklist:
1. Let Us Prey / Call for the Priest
2. You Don't Have to Be Old to Be Wise
3. Fever
4. Eat Me Alive
5. All Guns Blazing
6. Never the Heroes
7. Dissident Aggressor (live)
8. Out in the Cold (live)
9. Running Wild (live)
10. Victim of Changes (live)
11. The Green Manalishi (With the Two-Pronged Crown) (Fleetwood Mac cover) (live)
12. Bloodstone (live)
13. The Ripper (live)
14. Beyond the Realms of Death (live)
15. The Hellion / Electric Eye (live)
16. Sinner (live)
******************************
Total playing time: 1:19:40

[more=Extended info]Tracks 10-16 previously unreleased.
Track 10 recorded Live 9.05.1978 in Cleveland, The United States
Track 11 recorded Live 21.11.1981 in London, The United Kingdom
Track 12 recorded Live 11.12.1982 in Atlanta, The United States
Track 13 recorded Live 12.07.1991 in Irvine, The United States
Track 14 recorded Live 11.03.1979 in New York, The United States
Track 15 recorded Live 21.06.1986 in Houston, The United States
Track 16 recorded Live 7.08.1988 in New Haven, The United States

[youtube]d91HmWxzup8[/youtube][/more]

[more=Technical info]
Input File: 14 Beyond the Realms of Death (Live at The Mudd Club, New York, 1979).mp3
Channels : 2
Sample Rate : 44100
Precision : 16-bit
Duration : 00:07:06.32 = 18800668 samples = 31973.9 CDDA sectors
File Size : 17.1M
Bit Rate : 320k
Sample Encoding: MPEG audio (layer I, II or III)
Comments :
Title=Beyond the Realms of Death (Live at The Mudd Club, New York, 1979)
Artist=Judas Priest
Album=Reflections - 50 Heavy Metal Years of Music (Compilation)
Tracknumber=14
Year=2021
Genre=137

[/more]

Register
(19) ace73pq, Aresson, cancer1974, Carcharoth, caro, dcatagua, DeathDragon, Golfzilla, guidanner, gwar, infozahist, kimkayoung, Marek, Olethros, Reverend, Rover, stumpheavyrock, Taakeferd, thenecromancer,
Oct 13 2021, 18:32:45 Planet Of The Dead - Pilgrims (2021)


*Artist: Planet Of The Dead
*Album: Pilgrims
*Year: 2021
*Genre: Stoner/Sludge/Doom Metal
*Country: New Zealand
*Format: mp3@CBR320kbps
*Size: 91MB

Tracklist:
1. Gom Jabbar 04:22
2. Pilgrim 05:03
3. Nostromo 04:12
4. The Sprawl 06:06
5. Escape from Smith's Grove 03:47
6. Directive IV 03:38
7. The Cursed Earth 04:35
8. The Great Wave 06:32
******************************
Total playing time: 38:15



[more=Extended info]Line - up:

Kees Hengst - Bass
Dion Harris - Drums (Fall of Man)
Malcolm McKenzie - Guitars
Mark Mundell - Vocals[/more]

[more=Technical info]
Input File: 05 Escape from Smith\'s Grove.mp3
Channels : 2
Sample Rate : 44100
Precision : 16-bit
Duration : 00:03:47.93 = 10051889 samples = 17095 CDDA sectors
File Size : 9.12M
Bit Rate : 320k
Sample Encoding: MPEG audio (layer I, II or III)
Comments :
Title=Escape from Smith's Grove
Artist=Planet of the Dead
Album=Pilgrims
Tracknumber=5
Year=2021
Genre=Stoner/Sludge/Doom Metal

[/more]

Register
(7) caro, djsema4, gena, HMHamster, marilin, Olethros, Ostinato,
Oct 12 2021, 17:54:49 Imperium - Blood Reign [demo] (2021)


*Artist: Imperium
*Album: Blood Reign [demo]
*Year: 2021
*Genre: Black/Death Metal
*Country: United States
*Format: flac
*Size: 83MB

Tracklist:
1. Blood Reign 01:51
2. Sabotage 01:58
3. Snuff Distribution 02:37
******************************
Total playing time: 6:26



[more=Extended info]Line - up:

Hatred Incarnate - Guitars (rhythm), Bass
Violence Enforcer - Vocals, Guitars (lead), Drums (Lawless, Morgue Dweller, Negativism)[/more]

Register
(5) artscald, Kaotik, lordbathor, Olethros, vasiljev_sergej,
Oct 12 2021, 17:32:21 Billakeez - Severed Extremities [ep] (2021)


*Artist: Billakeez
*Album: Severed Extremities [ep]
*Year: 2021
*Genre: Death Metal
*Country: United Kingdom
*Format: mp3@CBR320kbps
*Size: 51MB

Tracklist:
1. Too Fast For Bastards 03:54
2. Body of Vengeance 04:46
3. Jixaw 03:22
4. The Plumber 03:15
5. The Flood 03:48
6. Fuck Armageddon This Is Hell 02:36
******************************
Total playing time: 21:41



[more=Technical info]
Input File: 06. Fuck Armageddon This Is Hell.mp3
Channels : 2
Sample Rate : 44100
Precision : 16-bit
Duration : 00:02:36.28 = 6891772 samples = 11720.7 CDDA sectors
File Size : 6.25M
Bit Rate : 320k
Sample Encoding: MPEG audio (layer I, II or III)
Comments :
Title=Fuck Armageddon This Is Hell
Artist=Billakeez
Album=Severed Extremities (EP)
Tracknumber=6
Year=2021
Genre=22

[/more]

Register
(8) caro, chipsgott, julianotidre, Marek, Olethros, Taakeferd, vyacheslav, wanderer73,
Oct 12 2021, 16:54:41 Chagrin & Hellhole & Joy - Fire Death And Fear [split] (2021)


*Artist: Chagrin & Hellhole & Joy
*Album: Fire Death And Fear [split]
*Year: 2021
*Genre: Atmospheric/Post-Black Metal | Atmospheric/Post-Black Metal | Atmospheric/Post-Black Metal
*Country: Australia | Australia | Australia
*Format: mp3@CBR320kbps
*Size: 121MB

Tracklist:
Chagrin:
1. My Love in the Dark Heart of the Night 04:02
2. Meaningless Days - Meaningless Nights 04:08
Hellhole:
3. I Succumbed 06:08
Joy:
4. The Dead Don't Dream 13:50
Hellhole:
5. Death Earth 05:13
6. Dreaming Is Pointless 06:47
Chagrin:
7. Right from the Start 04:37
Hellhole:
8. Die Alone 05:54
******************************
Total playing time: 50:39



[more=Technical info]
Input File: 04. The dead don\'t dream.mp3
Channels : 2
Sample Rate : 44100
Precision : 16-bit
Duration : 00:13:50.14 = 36609262 samples = 62260.6 CDDA sectors
File Size : 33.3M
Bit Rate : 321k
Sample Encoding: MPEG audio (layer I, II or III)
Comments :
Title=The dead don't dream
Artist=Joy
Album=Fire Death and Fear (Split)
Tracknumber=4
Year=2021
Genre=Atmospheric/Post-Black Metal

[/more]

Register
(5) artscald, caro, kim666, robertho777, vasiljev_sergej,
Oct 10 2021, 19:02:41 House Anxiety - Overdose [ep] (2021)


*Artist: House Anxiety
*Album: Overdose [ep]
*Year: 2021
*Genre: Sludge/Doom Metal
*Country: Greece
*Format: flac
*Size: 85MB

Tracklist:
1. Master Demon Lust 04:07
2. Suicide Tuesday 04:53
3. Church Hangover 01:58
******************************
Total playing time: 10:58



[more=Extended info]Line - up:

Chris - Bass
Jason - Drums (Gagulta, Crime State)
Minas - Guitars
Lavey - Vocals[/more]

Register
(1) sludge666,
Oct 10 2021, 17:23:11 Casket Birth - Exhumations [compilation] (2021)


*Artist: Casket Birth
*Album: Exhumations [compilation]
*Year: 2021
*Genre: Black Metal
*Country: United States
*Format: mp3@CBR320kbps
*Size: 75MB

Tracklist:
1. Expelling Convergent Malignancies 08:05
2. Cracked Until It Bleeds 03:11
3. Insulting the Dead 06:11
4. Ritual of the Headless Sentinel 07:08
5. Embrace the Corpse 06:55
******************************
Total playing time: 31:30



[more=Extended info]Line - up:

Adrian - Drums (Chronovorus, Suicide Forest (live))
Will - Guitars
Khaine - Vocals, Guitars (Bubonic Wrath, Chronovorus, Proditorium)
Zak - Bass (Abhorrent Contagion, Chronovorus, Neyquam, Proditorium, Suicide Forest (live))[/more]

[more=Technical info]
Input File: 05. Embrace the Corpse.mp3
Channels : 2
Sample Rate : 44100
Precision : 16-bit
Duration : 00:06:55.50 = 18323682 samples = 31162.7 CDDA sectors
File Size : 16.6M
Bit Rate : 320k
Sample Encoding: MPEG audio (layer I, II or III)
Comments :
Title=Embrace the Corpse
Artist=Casket Birth
Album=Exhumations (Compilation)
Tracknumber=5
Year=2021
Genre=138

[/more]

Register
(9) artscald, caro, julianotidre, kim666, Olethros, stormhatt, supremo, Taakeferd, vasiljev_sergej,
Oct 10 2021, 17:10:49 Star Devourer - 01101000 01100101 01101100 01110000 (2021)


*Artist: Star Devourer
*Album: 01101000 01100101 01101100 01110000
*Year: 2021
*Genre: Black Metal/Ambient
*Country: China
*Format: mp3@CBR320kbps
*Size: 108MB

Tracklist:
1. A Cosmic Dream 08:35
2. T-Minus 10 06:39
3. Light Years into Hopelessness 09:55
4. An Ode to the Eagle Nebula 07:05
5. Cosmic Landscapes of Sorrow 09:34
6. Transmission Unknown 04:00
******************************
Total playing time: 45:48



[more=Extended info]flac rip[/more]

[more=Technical info]
Input File: 04. An Ode To The Eagle Nebula.mp3
Channels : 2
Sample Rate : 44100
Precision : 16-bit
Duration : 00:07:05.85 = 18779897 samples = 31938.6 CDDA sectors
File Size : 17.0M
Bit Rate : 320k
Sample Encoding: MPEG audio (layer I, II or III)
Comments :
Title=An Ode To The Eagle Nebula
Artist=Star Devourer
Album=01101000 01100101 01101100 01110000
Tracknumber=4
Year=2021
Genre=Black Metal/Ambient

[/more]

Register
(15) AlexSmith, alikkon, artscald, caro, dcatagua, HMHamster, kim666, nemx, Olethros, robertho777, stormhatt, supremo, Taakeferd, vasiljev_sergej, yarrsuaa,
Oct 10 2021, 16:41:52 Korrosive - Live At The Rockpile [live] (2021)


*Artist: Korrosive
*Album: Live At The Rockpile [live]
*Year: 2021
*Genre: Thrash Metal
*Country: Canada
*Format: mp3@CBR320kbps
*Size: 76MB

Tracklist:
1. Burning Earth 04:07
2. Slaughter the Preacher 04:05
3. Raining Blood (Slayer cover) 03:55
4. Khaotic Evil 04:44
5. Vitriolism 04:19
6. Hijo de puta 03:19
7. Acidized 03:59
8. Napalm/Anarchy 03:45
******************************
Total playing time: 32:13



[more=Extended info]Line - up:

Rad Zarei - Vocals (ex-Bane)
Kaveh Afshar - Drums (Into Oblivion, Perilaxe Occlusion, Protokult, ex-Valkyrie's Cry, Shoor, ex-Necrodios)
Carlos Rodriguez - Bass (ex-Valkyrie's Cry, ex-Necrodios)
Jack Neila - Guitars (Protokult, Vias, Pterodactyl Problems, ex-I Am the End)
Derek Solomos - Guitars[/more]

[more=Technical info]
Input File: 02. Slaughter the Preacher (Live).mp3
Channels : 2
Sample Rate : 44100
Precision : 16-bit
Duration : 00:04:05.23 = 10814555 samples = 18392.1 CDDA sectors
File Size : 9.81M
Bit Rate : 320k
Sample Encoding: MPEG audio (layer I, II or III)
Comments :
Title=Slaughter the Preacher (Live)
Artist=Korrosive
Album=Live at the Rockpile (Live)
Tracknumber=2
Year=2021
Genre=144

[/more]

Register
(10) after21allD, caro, HMHamster, infozahist, Marek, Olethros, piwimetal, sergsazan, stumpheavyrock, supremo,
Oct 9 2021, 17:35:48 Hot Cherry - Burnout (2021)


*Artist: Hot Cherry
*Album: Burnout
*Year: 2021
*Genre: Stoner Metal/Rock
*Country: Italy
*Format: mp3@CBR320kbps
*Size: 76MB

Tracklist:
1. From Zero to One 02:39
2. Fool's Gold 03:16
3. Enemy 04:08
4. This Song 03:34
5. Beyond 03:58
6. Universal Call 03:44
7. Underground 03:35
8. Ground on Down 03:19
9. Band of People 03:45
******************************
Total playing time: 31:58



[more=Extended info]Line - up:

Kenny Carbonetto - Bass (Wildroads, ex-Narkhan, Night Train)
Stefano Morandini - Drums (Wildroads)
Nicola Capitini - Guitars (Wildroads)
Jacopo Mascagni - Vocals (lead)[/more]

[more=Technical info]
Input File: 09. Band of People.mp3
Channels : 2
Sample Rate : 44100
Precision : 16-bit
Duration : 00:03:45.14 = 9928586 samples = 16885.4 CDDA sectors
File Size : 9.04M
Bit Rate : 321k
Sample Encoding: MPEG audio (layer I, II or III)
Comments :
Title=Band of People
Artist=Hot Cherry
Album=Burnout
Tracknumber=9
Year=2021
Genre=Stoner Metal/Rock

[/more]

Register
(6) caro, HMHamster, julianotidre, marilin, Olethros, stumpheavyrock,
Oct 9 2021, 17:02:16 Vanja Gvozdanović Depressor - Invoke The Evil Fullmoon In Frozen Light Under Infernal Wolf In Pagan Fog (2021)


*Artist: Vanja Gvozdanović Depressor
*Album: Invoke The Evil Fullmoon In Frozen Light Under Infernal Wolf In Pagan Fog
*Year: 2021
*Genre: Atmospheric/Symphonic Black Metal
*Country: Croatia
*Format: mp3@CBR320kbps
*Size: 100MB

Tracklist:
1. Blaspheming a Blasphemous Legion Into Funeral Kingdoms Beneath an Unholy Scream And Funeral Woods 07:35 instrumental
2. Usurping Through the Doomed Veil of Chaos and Over The Spectral Legion Between Frostbitten Dominions 06:10 instrumental
3. Storming an Eternal Hell Between Spectral Coffins Over The Hateful Wrath Towards Burning Underworlds 06:54 instrumental
4. Invoke The Evil Fullmoon In Frozen Light Under Infernal Wolf In Pagan Fog 06:57 instrumental
5. Traversing The Funeral Eternity Bewitched By Bleakest Horizons and Ancient Frost 06:06 instrumental
6. Through The Melancholic Cosmos For The Glory Of Still Horizons 08:24 instrumental
******************************
Total playing time: 42:06



[more=Technical info]
Input File: 03. Storming an Eternal Hell Between Spectral Coffins Over The Hateful Wrath Towards Burning Underworlds.mp3
Channels : 2
Sample Rate : 44100
Precision : 16-bit
Duration : 00:06:54.64 = 18285668 samples = 31098.1 CDDA sectors
File Size : 16.7M
Bit Rate : 321k
Sample Encoding: MPEG audio (layer I, II or III)
Comments :
Title=Storming an Eternal Hell Between Spectral Coffins Over The Hateful Wrath Towards Burning Underworlds
Artist=Vanja Gvozdanovic
Album=Invoke The Evil Fullmoon In Frozen Light Under Infernal Wolf In Pagan Fog
Tracknumber=3
Year=2021
Genre=Atmospheric/Symphonic Black Metal

[/more]

Register
(12) artscald, blacky66, caro, csgmnk, dcatagua, julianotidre, kim666, kimkayoung, Olethros, Shadechaser, supremo, symphonicadiction,
Oct 8 2021, 18:07:07 Asterion - Legion... ​thou Hath Defiled [ep] (2021)


*Artist: Asterion
*Album: Legion... ​thou Hath Defiled [ep]
*Year: 2021
*Genre: Death Metal/Deathcore
*Country: United States
*Format: mp3@CBR320kbps
*Size: 50MB

Tracklist:
1. Undying Affliction 02:27
2. Abyssic Mass Bombardment 03:14
3. Enslaved by the Shackles of Enthrallment 04:02
4. Banished to Realms Beyond 03:50
5. Hearken to Thy Summoning 03:20
6. Consumed by the Wrath of the Infinite 04:04
******************************
Total playing time: 20:57



[more=Extended info]Line - up:

Andres Ramirez - Drums
Efrain Camarena - Guitars, Bass
Anthony Gervin - Vocals (Summation, ex-Genethliac)[/more]

[more=Technical info]
Input File: 02-asterion-abyssic_mass_bombardment-b1475f98.mp3
Channels : 2
Sample Rate : 44100
Precision : 16-bit
Duration : 00:03:14.89 = 8594517 samples = 14616.5 CDDA sectors
File Size : 7.80M
Bit Rate : 320k
Sample Encoding: MPEG audio (layer I, II or III)
Comments :
Title=Abyssic Mass Bombardment
Artist=Asterion
Album=Legion... Thou Hath Defiled (EP)
Tracknumber=2
Year=2021
Genre=Death Metal/Deathcore

[/more]

Register
(7) caro, chipsgott, julianotidre, Marek, Olethros, Taakeferd, VALERY,

165 Pages V   1 2 3 > » 
- Lo-Fi Version Support form
Copyrights and abuse reports form
Time is now: 21st October 2021 - 12:11:46