Welcome Guest ( Log In | Register )

История благодарностей участнику Necrokilldozer ::: Спасибо сказали: 15251 раз(а)
Дата поста: В теме: За сообщение: Спасибо сказали:
Oct 20 2019, 18:54:11 I Am The Liquor - Turn On, Tune Down, Riff Out [ep] (2019)


*Artist: I Am The Liquor
*Album: Turn On, Tune Down, Riff Out [ep]
*Year: 2019
*Genre: Stoner/Doom/Heavy Metal
*Country: United States
*Format: flac
*Size: 84MB

Tracklist:
1.Aneurysm 04:24
2.Radio Friendly Unit Shifter 04:20
3.Horror Business 03:13
******************************
Total playing time: 11:57



[more=Extended info]Line - up:

Sean Plunkett - Bass
Cody Mausolf - Drums
Terry Smith - Guitars, Vocals (ex-Separation, ex-3-Hole Face)

https://www.metal-archives.com/images/3/5/4/0/3540395371_photo.jpg?4222[/more]

Register
(6) artscald, gena, infiltrator, marilin, Olethros, stumpheavyrock,
Oct 18 2019, 17:26:22 Merda Mundi - Hatred (2019)


*Artist: Merda Mundi
*Album: Hatred
*Year: 2019
*Genre: Raw Black Metal
*Country: Belgium
*Format: mp3@CBR320kbps
*Size: 86MB

Tracklist:
1.Condemn Them 08:20
2.Castigate Them 07:03
3.Annihilate Them 08:22
4.Fucking Hate Them 12:31
******************************
Total playing time: 36:16



[more=Extended info]Line - up:

Déhà - Everything (Acathexis, COAG, Cult of Erinyes, Déhà, God Eat God, God Enslavement, Imber Luminis, Lebenssucht, Maladie, Slow, The Penitent, Vaer, We All Die (Laughing), Yhdarl, Ignifer, ex-Black Sin, ex-Deviant Messiah, ex-Sources of I, ex-Ter Ziele, Aardling, Aurora Borealis, Lidden, ex-Clouds, ex-DunkelNacht, ex-Ithilien, ex-K.F.R, ex-Deos, ex-Wunde, ex-Alenda, ex-AutoDestructionNeeded, ex-Eat Their Crusts, ex-GigaPenzor, ex-Jah El Camino, ex-Khel, ex-NØD)

https://www.metal-archives.com/images/8/8/0/1/88019_photo.jpg?3546[/more]

[more=Technical info]
Input File: 02. Castigate Them.mp3
Channels : 2
Sample Rate : 44100
Precision : 16-bit
Duration : 00:07:04.62 = 18725786 samples = 31846.6 CDDA sectors
File Size : 17.0M
Bit Rate : 320k
Sample Encoding: MPEG audio (layer I, II or III)
Comments :
Title=Castigate Them
Artist=Merda Mundi
Album=Hatred
Tracknumber=2
Year=2019
Genre=Raw Black Metal

[/more]

Register
(9) 1968_janeart, artscald, deadterror, kim666, Olethros, Rover, stub888, vasiljev_sergej, yuratroll,
Oct 18 2019, 16:13:54 Screech Calamity - I Deserve Hell (2019)


*Artist: Screech Calamity
*Album: I Deserve Hell
*Year: 2019
*Genre: Raw Black Metal
*Country: United States
*Format: mp3@CBR320kbps
*Size: 61MB

Tracklist:
1.Intro 00:29 instrumental
2.Desecrate My Rapist 03:22
3.Keep Me From Hell 03:53
4.Sudden Realization 04:29
5.I Deserve Hell 02:13
6.Sofia 02:41
7.If God Is Above 03:26
8.John Logan 04:21
9.Outro 00:45 instrumental
******************************
Total playing time: 25:39



[more=Extended info]Line - up:

Chris "Skarlet" Schroeder - Everything (Esophageal Maggots, Traumatic Serenity, ex-Tranny, Embryonic Defilement, Sock, Thornbush, ex-Alien Tampon, ex-Ass DJ, ex-Atmospheric Apocalypse, ex-Dankophiliac, ex-Futanari Magic Loli, ex-Grimpsy, ex-Kuikomi, ex-Laceration Lord, ex-Lolicon Legion, ex-Pawg Beelzebub, ex-Pulse Palpitation)

https://www.metal-archives.com/images/3/5/4/0/3540456686_photo.jpg?1720[/more]

[more=Technical info]
Input File: 09. Outro.mp3
Channels : 2
Sample Rate : 44100
Precision : 16-bit
Duration : 00:00:45.25 = 1995481 samples = 3393.68 CDDA sectors
File Size : 1.81M
Bit Rate : 321k
Sample Encoding: MPEG audio (layer I, II or III)
Comments :
Title=Outro
Artist=Screech Calamity
Album=I Deserve Hell
Tracknumber=9
Year=2019
Genre=Raw Black Metal

[/more]

Register
(8) 1968_janeart, artscald, dan22, kim666, Olethros, Rover, stub888, vasiljev_sergej,
Oct 18 2019, 15:36:36 Dimman - 152 [ep] (2019)


*Artist: Dimman
*Album: 152 [ep]
*Year: 2019
*Genre: Melodic Death Metal
*Country: Finland
*Format: mp3@CBR320kbps
*Size: 48MB

Tracklist:
1.Capsized Reverie 03:38
2.152 05:39
3.The History 03:29
4.Treason 04:49
5.Entity 04:17
******************************
Total playing time: 21:52



[more=Extended info]Line - up:

Elias Halkola - Bass
Samppa Raittila - Drums
Jaakko Yli-Sorvari - Guitars (lead)
Mikael Haapala - Guitars (rhythm)
Valtteri Halkola - Vocals
Jenna Kohtala - Vocals (clean)

https://www.metal-archives.com/images/3/5/4/0/3540396979_photo.jpeg?4108[/more]

[more=Technical info]
Input File: 03. The History.mp3
Channels : 2
Sample Rate : 44100
Precision : 16-bit
Duration : 00:03:29.60 = 9243140 samples = 15719.6 CDDA sectors
File Size : 8.45M
Bit Rate : 322k
Sample Encoding: MPEG audio (layer I, II or III)
Comments :
Title=The History
Artist=Dimman
Album=152 (EP)
Tracknumber=3
Year=2019
Genre=Melodic Death Metal

[/more]

Register
(6) artscald, gwynnbleid, metalwoman, Olethros, sergsazan, soulflesh,
Oct 17 2019, 17:16:17 Brûlons Une Sorcière - Dreams About Ghosts [ep] (2019)


*Artist: Brûlons Une Sorcière
*Album: Dreams About Ghosts [ep]
*Year: 2019
*Genre: Post-Black Metal
*Country: France
*Format: flac
*Size: 94MB

Tracklist:
1.Rêverie D'Un Fantôme 04:05
2.Perfect Blue 04:05
3.Nuit Noire 05:35
4.Staring At The Sky (XXXTENTACION Cover) 01:24
******************************
Total playing time: 15:09



[more=Extended info]Line - up:
W.A.L. - Everything (Nevrome)

Guest/Session:
Samael - Guitars (lead) (Nevrome)[/more]

Register
(5) ahp, infiltrator, Olethros, Rosen, vasiljev_sergej,
Oct 17 2019, 16:24:25 Fornoth - Peace, Love & Death Metal - Live At Unleashed Festival 2019 [live] (2019)


*Artist: Fornoth
*Album: Peace, Love & Death Metal - Live At Unleashed Festival 2019 [live]
*Year: 2019
*Genre: Blackened Death Metal
*Country: Ireland
*Format: mp3@CBR320kbps
*Size: 118MB

Tracklist:
1.Frost 04:26
2.Organ Thrower 02:17
3.Goddess of the Will 04:08
4.Afterburner 05:46
5.Rubble 06:55
6.Distant Shores 03:50
7.The Life of Brian 05:05
8.Descendant 06:04
9.Puca 04:15
10.Queen Medb's Treachery 06:35
******************************
Total playing time: 49:21



[more=Extended info]FLAC RIP

Line - up:

Oscar Little - Drums
John Appleby - Guitars
Charlie Appleby - Guitars
Daire Coburn - Vocals
Bill Thompson - Bass

https://www.metal-archives.com/images/3/5/4/0/3540457725_photo.jpg?5700[/more]

[more=Technical info]
Input File: 07. The Life of Brian.mp3
Channels : 2
Sample Rate : 44100
Precision : 16-bit
Duration : 00:05:05.57 = 13475813 samples = 22918 CDDA sectors
File Size : 12.2M
Bit Rate : 320k
Sample Encoding: MPEG audio (layer I, II or III)
Comments :
Title=The Life of Brian
Artist=Fornoth
Album=Peace, Love & Death Metal - Live at Unleashed Festival 2019 (Live)
Tracknumber=7
Year=2019
Genre=Blackened Death Metal

[/more]

Register
(5) artscald, infiltrator, infozahist, Olethros, Rosen,
Oct 16 2019, 18:56:41 Helligare - Desordem E Regresso (2019)


*Artist: Helligare
*Album: Desordem E Regresso
*Year: 2019
*Genre: Groove/Thrash Metal
*Country: Brazil
*Format: mp3@CBR320kbps
*Size: 95MB

Tracklist:
1.Povo Que Grita 03:15
2.Político Profissional 03:37
3.País 03:18
4.Lama, Caos e Podridão 03:37
5.Sistema 03:35
6.Circo Político 03:38
7.Desordem e Regresso 03:37
8.Desespero 04:03
9.Republica Destruída 03:39
10.Corrente do Sistema 03:46
11.Mundo Perdido 03:48
******************************
Total playing time: 39:53



[more=Extended info]Line - up:

Joilson Oliveira - Bass
Lucas Costa - Drums
Paulo Sampaio - Guitars
Murillo Elias - Vocals[/more]

[more=Technical info]
Input File: 05. Sistema.mp3
Channels : 2
Sample Rate : 44100
Precision : 16-bit
Duration : 00:03:34.77 = 9471225 samples = 16107.5 CDDA sectors
File Size : 8.59M
Bit Rate : 320k
Sample Encoding: MPEG audio (layer I, II or III)
Comments :
Title=Sistema
Artist=Helligare
Album=Desordem e Regresso
Tracknumber=5
Year=2019
Genre=Groove/Thrash Metal

[/more]

Register
(7) artscald, infiltrator, Olethros, Rosen, snot, stumpheavyrock, TAKATAEL,
Oct 16 2019, 17:25:47 Hamlet - Berlín (2019)


*Artist: Hamlet
*Album: Berlín
*Year: 2019
*Genre: Groove/Nu-Metal
*Country: Spain
*Format: mp3@CBR320kbps
*Size: 101MB

Tracklist:
1.Persiste, insiste, repite 03:12
2.Tu destino 02:57
3.Eclipse 04:23
4.El principio de un comienzo 04:01
5.No sé decir adiós 04:25
6.Libertad 04:35
7.Cada día un día más 02:27
8.Héroe 04:44
9.Abandonáis 02:04
10.Salvajes 04:59
11.Vulgar 03:58
******************************
Total playing time: 41:45



[more=Extended info]Line - up:

Luis Tárraga - Guitars
J. Molly - Vocals (lead) (ex-Conato de Violencia)
Paco Sánchez - Drums
Álvaro Tenorio - Bass (ex-Infernoise, ex-Kaothic, ex-Ñu, ex-Azote, ex-Force, ex-La Cruz)
Ken HC - Guitars

https://www.metal-archives.com/images/3/6/7/1/36718_photo.jpg?5716[/more]

[more=Technical info]
Input File: 05 - No Sé Decir Adiós.mp3
Channels : 2
Sample Rate : 44100
Precision : 16-bit
Duration : 00:00:00.26 = 11642 samples = 19.7993 CDDA sectors
File Size : 10.6M
Bit Rate : 321M
Sample Encoding: MPEG audio (layer I, II or III)
Comments :
Title=No Sé Decir Adiós
Artist=Hamlet
Album=Berlín
Tracknumber=05
Year=2018-18-20
Genre=Groove/Nu-Metal

[/more]

Register
(7) ahp, artscald, dunkelvarg, infiltrator, Olethros, Rosen, RotAnus,
Oct 16 2019, 16:18:55 Black Tribe - Star Trek Black Metal [compilation] (2019)


*Artist: Black Tribe
*Album: Star Trek Black Metal [compilation]
*Year: 2019
*Genre: Experimental Black Metal, Industrial/Noise
*Country: Germany
*Format: mp3@CBR320kbps
*Size: 73MB

Tracklist:
1.Endlösung Anfang 03:20 instrumental
2.Extraterrestrial Fascist Rebirth 03:14 instrumental
3.Valora 02:29 instrumental
4.John Gill, Führer of Ekos 02:11 instrumental
5.Death to Zeon 00:46 instrumental
6.Utterly Destroyed 03:56 instrumental
7.Koranak 03:01 instrumental
8.Obsidian Order 03:06 instrumental
9.Orias System 02:29 instrumental
10.Shapeshifter Torture Device 03:14 instrumental
11.The Wire 00:52 instrumental
12.Enabran Tain 03:14 instrumental
******************************
Total playing time: 31:52



[more=Technical info]
Input File: 04. John Gill, Führer of Ekos.mp3
Channels : 2
Sample Rate : 44100
Precision : 16-bit
Duration : 00:02:11.33 = 5791565 samples = 9849.6 CDDA sectors
File Size : 5.26M
Bit Rate : 320k
Sample Encoding: MPEG audio (layer I, II or III)
Comments :
Title=John Gill, Fuhrer of Ekos
Artist=Black Tribe
Album=Star Trek Black Metal (Compilation)
Tracknumber=4
Year=2019
Genre=Experimental Black Metal, Industrial/Noise

[/more]

Register
(7) artscald, infiltrator, kimkayoung, Olethros, Rosen, vasiljev_sergej, V_H_H_V,
Oct 15 2019, 18:44:07 Godless Angel - Six Years Of Sin [compilation] (2018)


*Artist: Godless Angel
*Album: Six Years Of Sin [compilation]
*Year: 2018
*Genre: Groove/Death Metal
*Country: United States
*Format: mp3@CBR320kbps
*Size: 215MB

Tracklist:
1.Chapter Two: The Abduction 06:01
2.The Gallows 03:38
3.Containment Breach in Sector Six 03:32
4.The Worms Are Eating Him Now 05:33
5.Dying Dead Undead Unholy 03:44
6.Blackened Tongue 05:09
7.Summoning Darkness 03:03
8.Death Descending 03:18
9.The Infinite Womb 07:36
10.Beneath the Skin 02:54
11.JawZ 06:39
12.The Flames of Eternity 05:26
13.Chapter Four: The Sacrifice 06:46
14.Prologue - The Arrival 01:29 instrumental
15.Chapter One - The Barn 05:38 instrumental
16.Chapter Two - The Abduction 06:01 instrumental
17.Chapter Three - The Possession 05:33 instrumental
18.Chapter Four - The Sacrifice 06:53 instrumental
19.Epilogue - The Survivor 01:58 instrumental
******************************
Total playing time: 1:30:51



[more=Extended info]Line - up:

Derek Neibarger - Everything (Gore Stained, Wretched Spawn, Dirt Road Melody, Morbid Zombie, Trinity-X, Unholy Diver)

https://www.metal-archives.com/images/3/5/4/0/3540378574_photo.jpg?0124[/more]

[more=Technical info]
Input File: 15. Chapter One - The Barn - Instrumental.mp3
Channels : 2
Sample Rate : 44100
Precision : 16-bit
Duration : 00:05:38.80 = 14941212 samples = 25410.2 CDDA sectors
File Size : 13.6M
Bit Rate : 320k
Sample Encoding: MPEG audio (layer I, II or III)
Comments :
Title=Chapter One - The Barn - Instrumental
Artist=Godless Angel
Album=Six Years Of Sin (Compilation)
Tracknumber=15
Year=2018
Genre=Groove/Death Metal

[/more]

Register
(6) artscald, infiltrator, kimkayoung, Olethros, Rosen, stumpheavyrock,
Oct 15 2019, 17:53:50 Gaveldown - Earth To Ash (2019)


*Artist: Gaveldown
*Album: Earth To Ash
*Year: 2019
*Genre: Thrash/Groove Metal
*Country: United States
*Format: mp3@CBR320kbps
*Size: 119MB

Tracklist:
1.Guard the Gate 04:00
2.Hunted Man 05:26
3.Memory Fades 05:23
4.Lift the Curse 05:06
5.Torn 05:17
6.Water to Wine 04:15
7.Chained 07:00
8.My Skin 04:42
9.Into the Fire 04:21
10.Untied 04:08
******************************
Total playing time: 49:38



[more=Extended info]Line - up:

Steve Delaney - Bass
Cip Griffin - Drums
Ferguson Kelly - Guitars (lead)
Kevin Beasley - Guitars (rhythm), Vocals

https://f4.bcbits.com/img/0016544760_10.jpg[/more]

[more=Technical info]
Input File: 05. Torn.mp3
Channels : 2
Sample Rate : 44100
Precision : 16-bit
Duration : 00:05:17.57 = 14004617 samples = 23817.4 CDDA sectors
File Size : 12.8M
Bit Rate : 322k
Sample Encoding: MPEG audio (layer I, II or III)
Comments :
Title=Torn
Artist=Gaveldown
Album=Earth to Ash
Tracknumber=5
Year=2018
Genre=Thrash/Groove Metal

[/more]

Register
(7) artscald, boby9052, infiltrator, metala, Olethros, Rosen, stumpheavyrock,
Oct 15 2019, 16:36:25 Alkonost - Парус [single] (2019)


*Artist: Alkonost
*Album: Парус [single]
*Year: 2019
*Genre: Folk/Pagan/Doom/Black Metal
*Country: Russian Federation
*Format: mp3@CBR320kbps
*Size: 22MB

Tracklist:
1.Парус 04:33
2.Вихрь времени 04:00
******************************
Total playing time: 8:33



[more=Extended info]Line - up:

Andrey Losev - Guitars, Keyboards (Test by Freedom, ex-Руян (live), ex-Canonis, ex-Molestation, ex-Траурный Бисер)
Ksenia Pobuzhanskaya - Vocals (Test by Freedom, Winter Dream)
Rustem Shagitov - Bass (ex-Baradj, ex-Lunar Strain)

Guest/Session:
Nikolay Kopachev - Drums
Stepan Andreyevich - Guitars

https://www.metal-archives.com/images/1/0/1/4/10145_photo.jpg?4910[/more]

[more=Technical info]
Input File: 01-alkonost-parus-ik.mp3
Channels : 2
Sample Rate : 44100
Precision : 16-bit
Duration : 00:04:33.68 = 12069156 samples = 20525.8 CDDA sectors
File Size : 11.0M
Bit Rate : 320k
Sample Encoding: MPEG audio (layer I, II or III)
Comments :
Title=Парус
Artist=Alkonost
Album=Парус (Single)
Tracknumber=01
Year=2019
Genre=Folk/Pagan/Doom/Black Metal

[/more]

Register
(21) Aresson, artscald, Cartman223, chipsgott, Druidir, Fess, gwar, infiltrator, infozahist, Kasper969, kostja, Olethros, Phlebotomized, Rosen, SAPOGi, Surt, talismanFS, vasiljev_sergej, wanderer73, Луч, Сварог Барг,
Oct 14 2019, 17:33:05 The Holeum - Sublime Emptiness (2019)


*Artist: The Holeum
*Album: Sublime Emptiness
*Year: 2019
*Genre: Post-Metal/Rock
*Country: Spain
*Format: mp3@CBR320kbps
*Size: 100MB

Tracklist:
1.Obsidiana 07:27
2.Geometric Dance 06:36
3.Protoconsciousness 06:30
4.Drake Equation 06:34
5.Fractal Visions 06:12
6.Metempsicosis 09:24
******************************
Total playing time: 42:43



[more=Extended info]Line - up:

Paco Porcel - Bass (ex-Amalthea, ex-Nahemah, ex-Demised)
Miguel A. Fernández - Drums (Hela, Nahrayan, Neptunian Sun, Throne on Mars, ex-The Sand Collector, ex-Deep Red Blood)
Luis Albaladejo - Guitars
Pablo Egido - Vocals, Drones (ex-Nahemah)
Julián Velasco - Guitars (Hela, Muerte por Mil Cortes, Nahrayan, ex-The Hidden Project, ex-The Sand Collector, ex-Earth Without Heaven)

https://www.metal-archives.com/images/3/5/4/0/3540417661_photo.jpg?4349

[youtube]https://youtu.be/K35pfsfgSZc[/youtube][/more]

[more=Technical info]
Input File: 02. Geometric Dance.mp3
Channels : 2
Sample Rate : 44100
Precision : 16-bit
Duration : 00:06:36.88 = 17502276 samples = 29765.8 CDDA sectors
File Size : 15.9M
Bit Rate : 320k
Sample Encoding: MPEG audio (layer I, II or III)
Comments :
Title=Geometric Dance
Artist=The Holeum
Album=Sublime Emptiness
Tracknumber=2
Year=2019
Genre=Post-Metal/Rock

[/more]

Register
(11) ahp, artscald, as71, infiltrator, Kwaad, nsmetalhead, Olethros, Ostinato, Rosen, SatanicPanzer, yuratroll,
Oct 13 2019, 19:05:17 Kiko Shred - Royal Art (2019)


*Artist: Kiko Shred
*Album: Royal Art
*Year: 2019
*Genre: Heavy/Power Metal
*Country: Brazil
*Format: mp3@CBR320kbps
*Size: 110MB

Tracklist:
1.I Will Cast No More (Pearls Before the Swine) 06:49
2.Alchemy's Fire 05:48
3.Merlin's Magic 04:30
4.Straight Ahead 05:16
5.Royal Art 04:46
6.Over the Edge 03:56
7.Tebas Spirit 05:07
8.Mortal 04:40
9.The Knights of the Round 05:15
10.Cagliostro 04:28
******************************
Total playing time: 50:35






[more=Extended info]Line - up:
Will Costa - Bass (Higher, The Goths)
Lucas Taliari Miranda - Drums (Megahera, Michael Vescera (live), Slippery, ex-Hellway Patrol (live))
Mario Pastore - Vocals (lead) (Pastore, Powerfull, ex-Delpht, ex-Social Fears, ex-Titanio, ex-Heaviest, ex-Tailgunners, ex-Acid Storm, ex-Revenge, ex-Sacred Sinner)
Kiko Shred - Guitars (Megahera, Leather (live), Michael Vescera (live), ex-Hellway Patrol (live))

Guest/Session:
Michael Vescera - Vocals (Track 4) (Obsession, Death Keepers, Dramatica, Fatal Force, Killing Machine, Magic Kingdom, Michael Vescera, Sovereign, Vescera, Warrion, Roland Grapow, Stygia, ex-MVP, ex-Palace of Black, ex-The Reign of Terror, Animetal USA, ex-Dr. Sin, ex-Loudness, ex-Yngwie J. Malmsteen, ex-Safe Haven, ex-Theatre)

https://www.metal-archives.com/images/3/5/4/0/3540459100_photo.jpg?0755[/more]

[more=Technical info]
Input File: 03. Merlin\'s Magic.mp3
Channels : 2
Sample Rate : 44100
Precision : 16-bit
Duration : 00:04:29.89 = 11902105 samples = 20241.7 CDDA sectors
File Size : 10.8M
Bit Rate : 320k
Sample Encoding: MPEG audio (layer I, II or III)
Comments :
Title=Merlin's Magic
Artist=Kiko Shred
Album=Royal Art
Tracknumber=3
Year=2019
Genre=Heavy/Power Metal

[/more]

Register
(14) ace73pq, ahp, artscald, aviacademy, gwynnbleid, Herrant, infiltrator, metala, metalwoman, Olethros, Rosen, Rover, sergsazan, Сварог Барг,
Oct 12 2019, 17:25:27 Her Highness & Negative Slug - Terminal Transgression [split] (2019)


*Artist: Her Highness & Negative Slug
*Album: Terminal Transgression [split]
*Year: 2019
*Genre: Instrumental Sludge/Drone/Doom Metal | Doom Metal/Sludge
*Country: Hungary | Croatia
*Format: flac
*Size: 138MB

Tracklist:
Her Highness:
1.Primordial Waste 05:13 instrumental
2.Junk Scene 04:11 instrumental
Negative Slug:
3.Apeshit Warfare 04:23
4.Browsing Page 1 of Words Meaning to Defecate 03:52
******************************
Total playing time: 17:39



Register
(4) ahp, infiltrator, Rosen, Vakhangya,
Oct 12 2019, 17:05:52 Cruel Master - Demo Viii [demo] (2019)


*Artist: Cruel Master
*Album: Demo Viii [demo]
*Year: 2019
*Genre: Black Metal/Punk
*Country: United States
*Format: mp3@CBR320kbps
*Size: 41MB

Tracklist:
1.Creeper 03:18
2.Savaged 04:32
3.Human Sculptor 04:12
4.Violent Ecstasy 05:08
******************************
Total playing time: 17:10



[more=Extended info]Line - up:

J. Flynn - All instruments, Vocals (Dominus Mortis, Nuclear Funeral, ex-Godless Rising, ex-Ampütator, ex-Enucleator, ex-Hell Molestor)[/more]

[more=Technical info]
Input File: 04. Violent Ecstasy.mp3
Channels : 2
Sample Rate : 44100
Precision : 16-bit
Duration : 00:05:08.66 = 13611774 samples = 23149.3 CDDA sectors
File Size : 12.4M
Bit Rate : 321k
Sample Encoding: MPEG audio (layer I, II or III)
Comments :
Title=Violent Ecstasy
Artist=Cruel Master
Album=Demo VIII (Demo)
Tracknumber=4
Year=2019
Genre=Black Metal/Punk

[/more]

Register
(8) artscald, infiltrator, Olethros, robertho777, Rosen, stub888, vasiljev_sergej, Wail,
Oct 12 2019, 16:46:15 Killborn - Genesis [ep] (2019)


*Artist: Killborn
*Album: Genesis [ep]
*Year: 2019
*Genre: Melodic Death Metal/Deathcore
*Country: Canada
*Format: mp3@CBR320kbps
*Size: 55MB

Tracklist:
1.An Introduction to... 02:18 instrumental
2.Genesis 04:58
3.Sweet Mary 04:10
4.Medicate 05:17
5.From Ashes to Flames 02:59 instrumental
6.The Phoenix 05:14
******************************
Total playing time: 24:56



[more=Extended info]Line - up:

Jo St-Pierre - Bass
Julz Ellyson - Guitars
Mathew Comeau-Barrie - Guitars
Forest Marsh - Vocals
Yan Favreau - Drums

https://www.metal-archives.com/images/3/5/4/0/3540440369_photo.jpg?5548[/more]

[more=Technical info]
Input File: 06 The Phoenix.mp3
Channels : 2
Sample Rate : 44100
Precision : 16-bit
Duration : 00:05:15.01 = 13891721 samples = 23625.4 CDDA sectors
File Size : 12.6M
Bit Rate : 320k
Sample Encoding: MPEG audio (layer I, II or III)
Comments :
Title=The Phoenix
Artist=Killborn
Album=Genesis (EP)
Tracknumber=6
Year=2019
Genre=Melodic Death Metal/Deathcore

[/more]

Register
(6) artscald, infiltrator, metalwoman, Olethros, Ostinato, Rosen,
Oct 12 2019, 15:36:02 Gracchus - Murder Party (2019)


*Artist: Gracchus
*Album: Murder Party
*Year: 2019
*Genre: Progressive Metal
*Country: Switzerland
*Format: mp3@CBR320kbps
*Size: 98MB

Tracklist:
01. Living For Too Long 07:12
02. Whispers 04:53
03. My Love 04:20
04. Lying Tongue 05:05
05. Sewn Together 04:16
06. The Plug 04:34
07. A Lost Traveler's Guide 04:40
08. Spilled Remains 06:04
******************************
Total playing time: 41:04



[more=Extended info]Line - up:

Bernhard Schnellmann - Vocals, Guitars
Jeff Elrose - Guitars, Vocals
Marcel Butikofer - Bass
Allan Murphy - Drums, Vocals[/more]

[more=Technical info]
Input File: 04. Lying Tongue.mp3
Channels : 2
Sample Rate : 44100
Precision : 16-bit
Duration : 00:05:05.44 = 13470036 samples = 22908.2 CDDA sectors
File Size : 12.3M
Bit Rate : 321k
Sample Encoding: MPEG audio (layer I, II or III)
Comments :
Title=Lying Tongue
Artist=Gracchus
Album=Murder Party
Tracknumber=4
Year=2019
Genre=Progressive Metal

[/more]

Register
(11) ace73pq, artscald, aviacademy, chipsgott, dimitriusk, infiltrator, metala, Olethros, Rosen, Rover, Yarri,
Oct 11 2019, 18:46:23 Bersærk - Live I Pumpehuset [live] (2019)


*Artist: Bersærk
*Album: Live I Pumpehuset [live]
*Year: 2019
*Genre: Stoner Metal/Rock
*Country: Denmark
*Format: mp3@CBR320kbps
*Size: 147MB

Tracklist:
1.De glemte
2.Kampånd
3.Nordenvind
4.Skyggeland
5.Mørke
6.Intet glemt, før alt er brændt
7.Fimbuls børn
8.Niddingesang
9.År nul
10.Himlen skælver
11.Tordensol
12.Nattesyn
13.Solens folk
******************************
Total playing time: 1:06:40



[more=Extended info]Line - up:

Bastian Popp - Bass
Simon Meiner - Drums
Lars Evers - Guitars
Casper Roland Popp - Vocals

https://f4.bcbits.com/img/0014042086_10.jpg[/more]

[more=Technical info]
Input File: 11. Tordensol (Live).mp3
Channels : 2
Sample Rate : 44100
Precision : 16-bit
Duration : 00:05:29.09 = 14512649 samples = 24681.4 CDDA sectors
File Size : 13.2M
Bit Rate : 321k
Sample Encoding: MPEG audio (layer I, II or III)
Comments :
Title=Tordensol (Live)
Artist=Bersærk
Album=Live i Pumpehuset (Live)
Tracknumber=11
Year=2019
Genre=Stoner Metal/Rock

[/more]

Register
(4) artscald, marilin, Olethros, Rosen,
Oct 11 2019, 18:18:19 The Body - Remixed (2019)


*Artist: The Body
*Album: Remixed
*Year: 2019
*Genre: Experimental Sludge/Doom Metal/Noise/Industrial
*Country: United States
*Format: mp3@CBR320kbps
*Size: 122MB

Tracklist:
1.A Curse (Remixed by Moss of Aura)
2.Adamah (Remixed by OAA)
3.Ten Times a Day Everyday a Stranger (Remixed by Container)
4.Denial of the Species (Remixed by Mark Solotroff)
5.Off Script (Remixed by Moor Mother)
6.Wanderings (Remixed by Andrew Nolan)
7.An Urn (Remixed by Sow Discord)
8.Can Carry No Weight (Remixed by Peter Rehberg)
9.Western Dub (Remixed by Seth Manchester)
10.Hallow Hollow (Remixed by Lingua Ignota)
******************************
Total playing time: 52:14



[more=Extended info]Line - up:

Lee Buford - Drums (Dead Times, Lorna Doom, Narrow Pathe, ex-Class of Eighty Four, ex-Everyone Asked About You)
Chip King - Guitars, Vocals (Narrow Pathe, Siege Engine, ex-Full Service Quartet, ex-Generation of Vipers, ex-Hundred Years War)

https://www.metal-archives.com/images/5/1/6/8/51680_photo.jpg?2454[/more]

[more=Technical info]
Input File: 01. A Curse (Remixed by Moss Of Aura).mp3
Channels : 2
Sample Rate : 44100
Precision : 16-bit
Duration : 00:04:22.84 = 11591024 samples = 19712.6 CDDA sectors
File Size : 10.6M
Bit Rate : 322k
Sample Encoding: MPEG audio (layer I, II or III)
Comments :
Title=A Curse (Remixed by Moss Of Aura)
Artist=The Body
Album=Remixed
Tracknumber=1
Year=2019
Genre=Experimental Sludge/Doom Metal/Noise/Industrial

[/more]

Register
(11) abob, artscald, as71, gena, kimkayoung, marilin, metala, Olethros, Ostinato, Rosen, wtk.412,
Oct 11 2019, 18:11:57 Dödfödd - Stigma (2019)


*Artist: Dödfödd
*Album: Stigma
*Year: 2019
*Genre: Black Metal
*Country: Sweden
*Format: mp3@CBR320kbps
*Size: 96MB

Tracklist:
1.Stigma I 22:32
2.Stigma II 21:37
******************************
Total playing time: 44:09



[more=Extended info]Line - up:

Atum - Drums, Vocals )Reverorum ib Malacht, ex-AnXpm, PCT, Sekten, ex-Emit, ex-Ofermod, ex-Ix Eagodos, ex-Symphonia Sacrosancta Phasmatvm)
Johan Gustafsson - Unknown (Reverorum ib Malacht, Sekten)

https://www.metal-archives.com/images/1/0/1/9/10196_photo.jpg[/more]

[more=Technical info]
Input File: 01. Stigma I.mp3
Channels : 2
Sample Rate : 44100
Precision : 16-bit
Duration : 00:22:32.15 = 59629815 samples = 101411 CDDA sectors
File Size : 54.1M
Bit Rate : 320k
Sample Encoding: MPEG audio (layer I, II or III)
Comments :
Title=Stigma I
Artist=Dödfödd
Album=Stigma
Tracknumber=1
Year=2019
Genre=138

[/more]

Register
(24) 0x13, acerbus, artscald, atavist, Dmitry1977, garmonbozia, gena, Infidel, kim666, kimkayoung, multizwilling, Olethros, Ostinato, Qliphoth, Rosen, Rover, SilentNidhogg, Sjelekval, stub888, supremo, thenecromancer, umnaxtet, vasiljev_sergej, Vidder242,
Oct 11 2019, 16:48:45 Necrotted - Die For Something Worthwhile [ep] (2019)


*Artist: Necrotted
*Album: Die For Something Worthwhile [ep]
*Year: 2019
*Genre: Death Metal/Deathcore
*Country: Germany
*Format: mp3@CBR320kbps
*Size: 29MB

Tracklist:
1.Die for Something Worthwhile 03:17
2.Eudaimonia 03:34
3.Six Feet Deep, No Party Too Steep 03:04
4.Weltschmerz 03:11
******************************
Total playing time: 13:06



[more=Extended info]Line - up:

Fabian Fink - Vocals (ex-Hackneyed)
Markus Braun - Drums (ex-Cathedraline)
Philipp Fink - Guitars (ex-Hackneyed)
Koray Saglam - Bass (Rotten Pope)
Pavlos Chatzistavridis - Vocals

https://www.metal-archives.com/images/3/5/4/0/3540306787_photo.jpg?1250[/more]

[more=Technical info]
Input File: 03. Six Feet Deep, No Party Too Steep.mp3
Channels : 2
Sample Rate : 44100
Precision : 16-bit
Duration : 00:03:04.73 = 8146373 samples = 13854.4 CDDA sectors
File Size : 7.39M
Bit Rate : 320k
Sample Encoding: MPEG audio (layer I, II or III)
Comments :
Title=Six Feet Deep, No Party Too Steep
Artist=Necrotted
Album=Die for Something Worthwhile (EP)
Tracknumber=3
Year=2019
Genre=Death Metal/Deathcore

[/more]

Register
(3) artscald, Olethros, Rosen,
Oct 11 2019, 16:25:23 Life Of Agony - The Sound Of Scars (2019)


*Artist: Life Of Agony
*Album: The Sound Of Scars
*Year: 2019
*Genre: Alternative Metal/Rock
*Country: United States
*Format: mp3@CBR320kbps
*Size: 96MB

Tracklist:
1.Prelude 00:31 instrumental
2.Scars 02:46
3.Black Heart 03:32
4.Lay Down 03:49
5.Then 01:17
6.Empty Hole 03:03
7.My Way Out 03:56
8.Eliminate 02:16
9.Now 01:30
10.Once Below 03:31
11.Stone 03:21
12.Weight of the World 03:33
13.When 01:43
14.I Surrender 05:56
******************************
Total playing time: 40:44



[more=Extended info]Line - up:

Alan Robert - Bass, Vocals (Spoiler NYC, ex-Among Thieves)
Joey Z. - Guitars, Vocals (ex-Carnivore, ex-Eyes of the Dead, ex-Stereomud)
Mina Caputo - Vocals (lead), Keyboards, Vocals (lead) (Mina Caputo, ex-Absolute Bloom, ex-Freax, ex-Keith Caputo)
Veronica Bellino - Drums (ex-After Dark)

https://www.metal-archives.com/images/3/5/4/0/3540373969_photo.jpg?1825[/more]

[more=Technical info]
Input File: 11. Stone.mp3
Channels : 2
Sample Rate : 44100
Precision : 16-bit
Duration : 00:03:21.68 = 8894044 samples = 15125.9 CDDA sectors
File Size : 8.07M
Bit Rate : 320k
Sample Encoding: MPEG audio (layer I, II or III)
Comments :
Title=Stone
Artist=Life of Agony
Album=The Sound of Scars
Tracknumber=11
Year=2019
Genre=Alternative Metal/Rock

[/more]

Register
(4) Cartman223, gwar, KKK1488, StoneTemple,
Oct 11 2019, 15:35:43 Opium Lord - Vore (2019)


*Artist: Opium Lord
*Album: Vore
*Year: 2019
*Genre: Sludge/Doom Metal
*Country: United Kingdom
*Format: mp3@CBR128kbps
*Size: 38MB

Tracklist:
1.WWCD 03:45
2.Lead Magnet 05:39
3.Centurion 05:13
4.Suture 05:37
5.Cherwood Is Connector 05:44
6.Columbia (Featuring Mike Scheidt) 07:46
7.Gift 06:31
******************************
Total playing time: 40:15



[more=Extended info]Line - up:

Neil - Bass (ex-Teat)
Bruce - Drums (The Dead at Sea)
Adam Beckley - Guitars
Luke Fewtrell - Guitars
Simon Blewitt - Guitars (Sealclubber, Empires of Light)
Nathan Coyle - Vocals

https://f4.bcbits.com/img/0007717636_10.jpg[/more]

[more=Technical info]
Input File: 04 - Suture.mp3
Channels : 2
Sample Rate : 44100
Precision : 16-bit
Duration : 00:05:36.94 = 14859054 samples = 25270.5 CDDA sectors
File Size : 5.39M
Bit Rate : 128k
Sample Encoding: MPEG audio (layer I, II or III)
Comments :
Title=Suture
Artist=Opium Lord
Album=Vore
Tracknumber=4
Year=2019
Genre=Doom/Sludge Metal

[/more]

Register
(3) marilin, Rosen, stumpheavyrock,
Oct 10 2019, 19:09:15 Feelament - Hate Delivery (2018)


*Artist: Feelament
*Album: Hate Delivery
*Year: 2018
*Genre: Groove Metal/Metalcore
*Country: Russian Federation
*Format: mp3@CBR320kbps
*Size: 80MB

Tracklist:
1.Intro 01:32 instrumental
2.Power and Glory 04:06
3.What's the Price 03:31
4.Hate Delivery 04:49
5.Trapped 04:48
6.Obsessed 03:33
7.Great Tragedy 05:22
8.Incurable Disease 04:42
9.Outro 03:30 instrumental
******************************
Total playing time: 35:53



[more=Extended info]Line - up:

Yaroslav Bugakov - Bass, Samples
Timur Zhabbarov - Guitars
Mariya Balyasova - Vocals
Nikita Ladygin - Drums

https://www.metal-archives.com/images/3/5/4/0/3540398439_photo.jpg?2710

[youtube]KsEIPYn084Q[/youtube][/more]

[more=Technical info]
Input File: 01 Intro.mp3
Channels : 2
Sample Rate : 44100
Precision : 16-bit
Duration : 00:01:32.27 = 4069195 samples = 6920.4 CDDA sectors
File Size : 3.69M
Bit Rate : 320k
Sample Encoding: MPEG audio (layer I, II or III)
Comments :
Title=Intro
Artist=Feelament
Album=Hate Delivery
Tracknumber=1
Year=2018
Genre=Groove Metal/Metalcore

[/more]

Register
(6) artscald, chipsgott, gwar, infiltrator, Olethros, Rosen,

73 Pages V   1 2 3 > » 
- Lo-Fi Version Support form
Copyrights and abuse reports form
Time is now: 22nd October 2019 - 22:13:18