Welcome Guest ( Log In | Register )

История благодарностей участнику Necrokilldozer ::: Спасибо сказали: 58839 раз(а)
Дата поста: В теме: За сообщение: Спасибо сказали:
Yesterday, 19:46:19 Infection Code - Alea Iacta Est (2022)


*Artist: Infection Code
*Album: Alea Iacta Est
*Year: 2022
*Genre: Industrial/Thrash Metal
*Country: Italy
*Format: mp3@CBR320kbps
*Size: 118MB

Tracklist:
1. In Perpetual Error
2. Daily Slavery System
3. White Rooms
4. Red Death Masquerade
5. When the Angst Becomes Noise
6. Deforming the Future
7. World Wide War
8. New Sick Revolution
9. The Great Destroyer
******************************
Total playing time: 49:14



[more=Extended info]Line - up:

Davide Peglia - Bass
Riky Porzio - Drums (ex-Iron Jaws, ex-Jason Goes to Hell)
Gabriele Oltracqua - Vocals (ex-Quietflower)
Chris Perosino - Guitars (ex-Hellbound)

The four-piece is back with their eighth studio album! Infection Code not only presents a new, strong line-up, but a new band spirit and energy that is immediate evident, as they unleash a thunderous, musical scenerio, that promises to be one of their most extreme and heaviest records to date.[/more]

[more=Technical info]
Input File: 03 - White Rooms.mp3
Channels : 2
Sample Rate : 44100
Precision : 16-bit
Duration : 00:06:16.00 = 16581600 samples = 28200 CDDA sectors
File Size : 15.1M
Bit Rate : 320k
Sample Encoding: MPEG audio (layer I, II or III)
Comments :
Title=White Rooms
Artist=Infection Code
Album=Alea Iacta Est
Tracknumber=3
Year=2022-09-30
Genre=Industrial | Thrash Metal

[/more]

Register
(6) artscald, as71, boby9052, kimkayoung, metala, Сварог Барг,
Yesterday, 18:35:22 Homeskin - Itch Ecstasy (2022)


*Artist: Homeskin
*Album: Itch Ecstasy
*Year: 2022
*Genre: Avant-Garde Black Metal/Grindcore
*Country: United States
*Format: mp3@CBR320kbps
*Size: 74MB

Tracklist:
1. Tiny Bodies Burrowed in the Ear 05:24
2. Encrusted Jacket in the Bath 04:06
3. Radiant Wound 04:33
4. Back of the Closet You Thrive Painfully 05:11
5. Yellow Film Formulating 04:27
6. Raw to the Touch 07:10
******************************
Total playing time: 30:51



[more=Extended info]Line - up:

GB - All instruments, Vocals (Cara Neir, Gonemage, ex-Dire, ex-Ghastrah Proxiima, ex-Parabstruse, ex-Sallow Moth, ex-Semen Across Lips, ex-Thō, KSSL, Lev'myr, ex-Wildspeaker, ex-Bunrage, ex-Lunarian Sea, ex-Nautilusk, ex-Smoosz, ex-Sugar Highlands, ex-Synthetic Onslaught, ex-They Mostly Come Out at Night, ex-Vision Éternel, ex-Writhe)[/more]

[more=Technical info]
Input File: 03 - Radiant Wound.mp3
Channels : 2
Sample Rate : 44100
Precision : 16-bit
Duration : 00:04:33.00 = 12039300 samples = 20475 CDDA sectors
File Size : 11.0M
Bit Rate : 321k
Sample Encoding: MPEG audio (layer I, II or III)
Comments :
Title=Radiant Wound
Artist=Homeskin
Album=Itch Ecstasy
Tracknumber=3
Year=2022-10-04
Genre=Avant-garde Black Metal, Grindcore

[/more]

Register
(4) artscald, dermarsoran, kimkayoung, metala,
Yesterday, 17:51:11 Chest Rockwell - Mentis Oculi (2022)


*Artist: Chest Rockwell
*Album: Mentis Oculi
*Year: 2022
*Genre: Progressive Metal
*Country: United States
*Format: mp3@CBR320kbps
*Size: 107MB

Tracklist:
1. The Syrtis of His Patrimony 05:43
2. The Charybdis of His Possession 04:40
3. Homunculus 05:14
4. The Cartesian Theater 06:47
5. The Old Man of the Mountain 22:30
******************************
Total playing time: 44:54



[more=Extended info]"On the whole, Mentis Oculi is a thoroughly enjoyable album from a dedicated and talented artist who I respect a great deal.
Highly recommended."
- Lazland (UK)
lazland.org/album-reviews-2022/chest-rockwell-mentis-oculi

“I’ve had a couple of months to process this incredible album, so it’s not a snap judgment when I say this (The Cartesian Theater) is my favorite track of the five. I’ll also state categorically that all five tracks are excellent. Even the final, twenty-two and a half minute beast of a track doesn’t wear out its welcome.”
- Moshpit Nation
www.moshpitnation.com/track-premiere-chest-rockwell-the-cartesian-theater/

“Chest Rockwell has produced an album that not only brings into question the future of progressive music but also brings into question religion. This album abandons the Kyuss worship of the genre for Mastodon and Pink Floyd. This music is progressive without having the audience needing a degree in music to understand. Mentis Oculi creates a world where the listener can create the storylines for themselves despite all of its questioning, it's up to the fans to decide the future of progressive music.”
- Cave Dweller Music
cavedwellermusic.net/reviews/post/2006321/chest-rockwell-mentis-oculi[/more]

[more=Technical info]
Input File: 03 - Homunculus.mp3
Channels : 2
Sample Rate : 44100
Precision : 16-bit
Duration : 00:05:14.00 = 13847400 samples = 23550 CDDA sectors
File Size : 12.6M
Bit Rate : 320k
Sample Encoding: MPEG audio (layer I, II or III)
Comments :
Title=Homunculus
Artist=Chest Rockwell
Album=Mentis Oculi
Tracknumber=3
Year=2022-10-04
Genre=Progressive Metal

[/more]

Register
(2) artscald, metala,
Yesterday, 17:27:30 Enter Into Theta State - Oriented By The Heavens (2022)


*Artist: Enter Into Theta State
*Album: Oriented By The Heavens
*Year: 2022
*Genre: Experimental Death/Sludge/Grunge
*Country: International
*Format: mp3@CBR320kbps
*Size: 111MB

Tracklist:
1. Psychotropic Scare 06:06
2. Waves in Revelry 02:38
3. Face Off ino Infinity 03:42
4. Astro Temples 03:02
5. Fall of the Crown 06:04
6. Katana Unsheathed 04:32
7. Origins of Life 04:24
8. Weak 10:58
9. Haciendo Inundaciones 05:24
******************************
Total playing time: 46:50



[more=Technical info]
Input File: 03. Face off into Infinity.mp3
Channels : 2
Sample Rate : 44100
Precision : 16-bit
Duration : 00:03:42.08 = 9793816 samples = 16656.1 CDDA sectors
File Size : 8.88M
Bit Rate : 320k
Sample Encoding: MPEG audio (layer I, II or III)
Comments :
Title=Face off into Infinity
Artist=Enter into Theta State
Album=Oriented by the Heavens
Tracknumber=3
Year=2022
Genre=Experimental Death | Sludge

[/more]

Register
(4) artscald, judaz, kimkayoung, metala,
Yesterday, 16:46:29 Merciless Law - The Undying Fire [ep] (2022)


*Artist: Merciless Law
*Album: The Undying Fire [ep]
*Year: 2022
*Genre: Heavy/Power Metal
*Country: Chile
*Format: mp3@CBR320kbps
*Size: 39MB

Tracklist:
1. Fly 04:04
2. Shout! 04:14
3. A Matter of skin 03:55
4. The Undying Fire 03:55
******************************
Total playing time: 16:08

[more=Extended info]Line - up:
Pancho Ireland - Vocals, Guitars, Bass

Guest/Session:
Cederick Forsberg - Guitars (lead) (track 2) (Rocka Rollas, Blazon Stone, Cloven Altar, Lector, Palantír, Runelord, Starblind (live), ex-Breitenhold, ex-Mortyr, ex-Crystal Viper, ex-The Storyteller, ex-Steelwing (live), ex-Anger Burning, ex-Återfall)

[youtube]hOQ1hQpUZTc[/youtube][/more]

[more=Technical info]
Input File: 03 - A Matter Of Skin.mp3
Channels : 2
Sample Rate : 44100
Precision : 16-bit
Duration : 00:03:54.65 = 10347977 samples = 17598.6 CDDA sectors
File Size : 10.0M
Bit Rate : 342k
Sample Encoding: MPEG audio (layer I, II or III)
Comments :
Title=A Matter Of Skin
Artist=Merciless Law
Album=The Undying Fire (EP)
Tracknumber=3
Year=2022
Genre=Heavy | Power Metal

[/more]

Register
(5) artscald, boby9052, joseang, stumpheavyrock, vir2al,
Yesterday, 16:19:52 Curetaje - Alouqua Lilith [ep] (2022)


*Artist: Curetaje
*Album: Alouqua Lilith [ep]
*Year: 2022
*Genre: Grindcore/Death Metal
*Country: Ecuador
*Format: flac
*Size: 56MB

Tracklist:
1. Calicuchima y Guerrero Valenzuela esquina
2. Sumergido en el pozo de Darvaza
3. Violencia Vicaria
******************************
Total playing time: 7:29



[more=Extended info]Line - up:

Humberto Bermeo - Guitars, Bass, Vocals (ex-A1D, ex-Acaba Un Dia)
Paul Troya - Vocals
David Palacios - Drums[/more]

Register
(1) artscald,
Oct 2 2022, 19:18:11 Faust - Cisza Po Tobie (2022)


*Artist: Faust
*Album: Cisza Po Tobie
*Year: 2022
*Genre: Melodic Death/Folk Metal
*Country: Poland
*Format: mp3@CBR320kbps
*Size: 78MB

Tracklist:
1. A jeśli umrę 04:52
2. Za tamtą górą 05:25
3. Pokocham tę cisze po Tobie 04:36
4. Pogarda 03:41
5. Iskra pod śniegiem 06:01
6. Jakbyś gryzła żwir 04:01
7. Zdążyć przed deszczem 06:09
******************************
Total playing time: 34:45



[more=Extended info]Line - up:

Krzysztof Słowikowski - Guitars (Krzysztof Słowikowski, Big Black Cockroaches, Intrate)
Tomasz "Kaman" Dąbrowski - Guitars, Bass, Vocals (backing)
Mariusz Gajewski - Bass, Vocals (backing)
Paweł "Pavulon" Jaroszewicz - Drums (Antigama, Batushka, Obscure Sphinx, Pyorrhoea, Nargaroth (live), Ofermod (live), Symbolical (live), Soul Snatcher, ex-Crionics, ex-Hazael, ex-Nerve (live), ex-Horn Impaler, ex-No Emotions (live), Blindead 23, Hellium, ex-Christ Agony, ex-Hate, ex-Hell-Born, ex-Lost Soul, ex-Redemptor, ex-Thy Disease, ex-Vader, ex-War-saw, ex-Belphegor (live), ex-Deathbringer (live), ex-Decapitated (live), ex-Deivos (live), ex-Virgin Snatch (live), ex-Interior, ex-Thunderwar (live), ex-Rootwater, ex-Timo Tolkki's Infinite Visions)
Krzysztof Załęski - Guitars
Dariusz Ojdana - Keyboards (Painthing, ex-Eternal Tear, ex-Naamah, ex-Usque Ad Mortem)
Maciej Bartkowski - Vocals (Intrate)[/more]

[more=Technical info]
Input File: 02 - Za Tamta Gora.mp3
Channels : 2
Sample Rate : 44100
Precision : 16-bit
Duration : 00:05:25.22 = 14342158 samples = 24391.4 CDDA sectors
File Size : 13.0M
Bit Rate : 320k
Sample Encoding: MPEG audio (layer I, II or III)
Comments :
Title=Za Tamta Gora
Artist=Faust
Album=Cisza po Tobie
Tracknumber=02
Year=2022
Genre=Melodic Death | Folk Metal

[/more]

Register
(3) artscald, zhol, Сварог Барг,
Oct 2 2022, 19:07:38 Lifetaker - Der Letzte Raum (2022)


*Artist: Lifetaker
*Album: Der Letzte Raum
*Year: 2022
*Genre: Grindcore/Hardcore/Sludge
*Country: Germany
*Format: mp3@CBR320kbps
*Size: 57MB

Tracklist:
1. Bunkerjugend
2. Patrizidprotokoll
3. Fleischwolf
4. Strafisolator
5. Alpha Antichrist
6. Kehlbiss
7. Störfunk
8. Kadaverstille
9. Blutopfer
10. Gottgeburt
11. Madenvolk
12. Schlafparalyse
13. Tempelfaust
14. Vernichtungstanz
15. Gamma Mörser
******************************
Total playing time: 23:43




[more=Extended info]Line - up:

Gerrit - Bass (ex-Hanni Kohl, ex-Vergil)
Nico - Drums (ex-The Sovereign, ex-Placenta Powerfist, ex-Mossat)
Alex - Guitars (ex-The Sovereign, ex-Mossat)
Tobias - Guitars (ex-Vergil)
Konstantin - Vocals (ex-Wolves Carry My Name)[/more]

[more=Technical info]
Input File: 02. Patrizidprotokoll.mp3
Channels : 2
Sample Rate : 44100
Precision : 16-bit
Duration : 00:02:31.86 = 6697070 samples = 11389.6 CDDA sectors
File Size : 6.16M
Bit Rate : 325k
Sample Encoding: MPEG audio (layer I, II or III)
Comments :
Title=Patrizidprotokoll
Artist=Lifetaker
Album=Der letzte Raum
Tracknumber=2
Year=2022
Genre=Grindcore | Hardcore | Sludge Metal

[/more]

Register
(1) artscald,
Oct 2 2022, 19:01:33 The Loom Of Time - Grand False Karass (2022)


*Artist: The Loom Of Time
*Album: Grand False Karass
*Year: 2022
*Genre: Black/Death/Doom Metal
*Country: Australia
*Format: mp3@CBR320kbps
*Size: 110MB

Tracklist:
1. The Depths of Hell Itself 06:38
2. The Choices of an Automaton 04:55
3. The Luxury of Ignorance 05:52
4. The Shoulders of Giants 04:29
5. The Age of Expansionism 05:39
6. The Crux of Our Salvation 04:49
7. The Cancer of Excess 04:30
8. The Lance of Longinus 05:31
9. The Slightest of Deaths 03:31
******************************
Total playing time: 45:54



[more=Extended info]Line - up:

Brad Delforce - Bass (Evocatus, Saralisse)
Steven Reid - Drums
Matthew J. Ratcliffe - Guitars, Vocals

This is The Loom of Time unleashed! Ferociously creative, wildly varied, their sophomore “Grand False Karass” is a seamless melding of classic black, death and doom, woven through with a scathing critique of human axiomatic beliefs, challenging us to bolster them against looming nihilistic oblivion.

There was a time when a daring attitude was the norm, and this stays for The Loom Of Time, references like Arcturus or Solefald, where nowadays everything sounds too comfortable “Grand False Karass” moves its steps to terra incognita. Or may we say this is an improbable ménage a trois between Immortal, Mastodon and Cathedral? The Devil is obviously laughing at us all. Come rehearse dashing oneself against the rocks of cognitive dissonance, to come away steeled and strong, all the while on a delve through the depths of classic extreme metal.[/more]

[more=Technical info]
Input File: 02 - The Choices of an Automaton.mp3
Channels : 2
Sample Rate : 44100
Precision : 16-bit
Duration : 00:04:54.00 = 12965400 samples = 22050 CDDA sectors
File Size : 11.8M
Bit Rate : 321k
Sample Encoding: MPEG audio (layer I, II or III)
Comments :
Title=The Choices of an Automaton
Artist=The Loom of Time
Album=Grand False Karass
Tracknumber=2
Year=2022-09-30
Genre=Black | Death | Doom Metal

[/more]

Register
(5) AlexSmith, artscald, metala, robertho777, vasiljev_sergej,
Oct 2 2022, 18:16:41 Stake - Love, Death And Decay (2022)


*Artist: Stake
*Album: Love, Death And Decay
*Year: 2022
*Genre: Alternative/Post-Metal/Sludge
*Country: Belgium
*Format: mp3@CBR320kbps
*Size: 108MB

Tracklist:
1. Love, Death and Decay 07:06
2. Deliverance Dance 05:26
3. Zone Out 04:51
4. F*ck My Anxiety 03:36
5. Queen in the Dirt 04:35
6. Deadlock Eyes 05:21
7. Ray of the Sun 08:24
8. Dream City 05:52
******************************
Total playing time: 45:11



[more=Extended info]Line - up:

Jesse Surmont - Bass (ex-Steak Number Eight)
Joris Casier - Drums (ex-Steak Number Eight)
Cis Deman - Guitars (ex-Steak Number Eight)
Brent Vanneste - Guitars, Vocals (ex-Steak Number Eight)[/more]

[more=Technical info]
Input File: 02 - Deliverance Dance.mp3
Channels : 2
Sample Rate : 44100
Precision : 16-bit
Duration : 00:05:26.00 = 14376600 samples = 24450 CDDA sectors
File Size : 13.1M
Bit Rate : 320k
Sample Encoding: MPEG audio (layer I, II or III)
Comments :
Title=Deliverance Dance
Artist=Stake
Album=Love, Death and Decay
Tracknumber=2
Year=2022-09-30
Genre=Alternative | Post-Metal | Sludge

[/more]

Register
(3) artscald, sludge666, stumpheavyrock,
Oct 2 2022, 17:05:34 Oscurom - A World Beyond [ep] (2022)


*Artist: Oscurom
*Album: A World Beyond [ep]
*Year: 2022
*Genre: Atmospheric Black/Post-Metal
*Country: Switzerland
*Format: flac
*Size: 130MB

Tracklist:
1. A World Beyond Pt. 1 13:20
2. A World Beyond Pt. 2 08:03
3. A World Beyond Pt. 3 05:08
******************************
Total playing time: 26:31



Register
(10) aleon, Carcharoth, Dante_D, kim666, kimkayoung, Mencae77, metaljosue, sergsazan, stormhatt, vasiljev_sergej,
Oct 2 2022, 16:51:49 Baardvader - Foolish Fires (2022)


*Artist: Baardvader
*Album: Foolish Fires
*Year: 2022
*Genre: Stoner/Doom Metal
*Country: Netherlands
*Format: mp3@CBR320kbps
*Size: 103MB

Tracklist:
1. Pray 07:16
2. Understand 05:15
3. Illuminate 07:59
4. Blinded Out 06:15
5. Prolong Eternity 05:21
6. Echoes 10:47
******************************
Total playing time: 42:53



[more=Technical info]
Input File: 02 Understand.mp3
Channels : 2
Sample Rate : 44100
Precision : 16-bit
Duration : 00:05:15.21 = 13900937 samples = 23641 CDDA sectors
File Size : 12.6M
Bit Rate : 320k
Sample Encoding: MPEG audio (layer I, II or III)
Comments :
Title=Understand
Artist=Baardvader
Album=Foolish Fires
Tracknumber=2
Year=2022
Genre=Stoner | Doom Metal

[/more]

Register
(7) artscald, gena, Korpse, Sabbathian, skidnik, sludge666, vlad74,
Oct 2 2022, 16:39:59 Zatrebil - Welcome To Helloween Town (2022)


*Artist: Zatrebil
*Album: Welcome To Helloween Town
*Year: 2022
*Genre: Raw Black Metal
*Country: United States
*Format: mp3@CBR320kbps
*Size: 86MB

Tracklist:
1. Intro 00:56
2. Ghouling Depression 02:22
3. Kiss of the Reaper 02:53
4. Cause Pain 03:53
5. The Pumpkin King 03:22
6. Church of the Death Triangle 02:52
7. Fucked Up on Halloween 03:59
8. Devil Says I’ve Lost My Mind 03:17
9. Fraidio 00:57
10. Chains in the Cemetary Ghost! 02:41
11. Breaking Bones 03:02
12. The Creeps 00:17
13. Welcome to Helloween Town 03:49
14. Nightmares 03:28
******************************
Total playing time: 37:48



[more=Extended info]Line - up:
Karg - Drums, Vocals (backing)
Zatrebil - Vocals, Guitar, Keyboards

Guest/Session:
Ravanna - Keyboards, Bass, Vocals, Samples
Lord Goat Fucker - Guitars, Vocals (backing)

This is the 11th release from the One Man Beers Drinking Metal band with the help of his inter-dimensional Friends. This is the Halloween October 1st release. ZATREBIL is a Raw Experimental Black Metal , Thrash Metal , Speed Metal, Rock , Goth band from Northern California. All links can be found at campsite.bio/ZATREBIL . You can also find us on Twitter, Revebnation , SoundCloud , I heart Radio, Spotify, YouTube , Deezer, Pandora, Amazon Music, You Local Bar, Napster, Back Yard Wrestling Matches, Local AlleyWay, and Friendster. Can’t forget MySpace ????[/more]

[more=Technical info]
Input File: 02. Ghouling Depression.mp3
Channels : 1
Sample Rate : 48000
Precision : 16-bit
Duration : 00:02:22.20 = 6825744 samples ~ 10665.2 CDDA sectors
File Size : 5.69M
Bit Rate : 320k
Sample Encoding: MPEG audio (layer I, II or III)
Comments :
Title=Ghouling Depression
Artist=Zatrebil
Album=Welcome To Helloween Town
Tracknumber=2
Year=2022
Genre=Raw Black Metal

[/more]

Register
(6) AlexSmith, Altkiller, artscald, kim666, stormhatt, vasiljev_sergej,
Oct 2 2022, 16:25:35 Necrofiend - Dungeon Rot [ep] (2022)


*Artist: Necrofiend
*Album: Dungeon Rot [ep]
*Year: 2022
*Genre: Instrumental Death/Doom Metal
*Country: United States
*Format: mp3@CBR320kbps
*Size: 35MB

Tracklist:
1. Delve into Madness 02:29
2. Tormented 04:57
3. Dungeon Rot 07:14
******************************
Total playing time: 14:40



[more=Technical info]
Input File: 02 - Tormented.mp3
Channels : 2
Sample Rate : 44100
Precision : 16-bit
Duration : 00:04:57.00 = 13097700 samples = 22275 CDDA sectors
File Size : 12.0M
Bit Rate : 323k
Sample Encoding: MPEG audio (layer I, II or III)
Comments :
Title=Tormented
Artist=Necrofiend
Album=Dungeon Rot (EP)
Tracknumber=2
Year=2022
Genre=Death | Doom Metal | Instrumental

[/more]

Register
(5) artscald, Dante_D, Shadechaser, stumpheavyrock, vyacheslav,
Oct 2 2022, 15:56:33 Void Me - A Mass Of Darkness [ep] (2022)


*Artist: Void Me
*Album: A Mass Of Darkness [ep]
*Year: 2022
*Genre: Black Metal/Crust
*Country: Brazil
*Format: flac
*Size: 118MB

Tracklist:
1. Nuances 01:18
2. Ghost Name 01:37
3. Inner Trauma 01:02
4. Precious 02:42
5. Presagio 01:07
6. Nosferatu 02:07
******************************
Total playing time: 9:53



[more=Extended info]Line - up:

Darlene - Drums
Al - Vocals, Guitars (A Plague, Nunca, ex-Hinfamy, ex-Meant to Suffer)[/more]

Register
(1) Dante_D,
Oct 2 2022, 11:10:12 Ut Interficias Inanis - Perception & Transcendence (2022)


*Artist: Ut Interficias Inanis
*Album: Perception & Transcendence
*Year: 2022
*Genre: Melodic Black/Death Metal
*Country: Unknown
*Format: mp3@CBR320kbps
*Size: 63MB

Tracklist:
1. Ritualistic Warfare 05:46
2. The Ancient Waters 04:41
3. Vessels 04:40
4. Fractals Within Shadows 03:42
5. Dreams Within Darkness 00:29
6. Celestial 05:08
7. The Eternal Waters 01:55
******************************
Total playing time: 26:21



[more=Extended info]this album began in early 2020 as what was essentially melodic black metal with a LOT of (surprisingly) folk elements. That's been abandoned. It took several forms and never really fit a project or vocal style well, so after many revisions, it ended up like this. a brand new project with much more to come.[/more]

[more=Technical info]
Input File: 02. The Ancient Waters.mp3
Channels : 2
Sample Rate : 48000
Precision : 16-bit
Duration : 00:04:41.24 = 13499280 samples ~ 21092.6 CDDA sectors
File Size : 11.3M
Bit Rate : 320k
Sample Encoding: MPEG audio (layer I, II or III)
Comments :
Title=The Ancient Waters
Artist=Ut Interficias Inanis
Album=Perception & Transcendence
Tracknumber=2
Year=2022
Genre=Melodic Black | Death Metal

[/more]

Register
(17) AlexSmith, Altkiller, AmberKitsune, artscald, Carcharoth, dermarsoran, kim666, kimkayoung, Marek, megam, Phlebotomized, sergsazan, Shadechaser, stormhatt, varlam4, vasiljev_sergej, zhol,
Oct 2 2022, 10:47:29 Kerorgrorek - Abyssvs [ep] (2022)


*Artist: Kerorgrorek
*Album: Abyssvs [ep]
*Year: 2022
*Genre: Ambient/Black Metal/Dungeon Synth
*Country: Italy
*Format: mp3@CBR320kbps
*Size: 58MB

Tracklist:
1. DS XVI 04:29
2. Abyssvs Dominatvr 06:06
3. Sospiro del Drago 06:49
4. Song to Extinguish Any Life 05:15
******************************
Total playing time: 22:39



[more=Technical info]
Input File: 02. Abyssvs Dominatvr.mp3
Channels : 2
Sample Rate : 48000
Precision : 16-bit
Duration : 00:06:06.36 = 17585424 samples ~ 27477.2 CDDA sectors
File Size : 14.7M
Bit Rate : 321k
Sample Encoding: MPEG audio (layer I, II or III)
Comments :
Title=Abyssvs Dominatvr
Artist=Kerorgrorek
Album=Abyssvs (EP)
Tracknumber=2
Year=2022
Genre=Black Metal | Ambient

[/more]

Register
(11) Altkiller, AmberKitsune, artscald, Carcharoth, Dante_D, dermarsoran, kim666, robertho777, stormhatt, varlam4, vasiljev_sergej,
Oct 2 2022, 10:09:43 Vanik - III Live At Mercinary Studios [live] (2022)


*Artist: Vanik
*Album: III Live At Mercinary Studios [live]
*Year: 2022
*Genre: Heavy/Speed Metal
*Country: United States
*Format: mp3@CBR320kbps
*Size: 141MB

Tracklist:
1. Gateway 00:26
2. Carmilla 03:26
3. Running Wild 01:53
4. Haunted House 01:12
5. The Creature 02:47
6. We Approach 03:56
7. Raging High 02:18
8. Deadly Beginning 03:12
9. Dark Season 00:53
10. Jack's Lantern 03:34
11. Witch Rites 03:51
12. Island of Lost Souls 05:10
13. Under The Stairs 01:54
14. Skull Is for You 02:32
15. Secret Killer 02:27
16. Day to Die 04:16
17. Drowningreen 03:04
18. Dead Fuck 02:54
19. The Funeral 02:43
20. Dead Times 02:44
******************************
Total playing time: 55:12



[more=Extended info]Line - up:
Vanik - Guitars, Vocals, All instruments (tracks 13, 14) (Sixx, Vandallus, Whitespade, Midnight (live), ex-Manimals (live), ex-Eternal Legacy, ex-Wretch, ex-H.A.T.E., ex-Cellbound, ex-Gravity)
Ed Stephens - Bass (Beyond Fear, Harlot's Grip, Ringworm, Rip Ryde, Shed the Skin, Shok Paris, Vindicator, Sixx (live), ex-Sinister, ex-Violent Night, Gluttons, ex-Byron Nemeth Group, ex-Destructor, ex-Charred Walls of the Damned (live), ex-Abdullah, ex-Civil Disobedience, ex-Pete)
Steve - Drums

Guest/Session:
Nina Vee - Vocals (track 14)
Al Biddle - Drums (tracks 19, 20) (Chainbreaker, ex-Rammer, Dentata, Hassler, ex-Cauldron, ex-Dawn of Svarogh, ex-Goat Horn, ex-Toxic Holocaust, ex-Bat (live), ex-Castle (live), ex-Redeemer (live), ex-Astroboy, ex-Automatic, ex-Batbreaker, ex-Blood Simple, ex-Blue Angel, ex-Boneless, ex-Colosseum, ex-Dead Season, ex-Diemonds, ex-Dyl’s New Band, ex-Figure Four, ex-Lame, ex-Love on Sight, ex-Sweet Vengeance, ex-Two Line Filler)
Vic Stown - Guitars (additional) (tracks 19, 20) (Vandallus, Vindicator, Volcana, ex-Cryptic Stench, ex-Violent Night)

First Vanik performance as a three-piece.[/more]

[more=Technical info]
Input File: VANIK - III Live At Mercinary Studios - 02 Carmilla.mp3
Channels : 2
Sample Rate : 44100
Precision : 16-bit
Duration : 00:03:26.38 = 9101402 samples = 15478.6 CDDA sectors
File Size : 8.26M
Bit Rate : 320k
Sample Encoding: MPEG audio (layer I, II or III)
Comments :
Title=Carmilla
Artist=Vanik
Album=III Live At Mercinary Studios (Live)
Tracknumber=2
Year=2022
Genre=Heavy | Speed Metal

[/more]

Register
(7) after21allD, AHBAnep, artscald, fuoco, Mannard, sergsazan, stumpheavyrock,
Oct 2 2022, 09:51:54 Adrian Weiss - Dangerous Discipline (2022)


*Artist: Adrian Weiss
*Album: Dangerous Discipline
*Year: 2022
*Genre: Instrumental Progressive Metal/Shred
*Country: Germany
*Format: mp3@CBR320kbps
*Size: 112MB

Tracklist:
1. Dangerous Discipline 04:05
2. Hand Me My Brass [ft. Dee Dammers] 03:52
3. Night Flight to the Sun [ft. Alexandra Zerner + Benjamin Schippritt] 04:26
4. Straight by the Crook 05:06
5. Withdrawn into the Dimness 04:56
6. Face Melting Phenomenon [ft. Nick Johnston] 05:36
7. Anger Management [ft. Justin Hombach + Fabian Ratsak] 05:07
8. Sunny Beach Party [ft. Patrick Sperling + Martin Miller] 04:21
9. The Grand Illusion 04:52
10. More Is More [ft. Thorsten Praest + Yasi Hofer] 05:00
******************************
Total playing time: 47:21



[more=Extended info]Line - up:

Marcel Willnat - Bass (Forces at Work, Harkon, ex-Daily Reign, ex-Surgeon, ex-Sarcastic Vision, ex-Venator)
Sabir Salkic - Drums (Forces at Work, ex-Point of No Return, ex-Scavenger)
Adrian Weiss - Guitars (Forces at Work, Gloryful, ex-Thought Sphere, ex-Ways of Desolation, ex-Mind Expansion)

[youtube]https://youtu.be/ek4hqj654qs[/youtube][/more]

[more=Technical info]
Input File: 02. Hand Me My Brass.mp3
Channels : 2
Sample Rate : 44100
Precision : 16-bit
Duration : 00:03:52.09 = 10235037 samples = 17406.5 CDDA sectors
File Size : 9.29M
Bit Rate : 320k
Sample Encoding: MPEG audio (layer I, II or III)
Comments :
Title=Hand Me My Brass
Artist=Adrian Weiss & Dee Dammers
Album=Dangerous Discipline
Tracknumber=2
Year=2022
Genre=Progressive Metal| Shred | Fusion | Instrumental

[/more]

Register
(5) after21allD, artscald, Dante_D, kimkayoung, varlam4,
Oct 1 2022, 19:08:28 Padus - Oscuramenti (2022)


*Artist: Padus
*Album: Oscuramenti
*Year: 2022
*Genre: Doom Metal/Dark Ambient
*Country: Italy
*Format: mp3@CBR320kbps
*Size: 117MB

Tracklist:
1. Antro 02:40 instrumental
2. Baptisterium 04:37
3. Crusta lunaris 03:57 instrumental
4. Diaconomicon 03:42
5. Funerale su Andromeda 11:34 instrumental
6. Gli spettri 04:25 instrumental
7. Invasione ed assalto 03:30
8. La bara nera 03:44 instrumental
9. Lucifero 03:52
10. Megera 04:32 instrumental
11. Profanatio in loco 03:06 instrumental
******************************
Total playing time: 49:39



[more=Extended info]MZ - All instruments and vocals

Recording information:

All the vocal parts of this album are sung in "grammelot", a theatrical language with meaningless sounds, but similar to real words or speeches in order to obtain a comic or farcical effect.[/more]

[more=Technical info]
Input File: 01. Antro.mp3
Channels : 2
Sample Rate : 44100
Precision : 16-bit
Duration : 00:02:40.06 = 7058822 samples = 12004.8 CDDA sectors
File Size : 6.41M
Bit Rate : 320k
Sample Encoding: MPEG audio (layer I, II or III)
Comments :
Title=Antro
Artist=Padus
Album=Oscuramenti
Tracknumber=1
Year=2022
Genre=Doom Metal | Dark Ambient

[/more]

Register
(7) artscald, fuoco, metala, stormhatt, stumpheavyrock, thenecromancer, vlad74,
Oct 1 2022, 18:47:28 Brotthogg - Epicinium (2022)


*Artist: Brotthogg
*Album: Epicinium
*Year: 2022
*Genre: Progressive/Melodic Death/Black Metal
*Country: Norway
*Format: mp3@CBR320kbps
*Size: 99MB

Tracklist:
1. When the Curtain Falls 06:01
2. Forvitring 05:44
3. Vengeance 04:00
4. Ravn 05:07
5. Ved Skumringens Ytterste Rand 06:53
6. Epicinium 06:39
7. Possessed 06:50
******************************
Total playing time: 41:14



[more=Extended info]Line - up:
Kristian Larsen Moen - All instruments (Subliritum, ex-Hinn Mesta, ex-Toxic)
Craig Furunes - Vocals (Chton, Demontera)
Jonas Moen - Vocals (Subliritum, ex-Hinn Mesta)

Guest/Session:
Stephen Carlson - Guitars (lead) (Christian Liljegren, Flames of Fire)

[youtube]https://youtu.be/jFoJSmtLndY[/youtube]

Brotthogg are back with the third full-length album, Epicinium, following the critically acclaimed «Echoes of the Past» (2019) and «The Die is Cast» (2020). With this new album Brotthogg again presents a dynamic display of deathly blackened and thrashing extremity filled with dark and gloomy melodies.

«As always we try to provide a personal approach towards the fine attributes extreme metal has to offer. O ur focus is to create something brutal and aggressive, but also melodic and progressive, all interspersed with the freezing cold layers of black metal. Whether you call it back metal, death metal or even thrash metal, we hope we have created an intriguing release well worth exploring».

Brotthogg deals in melodic black/death/thrash metal that owes its allegiance to bands like Emperor’, Old Man's Child, Symphony X and Dissection.[/more]

[more=Technical info]
Input File: 01 - When the Curtain Falls.mp3
Channels : 2
Sample Rate : 44100
Precision : 16-bit
Duration : 00:06:00.00 = 15876000 samples = 27000 CDDA sectors
File Size : 14.4M
Bit Rate : 321k
Sample Encoding: MPEG audio (layer I, II or III)
Comments :
Title=When the Curtain Falls
Artist=Brotthogg
Album=Epicinium
Tracknumber=1
Year=2022-10-01
Genre=Progressive | Melodic Death | Black Metal

[/more]

Register
(14) AlexSmith, Altkiller, AmberKitsune, artscald, cancer1974, dermarsoran, kimkayoung, Melusinara, metala, Old Vyaine, stormhatt, varlam4, zhol, Сварог Барг,
Oct 1 2022, 17:39:20 Tons - Hashension (2022)


*Artist: Tons
*Album: Hashension
*Year: 2022
*Genre: Sludge/Doom Metal
*Country: Italy
*Format: mp3@CBR320kbps
*Size: 94MB

Tracklist:
1. Dope Dealer Scum
2. A Hash Day's Night
3. Slowly We Pot
4. Hempathy for the Devil
5. Ummagummo
6. Hashended (Outro)
******************************
Total playing time: 39:09



[more=Extended info]Line - up:

Paolo - Bass, Vocals
Marco - Drums
Steuso - Guitars

After the infamous split album with the almighty Bongzilla, Tons are back with their third full-length studio album.
Hashension is composed by 6 heavy reefer songs which express the band’s devotion to the Green God. The recipe is the same, but always evolving: an infusion of slow and swampy doom/sludge metal with hints of psychedelia, and the band members’ hardcore-punk background gives the record a groovy and personal feel throughout.[/more]

[more=Technical info]
Input File: Tons - Hashension - 01 - Dope Dealer Scum.mp3
Channels : 2
Sample Rate : 48000
Precision : 16-bit
Duration : 00:06:54.31 = 19887120 samples ~ 31073.6 CDDA sectors
File Size : 16.6M
Bit Rate : 320k
Sample Encoding: MPEG audio (layer I, II or III)
Comments :
Title=Dope Dealer Scum
Artist=Tons
Album=Hashension
Tracknumber=1
Year=2022
Genre=Sludge | Doom Metal

[/more]

Register
(6) artscald, marilin, metala, sludge666, vlad74, vosmidesijatye,
Oct 1 2022, 16:52:58 Tales Of A Liquid Dawn - Fall Of The Xafyre Dynasty (2022)


*Artist: Tales Of A Liquid Dawn
*Album: Fall Of The Xafyre Dynasty
*Year: 2022
*Genre: Instrumental Progressive Metal
*Country: United Kingdom
*Format: mp3@CBR320kbps
*Size: 169MB

Tracklist:
1. Tome of History
2. The Rain Season
3. The Son Escapes
4. Twin Serpents
5. The Qunja Monks
6. The Betrayal and Death of Emperor Var
7. The Battle for Xafyre Palace
8. The Nomad
******************************
Total playing time: 1:07:41



[more=Extended info]The Xafyre Chronicles Part I: Fall Of The Xafyre Dynasty

Story by Anthony Yip & Ben Plater

"A man is nothing without being bound within the pages of history..."
- Emperor Var Xafyre

Tome Of History
The Xafyre Chronicles tale starts with a withered and aged Emperor Var. After a long life of battles, hardships and the physical and emotional fatigue of sole-ruler, he longs to enter the Tome of History to preserve his legacy and to live in immortality within its pages.

The Tome is bound to the palace by magic seal.

Many years ago, a Qunja High Monk known as Quul Ya became obsessed with the Tome’s power and disappeared after taking part in capturing the Palace from the Fifth Order of Ry’Fe. Rumours that he managed to find a way into the Tome persist.

The Rain Season
During the last Rain Season and Harvest, he put his son’s lover to death by execution, unable to accept that he may marry a peasant girl. Var can never forgive himself and longs to reconcile with his estranged son, who fled that day and now leads the Drak’Ard Resistance - an army of city-dwellers who oppose his reign. He knows their attack is imminent and he may well be reunited with his son, albeit as an adversary.

The Son Escapes
A short interlude chronicles the son escaping the palace, never to return.

Twin Serpents
The Twin Serpents hold a pact with the Emperor to serve him and two of their finest warriors serve as his aides and advisors; The Shield - a protector, inquisitor and ouster of enemies within and The Spear, a masterful and cunning tactician.

The mysterious Xylaa Serpent Race consists only of females and soon their species will die out. To save themselves from mortality, they seek to steal the Tome of History.

The Twin Serpents, Spear and Shield start plotting against the Emperor to steal his place within the Tome of History and a conspiracy of betrayal is born.

The Qunja Monks
The Qunja are a peaceful but all-powerful race, known for their use of the intoxicating Lycrid vapours. They build Lycrid Sanctuary Chambers where they practice their ancient throat singing. The chambers are filled with Lycrid vapour and humans are welcome to enter. The Emperor has his own chamber that serves as his personal sanctuary.

The Qunja Monks serve the Dynasty, acting as obedient servants to the palace. They are engineers, cooks, build and maintain the Dynasty's war vessels but are peaceful and are not involved with the military.

One evening, as the Emperor relaxes and meditates within the Lycrid Chamber, he is murdered.

The Betrayal And Death Of Emperor Var
Emperor Var sees the glare of the treacherous Twin Serpents as a Xyle Blade is plunged into him; a blade that destroys the physical self and the very soul, the essence of the victim. He will never enter the Tome of History. His tears fall to the chamber floor before becoming blood soaked as he expires.

The Battle For Xafyre Palace
Emperor Var’s son, Pyot’r Xafyre learns of his father’s death. He decides it is time to mount an offensive on the Palace and defeat the Xylaa who have taken over.

After a bloody battle, Pyot’r is defeated and is forced to flee. The Xylaa reign supreme over Cryess for now…

The Nomad
Pyot’r is forced to flee his birth home again, his home planet now run by the Xylaa who murdered his father. Is he to be resigned to the life of a nomad?[/more]

[more=Technical info]
Input File: 01 - Tome Of History.mp3
Channels : 2
Sample Rate : 44100
Precision : 16-bit
Duration : 00:10:24.00 = 27518400 samples = 46800 CDDA sectors
File Size : 25.0M
Bit Rate : 320k
Sample Encoding: MPEG audio (layer I, II or III)
Comments :
Title=Tome Of History
Artist=Tales Of A Liquid Dawn
Album=Fall Of The Xafyre Dynasty
Tracknumber=1
Year=2022
Genre=Instrumental Progressive Metal

[/more]

Register
(5) artscald, LordOvDarkness, metala, Phlebotomized, Сварог Барг,
Sep 30 2022, 18:59:46 Vardan - No Exit From The Forest (2022)


*Artist: Vardan
*Album: No Exit From The Forest
*Year: 2022
*Genre: Black Metal
*Country: Italy
*Format: mp3@CBR320kbps
*Size: 88MB

Tracklist:
1. No Exit from the Forest Pt. 1 06:42
2. No Exit from the Forest Pt. 2 12:53
3. No Exit from the Forest Pt. 3 06:35
4. No Exit from the Forest Pt. 4 05:24
5. No Exit from the Forest Pt. 5 05:34
******************************
Total playing time: 37:08



[more=Extended info]In Low[/more]

[more=Technical info]
Input File: 05 - No Exit from the Forest, Pt. 5.mp3
Channels : 2
Sample Rate : 44100
Precision : 16-bit
Duration : 00:05:34.00 = 14729400 samples = 25050 CDDA sectors
File Size : 13.5M
Bit Rate : 322k
Sample Encoding: MPEG audio (layer I, II or III)
Comments :
Title=No Exit from the Forest, Pt. 5
Artist=Vardan
Album=No Exit from the Forest
Tracknumber=5
Year=2022
Genre=138

[/more]

Register
(4) AlexSmith, kim666, stormhatt, vasiljev_sergej,
Sep 30 2022, 18:55:46 Lord Of Confusion - Evil Mystery (2022)


*Artist: Lord Of Confusion
*Album: Evil Mystery
*Year: 2022
*Genre: Occult Stoner/Doom Metal
*Country: Portugal
*Format: mp3@CBR320kbps
*Size: 108MB

Tracklist:
1. Land of Mystery 08:17
2. Howling Void 08:01
3. Interlude 01:38
4. Evil Blood 06:38
5. Witchfinder 07:31
6. Hell 13:16
******************************
Total playing time: 45:21





[more=Extended info]Line - up:

João Fonseca - Bass, Vocals (Alibi)
Nelson Figueiredo - Drums (Alibi)
Danilo Sousa - Guitars
Carlota Sousa - Vocals, Keyboards

Lord of Confusion hails from Portugal and has been creating psychedelic stoner-doom nightmares since 2018. After their terrifying debut EP Burnin’ Valley and the epic 19 minute single Witchmantia the band has doubled down on the amount of horror they can bring with their first full-length album Evil Mystery! Featuring off-kilter keyboards, mournful moans, and a sea of filthy riffs this album takes everything great about the first two Lord Of Confusion releases and amplifies it! It is a heavy and twisted trip into the dark that will inspire ghostly visions for years to come! Morbid And Miserable Records will be releasing both CDs and cassette tapes in the United States and Gruesome Records will release CDs for the European market. Embrace the haunting sound and surrender your soul to the Evil Mystery!

Recommended for fans of:
Windhand, Ruby The Hatchet, Electric Wizard.[/more]

[more=Technical info]
Input File: 06 Hell.mp3
Channels : 2
Sample Rate : 44100
Precision : 16-bit
Duration : 00:13:16.36 = 35119652 samples = 59727.3 CDDA sectors
File Size : 31.9M
Bit Rate : 320k
Sample Encoding: MPEG audio (layer I, II or III)
Comments :
Title=Hell
Artist=Lord of Confusion
Album=Evil Mystery
Tracknumber=6
Year=2022
Genre=Stoner | Doom Metal

[/more]

Register
(15) Aamiinaa, artscald, autumnwood, chipsgott, fuoco, kimkayoung, marilin, megorra, metala, metaljosue, respect, thenecromancer, VALERY, vlad74, vosmidesijatye,

208 Pages V   1 2 3 > » 
- Lo-Fi Version Support form
Copyrights and abuse reports form
Time is now: 4th October 2022 - 07:29:04