Welcome Guest ( Log In | Register )

История благодарностей участнику Necrokilldozer ::: Спасибо сказали: 63901 раз(а)
Дата поста: В теме: За сообщение: Спасибо сказали:
Feb 5 2023, 20:04:16 Hróðvitnir & An Old Witch's Hat & Maeglin - An Age Of Apostasy [split] (2023)


*Artist: Hróðvitnir & An Old Witch's Hat & Maeglin
*Album: An Age Of Apostasy [split]
*Year: 2023
*Genre: Medieval Black Metal | Medieval Black Metal | Black Metal
*Country: United States | United States | United States
*Format: mp3@CBR320kbps
*Size: 94MB

Tracklist:
Hróðvitnir:
1. While the Stars Fall to Earth 02:43
2. The Final Slumber 04:14
3. Mine Weathered Armour 03:42
An Old Witch's Hat:
4. Aeons of Cruelty and Perversion 04:24
5. Kissed, Dismembered, and Buried Beneath the Oak Grove 02:47
6. The Supreme Joy and Bitter Misery that Comes with Torture of the Flesh and Spirit 05:03
Maeglin:
7. As Nebuli Collide 09:07
8. No Flowers From Salted Soil 09:34
******************************
Total playing time: 41:34



[more=Technical info]
Input File: 05. Aeons of Cruelty and Perversion.mp3
Channels : 2
Sample Rate : 44100
Precision : 16-bit
Duration : 00:04:24.61 = 11669389 samples = 19845.9 CDDA sectors
File Size : 10.6M
Bit Rate : 321k
Sample Encoding: MPEG audio (layer I, II or III)
Comments :
Title=Aeons of Cruelty and Perversion
Artist=An Old Witch's Hat
Album=An Age Of Apostasy (Split)
Tracknumber=5
Year=2023

[/more]

Register
(8) Altkiller, artscald, dermarsoran, Grev, kim666, nemx, VALERY, vasiljev_sergej,
Feb 5 2023, 18:42:29 Red Soil - Red Soil (2023)


*Artist: Red Soil
*Album: Red Soil
*Year: 2023
*Genre: Melodic Death Metal/Metalcore
*Country: Spain
*Format: mp3@CBR320kbps
*Size: 76MB

Tracklist:
1. A Spark from the Heart 01:05
2. Divide and Destroy 04:35
3. Energy Rush 04:02
4. Cage 03:31
5. Visions of Another World 03:52
6. Red Soil 05:16
7. Engraved 04:45
8. Speed of Light 04:13
******************************
Total playing time: 31:19

[more=Extended info]Line - up:

Mike Skullbass - Bass
Aitor Yerbes - Guitars (lead) (ex-Atila)
Fabio Doppioni - Guitars (rhythm)
Néstor Balaguer - Vocals
Sergio Tierraseca - Drums

[youtube]v81asBhqkfw[/youtube]
[youtube]nBzTX0I50A4[/youtube]
[youtube]NsqYA0UwwN8[/youtube]
[youtube]rsJc1n4dya4[/youtube]
[youtube]P1JmjSI5_Io[/youtube]
[youtube]-R-SoPZ8MfI[/youtube][/more]

[more=Technical info]
Input File: 05. Visions of Another World.mp3
Channels : 2
Sample Rate : 44100
Precision : 16-bit
Duration : 00:03:52.09 = 10235037 samples = 17406.5 CDDA sectors
File Size : 9.29M
Bit Rate : 320k
Sample Encoding: MPEG audio (layer I, II or III)
Comments :
Title=Visions of Another World
Artist=Red Soil
Album=Red Soil
Tracknumber=5
Year=2023
Genre=Melodic Death Metal | Metalcore

[/more]

Register
(7) artscald, chipsgott, infozahist, Marek, Sanctus, VALERY, zhol,
Feb 5 2023, 18:10:30 Impaled Divinity - Heretical Emanation [demo] (2023)


*Artist: Impaled Divinity
*Album: Heretical Emanation [demo]
*Year: 2023
*Genre: Slam/Brutal Death Metal
*Country: United States
*Format: flac
*Size: 62MB

Tracklist:
1. Dualistic Archetype 02:42
2. Divinitus Obscurus 02:23
3. The Artificial Spirit 02:20
******************************
Total playing time: 7:25




[more=Technical info]
Input File: 02 Divinitus Obscurus.flac
Channels : 2
Sample Rate : 44100
Precision : 16-bit
Duration : 00:02:23.46 = 6326673 samples = 10759.6 CDDA sectors
File Size : 19.8M
Bit Rate : 1.11M
Sample Encoding: 16-bit FLAC
Comments :
Genre=Slam | Brutal Death Metal
Album Artist=Impaled Divinity
Title=Divinitus Obscurus
TrackNumber=2
Album=Heretical Emanation (Demo)
Artist=Impaled Divinity
Date=2023
Description=

[/more]

Register
(1) infozahist,
Feb 5 2023, 18:05:07 Nutyaš - Dark Spirits Of The Ancient Places (2023)


*Artist: Nutyaš
*Album: Dark Spirits Of The Ancient Places
*Year: 2023
*Genre: Raw Black Metal/Ambient
*Country: Uzbekistan
*Format: mp3@CBR320kbps
*Size: 61MB

Tracklist:
1. Kwst-i Xvarāsān 03:44
2. Mare Frigoris 01:39
3. Garagum 01:47
4. Ustyurt 04:02
5. Belağaş Steppe 03:46
6. Merapi 02:04
7. Sakar Sar 02:42
8. Zap 01:57
9. Syrtis Major 03:49
******************************
Total playing time: 25:30



[more=Technical info]
Input File: 05. Belağaş Steppe.mp3
Channels : 2
Sample Rate : 48000
Precision : 16-bit
Duration : 00:03:46.90 = 10891152 samples ~ 17017.4 CDDA sectors
File Size : 9.08M
Bit Rate : 320k
Sample Encoding: MPEG audio (layer I, II or III)
Comments :
Title=Belagas Steppe
Artist=Nutyaš
Album=Dark Spirits of the Ancient Places
Tracknumber=5
Year=2023
Genre=Raw Black Metal | Ambient

[/more]

Register
(9) AlexSmith, artscald, dermarsoran, Grev, kim666, mizantrophist, nemx, rominow, vasiljev_sergej,
Feb 5 2023, 17:49:09 Iunehkal - Brennendes Verlangen, Ins Jenseits Zu Gehen [ep] (2023)


*Artist: Iunehkal
*Album: Brennendes Verlangen, Ins Jenseits Zu Gehen [ep]
*Year: 2023
*Genre: Black Metal/Ambient
*Country: United States
*Format: flac
*Size: 130MB

Tracklist:
1. Kommunion Mit den Zurückgebliebenen 13:12
2. Wärme in Der Kälte 10:49
3. In Power We Entrust the Love Advocated 06:03
******************************
Total playing time: 30:04



[more=Technical info]
Input File: 02 Wärme in Der Kälte.flac
Channels : 2
Sample Rate : 44100
Precision : 16-bit
Duration : 00:10:49.85 = 28658427 samples = 48738.8 CDDA sectors
File Size : 42.6M
Bit Rate : 525k
Sample Encoding: 16-bit FLAC
Comments :
Genre=Black Metal | Ambient
Album Artist=Iunehkal
Title=Wärme in Der Kälte
TrackNumber=2
Album=Brennendes Verlangen, ins Jenseits Zu Gehen (EP)
Artist=Iunehkal
Date=2023
Description=

[/more]

Register
(5) dermarsoran, Grev, nemx, Occultas, vasiljev_sergej,
Feb 4 2023, 20:21:36 The Faith Hills Have Eyes - The Riffth Element (2023)


*Artist: The Faith Hills Have Eyes
*Album: The Riffth Element
*Year: 2023
*Genre: Melodic Death/Thrash Metal/Metalcore
*Country: United States
*Format: mp3@CBR320kbps
*Size: 96MB

Tracklist:
1. The Riffth Element 04:29
2. Obamas and the Papas 04:24
3. Dio de Janeiro... Larry King, the Punishment Due 04:09
4. My Bong Water Is Blood 05:15
5. Meth Lab for Cutie 03:17
6. Low Blood Sugar Sex Magik 05:22
7. Whitney Houston, We Have a Problem 04:28
8. Dali Parton 03:26
9. Juggalo Wild Wings 05:24
******************************
Total playing time: 40:14



[more=Extended info]В ЛОУ?

Line - up:

Gordon Dale - Guitars (Chewing Teeth, ex-Casu Marzu, ex-Husk, ex-Corpser)
Aaron "Cheeks" Miller - Vocals (ex-Begin the End, ex-Dissent and Revolt, Breakblood, Gods in the Chrysalis, The Boneyard, ex-The Cemetery Improvement Society)
Jeremy "Goat" Wisdom - Guitars (_ash Aria_)
Blake Franklin - Bass, Drum programming (Chasm Snatcher, Covetous, ex-An Ocean Above Us)
Brian Martinez - Drums (Twichard, ex-Kill Junior, Operation Stillborn)[/more]

[more=Technical info]
Input File: 03-the_faith_hills_have_eyes-dio_de_janeiro_larry_king_the_punishment_due-7351210e.mp3
Channels : 2
Sample Rate : 44100
Precision : 16-bit
Duration : 00:04:10.37 = 11041493 samples = 18778 CDDA sectors
File Size : 10.0M
Bit Rate : 320k
Sample Encoding: MPEG audio (layer I, II or III)
Comments :
Title=Dio de Janeiro... Larry King, The Punishment Due
Artist=The Faith Hills Have Eyes
Album=The Riffth Element
Tracknumber=3
Year=2023
Genre=Progressive Stoner | Thrash Metal | Metalcore

[/more]

Register
(6) boby9052, infozahist, metala, Sanctus, Wail, zhol,
Feb 4 2023, 19:28:55 Vanessa Funke - Reflections [ep] (2023)


*Artist: Vanessa Funke
*Album: Reflections [ep]
*Year: 2023
*Genre: Melodic Death/Gothic Metal
*Country: Germany
*Format: mp3@CBR320kbps
*Size: 42MB

Tracklist:
1. Safe Haven 05:19
2. Golden Leaves 03:42
3. Safe in Your Heart 05:05
4. Reflection 03:38
******************************
Total playing time: 17:44



[more=Technical info]
Input File: 04 - Reflection.mp3
Channels : 2
Sample Rate : 44100
Precision : 16-bit
Duration : 00:03:38.66 = 9642906 samples = 16399.5 CDDA sectors
File Size : 8.76M
Bit Rate : 320k
Sample Encoding: MPEG audio (layer I, II or III)
Comments :
Title=Reflection
Artist=Vanessa Funke
Album=Reflections (EP)
Tracknumber=4
Year=2023
Genre=Melodic Death | Gothic Metal

[/more]

Register
(13) artscald, Cartman223, chipsgott, Dark Sage, infozahist, krotovich, Sanctus, sergsazan, socrates9, thenecromancer, VALERY, Wail, zhol,
Feb 3 2023, 06:32:07 Acod - Cryptic Curse [ep] (2023)


*Artist: Acod
*Album: Cryptic Curse [ep]
*Year: 2023
*Genre: Melodic Black/Death Metal
*Country: France
*Format: mp3@CBR320kbps
*Size: 42MB

Tracklist:
1. The Hourglass Slave 05:53
2. The Mask of Fate 05:30
3. Cryptic Curse 05:57
******************************
Total playing time: 17:20



[more=Extended info]Line - up:

Raph - Drums (ex-Four-O-Five Code, Ghouls Stone Valley, ex-Stone Horns)
Jérome - Bass, Guitars, Songwriting (Celestia, Mortifera, ex-Otherside)
Fred - Vocals (ex-Hawkmoon, ex-Demons)[/more]

[more=Technical info]
Input File: 03 - Cryptic Curse.mp3
Channels : 2
Sample Rate : 44100
Precision : 16-bit
Duration : 00:05:57.69 = 15774173 samples = 26826.8 CDDA sectors
File Size : 14.4M
Bit Rate : 322k
Sample Encoding: MPEG audio (layer I, II or III)
Comments :
Title=Cryptic Curse
Artist=ACOD
Album=Cryptic Curse (EP)
Tracknumber=3
Year=2023
Genre=Melodic Black | Death Metal

[/more]

Register
(15) AHBAnep, Anarchead, artscald, Condehate, Grev, Lord Of The Siths, Marek, russ777, sergsazan, SilentNidhogg, VALERY, vasiljev_sergej, Vitald, yuratroll, zhol,
Feb 2 2023, 20:46:56 Wuw - L'orchaostre (2023)


*Artist: Wuw
*Album: L'orchaostre
*Year: 2023
*Genre: Instrumental Avant-Garde Doom Metal
*Country: France
*Format: mp3@CBR320kbps
*Size: 100MB

Tracklist:
1. Orchaostre 1 09:51
2. Orchaostre 2 08:40
3. Orchaostre 3 09:20
4. Orchaostre 4 05:48
5. Orchaostre 5 07:59
******************************
Total playing time: 41:38



[more=Extended info]Line - up:

Benjamin Colin - Drums, Keyboards (ex-Abrahma, ex-Alcohsonic)
Guillaume Colin - Guitars, Bass, Keyboards, Percussion (ex-Abrahma, ex-Alcohsonic)

Inspired by classical music, free jazz and drone the two classically trained brothers Benjamin and Guillaume Colin have been creating lo-f experimental post-doom epics in the vein of Year of No Light, Dirge and Omega Massif since 2016. “WuW is the sound wind makes when it blows on a hot night,” explains the band, “It’s a low-end murmur that grabs you by the guts, a blast of air rushing through the mountains and the oceans.” Their upcoming third album Orchaostre is an anthem to a restless journey, a fve-part doom symphony that creates a shroud of oppressive atmospheres with only a pinch of light.

“Across the mangroves, we will invoke hope.” The two paragraphs that accompany this instrumental symphony of doom conjure up a group of young, dispossessed indi- viduals trudging through a post-apocalyptic wasteland. Against all odds, they venture into a desolate wilderness in search of a place where they can survive, without being sure of its existence. The heat is pressing. Something’s brooding. The silence is deaf- ening. The only sound is the splashing of their boots in the shallow water too contam- inated to drink. Yearning for the world that once was, they are crushed by the guilt of having played their part in the catastrophe that brought the world as they knew it to an end.

“Nous sommes l’orchaostre,” proclaim WuW on their third studio album, and indeed the two brothers slowly build their compositions to sound like a massive wall of sound. «Orchaostre 3» and «Orchaostre 5» are propelled by gargantuan rifs that fll the atmo- sphere like a hot summer wind. Albeit just a duo, WuW really appear as an orchestra on record, the way they march through the diferent parts of their epic compositions. Being infuenced by minimal music and contemporary classical music, the themes are cyclical, repeating themselves until they change meaning, shape-shifting new themes emerge.

With their third studio album, WuW deliver a veritable post-metal odyssey, one that takes you on a journey through rhythm and texture and that lets your soul wallow in a soft shell of desolation. The marching rhythm of «Orchaostre 1» and the swaying rhythm with the slow chugging patterns of «Orchaostre 2» take you along on this intric- ate journey, slowly numbing the senses in the throes of repetition. Nevertheless, for those who manage to keep their eyes peeled on this descend into forgetfulness, there is a world of beauty and a spark of hope to be found.

The atmosphere is thick, the mood is heavy, and across the slow rifs and funerary drumbeats, the wailing e-bow guitars and myriad of synthesisers evoke kafkaesque at- mospheres as well as strange poignant textures that inspire desolation. Evoking the work of early electronic music innovators, notably during the climactic fnale of «Orchaostre 1» but also halfway through «Orchaostre 3» WuW breed a sense of pristine beauty, like unadulterated nature. In fact, the beauty of Orchaostre feels so un- spoilt, so devoid of any human infuence, it becomes alien, resulting in a harrowing ex- perience of the exquisite in the eye of a hot and hazy storm.[/more]

[more=Technical info]
Input File: 02-wuw-orchaostre_2-90fcfb07.mp3
Channels : 2
Sample Rate : 44100
Precision : 16-bit
Duration : 00:08:40.42 = 22950390 samples = 39031.3 CDDA sectors
File Size : 20.8M
Bit Rate : 320k
Sample Encoding: MPEG audio (layer I, II or III)
Comments :
Title=Orchaostre 2
Artist=WuW
Album=L'orchaostre
Tracknumber=2
Year=2023
Genre=Instrumental Avant-garde Doom Metal

[/more]

Register
(9) Dark Sage, Grev, infozahist, metala, Occultas, p4B10, Wail, Zer0, дивин,
Feb 2 2023, 20:09:04 Blackwülf - Thieves And Liars (2023)


*Artist: Blackwülf
*Album: Thieves And Liars
*Year: 2023
*Genre: Stoner/Doom/Heavy Metal
*Country: United States
*Format: mp3@CBR320kbps
*Size: 88MB

Tracklist:
1. Shadow
2. Seems to Me
3. Killing Kind
4. Thieves and Liars
5. Failed Resistance
6. Psychonaut / Edge of Light
7. Mysteries of This
8. Brother
9. Cries for a Dying Star
******************************
Total playing time: 37:22



[more=Extended info]Line - up:

Scott Peterson - Bass
Dave Pankenier - Drums (Tsar Czar, ex-Bullhorn, ex-Low Bote, ex-Mountain Pig, ex-Oats, ex-Old Stock, ex-Pollo Elastico, ex-rRope, ex-The Lonely Trojans, ex-The Nads, ex-Tres Daves, ex-Vida, ex-White Hills, ex-Wicked Little Things)
Pete Holmes - Guitars
Alex Cunningham - Vocals

Forging melody, message, and authenticity with heavy raw power, BLACKWÜLF have been purveying massive riff-rock for over a decade, and now come roaring back from the pandemic hiatus with 'Thieves and Liars.' Born out of the disintegration of the world around them, the new album encapsulates what the mighty five-piece does best: fist-pumping riffs, dark progressions, apocalyptic visions and plenty of epic heavy rock swagger.

Drawing from influences found in the dark corners of your stepdad’s vinyl collection, the vintage five-piece outfit’s electric live performances and headbanging heaviness have converted a wide base of ravenous fans from Los Angeles to London. What distinguishes BLACKWÜLF from many of their contemporaries is a strong emphasis on “songs” rather than “sound,” delivering a wide slab of listenable vintage-style metal that draws strength from imaginative content and quality performance.[/more]

[more=Technical info]
Input File: 02. Seems To Me.mp3
Channels : 2
Sample Rate : 44100
Precision : 16-bit
Duration : 00:04:38.59 = 12285731 samples = 20894.1 CDDA sectors
File Size : 11.1M
Bit Rate : 320k
Sample Encoding: MPEG audio (layer I, II or III)
Comments :
Title=Seems To Me
Artist=Blackwulf
Album=Thieves & Liars
Tracknumber=2
Year=2023
Genre=Stoner | Doom | Heavy Metal

[/more]

Register
(14) chipsgott, Dark Sage, DeathDragon, denver, Grev, infozahist, LEGION69, s810ic1, skinnyboo, Steeler77, stumpheavyrock, VALERY, Wail, yinchanghanhuang,
Feb 2 2023, 19:34:25 Blackwülf - Seems To Me (2023)


*Artist: Blackwülf
*Album: Seems To Me
*Year: 2023
*Genre: Stoner/Doom/Heavy Metal
*Country: United States
*Format: mp3@CBR320kbps
*Size: 88MB

Tracklist:
1. Shadow
2. Seems to Me
3. Killing Kind
4. Thieves and Liars
5. Failed Resistance
6. Psychonaut / Edge of Light
7. Mysteries of This
8. Brother
9. Cries for a Dying Star
******************************
Total playing time: 37:22


 ! 

Название альбома: Thieves and Liars
 




[more=Extended info]Line - up:

Scott Peterson - Bass
Dave Pankenier - Drums (Tsar Czar, ex-Bullhorn, ex-Low Bote, ex-Mountain Pig, ex-Oats, ex-Old Stock, ex-Pollo Elastico, ex-rRope, ex-The Lonely Trojans, ex-The Nads, ex-Tres Daves, ex-Vida, ex-White Hills, ex-Wicked Little Things)
Pete Holmes - Guitars
Alex Cunningham - Vocals

Forging melody, message, and authenticity with heavy raw power, BLACKWÜLF have been purveying massive riff-rock for over a decade, and now come roaring back from the pandemic hiatus with 'Thieves and Liars.' Born out of the disintegration of the world around them, the new album encapsulates what the mighty five-piece does best: fist-pumping riffs, dark progressions, apocalyptic visions and plenty of epic heavy rock swagger.

Drawing from influences found in the dark corners of your stepdad’s vinyl collection, the vintage five-piece outfit’s electric live performances and headbanging heaviness have converted a wide base of ravenous fans from Los Angeles to London. What distinguishes BLACKWÜLF from many of their contemporaries is a strong emphasis on “songs” rather than “sound,” delivering a wide slab of listenable vintage-style metal that draws strength from imaginative content and quality performance.[/more]

[more=Technical info]
Input File: 02. Seems To Me.mp3
Channels : 2
Sample Rate : 44100
Precision : 16-bit
Duration : 00:04:38.59 = 12285731 samples = 20894.1 CDDA sectors
File Size : 11.1M
Bit Rate : 320k
Sample Encoding: MPEG audio (layer I, II or III)
Comments :
Title=Seems To Me
Artist=Blackwulf
Album=Thieves & Liars
Tracknumber=2
Year=2023
Genre=Stoner | Doom | Heavy Metal

[/more]

Register
(1) Wail,
Feb 2 2023, 19:12:44 All Out War - Celestial Rot (2023)


*Artist: All Out War
*Album: Celestial Rot
*Year: 2023
*Genre: Thrash Metal/Crossover/Hardcore
*Country: United States
*Format: mp3@CBR320kbps
*Size: 62MB

Tracklist:
1. Snake Legion
2. Glorious Devastation
3. Wrath / Plague
4. Hideous Disdain
5. The End Is Always Near
6. Caustic Abomination
7. Revel in Misery
8. Celestial Rot
9. Weaving Oblivion
10. Shroud of Heaven
******************************
Total playing time: 25:38



[more=Extended info]Line - up:
Andrew Pietroluongo - Guitars (ex-Devil May Care)
Jesse Sutherland - Drums (Behead the Lamb, No Souls Saved, ex-Nerve Gas Tragedy, ex-End of One)
Taras Apuzzo - Guitars (Behead the Lamb, The Third Kind, ex-Nerve Gas Tragedy, Bastard Clan, ex-End of One, ex-Strap Hangers)
Erik Carrillo - Bass (ex-Violent Plague)
Mike Score - Vocals (Below the Frost, End Reign)

Guest/Session:
Ralph Tambora - Vocals (additional)[/more]

[more=Technical info]
Input File: 02 - Glorious Devastation.mp3
Channels : 2
Sample Rate : 44100
Precision : 16-bit
Duration : 00:02:43.77 = 7222389 samples = 12283 CDDA sectors
File Size : 6.55M
Bit Rate : 320k
Sample Encoding: MPEG audio (layer I, II or III)
Comments :
Title=Glorious Devastation
Artist=All Out War
Album=Celestial Rot
Tracknumber=2
Year=2023
Genre=Thrash Metal | Crossover | Hardcore

[/more]

Register
(22) alikkon, artscald, BandR75, boby9052, chipsgott, Dark Sage, Grev, gwar, hell_armageddon, Joey_73, Lord Of The Siths, Marek, metala, METALHUNTER, p4B10, Reverend, RotAnus, scrollbar, stumpheavyrock, Wail, WX419, xariton,
Feb 1 2023, 19:33:59 Pestis - Demo I 2023 [demo] (2023)


*Artist: Pestis
*Album: Demo I 2023 [demo]
*Year: 2023
*Genre: Death Metal
*Country: Canada
*Format: flac
*Size: 96MB

Tracklist:
1. Lower Gods 02:00
2. Molten Iron 02:28
3. Blazing Legions 02:16
******************************
Total playing time: 6:44



[more=Extended info]Line - up:

L. Podlubny - Bass, Vocals
L. Treadwell - Drums
G. Tompkins - Guitar, Vocals[/more]

Register
(8) Bzth, Grev, Marek, Occultas, Styx, Unscarted, Wail, wanderer73,
Feb 1 2023, 18:46:06 Kharva - I'm Not Me [demo] (2023)


*Artist: Kharva
*Album: I'm Not Me [demo]
*Year: 2023
*Genre: Groove/Death Metal
*Country: Sweden
*Format: flac
*Size: 72MB

Tracklist:
1. Here I'm King 02:37
2. I'm Not Me 03:09
3. Off the Hook 03:14
******************************
Total playing time: 9:00



[more=Extended info]Line - up:

Jason Valentine - Bass, Vocals (backing)
Charlie Agné - Drums
Micke Larsson - Guitars, Vocals (backing)
Jacob Forsberg - Vocals[/more]

Register
(3) Grev, stumpheavyrock, Wail,
Feb 1 2023, 18:25:00 Coven Oath - Dualistic Shrines [ep] (2023)


*Artist: Coven Oath
*Album: Dualistic Shrines [ep]
*Year: 2023
*Genre: Black/Death Metal
*Country: United States
*Format: flac
*Size: 67MB

Tracklist:
1. Throne of Malignancy 05:25
2. Withered Ethos 04:19
******************************
Total playing time: 9:44



Register
(4) Grev, Marek, vasiljev_sergej, Wail,
Jan 31 2023, 20:17:03 Idlegod - Inertia [ep] (2023)


*Artist: Idlegod
*Album: Inertia [ep]
*Year: 2023
*Genre: Doom Metal/Sludge
*Country: Italy
*Format: flac
*Size: 139MB

Tracklist:
1. Inertia I 06:40
2. Inertia II 05:06
3. Inertia III 09:42
******************************
Total playing time: 21:28



[more=Extended info]Line - up:

Zven Doretti - Drums (ex-Ghost Empire, ex-Cosmotron)
Justin - Guitars
Rob - Bass, Vocals, Lyrics

Previously unreleased EP from 2018.[/more]

Register
(5) AndreFrancis, Grev, stumpheavyrock, Vakhangya, Wail,
Jan 31 2023, 20:10:51 Idlegod - Nightmare [ep] (2023)


*Artist: Idlegod
*Album: Nightmare [ep]
*Year: 2023
*Genre: Doom Metal/Sludge
*Country: Italy
*Format: mp3@CBR320kbps
*Size: 63MB

Tracklist:
1. Mary the Hanged 09:00
2. Recurring Nightmare 05:40
3. T.G.C.I.T.D.O. 05:15
4. 29 July 1900 06:04
******************************
Total playing time: 25:59



[more=Extended info]Line - up:

Zven Doretti - Drums (ex-Ghost Empire, ex-Cosmotron)
Justin - Guitars
Muccio - Bass, Vocals, Lyrics (Stöner Kebab, ex-Ghost Empire, ex-Gulu Locus, ex-Inwardeye, ex-Nema)

Previously unreleased EP from 2021.[/more]

[more=Technical info]
Input File: 03. T.G.C.I.T.D.O.mp3
Channels : 2
Sample Rate : 44100
Precision : 16-bit
Duration : 00:05:15.08 = 13895160 samples = 23631.2 CDDA sectors
File Size : 12.6M
Bit Rate : 321k
Sample Encoding: MPEG audio (layer I, II or III)
Comments :
Title=T.G.C.I.T.D.O.
Artist=Idlegod
Album=Nightmare (EP)
Tracknumber=3
Year=2023
Genre=Doom | Sludge Metal

[/more]

Register
(9) artscald, denver, Grev, sludge666, stumpheavyrock, VALERY, vlad74, Wail, Wolfmirovich,
Jan 31 2023, 20:02:20 Dreadrealm - Live From The Fall (2023)


*Artist: Dreadrealm
*Album: Live From The Fall
*Year: 2023
*Genre: Atmospheric Black Metal
*Country: Estonia
*Format: mp3@CBR320kbps
*Size: 99MB

Tracklist:
1. They Lived at the Fall 01:02
2. Where Demise Is Celebrated 06:48
3. The Wild Rose and Her Mourning Stone 07:09
4. The Eternal Fires of Bleakmoor 05:56
5. The Fall Part I - Thrones of Ignorance 03:31
6. The Fall Part II - Of Forest and Flame 10:54
7. Endurers of the Fall 06:37
******************************
Total playing time: 41:57



[more=Extended info]Line - up:

Metren Angerjärv - All instruments, Vocals[/more]

[more=Technical info]
Input File: 03. The Wild Rose And Her Mourning Stone.mp3
Channels : 2
Sample Rate : 44100
Precision : 16-bit
Duration : 00:07:09.82 = 18955018 samples = 32236.4 CDDA sectors
File Size : 17.2M
Bit Rate : 320k
Sample Encoding: MPEG audio (layer I, II or III)
Comments :
Title=The Wild Rose And Her Mourning Stone
Artist=Dreadrealm
Album=Live From The Fall
Tracknumber=3
Year=2023
Genre=Ambient | Atmospheric Black Metal

[/more]

Register
(14) aleon, AlexSmith, Altkiller, artscald, Condehate, Grev, kim666, metala, nemx, robertho777, sergsazan, Shadechaser, VALERY, vasiljev_sergej,
Jan 31 2023, 19:37:21 Memories Of Ashes - Melanholic Cold (2023)


*Artist: Memories Of Ashes
*Album: Melanholic Cold
*Year: 2023
*Genre: Depressive Black Metal
*Country: Ukraine
*Format: mp3@CBR320kbps
*Size: 76MB

Tracklist:
1. Virgin Cold 01:53
2. Eternity in Emptiness 06:20
3. Life Is a Prison 05:26
4. Darkness 06:03
5. In the Hopelessness of My Being 05:37
6. Snow Heart 05:47
7. Melancholy 01:45
******************************
Total playing time: 32:51



[more=Extended info]Line - up:

W. - Everything (Смутний Яр)[/more]

[more=Technical info]
Input File: 03. Life is a prison.mp3
Channels : 2
Sample Rate : 44100
Precision : 16-bit
Duration : 00:05:26.53 = 14399753 samples = 24489.4 CDDA sectors
File Size : 13.1M
Bit Rate : 322k
Sample Encoding: MPEG audio (layer I, II or III)
Comments :
Title=Life is a prison
Artist=Memories of Ashes
Album=Melancholic Cold
Tracknumber=3
Year=2023
Genre=Depressive Black Metal

[/more]

Register
(16) AlexSmith, artscald, autumnwood, Femto, Grev, kim666, krotovich, Lord Of The Siths, metala, nemx, robertho777, terron, VALERY, vasiljev_sergej, Victim of fate, vlad74,
Jan 31 2023, 19:21:30 Hell Inc. - Hybris [ep] (2023)


*Artist: Hell Inc.
*Album: Hybris [ep]
*Year: 2023
*Genre: Groove/Thrash Metal
*Country: Germany
*Format: mp3@CBR320kbps
*Size: 53MB

Tracklist:
1. Catharsis 04:44
2. Let it Die 03:52
3. Hybris 05:09
4. Where They Lie 03:59
5. Stellar 03:54
******************************
Total playing time: 21:38



[more=Extended info]Line - up:

Dani Arrow - Bass, Vocals (backing)
Michi - Drums
Patrick - Guitars (lead)
Basti - Guitars (rhythm)
Gerdi - Vocals
Philip Zelzer - Bass
Geppo Müller - Drums[/more]

[more=Technical info]
Input File: 01 - Catharsis.mp3
Channels : 2
Sample Rate : 44100
Precision : 16-bit
Duration : 00:04:44.00 = 12524400 samples = 21300 CDDA sectors
File Size : 11.4M
Bit Rate : 321k
Sample Encoding: MPEG audio (layer I, II or III)
Comments :
Title=Catharsis
Artist=Hell Inc.
Album=Hybris (EP)
Tracknumber=1
Year=2022-09-10
Genre=Groove | Thrash Metal

[/more]

Register
(10) artscald, boby9052, chipsgott, Grev, gwar, Lord Of The Siths, Marek, METALHUNTER, piwimetal, stumpheavyrock,
Jan 31 2023, 18:43:48 In Dornen - Mein Letzter Tag [single] (2023)


*Artist: In Dornen
*Album: Mein Letzter Tag [single]
*Year: 2023
*Genre: Black Metal
*Country: Austria
*Format: flac
*Size: 69MB

Tracklist:
1. Mein letzter Tag 10:26
******************************
Total playing time: 10:26



[more=Extended info]Line - up:
W.K. - Vocals

Guest/Session:
Raffael - Guitars
Hymir - Drums (Firn)
Ocinn - Piano
Martin - Vocals (Depraved Inclination, Morbid Abomination, Tortured Souls, ex-Nightforest, Merenptah, Sculptor, ex-Nü Jakk Citie, ex-Seduced, ex-Reek of Death)

This track is taken from the ep "Trauer" (2023).
It is also the third featured Single from ???? ???????????????????????????????????? ???????? ????????????????, a Split CD presenting four Austrian metal bands with their best current and past songs...[/more]

Register
(3) Grev, vasiljev_sergej, Wail,
Jan 30 2023, 18:27:38 Déhà - A Fleur De Peau - V - At The Poles Of Everything (2023)


*Artist: Déhà
*Album: A Fleur De Peau - V - At The Poles Of Everything
*Year: 2023
*Genre: Post-Rock/Metal
*Country: Belgium
*Format: mp3@CBR320kbps
*Size: 107MB

Tracklist:
1. Everything is Going to Be Okay 11:12
2. Swim in Light 09:25
3. Cornelian Dilemma 12:35
4. Reconciliation 12:01
******************************
Total playing time: 45:13



[more=Extended info]Line - up:

Déhà - Everything (Acathexis, COAG, Cult of Erinyes, Drache, God Enslavement, Imber Luminis, Iniquitatem, Lykta, Maladie, Merda Mundi, Saturnian Tempel, Silver Knife, SLOW, Sorta Magora, The Nest, The Penitent, Transcending Rites, We All Die (Laughing), Wolvennest, Wrath of the Nebula, Yhdarl, Ignifer, ex-Deviant Messiah, ex-Sources of I, ex-Ter Ziele, ex-Vaer, Aardling, Aurora Borealis, Coma., Detrvire, Lidden, Musealcal Eggscrements, Nadddir, ex-Clouds, ex-DunkelNacht, ex-God Eat God, ex-Ithilien, ex-K.F.R, ex-Lebenssucht, ex-Deos, ex-Absit Omen, ex-Alenda, ex-Anal Cuntrona, ex-AutoDestructionNeeded, ex-Eat Their Crusts, ex-GigaPenzor, ex-Jah El Camino, ex-Khel, ex-NØD)

‹ A FLEUR DE PEAU ›
Literal French for ‹ to (the) flower of the skin ›
It means ‹ skin-deep sensibility › in English.
It is one of the most powerful expressions in
the French language concerning such
emotional behaviour.

‹ At the Poles of Everything › is about coping
with ourselves and the way we behave
and think, even if it's not the norm,
through battles and struggles.

A tribute to those who, unexplainably,
cannot express why they do not
feel comfortable in the world.

---

The last installment of the "A FLEUR DE PEAU".
"V - At The Poles of Everything" is a testament of contrasts between beauty of post rock music, and the harshness of extreme, uncontrolled metal.

For this, Déhà called up amazing guests musicians :
. A.K. from DECLINE OF THE I : spoken words & screams on "Everything is going to be okay"
. Valerio Granieri from ROME IN MONOCHROME : clean singing on "Swim in Light"
. Sven & Pat from ASCIAN : clean singing & screams on "Cornelian Dilemma"
. Walran from ABDUCTION, ANGELLORE : clean singing & screams on "Reconciliation"
. Caroline Salmona : violins on "Reconciliation"

A way to end, a way to start anew.[/more]

[more=Technical info]
Input File: 02. Swim in light (ft. Valerio Granieri).mp3
Channels : 2
Sample Rate : 44100
Precision : 16-bit
Duration : 00:09:26.03 = 24961879 samples = 42452.2 CDDA sectors
File Size : 22.6M
Bit Rate : 320k
Sample Encoding: MPEG audio (layer I, II or III)
Comments :
Title=Swim in light (ft. Valerio Granieri)
Artist=Deha
Album=A Fleur de Peau - V - At The Poles of Everything
Tracknumber=2
Year=2023
Genre=Post-Rock | Metal

[/more]

Register
(15) artscald, Carcharoth, Condehate, Emhyr var Emreis, Grev, LiarOfAngmar, nemx, saxon, smes, Strygaldwir, varlam4, Vitald, yuratroll, zobero, дивин,
Jan 30 2023, 18:00:34 Blut - Covers [ep] (2023)


*Artist: Blut
*Album: Covers [ep]
*Year: 2023
*Genre: Blackened Drone/Doom Metal/Noise
*Country: United Kingdom
*Format: flac
*Size: 149MB

Tracklist:
1. Shield and Lash/Leeeech/Boris 24:40
2. Life Lock 03:39
******************************
Total playing time: 28:19



[more=Extended info]Line - up:

Shaun Rutter - Drums (ex-Electric Wizard)
Simon Moors - Vocals, Guitars[/more]

Register
(5) AndreFrancis, gena, Grev, vasiljev_sergej, Wail,
Jan 30 2023, 06:18:46 Maeglin - Tr​ä​ume Der Trauer (2023)


*Artist: Maeglin
*Album: Tr​ä​ume Der Trauer
*Year: 2023
*Genre: Black Metal/Medieval Dungeon Synth
*Country: United States
*Format: mp3@CBR320kbps
*Size: 93MB

Tracklist:
1. The Eternal Warrior 16:31
2. Dracolich 09:08
3. Flensed by the Ill Winds 13:43
******************************
Total playing time: 39:22



[more=Technical info]
Input File: 03. Flensed By The Ill Winds.mp3
Channels : 2
Sample Rate : 44100
Precision : 16-bit
Duration : 00:13:43.30 = 36307398 samples = 61747.3 CDDA sectors
File Size : 32.9M
Bit Rate : 320k
Sample Encoding: MPEG audio (layer I, II or III)
Comments :
Title=Flensed By The Ill Winds
Artist=Maeglin
Album=Traume Der Trauer
Tracknumber=3
Year=2023
Genre=138

[/more]

Register
(8) artscald, Grev, kim666, Lord Of The Siths, nemx, robertho777, vasiljev_sergej, Wail,
Jan 29 2023, 20:03:38 Jaggu - Rites For The Damned (2023)


*Artist: Jaggu
*Album: Rites For The Damned
*Year: 2023
*Genre: Stoner/Doom Metal/Psychedelic Rock
*Country: Norway
*Format: mp3@CBR320kbps
*Size: 98MB

Tracklist:
1. Carnage 03:49
2. Earth Murder 04:00
3. Mindgap 04:30
4. Electric Blood 06:22
5. Lenina Ave 06:40
6. Enthralled 05:28
7. Marching Stride 04:55
8. God to Be Through 04:41
******************************
Total playing time: 40:25



[more=Extended info]Bassbjørn Bass, Vocals
Gabriel Drums
Gitario Guitars, Vocals
See also: ex-Hollow[/more]

[more=Technical info]
Input File: 05-jaggu-lenina_ave.mp3
Channels : 2
Sample Rate : 44100
Precision : 16-bit
Duration : 00:06:40.40 = 17657816 samples = 30030.3 CDDA sectors
File Size : 16.0M
Bit Rate : 320k
Sample Encoding: MPEG audio (layer I, II or III)
Comments :
Title=Lenina Ave
Artist=Jaggu
Album=Rites for the Damned
Tracknumber=5
Year=2023-01-27
Genre=Stoner | Doom Metal | Psychedelic Rock

[/more]

Register
(8) artscald, cancer1974, Grev, metala, Sabbathian, stumpheavyrock, VALERY, ZamanFu,

227 Pages V   1 2 3 > » 
- Lo-Fi Version Support form
Copyrights and abuse reports form
Time is now: 9th February 2023 - 06:44:30