Welcome Guest ( Log In | Register )

История благодарностей участнику necroscum ::: Спасибо сказали: 422409 раз(а)
Дата поста: В теме: За сообщение: Спасибо сказали:
Jul 31 2020, 13:22:42 Ænigmatum - Adorned In Wrath [demo] (2020)


*Artist: Ænigmatum
*Album: Adorned In Wrath [demo]
*Year: 2020
*Genre: Black/Death Metal
*Country: United States
*Format: mp3@CBR320kbps
*Size: 29MB

Tracklist:
01. Despot of Amorphic Dominions 06:33
02. Disenthralled 05:33
******************************
Total playing time: 12:06





[more=Technical info]
Input File: 02. Disenthralled.mp3
Channels : 2
Sample Rate : 44100
Precision : 16-bit
Duration : 00:05:33.08 = 14688916 samples = 24981.1 CDDA sectors
File Size : 13.7M
Bit Rate : 328k
Sample Encoding: MPEG audio (layer I, II or III)
Comments :
Title=Disenthralled
Artist=Ænigmatum
Album=Adorned in Wrath
Tracknumber=02
Year=2020

[/more]

Register
(15) Bzth, chipsgott, El_Chibo, grimoir, infiltrator, Mares, Olethros, Ostinato, randumbum, Rosen, uncolored, VALERY, vasiljev_sergej, Wail, wanderer73,
Jul 30 2020, 14:06:19 Draconis - Anthems For An Eternal Battle (2020)


*Artist: Draconis
*Album: Anthems For An Eternal Battle
*Year: 2020
*Genre: Death Metal
*Country: Argentina
*Format: mp3@CBR320kbps
*Size: 83MB

Tracklist:
01. Anthems for an Eternal Battle 02:31
02. Puppetes Who Ignore Their Maters 03:09
03. Inner Quest 04:53
04. My Last Journey 02:51
05. Shadows of Emptyness 05:01
06. Remember the Unremembering 02:49
07. Ship of Illusions 04:18
08. Traitors of Everyday 02:35
09. Lost Angel 03:28
10. Falling into Darkness 04:02
******************************
Total playing time: 35:37





[more=Technical info]
Input File: 02 - Puppets Who Ignore Their Masters.mp3
Channels : 2
Sample Rate : 44100
Precision : 16-bit
Duration : 00:03:09.08 = 8338604 samples = 14181.3 CDDA sectors
File Size : 7.78M
Bit Rate : 329k
Sample Encoding: MPEG audio (layer I, II or III)
Comments :
Title=Puppets Who Ignore Their Masters
Artist=Draconis
Album=Anthems for an Eternal Battles
Tracknumber=2
Year=2020

[/more]

Register
(10) 555, AlexHellhammer1602, atavist, infiltrator, jollo, judaz, Olethros, Rosen, suseka, VALERY,
Jul 30 2020, 13:48:54 Resin Tomb - Resin Tomb [ep] (2020)


*Artist: Resin Tomb
*Album: Resin Tomb [ep]
*Year: 2020
*Genre: Death Metal/Grindcore
*Country: Australia
*Format: mp3@CBR320kbps
*Size: 42MB

Tracklist:
01. Abrogate 01:53
02. Penance 03:02
03. Surfacing 03:59
04. Prostrated 01:35
05. Bestial 05:16
******************************
Total playing time: 15:45





[more=Technical info]
Input File: 02. Penance.mp3
Channels : 2
Sample Rate : 44100
Precision : 16-bit
Duration : 00:00:00.18 = 8026 samples = 13.6497 CDDA sectors
File Size : 7.41M
Bit Rate : 326M
Sample Encoding: MPEG audio (layer I, II or III)
Comments :
Title=Penance
Artist=Resin Tomb
Album=Resin Tomb
Tracknumber=2
Year=2020
Genre=Black
Discnumber=1

[/more]

Register
(6) grimoir, infiltrator, marilin, Olethros, Rosen, sludge666,
Jul 30 2020, 13:36:45 Kiniro Mosaic - On The Verge Of Death (2020)


*Artist: Kiniro Mosaic
*Album: On The Verge Of Death
*Year: 2020
*Genre: Brutal Death Metal
*Country: Taiwan
*Format: mp3@CBR320kbps
*Size: 65MB

Tracklist:
01. Hollow Death 03:03
02. Devour Her 02:52
03. Slow Death 03:11
04. Corpse Explosion 03:45
05. Dying of the Rhythm 03:10
06. Endless Death 04:31
07. Kingdom of the Dead 02:25
08. On the Verge of Death 03:40
******************************
Total playing time: 26:37





[more=Technical info]
Input File: Kiniro Mosaic - On The Verge Of Death - 02 Devour Her.mp3
Channels : 2
Sample Rate : 44100
Precision : 16-bit
Duration : 00:02:52.71 = 7616291 samples = 12952.9 CDDA sectors
File Size : 7.01M
Bit Rate : 325k
Sample Encoding: MPEG audio (layer I, II or III)
Comments :
Title=Devour Her
Artist=Kiniro Mosaic
Album=On The Verge Of Death
Tracknumber=2
Year=2020

[/more]

Register
(6) atavist, infiltrator, jollo, Olethros, Rosen, supremo,
Jul 30 2020, 13:18:31 Catharist - Eternal Ekur (2020)


*Artist: Catharist
*Album: Eternal Ekur
*Year: 2020
*Genre: Melodic Death Metal
*Country: United Kingdom
*Format: mp3@CBR320kbps
*Size: 69MB

Tracklist:
01. Wisdom Magic Incantation
02. Epic of Anzu
03. Obsidian Night
04. Bestower of Kingship
05. The Gatekeeper
06. Tarzan Boy (Instrumental Version)
******************************
Total playing time: 30:01





[more=Technical info]
Input File: 02 - Epic of Anzu.mp3
Channels : 2
Sample Rate : 44100
Precision : 16-bit
Duration : 00:07:44.98 = 20505574 samples = 34873.4 CDDA sectors
File Size : 18.8M
Bit Rate : 323k
Sample Encoding: MPEG audio (layer I, II or III)
Comments :
Title=Epic of Anzu
Artist=Catharist
Album=Eternal Ekur
Tracknumber=2
Year=2020

[/more]

Register
(10) BugEyes, chipsgott, gwynnbleid, Olethros, randumbum, Rosen, sergsazan, suseka, VALERY, zhol,
Jul 30 2020, 13:05:11 Imperial Triumphant - Alphaville (2020)


*Artist: Imperial Triumphant
*Album: Alphaville
*Year: 2020
*Genre: Avant-Garde/Technical Black/Death Metal
*Country: United States
*Format: mp3@CBR320kbps
*Size: 140MB

Tracklist:
01. Rotted Futures 05:59
02. Excelsior 05:52
03. City Swine 06:56
04. Atomic Age 08:43
05. Transmission to Mercury 08:10
06. Alphaville 06:41
07. The Greater Good 07:22
08. Experiment (Voivod cover) (Bonus Track) 04:48
09. Happy Home (The Residents cover) (Bonus Track) 04:48
******************************
Total playing time: 59:19




[more=Technical info]
Input File: 02. Excelsior.mp3
Channels : 2
Sample Rate : 44100
Precision : 16-bit
Duration : 00:05:52.31 = 15536871 samples = 26423.2 CDDA sectors
File Size : 14.2M
Bit Rate : 322k
Sample Encoding: MPEG audio (layer I, II or III)
Comments :
Title=Excelsior
Artist=Imperial Triumphant
Album=Alphaville (Limited Edition)
Tracknumber=2
Year=2020
Discnumber=1

[/more]

Register
(43) 555, acerbus, alikkon, andreikun, atavist, caro, Cyrci, El_Chibo, Evilded, Fallen Soul, Fryz, fuoco, garmonbozia, gena, grimoir, Guy_, Infidel, infiltrator, insufferable, Irimias, judaz, mardak666, marilin, metala, Metalass, mirotvorets, MMMMM, Moonshtook, multizwilling, nemx, Olethros, pahail, randumbum, Requiescat, ripper33, Rosen, Swastika, VALERY, Vladimir, wtk.412, yuratroll, ZambuL, Луч,
Jul 30 2020, 12:50:40 Alcatrazz - Born Innocent (2020)


*Artist: Alcatrazz
*Album: Born Innocent
*Year: 2020
*Genre: Heavy Metal/Shred
*Country: United States
*Format: mp3@CBR320kbps
*Size: 132MB

Tracklist:
01. Born Innocent 03:06
02. Polar Bear 04:35
03. Finn McCool 04:21
04. We Still Remember 04:02
05. London 1666 04:59
06. Dirty like the City 03:48
07. I Am the King 05:29
08. Something That I Am Missing 04:36
09. Paper Flags 04:00
10. The Wound Is Open 03:48
11. Body Beautiful 04:59
12. Warth Lane 06:15
13. For Tony 03:59
******************************
Total playing time: 57:57





[more=Technical info]
Input File: 2. Polar Bear.mp3
Channels : 2
Sample Rate : 44100
Precision : 16-bit
Duration : 00:04:35.01 = 12127765 samples = 20625.5 CDDA sectors
File Size : 11.0M
Bit Rate : 320k
Sample Encoding: MPEG audio (layer I, II or III)
Comments :
Title=Polar Bear
Artist=Alcatrazz
Album=Born Innocent
Tracknumber=02
Year=2020-20-20
Discnumber=1

[/more]

Register
(20) aviacademy, boby9052, canadaspaceman, dimitriusk, grimoir, henknegatief, Herrant, infiltrator, Jorn777, Kasper969, masterpain666, metala, Olethros, rabindranad, Rhoads, Rosen, Rover, SaintVitus, Shub, stumpheavyrock,
Jul 30 2020, 12:31:36 Drouth - Excerpts From A Dread Liturgy (2020)


*Artist: Drouth
*Album: Excerpts From A Dread Liturgy
*Year: 2020
*Genre: Black/Death Metal
*Country: United States
*Format: mp3@CBR320kbps
*Size: 93MB

Tracklist:
01. A Drowning in Sunlight 08:30
02. An Apiarist 09:51
03. O Time Thy Pyramids - An Unfinished Nightmare 07:23
04. A Repulsive Act Shrouded in Flesh 08:13
05. A Crown of Asphodels 06:28
******************************
Total playing time: 40:25





[more=Technical info]
Input File: 2. An Apiarist.mp3
Channels : 2
Sample Rate : 44100
Precision : 16-bit
Duration : 00:00:00.59 = 26063 samples = 44.3248 CDDA sectors
File Size : 23.8M
Bit Rate : 322M
Sample Encoding: MPEG audio (layer I, II or III)
Comments :
Title=An Apiarist
Artist=Drouth
Album=Excerpts from a Dread Liturgy
Tracknumber=2
Year=2020
Genre=Black Metal
Discnumber=1

[/more]

Register
(18) alikkon, atavist, El_Chibo, gena, infiltrator, metala, multizwilling, Olethros, randumbum, Rosen, snorr, supremo, suseka, VALERY, vasiljev_sergej, Vladimir, Wail, yuratroll,
Jul 30 2020, 12:21:18 Damnation Angels - Fiber Of Our Being (2020)


*Artist: Damnation Angels
*Album: Fiber Of Our Being
*Year: 2020
*Genre: Symphonic Power Metal
*Country: United Kingdom
*Format: mp3@CBR320kbps
*Size: 128MB

Tracklist:
01. More than Human 04:43
02. Railrunner 06:35
03. Fiber of Our Being 04:58
04. Our Last Light 04:13
05. Rewrite the Future 05:40
06. Fractured Amygdala 05:21
07. Greed and Extinction 06:34
08. Remnants of a Dying Star 12:59
09. A Sum of Our Parts 04:16
******************************
Total playing time: 55:19





[more=Technical info]
Input File: 2 - Railrunner.mp3
Channels : 2
Sample Rate : 44100
Precision : 16-bit
Duration : 00:06:35.20 = 17428408 samples = 29640.1 CDDA sectors
File Size : 15.9M
Bit Rate : 321k
Sample Encoding: MPEG audio (layer I, II or III)
Comments :
Title=Railrunner
Artist=Damnation Angels
Album=Fiber of Our Being
Tracknumber=2
Year=2020
Genre=Metal
Discnumber=1

[/more]

Register
(21) ace73pq, after21allD, Alpha_Prime, boby9052, Cartman223, cen0byte666, chipsgott, csgmnk, grimoir, gwar, gwynnbleid, Herrant, infiltrator, metala, Olethros, Rosen, Rover, sadmannn, talismanFS, zhol, Сварог Барг,
Jul 30 2020, 12:11:09 Pale Horseman - For Dust Thou Art (2020)


*Artist: Pale Horseman
*Album: For Dust Thou Art
*Year: 2020
*Genre: Sludge/Doom Metal
*Country: United States
*Format: mp3@CBR320kbps
*Size: 86MB

Tracklist:
01. Tundra 04:38
02. Scourge 06:16
03. Archangel 06:03
04. Disenchanter 06:37
05. Vagrants 06:27
06. Cydonia 07:39
******************************
Total playing time: 37:40







[more=Technical info]
Input File: 2. Scourge.mp3
Channels : 2
Sample Rate : 44100
Precision : 16-bit
Duration : 00:00:00.38 = 16538 samples = 28.1259 CDDA sectors
File Size : 15.1M
Bit Rate : 323M
Sample Encoding: MPEG audio (layer I, II or III)
Comments :
Title=Scourge
Artist=Pale Horseman
Album=For Dust Thou Art
Tracknumber=2
Year=2020
Genre=Sludge Metal
Discnumber=1

[/more]

Register
(9) HMHamster, infiltrator, marilin, Olethros, robertho777, Rosen, stub888, stumpheavyrock, VALERY,
Jul 30 2020, 11:59:24 Dimitriy Pavlovskiy's Powersquad - Mysterizer (2020)


*Artist: Dimitriy Pavlovskiy's Powersquad
*Album: Mysterizer
*Year: 2020
*Genre: Neoclassical/Progressive Metal
*Country: Ukraine
*Format: mp3@CBR320kbps
*Size: 108MB

Tracklist:
01. Book Of Myths 05:09
02. Fill The Sky 03:24
03. Return From The Grey 06:56
04. Vivid 06:17
05. Endless Sun 04:02
06. Sunset 04:04
07. Mysterizer 07:37
08. To The Land 05:18
09. Gardens Of Eden 04:26
******************************
Total playing time: 47:13







[more=Technical info]
Input File: 2 - Fill the Sky.mp3
Channels : 2
Sample Rate : 44100
Precision : 16-bit
Duration : 00:03:24.39 = 9013731 samples = 15329.5 CDDA sectors
File Size : 8.21M
Bit Rate : 321k
Sample Encoding: MPEG audio (layer I, II or III)
Comments :
Title=Fill the Sky
Artist=Dimitriy Pavlovskiy's Powersquad
Album=Mysterizer
Tracknumber=2
Year=2020
Genre=Metal
Discnumber=1

[/more]

Register
(11) after21allD, aviacademy, gwar, gwynnbleid, Herrant, infiltrator, metala, Olethros, Rosen, Rover, Сварог Барг,
Jul 30 2020, 11:23:21 Katalepsy - Terra Mortuus Est (2020)


*Artist: Katalepsy
*Album: Terra Mortuus Est
*Year: 2020
*Genre: Technical Brutal Death/Groove Metal
*Country: Russian Federation
*Format: mp3@CBR320kbps
*Size: 114MB

Tracklist:
201. Closer than Flesh 03:55
202. Night of Eden 03:57
203. Those Who Rot the Souls 04:30
204. The God of Grave 05:05
205. Terra Mortuus Est 03:53
206. Kings of the Underground 03:15
207. Deep Down Madness 04:25
208. No Rest No Peace 04:26
209. From the Dark Past (They Come) 04:59
10. Neonomicon III 05:02
11. Land of Million Crosses 06:39
******************************
Total playing time: 50:06



Preview 3



[more=Technical info]
Input File: 02. Night Of Eden.mp3
Channels : 2
Sample Rate : 44100
Precision : 16-bit
Duration : 00:00:00.24 = 10452 samples = 17.7755 CDDA sectors
File Size : 9.62M
Bit Rate : 325M
Sample Encoding: MPEG audio (layer I, II or III)
Comments :
Title=Night Of Eden
Artist=Katalepsy
Album=Terra Mortuus Est
Tracknumber=2
Year=2020
Genre=Brutal Death Metal
Discnumber=1

[/more]

Register
(41) 6666666, 666BlackDeath, akym, alikkon, Aresson, atavist, BandR75, BERZERK, cesar, chipsgott, Foneg, Indamage, infiltrator, insufferable, Joey_73, jollo, judaz, martintrue, metala, Metalass, Moonshtook, multizwilling, Occultas, Olethros, respect, ripper33, Rosen, scorn33, sepultura39, serjred, SS2998, supremo, Thiarnan, tim47, troll_swamp, VALERY, Vladimir, yuratroll, Луч, Сатаник, Язва,
Jul 28 2020, 12:59:17 Barron - Light In The Dark (2020)


*Artist: Barron
*Album: Light In The Dark
*Year: 2020
*Genre: Death/Thrash Metal
*Country: United States
*Format: mp3@CBR320kbps
*Size: 148MB

Tracklist:
01. What I Am 06:43
02. Broken 05:41
03. In A Hole 05:24
04. The Old Familiar Feeling 06:48
05. Blackout 05:08
06. Cold and Dark 09:01
07. Remember Why 11:12
08. Light In The Dark 14:21
******************************
Total playing time: 1:04:18



[more=Technical info]
Input File: 02. Broken.mp3
Channels : 2
Sample Rate : 44100
Precision : 16-bit
Duration : 00:05:41.73 = 15070117 samples = 25629.5 CDDA sectors
File Size : 13.8M
Bit Rate : 322k
Sample Encoding: MPEG audio (layer I, II or III)
Comments :
Title=Broken
Artist=Barron
Album=Light In The Dark
Tracknumber=2
Year=2020

[/more]

Register
(10) after21allD, atavist, boby9052, infiltrator, jollo, metala, Olethros, Rosen, sergsazan, stumpheavyrock,
Jul 24 2020, 13:18:59 Perky Macabre - Elite Vomit [ep] (2020)


*Artist: Perky Macabre
*Album: Elite Vomit [ep]
*Year: 2020
*Genre: Grindcore
*Country: United States
*Format: mp3@CBR320kbps
*Size: 9MB

Tracklist:
01. Excavation Freak 00:20
02. Sacred Emissions 01:00
03. Foliage 00:44
04. Spheres 00:26
05. Shadow Of Maris 00:49
06. Advaita Vedanta 00:20
******************************
Total playing time: 3:39



[more=Technical info]
Input File: 02. Sacred Emissions.mp3
Channels : 2
Sample Rate : 44100
Precision : 16-bit
Duration : 00:01:00.27 = 2657775 samples = 4520.03 CDDA sectors
File Size : 2.51M
Bit Rate : 333k
Sample Encoding: MPEG audio (layer I, II or III)
Comments :
Title=Sacred Emissions
Artist=Perky Macabre
Album=Elite Vomit
Tracknumber=2
Year=2020

[/more]

Register
(4) infiltrator, Lukittaz, Olethros, Rosen,
Jul 24 2020, 13:06:46 Hysterotomy - Incessant Sadistic Paraphilia Excruciation [ep] (2020)


*Artist: Hysterotomy
*Album: Incessant Sadistic Paraphilia Excruciation [ep]
*Year: 2020
*Genre: Brutal Death Metal
*Country: Indonesia
*Format: mp3@CBR320kbps
*Size: 22MB

Tracklist:
01. Incisions During Masturbation 01:38
02. Fecal Lubrication Into The Mouth 01:55
03. Raping And Decapitating 01:44
04. Fresh Blood Stimulation 01:43
05. Sodomize The Festering Corpse 01:25
******************************
Total playing time: 8:25




[more=Technical info]
Input File: 05. Sodomize The Festering Corpse.mp3
Channels : 2
Sample Rate : 44100
Precision : 16-bit
Duration : 00:01:25.92 = 3789116 samples = 6444.07 CDDA sectors
File Size : 3.64M
Bit Rate : 339k
Sample Encoding: MPEG audio (layer I, II or III)
Comments :
Title=Sodomize The Festering Corpse
Artist=Hysterotomy
Album=Incessant Sadistic Paraphilia Excruciation
Tracknumber=5
Year=2020

[/more]

Register
(8) Hell_Is_Here, infiltrator, Lukittaz, maochen, Olethros, Rosen, satanist666, uk82grind,
Jul 23 2020, 12:30:04 Various Artists - 8 - Way Bukakke Split [split] (2020)


*Artist: Various Artists
*Album: 8 - Way Bukakke Split [split]
*Year: 2020
*Genre: Goregrind/Pornogrind/Cybergrind
*Country: United States
*Format: mp3@CBR320kbps
*Size: 91MB

Tracklist:
Old Lady Pubes:
01. 50 Guys 1 Bitch 01:04
02. Deadly Infection Of HIV 01:39
03. My Nuts In Your Moms Face 00:41
Loli Noise Torture:
04. The Cult Of The Peeholes Worship 03:27
05. Gangrenous Pyoderma 03:23
Gymnothorax Javanicus:
06. Human Life Deamed Worthless Since Decades 00:18
07. Sawn Down To Pieces Down The River 00:45
08. Her Body Found In The Freezer, Only Her Torso Was Missing 01:14
09. Stabbed In The Face Beyond Recognition 00:36
10. Genitals Torn Apart Under Water 00:35
11. Sexually Aroused And Wanting More 00:10
12. There's Nothing Stopping Me At All 01:03
Acid Cum:
13. Killjoy 00:21
14. Kindergartener Disposal 00:46
15. To Be Conquered 00:49
Lube:
16. Murder Porn 02:14
17. Teenage Muntant Ninja Turtle Dicks 01:32
18. My Step-Dad, The Cuck 02:17
Nasty Cunt Slime:
19. Heroin Baggy Up Your Vag 01:08
20. Cuddling With Beastiality Boys 01:37
21. Psychedelic Induced Sexual Extortion 01:08
Job4abrokeback:
22. Intro 01:29
23. Gaping David Spades Anus 01:00
24. Poop Poop! 01:38
Vaginus Dead:
25. The Time Has Cum 01:24
26. Cum Ass U R 01:45
27. You're Welcum 02:37
******************************
Total playing time: 36:40






[more=Technical info]
Input File: 05. Gangrenous Pyoderma.mp3
Channels : 2
Sample Rate : 44100
Precision : 16-bit
Duration : 00:03:23.32 = 8966500 samples = 15249.1 CDDA sectors
File Size : 8.33M
Bit Rate : 328k
Sample Encoding: MPEG audio (layer I, II or III)
Comments :
Title=Gangrenous Pyoderma
Artist=Loli Noise Torture
Album=8 - Way Bukakke Split
Tracknumber=5
Year=2020

[/more]

Register
(6) alikkon, infiltrator, lilf, Lukittaz, Rosen, uk82grind,
Jul 22 2020, 13:58:47 Perky Macabre - Everything Is Love [ep] (2020)


*Artist: Perky Macabre
*Album: Everything Is Love [ep]
*Year: 2020
*Genre: Grindcore
*Country: United States
*Format: mp3@CBR320kbps
*Size: 6MB

Tracklist:
01. Awakening...
02. Torus
03. Ugly But Necessary
04. Thremyemyem
05. Everything Is Love
06. Blapped
07. Florescent Nest
08. Hexagram
09. Gilded Tear Duct
10. Succulent Machine
11. Paranormal Hangover
12. Defenestration
13. Ruido
14. 88
15. Primordial Image
******************************
Total playing time: 2:25



[more=Technical info]
Input File: 01. Everything Is Love.mp3
Channels : 2
Sample Rate : 44100
Precision : 16-bit
Duration : 00:02:25.43 = 6413507 samples = 10907.3 CDDA sectors
File Size : 6.04M
Bit Rate : 332k
Sample Encoding: MPEG audio (layer I, II or III)
Comments :
Title=Everything Is Love
Artist=Perky Macabre
Album=Everything Is Love
Tracknumber=1
Year=2020

[/more]

Register
(4) infiltrator, Lukittaz, Olethros, Rosen,
Jul 22 2020, 13:48:47 Perky Macabre - Toroidal Noise [ep] (2020)


*Artist: Perky Macabre
*Album: Toroidal Noise [ep]
*Year: 2020
*Genre: Grindcore
*Country: United States
*Format: mp3@CBR320kbps
*Size: 7MB

Tracklist:
01. To The Grave On Acid 00:06
02. LSD Burst 00:05
03. Dead Sphincter 00:07
04. Cold Green Meat 00:14
05. Bed Head 00:07
06. Far Beyond Trippin' 00:14
07. Earthen Chamber 00:07
08. Rend Your Flesh To Ribbons 00:12
******************************
Total playing time: 1:12



[more=Technical info]
Input File: 02. LSD Burst.mp3
Channels : 2
Sample Rate : 44100
Precision : 16-bit
Duration : 00:00:05.83 = 256883 samples = 436.876 CDDA sectors
File Size : 419k
Bit Rate : 576k
Sample Encoding: MPEG audio (layer I, II or III)
Comments :
Title=LSD Burst
Artist=Perky Macabre
Album=Toroidal Noise
Tracknumber=2
Year=2020

[/more]

Register
(4) infiltrator, Lukittaz, Olethros, Rosen,
Jul 22 2020, 13:32:35 Perky Macabre - Perverse Devotion [ep] (2020)


*Artist: Perky Macabre
*Album: Perverse Devotion [ep]
*Year: 2020
*Genre: Grindcore
*Country: United States
*Format: mp3@CBR320kbps
*Size: 8MB

Tracklist:
01. Necro Tease 00:29
02. Village Of The Dead 00:21
03. The Hum Of Vacant Bodies 00:30
04. Rotted Fellatio 01:06
05. Dead Orifice 00:05
06. Caressing The Leftovers 00:51
******************************
Total playing time: 3:22



[more=Technical info]
Input File: 02. Village Of The Dead.mp3
Channels : 2
Sample Rate : 44100
Precision : 16-bit
Duration : 00:00:21.42 = 944666 samples = 1606.57 CDDA sectors
File Size : 949k
Bit Rate : 354k
Sample Encoding: MPEG audio (layer I, II or III)
Comments :
Title=Village Of The Dead
Artist=Perky Macabre
Album=Perverse Devotion
Tracknumber=2
Year=2020

[/more]

Register
(4) infiltrator, Lukittaz, Olethros, Rosen,
Jul 22 2020, 13:19:54 Perky Macabre - Romancing The Worms [ep] (2020)


*Artist: Perky Macabre
*Album: Romancing The Worms [ep]
*Year: 2020
*Genre: Grindcore
*Country: United States
*Format: mp3@CBR320kbps
*Size: 8MB

Tracklist:
01. Shit Or Miss 00:11
02. Killed (Gently) 00:20
03. Possible Satanic Abuse 00:15
04. Scary Friend 00:31
05. Septic 5 01:00
06. Carnivorous Lunar Activities 00:16
07. Subjected To Texture 00:22
08. Unnerving Incisions 00:23
******************************
Total playing time: 3:18



[more=Technical info]
Input File: 02. Killed (Gently).mp3
Channels : 2
Sample Rate : 44100
Precision : 16-bit
Duration : 00:00:20.87 = 920455 samples = 1565.4 CDDA sectors
File Size : 949k
Bit Rate : 364k
Sample Encoding: MPEG audio (layer I, II or III)
Comments :
Title=Killed (Gently)
Artist=Perky Macabre
Album=Romancing The Worms
Tracknumber=2
Year=2020

[/more]

Register
(4) infiltrator, Lukittaz, Olethros, Rosen,
Jul 22 2020, 13:08:57 Perky Macabre - Crudely Discarded [ep] (2020)


*Artist: Perky Macabre
*Album: Crudely Discarded [ep]
*Year: 2020
*Genre: Grindcore
*Country: United States
*Format: mp3@CBR320kbps
*Size: 4MB

Tracklist:
01. Gestating Pustules 00:13
02. Bloated Essence 00:11
03. Crudely Discarded 00:11
04. Impure Gestures 00:12
05. Misinterpreted Gore 00:15
06. Punctured Fuck 00:06
******************************
Total playing time: 1:08



[more=Technical info]
Input File: 02. Bloated Essence.mp3
Channels : 2
Sample Rate : 44100
Precision : 16-bit
Duration : 00:00:11.31 = 498815 samples = 848.325 CDDA sectors
File Size : 605k
Bit Rate : 428k
Sample Encoding: MPEG audio (layer I, II or III)
Comments :
Title=Bloated Essence
Artist=Perky Macabre
Album=Crudely Discarded
Tracknumber=2
Year=2020

[/more]

Register
(4) infiltrator, Lukittaz, Olethros, Rosen,
Jul 22 2020, 12:56:38 Behold The Slitted Carcass - Christ Have You Seen This World (2020)


*Artist: Behold The Slitted Carcass
*Album: Christ Have You Seen This World
*Year: 2020
*Genre: Technical/Brutal Death Metal/Deathcore
*Country: United States
*Format: mp3@CBR320kbps
*Size: 46MB

Tracklist:
01. The Beginning
02. Vomit
03. Covid-19 the Outbreak
04. Bloody Contagious Cardiovascular Regurgitation
05. Damned for Eternity
06. Christ Have You Seen This World
07. Post-Traumatic Disgorging Neucrosis
08. The End
******************************
Total playing time: 20:01






[more=Technical info]
Input File: 02. Vomit.mp3
Channels : 2
Sample Rate : 44100
Precision : 16-bit
Duration : 00:02:51.11 = 7546127 samples = 12833.5 CDDA sectors
File Size : 6.85M
Bit Rate : 320k
Sample Encoding: MPEG audio (layer I, II or III)
Comments :
Artist=Behold the Slitted Carcass
Album=Christ Have You Seen This World
Year=2020

[/more]

Register
(10) atavist, Bloodn Lord, grimoir, Hell_Is_Here, infiltrator, Lukittaz, Olethros, Rosen, satanist666, supremo,
Jul 21 2020, 13:07:27 Perky Macabre - Blotters For The Dead [ep] (2020)


*Artist: Perky Macabre
*Album: Blotters For The Dead [ep]
*Year: 2020
*Genre: Grindcore
*Country: United States
*Format: mp3@CBR320kbps
*Size: 6MB

Tracklist:
01. Sulfuric Mantra 00:39
02. Mandala Brine 00:09
03. Congealed 00:23
04. Black Nectar 00:24
05. Meaning In Death 00:08
06. Flattering Autopsy 00:29
******************************
Total playing time: 2:12



[more=Technical info]
Input File: 02. Mandala Brine.mp3
Channels : 2
Sample Rate : 44100
Precision : 16-bit
Duration : 00:00:09.74 = 429710 samples = 730.799 CDDA sectors
File Size : 519k
Bit Rate : 426k
Sample Encoding: MPEG audio (layer I, II or III)
Comments :
Title=Mandala Brine
Artist=Perky Macabre
Album=Blotters For The Dead
Tracknumber=2
Year=2020

[/more]

Register
(4) infiltrator, Lukittaz, Olethros, Rosen,
Jul 21 2020, 12:55:15 Perky Macabre - Miel [ep] (2020)


*Artist: Perky Macabre
*Album: Miel [ep]
*Year: 2020
*Genre: Grindcore
*Country: United States
*Format: mp3@CBR320kbps
*Size: 8MB

Tracklist:
01. Skeletal Exfoliation 00:26
02. Wither And Die 00:16
03. Glistening Worms 00:34
04. Tragic Orgasm 00:31
05. Ghastly Intentions 00:12
******************************
Total playing time: 1:59



[more=Technical info]
Input File: 02. Wither And Die.mp3
Channels : 2
Sample Rate : 44100
Precision : 16-bit
Duration : 00:00:17.03 = 751111 samples = 1277.4 CDDA sectors
File Size : 833k
Bit Rate : 391k
Sample Encoding: MPEG audio (layer I, II or III)
Comments :
Title=Wither And Die
Artist=Perky Macabre
Album=Miel
Tracknumber=2
Year=2020

[/more]

Register
(4) infiltrator, Lukittaz, Olethros, Rosen,
Jul 21 2020, 12:45:18 Perky Macabre - Headless And Permafried [ep] (2020)


*Artist: Perky Macabre
*Album: Headless And Permafried [ep]
*Year: 2020
*Genre: Grindcore
*Country: United States
*Format: mp3@CBR320kbps
*Size: 6MB

Tracklist:
01. The Degraded Self 00:27
02. Bruised And Scrying 00:36
03. Spazzing Christ 00:13
04. Autoerotic Immolation 00:09
05. Sick Transition 00:28
06. Gouged Beauty 00:27
******************************
Total playing time: 2:20



[more=Technical info]
Input File: 02. Bruised And Scrying.mp3
Channels : 2
Sample Rate : 44100
Precision : 16-bit
Duration : 00:00:36.65 = 1616309 samples = 2748.82 CDDA sectors
File Size : 1.52M
Bit Rate : 333k
Sample Encoding: MPEG audio (layer I, II or III)
Comments :
Title=Bruised And Scrying
Artist=Perky Macabre
Album=Headless And Permafried
Tracknumber=2
Year=2020

[/more]

Register
(3) Lukittaz, Olethros, Rosen,

1424 Pages V   1 2 3 > » 
- Lo-Fi Version Support form
Copyrights and abuse reports form
Time is now: 3rd August 2020 - 15:45:46