Welcome Guest ( Log In | Register )

История благодарностей участнику necroscum ::: Спасибо сказали: 433177 раз(а)
Дата поста: В теме: За сообщение: Спасибо сказали:
Jul 20 2021, 14:09:27 The Last King - The New Age (2021)


*Artist: The Last King
*Album: The New Age
*Year: 2021
*Genre: Deathcore
*Country: United States
*Format: mp3@CBR320kbps
*Size: 95MB

Tracklist:
01. Conducting Retribution 03:11
02. Beyond Hate 04:12
03. Gomorrah 04:00
04. The New Age 04:29
05. Aberration 04:39
06. Sacrosanct 04:04
07. The Worst of It 04:13
08. Nescience 04:27
09. Resurrection 04:30
******************************
Total playing time: 37:45





[more=Technical info]
Input File: 02. Beyond Hate.mp3
Channels : 2
Sample Rate : 44100
Precision : 16-bit
Duration : 00:04:12.33 = 11127753 samples = 18924.8 CDDA sectors
File Size : 11.1M
Bit Rate : 351k
Sample Encoding: MPEG audio (layer I, II or III)
Comments :
Title=Beyond Hate
Artist=The Last King
Album=The New Age
Tracknumber=2/9
Year=2021
Genre=Metal
Discnumber=1/1

[/more]

Register
(6) caro, chipsgott, infiltrator, Marek, Olethros, suseka,
Jul 20 2021, 13:55:16 In Autumnus - Repetitions (2021)


*Artist: In Autumnus
*Album: Repetitions
*Year: 2021
*Genre: Atmospheric Post-Black Metal
*Country: United Kingdom
*Format: mp3@CBR320kbps
*Size: 130MB

Tracklist:
01. Balthazars 02:20
02. Delirium 17:07
03. Waster 01:56
04. Council Pissings 15:40
05. Dopamine Funeral 19:20
******************************
Total playing time: 56:23





[more=Technical info]
Input File: 03. Waster.mp3
Channels : 2
Sample Rate : 44100
Precision : 16-bit
Duration : 00:01:56.17 = 5123185 samples = 8712.9 CDDA sectors
File Size : 4.85M
Bit Rate : 334k
Sample Encoding: MPEG audio (layer I, II or III)
Comments :
Title=Waster
Artist=In Autumnus
Album=Repetitions
Tracknumber=3
Year=2021

[/more]

Register
(15) aleon, AlexSmith, caro, dan22, infiltrator, kim666, nemx, Olethros, Phlebotomized, Reverend, robertho777, sergsazan, supremo, suseka, VALERY,
Jul 20 2021, 13:39:05 Disinterested Handjob - This Is Not A Drill [ep] (2021)


*Artist: Disinterested Handjob
*Album: This Is Not A Drill [ep]
*Year: 2021
*Genre: Grindcore
*Country: Australia
*Format: mp3@CBR320kbps
*Size: 13MB

Tracklist:
01. Forest Of Doom 00:19
02. Suck The Pus 00:30
03. Nails That Need To Be Repeatedly Hammered In 00:56
04. A Crowd Being Doused In The Blood Of A Small Child 00:31
05. Führious 00:20
06. The Enrichment Of All Things Through Use Of Profanity 00:27
07. Enypniastes Eximia 00:48
08. A Ton Of Sand And White-Tailed Spiders 00:17
09. The Benefits Of Holy War 00:42
10. The Flying Penis (Birdflesh Cover) 00:42
******************************
Total playing time: 5:32




[more=Technical info]
Input File: 02. Suck The Pus.mp3
Channels : 2
Sample Rate : 44100
Precision : 16-bit
Duration : 00:00:30.64 = 1351356 samples = 2298.22 CDDA sectors
File Size : 1.26M
Bit Rate : 329k
Sample Encoding: MPEG audio (layer I, II or III)
Comments :
Title=Suck The Pus
Artist=Disinterested Handjob
Album=This Is Not A Drill EP
Tracknumber=2
Year=2021

[/more]

Register
(5) caro, chipsgott, infiltrator, kefka, Olethros,
Jul 15 2021, 13:54:33 Crown Of Twilight - The Cycle [ep] (2021)


*Artist: Crown Of Twilight
*Album: The Cycle [ep]
*Year: 2021
*Genre: Instrumental Atmospheric Black Metal
*Country: Poland
*Format: mp3@CBR320kbps
*Size: 37MB

Tracklist:
01. Life 06:54
02. Death 08:14
******************************
Total playing time: 15:08



Preview 3


[more=Technical info]
Input File: 02. Death.mp3
Channels : 2
Sample Rate : 44100
Precision : 16-bit
Duration : 00:08:15.00 = 21829280 samples = 37124.6 CDDA sectors
File Size : 19.9M
Bit Rate : 322k
Sample Encoding: MPEG audio (layer I, II or III)
Comments :
Title=Death
Artist=Crown of Twilight
Album=The Cycle
Tracknumber=2
Year=2021

[/more]

Register
(11) caro, djsema4, infiltrator, kim666, kimkayoung, moscva70, Olethros, Reverend, Taakeferd, Козлотролль, Сварог Барг,
Jul 14 2021, 13:10:52 Nuclear Wasteland - Demo 2021 [demo] (2021)


*Artist: Nuclear Wasteland
*Album: Demo 2021 [demo]
*Year: 2021
*Genre: Thrash Metal
*Country: United States
*Format: mp3@CBR320kbps
*Size: 53MB

Tracklist:
01. Untitled 01:19
02. Untitled 01:21
03. Untitled 01:10
04. Untitled 02:04
05. Untitled 02:49
06. Untitled 01:59
07. Untitled 02:19
08. Untitled 08:37
09. Untitled 01:15
******************************
Total playing time: 22:53






[more=Technical info]
Input File: 02. UNTITLED.mp3
Channels : 2
Sample Rate : 44100
Precision : 16-bit
Duration : 00:01:21.56 = 3596708 samples = 6116.85 CDDA sectors
File Size : 3.32M
Bit Rate : 326k
Sample Encoding: MPEG audio (layer I, II or III)
Comments :
Title=UNTITLED
Artist=Nuclear Wasteland
Album=Demo 2021
Tracknumber=2
Year=2021

[/more]

Register
(8) after21allD, caro, infiltrator, Marek, Olethros, piwimetal, stumpheavyrock, Wail,
Jun 21 2021, 13:22:58 Rogue Ogre - Ampersand [ep] (2021)


*Artist: Rogue Ogre
*Album: Ampersand [ep]
*Year: 2021
*Genre: Death/Doom Metal
*Country: United States
*Format: mp3@CBR320kbps
*Size: 75MB

Tracklist:
01. A Darker Pale 06:48
02. Monsterfucker 07:15
03. Muskrat 06:46
04. Tornado's Flight 07:03
05. The Good Ship Lifestyle 07:03
******************************
Total playing time: 27:52


Preview 2


[more=Technical info]
Input File: 02. Monsterfucker.mp3
Channels : 2
Sample Rate : 44100
Precision : 16-bit
Duration : 00:07:15.96 = 19225616 samples = 32696.6 CDDA sectors
File Size : 17.6M
Bit Rate : 322k
Sample Encoding: MPEG audio (layer I, II or III)
Comments :
Title=Monsterfucker
Artist=Rogue Ogre
Album=A.M.P.E.R.S.A.N.D.
Tracknumber=2
Year=2021

[/more]

Register
(16) andreikun, caro, Hell_Is_Here, HMHamster, infiltrator, lacrimoza, Olethros, quarantine, sergsazan, Shadechaser, stumpheavyrock, Taakeferd, VALERY, vyacheslav, Wail, wreak,
Jun 21 2021, 13:06:03 Ærgewinn - Year Of The Plague [ep] (2021)


*Artist: Ærgewinn
*Album: Year Of The Plague [ep]
*Year: 2021
*Genre: Death/Black Metal
*Country: Italy
*Format: mp3@CBR320kbps
*Size: 23MB

Tracklist:
01. Veleno 03:45
02. Notte 04:49
******************************
Total playing time: 8:34





[more=Technical info]
Input File: 02. Notte.mp3
Channels : 2
Sample Rate : 44100
Precision : 16-bit
Duration : 00:04:49.58 = 12770610 samples = 21718.7 CDDA sectors
File Size : 11.8M
Bit Rate : 326k
Sample Encoding: MPEG audio (layer I, II or III)
Comments :
Title=Notte
Artist=Ærgewinn
Album=Year of the Plague
Tracknumber=2
Year=2021

[/more]

Register
(11) caro, El_Chibo, infiltrator, Marek, Olethros, SilentNidhogg, Taakeferd, VALERY, varlam4, Wail, wreak,
Jun 12 2021, 13:31:15 Akvan - Realm Ov Fire/قلمرو آتش [ep] (2017)


*Artist: Akvan
*Album: Realm Ov Fire/قلمرو آتش [ep]
*Year: 2017
*Genre: Folk/Black Metal
*Country: Iran
*Format: mp3@CBR320kbps
*Size: 42MB

Tracklist:
01. قلمرو آتش / Realm ov Fire 06:49
02. IR 655 05:00
03. آتش و فولاد / Fire and Steel 06:00
******************************
Total playing time: 17:49


Preview 2



[more=Technical info]
Input File: اکوان (Akvan) - Realm ov Fire - قلمرو آتش - 02 IR 655.mp3
Channels : 2
Sample Rate : 44100
Precision : 16-bit
Duration : 00:05:00.09 = 13233749 samples = 22506.4 CDDA sectors
File Size : 12.1M
Bit Rate : 323k
Sample Encoding: MPEG audio (layer I, II or III)
Comments :
Title=IR 655
Artist=اکوان (Akvan)
Album=Realm ov Fire / قلمرو آتش
Tracknumber=2
Year=2017

[/more]

Register
(18) Cartman223, Druidir, gwar, infiltrator, kim666, Mencae77, noel666, Olethros, scrollbar, SilentNidhogg, Taakeferd, thenecromancer, VALERY, varlam4, Wail, wreak, Авел, Сварог Барг,
Jun 10 2021, 13:30:43 Bukkake With Radioactive Semen From Futa Yangire & Morbid Gorgeous Girl - 2 Ways Of Hentai Fetish [split] (2021)


*Artist: Bukkake With Radioactive Semen From Futa Yangire & Morbid Gorgeous Girl
*Album: 2 Ways Of Hentai Fetish [split]
*Year: 2021
*Genre: Goregrind | Porno Goregrind
*Country: Kazakhstan | Costa Rica
*Format: mp3@CBR320kbps
*Size: 27MB

Tracklist:
Bukkake With Radioactive Semen From Futa Yangire;
01. No, I Love Your Legs 02:07
Morbid Gorgeous Girl;
02. Squeeze My Dick Onee-San 03:15
Bukkake With Radioactive Semen From Futa Yangire:
03. Welcome To Cumzone, Only Come Inside Anime Legs(sus) 02:48
Morbid Gorgeous Girl:
04. Infernal Bukkake Gang-Bang 03:20
******************************
Total playing time: 11:30




[more=Technical info]
Input File: 01. No, i Love Your Legs.mp3
Channels : 2
Sample Rate : 44100
Precision : 16-bit
Duration : 00:02:08.06 = 5647402 samples = 9604.43 CDDA sectors
File Size : 5.26M
Bit Rate : 328k
Sample Encoding: MPEG audio (layer I, II or III)
Comments :
Title=No, i Love Your Legs
Artist=Bukkake with Radioactive Semen from Futa Yangire
Album=2 Ways of Hentai Fetish
Tracknumber=1
Year=2021

[/more]

Register
(7) craP_cillA, djsema4, infiltrator, kefka, varlam4, Wail, wreak,
Jun 8 2021, 14:08:21 Abysmal Piss - One With The Rotting (2021)


*Artist: Abysmal Piss
*Album: One With The Rotting
*Year: 2021
*Genre: Brutal Death Metal/Goregrind
*Country: United States
*Format: mp3@CBR320kbps
*Size: 32MB

Tracklist:
01. Intro 01:00
02. I Will Crush Their Fucking Skulls 02:00
03. Manifesto Of Filth 01:22
04. Feminist Face Fuck 00:50
05. One With The Rotting 03:11
06. Family Splatters 01:47
07. Whore Hunter 02:01
08. Effigy Of Severed Genitals 01:22
******************************
Total playing time: 13:33





[more=Technical info]
Input File: 02. I Will Crush Their Fucking Skulls.mp3
Channels : 2
Sample Rate : 44100
Precision : 16-bit
Duration : 00:02:04.56 = 5493140 samples = 9342.07 CDDA sectors
File Size : 5.22M
Bit Rate : 335k
Sample Encoding: MPEG audio (layer I, II or III)
Comments :
Title=I Will Crush Their Fucking Skulls
Artist=Abysmal Piss
Album=One With The Rotting
Tracknumber=2
Year=2021
Genre=Slamming Brutal Death Metal

[/more]

Register
(11) GorAtheist, Hell_Is_Here, infiltrator, jollo, kefka, Olethros, supremo, varlam4, vyacheslav, Wail, wreak,
Jun 7 2021, 13:34:24 Teratolith - Scorn [ep] (2021)


*Artist: Teratolith
*Album: Scorn [ep]
*Year: 2021
*Genre: Black/Death Metal/Ambient
*Country: United States
*Format: mp3@CBR320kbps
*Size: 32MB

Tracklist:
01. Scorn 13:48
******************************
Total playing time: 13:48

Preview 1


[more=Technical info]
Input File: 01. Scorn.mp3
Channels : 2
Sample Rate : 44100
Precision : 16-bit
Duration : 00:13:48.68 = 36544612 samples = 62150.7 CDDA sectors
File Size : 33.2M
Bit Rate : 321k
Sample Encoding: MPEG audio (layer I, II or III)
Comments :
Title=Scorn
Artist=Teratolith
Album=Scorn
Tracknumber=1
Year=2021

[/more]

Register
(11) Hell_Is_Here, infiltrator, Kaotik, Olethros, SilentNidhogg, Taakeferd, VALERY, varlam4, Vitald, Wail, wreak,
Jun 4 2021, 14:47:52 Intrepid Corpse - Mincecore Wet Dreams [demo] (2020)


*Artist: Intrepid Corpse
*Album: Mincecore Wet Dreams [demo]
*Year: 2020
*Genre: Goregrind
*Country: French Polynesia
*Format: mp3@CBR320kbps
*Size: 26MB

Tracklist:
01. Slamming (Black Metal) 01:48
02. Forgetting The Wet Days 01:12
03. Uncle Fester's Kitchen Salad 01:20
04. Ghetto Basket 01:23
05. Hello Butt Plug 01:41
06. A Feather, A Mouse, A Torch (This Makes No Fucking Sense) 01:16
07. Mince Prince II 00:33
08. Forever Changing The Idealistic Grindhood 01:56
******************************
Total playing time: 11:09



[more=Technical info]
Input File: 02. Forgetting the Wet Days.mp3
Channels : 2
Sample Rate : 44100
Precision : 16-bit
Duration : 00:01:12.55 = 3199279 samples = 5440.95 CDDA sectors
File Size : 3.01M
Bit Rate : 332k
Sample Encoding: MPEG audio (layer I, II or III)
Comments :
Title=Forgetting the Wet Days
Artist=Intrepid Corpse
Album=Mincecore Wet Dreams
Tracknumber=2
Year=2020

[/more]

Register
(7) chipsgott, infiltrator, kefka, Olethros, varlam4, Wail, wreak,
Jun 4 2021, 14:28:12 In Autumnus - Meek (2021)


*Artist: In Autumnus
*Album: Meek
*Year: 2021
*Genre: Atmospheric Black Metal/Post-Rock
*Country: United Kingdom
*Format: mp3@CBR320kbps
*Size: 81MB

Tracklist:
01. Null 00:49
02. Briefly 06:11
03. Meek 02:00
04. Wilting 05:20
05. Aff 02:40
06. May Queen 08:38
07. Anything Now 03:19
08. Southend 07:33
******************************
Total playing time: 36:30




[more=Technical info]
Input File: 04 Wilting.mp3
Channels : 2
Sample Rate : 44100
Precision : 16-bit
Duration : 00:05:20.26 = 14123290 samples = 24019.2 CDDA sectors
File Size : 12.9M
Bit Rate : 323k
Sample Encoding: MPEG audio (layer I, II or III)
Comments :
Title=Wilting
Artist=In Autumnus
Album=Meek
Tracknumber=4
Year=2021

[/more]

Register
(13) aleon, DeathDragon, Ice Gnoll, infiltrator, Olethros, Orgasmik, robertho777, sergsazan, supremo, VALERY, varlam4, Wail, wreak,
Jun 3 2021, 15:12:37 Intrepid Corpse - Desolate (2020)


*Artist: Intrepid Corpse
*Album: Desolate
*Year: 2020
*Genre: Goregrind
*Country: France
*Format: mp3@CBR320kbps
*Size: 37MB

Tracklist:
01. Without A Trace 01:30
02. Harmful And Exhilerating 00:32
03. The Stench Of Washed Up Features Oozing Their Remains 00:57
04. Harvesting Dead Souls To Use For The Aftermath 00:29
05. No Authority For Brainwashed Flesh 00:36
06. Drowning In The Center Of A Blistering Typhoon 01:30
07. Depressive And Submissive 00:04
08. Permanent Conditions 01:19
09. Self Absorbed And Wicked 00:22
10. A Walking Hazard In The Midst Of Crisis 00:27
11. Above All That Matters 00:23
12. What Is Life Without Self 00:43
13. Contempt For The Wicked 00:40
14. Wavy Interlude 01:09
15. Mustering Last Words Before Your Last Air 00:45
16. Fury Against Mindless Xenophobic Skins 00:08
17. The Waters, They Speak 00:16
18. Giving Off A Stench So Putrid You Destroy The World 01:10
19. The End Of Kindness / Collapse 02:43
******************************
Total playing time: 15:43




[more=Technical info]
Input File: 03. The Stench of Washed Up Features Oozing Their Remains.mp3
Channels : 2
Sample Rate : 44100
Precision : 16-bit
Duration : 00:00:58.00 = 2557580 samples = 4349.63 CDDA sectors
File Size : 2.40M
Bit Rate : 332k
Sample Encoding: MPEG audio (layer I, II or III)
Comments :
Title=The Stench of Washed Up Features Oozing Their Remains
Artist=Intrepid Corpse
Album=Desolate
Tracknumber=3
Year=2020

[/more]

Register
(8) djsema4, infiltrator, kefka, Olethros, supremo, varlam4, Wail, wreak,
Jun 3 2021, 14:57:27 Intrepid Corpse - Festering Subconscious [ep] (2020)


*Artist: Intrepid Corpse
*Album: Festering Subconscious [ep]
*Year: 2020
*Genre: Goregrind
*Country: France
*Format: mp3@CBR320kbps
*Size: 25MB

Tracklist:
01. Consumed Through The Gaping Pit 01:08
02. Warm, Blessed Catatonia 01:13
03. Drawn Towards Appalling Paradise 01:20
04. Boozed Up For The Plummet 01:13
05. Baked Remains Of A Sacrificed Nobody 01:46
06. What Has Been Done To The People 01:03
07. Lactate Delicacy 01:31
08. Punctured Cystic Skin Wedge 00:55
******************************
Total playing time: 10:09




[more=Technical info]
Input File: 02. Warm, Blessed Catatonia.mp3
Channels : 2
Sample Rate : 44100
Precision : 16-bit
Duration : 00:01:13.77 = 3253389 samples = 5532.97 CDDA sectors
File Size : 3.18M
Bit Rate : 345k
Sample Encoding: MPEG audio (layer I, II or III)
Comments :
Title=Warm, Blessed Catatonia
Artist=Intrepid Corpse
Album=Festering Subconscious
Tracknumber=2
Year=2020

[/more]

Register
(7) djsema4, infiltrator, kefka, Olethros, varlam4, Wail, wreak,
May 29 2021, 13:51:38 Disinterested Handjob - Sifting Through Faeces [compilation] (2021)


*Artist: Disinterested Handjob
*Album: Sifting Through Faeces [compilation]
*Year: 2021
*Genre: Grindcore
*Country: Australia
*Format: mp3@CBR320kbps
*Size: 138MB

Tracklist:
01. When You Start Doing Covers And Remixes You Know You've Run Out Of Ideas 00:01
02. Very Angry (Euro Club Ibiiza Mix) 01:43
03. Carmina Tum Melius, Cum Cantu In Lingua Mortua (Remix) 03:10
04. Abyss Meat (Remix) 01:25
05. The Unfortunate Result Of Mixing Shit With Semen (The Remix) 00:17
06. Barbarism Begins (Remix) 01:50
07. A Gentleman's Guide To Amputation (Alternate Vocal) 00:25
08. All Those People In The 90's Complaining About How Shit Society Was Back Then Must Be Really Pissed Off Now (Remix) 01:20
09. Blissfully Awareness Free (Remix) 00:29
10. And Suddenly You Think You Are Human Again (Alternate Vocal) 00:20
11. Bush Meat Made From Poacher's Flesh (Alternate Vocal) 00:24
12. Cunctator (Alt Version) 00:56
13. Begging For A Pegging (Unfinished Intro From The Seduction ) 03:15
14. Carmina Tum Melius, Cum Cantu In Lingua Mortua (Remix) 03:10
15. Ejaculating Into Your Chest Wound (First Version) 00:22
16. Impure Thoughts About Your Mother, Dog, And Sister (But Mostly About Your Sister) (Fan Edit) 01:30
17. Decant//Bowel//Dreams 03:25
18. Eat Shit - A Trillion Flies Can't Be Wrong (Mystery Strings Version) 01:24
19. The Unfortunate Result Of Mixing Shit With Semen (The Remix) 00:17
20. Feeding Corpses Into The Maw Of Modernity (Remix) 01:15
21. There Are Only So Many Old Napalm Death Songs You Can Name Your Band After (Original Version) 00:51
22. First World Grindocide (Remix) 00:58
23. Name A Film That Reminds You Of Your Last Bowel Movement (Bowelhacker Remix) 00:47
24. Embryonic Cannibalism (Remix) 01:30
25. From Tetanus To Disembowelment (Remix) 00:43
26. Gruesome Playground Injuries (Alternate Vocal) 01:08
27. What If It's A Human Abattoir (Alt Version) 01:06
28. Human Vivisection Uber Alles (Remix) 01:57
29. My First Armin Miewes Fan Club Newsletter Came With A Bonus Marinated Human Penis (Alternate Vocal) 01:44
30. People Are Stupid And Deserve To Die (Version 2) 00:24
31. Streetwalker Amputee (Remix) 00:46
32. Naked Pictures Of Ariel Winter (Alt Version) 00:16
33. People Shaped Things (Normal Version Alt Vocals) 01:16
34. Sodomised With A Banana (Version 2) 00:22
35. No One Is Coming For You (Version 2) 00:36
36. Not As Hardcore As You Think (Alt Version) 00:51
37. For The Want Of A Chainsaw (Version 2) 00:06
38. Suicide By Idiot (Idioten Remix) 00:31
39. Tears + Vomit (Remix) 00:34
40. Fuck Your New Paradigm (Alternate Vocal) 00:17
41. The Graves Of Children Are Great Places For A Birthday Party (Remix) 00:16
42. How To Win Friends By Engaging In A Drive By (Full Version) 01:02
43. The Great Ignorance (Remix) 01:31
44. They Won't Find Your Body In A Dumpster Because I Will Have Eaten It (Alt Version) 00:23
45. To Live And Die In East Brighton (Remix) 00:51
46. Degradation On An Industrial Scale (Alt Vocal) 00:17
47. Toilet Camera (Remix) 00:17
48. Wiping Away The Herpes (Remix) 01:29
49. Cretin's Table (Remix) 01:15
50. Such A Relentless Consumer (Zombies At The Mall Remix) 01:52
51. Always Be My Baby (Mariah Carey) Short Version 00:02
52. Doctor Dan's Doggerel Theme 00:12
53. The Skin Has Sloughed Off And The Maggots Are Taking Care Of The Dead Flesh (Alternate Version) 02:26
54. Gods In Skin (वैकल्पिक संस्करण) 01:27
******************************
Total playing time: 57:01




[more=Technical info]
Input File: Disinterested Handjob - Sifting Through Faeces - 02 Very Angry (Euro Club Ibiiza mix).mp3
Channels : 2
Sample Rate : 44100
Precision : 16-bit
Duration : 00:01:43.45 = 4562145 samples = 7758.75 CDDA sectors
File Size : 4.22M
Bit Rate : 327k
Sample Encoding: MPEG audio (layer I, II or III)
Comments :
Title=Very Angry (Euro Club Ibiiza mix)
Artist=Disinterested Handjob
Album=Sifting Through Faeces
Tracknumber=2
Year=2021

[/more]

Register
(9) alikkon, djsema4, infiltrator, kefka, Olethros, Reverend, varlam4, Wail, wreak,
May 29 2021, 13:35:57 Disinterested Handjob - Antihuman (2021)


*Artist: Disinterested Handjob
*Album: Antihuman
*Year: 2021
*Genre: Grindcore
*Country: Australia
*Format: mp3@CBR320kbps
*Size: 61MB

Tracklist:
01. 100% Reptile 00:18
02. A Collection Of Locusts And Human Filth In The Shape Of A Man 00:58
03. All That Infests Heaven 00:43
04. Sound And Fury Signifying A Fuckwit 00:30
05. Humans Festering Like Tumours 00:49
06. Bodyparts In The River 00:24
07. Degradation On An Industrial Scale 00:20
08. Haven't You Suffered Enough 00:38
09. Poverty Porn 00:40
10. Scum Of The Earth 00:34
11. Slack Meat, Dying 01:37
12. A Moderately Successful Genocide 00:39
13. Starve Faster 00:30
14. Worm Gods 00:45
15. Contagion Distributor 00:24
16. Famous Atheist 00:25
17. Genetic Failures 00:28
18. The Great Age Of Optimism Fucked By Your Cynicism 00:16
19. Human Beings Are Venereal Things 01:15
20. All The Dumb Things 00:41
21. Inexorable Stupidity 02:06
22. Just Kill Yourself 00:29
23. You're All Disposable 00:18
24. Lifeless Parade 01:02
25. No Lives Ever Mattered (Amd Certainly Not Yours) 00:36
26. Exploiting The Recently Dead 00:35
27. Plumbing The Depths Of Dead History 01:24
28. Squalid 00:18
29. To Weed The Weak Out 00:33
30. Suicide By Idiot 00:25
31. Inexorable Lapse Into Ritualistic Atavism 01:56
32. Unrelenting Stupidity 00:30
33. Martyr Or Idiot 01:17
34. Virulent Fecundity 00:16
35. What Are The Poor But Vectors For Plague 00:12
******************************
Total playing time: 24:51




[more=Technical info]
Input File: 02. A Collection Of Locusts And Human Filth In The Shape Of A Man.mp3
Channels : 2
Sample Rate : 44100
Precision : 16-bit
Duration : 00:00:58.23 = 2567943 samples = 4367.25 CDDA sectors
File Size : 2.40M
Bit Rate : 330k
Sample Encoding: MPEG audio (layer I, II or III)
Comments :
Title=A Collection Of Locusts And Human Filth In The Shape Of A Man
Artist=Disinterested Handjob
Album=AntiHuman
Tracknumber=2
Year=2021

[/more]

Register
(8) djsema4, infiltrator, kefka, Olethros, Reverend, varlam4, Wail, wreak,
May 28 2021, 13:44:48 Longhare - Would You Like To Know More? [compilation] (2020)


*Artist: Longhare
*Album: Would You Like To Know More? [compilation]
*Year: 2020
*Genre: Progressive Heavy/Stoner/Doom Metal
*Country: Croatia
*Format: mp3@CBR320kbps
*Size: 185MB

Tracklist:
01. Would You Like To Know More? (Future Generation) 03:57
02. The High Computer 05:52
03. Hybernaut 08:22
04. Dr. Zaius Was Right* 03:59
05. Come Heavy Sleep 06:52
06. Knife Fight 03:03
07. Warpers 03:29
08. Space Riders 05:16
09. Brainfreeze 02:34
10. M-Dee.M.Azing 03:21
11. Silicone Bitch 04:06
12. Pikey 03:46
13. LGBT 03:32
14. Heavy 04:23
15. The Medicineman 04:10
16. Greenhead 03:05
******************************
Total playing time: 1:09:47






[more=Technical info]
Input File: Longhare - Would You Like To Know More- - 02 The High Computer-.mp3
Channels : 2
Sample Rate : 44100
Precision : 16-bit
Duration : 00:05:52.25 = 15534401 samples = 26419 CDDA sectors
File Size : 14.2M
Bit Rate : 324k
Sample Encoding: MPEG audio (layer I, II or III)
Comments :
Title=The High Computer*
Artist=Longhare
Album=Would You Like To Know More?
Tracknumber=2
Year=2020

[/more]

Register
(5) HMHamster, infiltrator, Olethros, stumpheavyrock, wreak,
May 26 2021, 15:20:10 Funeral Of God - Agonizing Whispers [ep] (2021)


*Artist: Funeral Of God
*Album: Agonizing Whispers [ep]
*Year: 2021
*Genre: Black/Funeral Doom Metal/Ambient
*Country: Italy
*Format: mp3@CBR320kbps
*Size: 48MB

Tracklist:
01. Crypt of Scars 06:50
02. Bow to the Vulgar Master 03:34
03. Praying to the Slurred God 04:56
04. Obscurity and Despair (Raw Remastering) 05:06
******************************
Total playing time: 20:26




[more=Technical info]
Input File: 02. Bow to the Vulgar Master.mp3
Channels : 2
Sample Rate : 44100
Precision : 16-bit
Duration : 00:03:34.09 = 9441149 samples = 16056.4 CDDA sectors
File Size : 8.71M
Bit Rate : 325k
Sample Encoding: MPEG audio (layer I, II or III)
Comments :
Title=Bow to the Vulgar Master
Artist=P.C.Odio
Album=Funeral of God "Agonizing Whispers"
Tracknumber=2
Year=2021

[/more]

Register
(12) Hell_Is_Here, Olethros, Orgasmik, robertho777, Shadechaser, supremo, Taakeferd, VALERY, varlam4, vasiljev_sergej, Wail, wreak,
May 26 2021, 15:05:40 Alder Glade - Lunar Majesty [ep] (2021)


*Artist: Alder Glade
*Album: Lunar Majesty [ep]
*Year: 2021
*Genre: Black Metal
*Country: Australia
*Format: mp3@CBR320kbps
*Size: 62MB

Tracklist:
01. Full Moon Goddess 11:52
02. Occultation 12:49
******************************
Total playing time: 24:41




[more=Technical info]
Input File: 02. Occultation.mp3
Channels : 2
Sample Rate : 44100
Precision : 16-bit
Duration : 00:12:50.03 = 33958191 samples = 57752 CDDA sectors
File Size : 30.9M
Bit Rate : 321k
Sample Encoding: MPEG audio (layer I, II or III)
Comments :
Title=Occultation
Artist=Alder Glade
Album=Lunar Majesty
Tracknumber=2
Year=2021

[/more]

Register
(14) Aamiinaa, kim666, Marek, Olethros, robertho777, satanist666, SilentNidhogg, Taakeferd, VALERY, varlam4, vasiljev_sergej, Vitald, Wail, wreak,
May 25 2021, 14:37:44 Alien Cow Abduction - エイリアンライブ拉致 (Alien Live Abduction) [live] (2017)


*Artist: Alien Cow Abduction
*Album: エイリアンライブ拉致 (Alien Live Abduction) [live]
*Year: 2017
*Genre: Porno Goregrind
*Country: Mexico
*Format: mp3@CBR320kbps
*Size: 24MB

Tracklist:
01. Asalto Sexual A Dross 01:13
02. El Secuestrador De Viejas 01:31
03. Huevos Alienigenas De Hitler (Nos Destruiran A Todos) 02:36
04. Los Marcianos Asexuales Acosadores De Pobres Vatos 01:03
05. Fractura Rectal 01:59
06. Alien Sexual 01:07
******************************
Total playing time: 9:29




[more=Technical info]
Input File: Alien Cow Abduction - エイリアンライブ拉致 (Alien Live Abduction) - 06 Alien Sexual.mp3
Channels : 2
Sample Rate : 44100
Precision : 16-bit
Duration : 00:01:07.56 = 2979220 samples = 5066.7 CDDA sectors
File Size : 2.80M
Bit Rate : 332k
Sample Encoding: MPEG audio (layer I, II or III)
Comments :
Title=Alien Sexual
Artist=Alien Cow Abduction
Album=エイリアンライブ拉致 (Alien Live Abduction)
Tracknumber=6
Year=2017

[/more]

Register
(7) infiltrator, kefka, Olethros, uk82grind, varlam4, Wail, wreak,
May 24 2021, 16:00:40 Alien Cow Abduction - Putiza Intergalactica Navideña [ep] (2019)


*Artist: Alien Cow Abduction
*Album: Putiza Intergalactica Navideña [ep]
*Year: 2019
*Genre: Porno Goregrind
*Country: Mexico
*Format: mp3@CBR320kbps
*Size: 22MB

Tracklist:
01. Alien Sexual 01:06
02. Ay' Te Encargo 01:20
03. Cuerpo Enronchado 01:16
04. Los Marcianos Asexuales Acosadores De Pobres Vatos 01:03
05. Masaje Semi Desnudo Completamente Heterosexual 00:42
06. 'Inga Su Madre 00:50
07. Ruido Loco A La Verga 00:43
08. Putiza Intergalactica Navideña 00:44
09. Bailongo Alienigena 00:54
******************************
Total playing time: 8:38





[more=Technical info]
Input File: 02. Ay\' Te Encargo.mp3
Channels : 2
Sample Rate : 44100
Precision : 16-bit
Duration : 00:01:20.67 = 3557547 samples = 6050.25 CDDA sectors
File Size : 3.47M
Bit Rate : 344k
Sample Encoding: MPEG audio (layer I, II or III)
Comments :
Title=Ay' Te Encargo
Artist=Alien Cow Abduction
Album=Putiza Intergalactica Navideña
Tracknumber=2
Year=2019

[/more]

Register
(7) djsema4, drrmad, kefka, Olethros, varlam4, Wail, wreak,
May 24 2021, 15:46:51 Alien Cow Abduction - Peda Marcianoide Navideña [ep] (2017)


*Artist: Alien Cow Abduction
*Album: Peda Marcianoide Navideña [ep]
*Year: 2017
*Genre: Porno Goregrind
*Country: Mexico
*Format: mp3@CBR320kbps
*Size: 22MB

Tracklist:
01. Llenando Huequitos 00:59
02. Mamada Siniestra 01:06
03. Pruebas Anales Baratas 00:46
04. Bailongo Alienigena 00:54
05. Abducción A Huevo 01:18
06. AYY LMAO (Si, Otra Vez AYY LMAO) 00:46
07. Manipulacion Masturbatoriamente Suicia Del Bilbu (Pito) 01:45
08. El Gemelo Lampiño De Peter 01:39
******************************
Total playing time: 9:13




[more=Technical info]
Input File: 03. Pruebas Anales Baratas.mp3
Channels : 2
Sample Rate : 44100
Precision : 16-bit
Duration : 00:00:46.55 = 2052943 samples = 3491.4 CDDA sectors
File Size : 2.04M
Bit Rate : 351k
Sample Encoding: MPEG audio (layer I, II or III)
Comments :
Title=Pruebas Anales Baratas
Artist=Alien Cow Abduction
Album=Peda Marcianoide Navideña
Tracknumber=3
Year=2017

[/more]

Register
(4) Olethros, varlam4, Wail, wreak,
May 20 2021, 14:22:47 Abhorrent Cabaret - Stories Of Undeniable Abhorrence (2020)


*Artist: Abhorrent Cabaret
*Album: Stories Of Undeniable Abhorrence
*Year: 2020
*Genre: Goregrind
*Country: Czech Republic
*Format: flac
*Size: 167MB

Tracklist:
01. Røugh Røuge 02:01
02. Handcuffed Pantønime 01:20
03. Electrøtørture Chøreøgraphy 02:10
04. Hølløw Stage Høe 02:07
05. Genital Føuntain Act 02:31
06. Last Breathe Øn Last Scene 02:12
07. Røyal Skit 02:02
08. Divas & Thrøats 03:25
09. Søprano Upøn Intersectiøn 01:31
10. Perversity Behind Curtain 02:25
11. Arsefaced Magician 02:40
******************************
Total playing time: 24:24





Register
(6) kefka, Olethros, satanist666, varlam4, Wail, wreak,
May 19 2021, 15:09:14 Disinterested Handjob - Caveat Auditoris (2017)


*Artist: Disinterested Handjob
*Album: Caveat Auditoris
*Year: 2017
*Genre: Grindcore
*Country: Australia
*Format: mp3@CBR320kbps
*Size: 75MB

Tracklist:
01. He's A Prostitute, Mother, And He Loves Me 00:26
02. Prefrontal 01:45
03. Take Your Paranoid Delusions About The Government And Fuck Off. You Aren't Important Enough For Them To Care About 00:30
04. One Of These Rags Is Soaked In Human Urine 00:29
05. Optimism, You Cunt 00:40
06. Hey Mr DJ Play That Rape Anthem 00:21
07. An Act Of Positive Cremation 01:11
08. Oxygen Apocalypse 00:51
09. Preteen Target Practice 00:58
10. Sarcasm Most Foul 01:00
11. Genuine Filth, Genuine Arousal 01:11
12. The Graves Of Children Are Great Places For A Birthday Party! 00:12
13. 10 A Boot Stomping 20 A Human Face 30 Goto 10 01:44
14. With Bowel Wide Open 00:21
15. Drugs And A Stun Gun And Some Porn And A Monkey 01:10
16. Shallow As Piss On Concrete 00:43
17. The Thinking Plague 00:53
18. 99 Problems (But Using Disrespectful Terms About Women Ain't One) 00:35
19. Burn And Flush 00:36
20. Shit Turbine 01:29
21. The Fine Line Between Surgery And Butchery 00:42
22. Make The Wounds We Give Gape Wide 00:35
23. My Kind of Traitor 01:16
24. Spawn Of Pure Stupidity 00:35
25. Smiling Sociopaths Slowly Eating The World 00:52
26. Cadaverhead 00:43
27. Hyponormal 00:14
28. Genetic Torture 01:52
29. Gore Porn Forum Rollercoaster Slaughter Fun 00:18
30. Be Prepared To Give Up Your Dignity 00:38
31. Roko's Basilisk 00:27
32. Trigger Point For A Gaping Sphincter 00:58
33. Car Bomb Victim 00:33
34. Kill Them All And Let The Mortician Sort Them Out 00:39
35. The Carapace 00:14
36. Necrophilia Is More Digging Than Fucking 01:04
37. We're Huge In Germany (They Love Shit) 00:51
******************************
Total playing time: 29:36




[more=Technical info]
Input File: 02. Prefrontal.mp3
Channels : 2
Sample Rate : 44100
Precision : 16-bit
Duration : 00:01:45.49 = 4652021 samples = 7911.6 CDDA sectors
File Size : 4.32M
Bit Rate : 328k
Sample Encoding: MPEG audio (layer I, II or III)
Comments :
Title=Prefrontal
Artist=Disinterested Handjob
Album=Caveat Auditoris
Tracknumber=2
Year=2017

[/more]

Register
(10) atavist, infiltrator, kefka, Occultas, Olethros, satanist666, suseka, varlam4, Wail, wreak,

1437 Pages V   1 2 3 > » 
- Lo-Fi Version Support form
Copyrights and abuse reports form
Time is now: 28th July 2021 - 17:40:17