Welcome Guest ( Log In | Register )

История благодарностей участнику necroscum ::: Спасибо сказали: 398459 раз(а)
Дата поста: В теме: За сообщение: Спасибо сказали:
Yesterday, 15:42:27 Posthumous Regurgitation - Glorification Of Medical Malpractice [ep] (2019)


*Artist: Posthumous Regurgitation
*Album: Glorification Of Medical Malpractice [ep]
*Year: 2019
*Genre: Goregrind
*Country: United States
*Format: mp3@CBR320kbps
*Size: 40MB

Tracklist:
01. Prepped For Dissection 01:46
02. Culto Al Dolor 01:29
03. Seepage Of Malodorous Effluvium 02:50
04. Mass Of Unwilling Organ Donors 02:41
05. The Miseducation Of Mary Jane Kelly 01:36
06. Glorification Of Medical Malpractice 03:12
07. Dozens Of Dismembered Torsos (Butcher ABC Cover) 01:28
******************************
Total playing time: 15:02




[more=Technical info]
Input File: Posthumous Regurgitation - Glorification of Medical Malpractice - 02. Culto Al Dolor.mp3
Channels : 2
Sample Rate : 44100
Precision : 16-bit
Duration : 00:01:29.61 = 3951713 samples = 6720.6 CDDA sectors
File Size : 3.95M
Bit Rate : 353k
Sample Encoding: MPEG audio (layer I, II or III)
Comments :
Title=Culto Al Dolor
Artist=Posthumous Regurgitation
Album=Glorification of Medical Malpractice
Tracknumber=02
Year=2019
Genre=Metal

[/more]

Register
(4) artscald, Olethros, Rosen, Герб,
Yesterday, 15:29:54 Perky Macabre - Flies [ep] (2019)


*Artist: Perky Macabre
*Album: Flies [ep]
*Year: 2019
*Genre: Grindcore
*Country: United States
*Format: mp3@CBR320kbps
*Size: 11MB

Tracklist:
01. Singe 00:26
02. Goro Roshambo 00:27
03. <3 00:53
04. Reach/Astound 00:24
05. 5 00:46
06. Unable To Relate 01:00
07. Flies 00:44
******************************
Total playing time: 4:40



[more=Technical info]
Input File: 02. Goro Roshambo.mp3
Channels : 2
Sample Rate : 44100
Precision : 16-bit
Duration : 00:00:27.12 = 1195816 samples = 2033.7 CDDA sectors
File Size : 1.16M
Bit Rate : 341k
Sample Encoding: MPEG audio (layer I, II or III)
Comments :
Title=Goro Roshambo
Artist=Perky Macabre
Album=Flies
Tracknumber=2
Year=2019

[/more]

Register
(3) artscald, Olethros, Rosen,
Yesterday, 15:23:16 Perky Macabre - Morbid Plasma Scenic Route [ep] (2019)


*Artist: Perky Macabre
*Album: Morbid Plasma Scenic Route [ep]
*Year: 2019
*Genre: Grindcore
*Country: United States
*Format: mp3@CBR320kbps
*Size: 5MB

Tracklist:
01. Existential Shit List 00:20
02. The Shape Of Misfortune 00:16
03. Hymn Of The Sacred Weirdo 00:18
04. Disembodied Condescension 00:29
05. Invasion Of The Mist Forms 00:30
******************************
Total playing time: 1:53



[more=Technical info]
Input File: 02. The Shape Of Misfortune.mp3
Channels : 2
Sample Rate : 44100
Precision : 16-bit
Duration : 00:00:16.27 = 717727 samples = 1220.62 CDDA sectors
File Size : 796k
Bit Rate : 391k
Sample Encoding: MPEG audio (layer I, II or III)
Comments :
Title=The Shape Of Misfortune
Artist=Perky Macabre
Album=Morbid Plasma Scenic Route
Tracknumber=2
Year=2019

[/more]

Register
(3) artscald, Olethros, Rosen,
Yesterday, 15:16:40 Perky Macabre - Gnawing At The Fragrant Heart [ep] (2019)


*Artist: Perky Macabre
*Album: Gnawing At The Fragrant Heart [ep]
*Year: 2019
*Genre: Grindcore
*Country: United States
*Format: mp3@CBR320kbps
*Size: 11MB

Tracklist:
01. The Aura Of Hissing Trees (Intro) 01:10
02. Figures In Black 00:54
03. Nerve Center 01:04
04. Local Man Hates Himself 00:37
05. Glimmers Of False Hope 00:52
******************************
Total playing time: 4:37



[more=Technical info]
Input File: 02. Figures In Black.mp3
Channels : 2
Sample Rate : 44100
Precision : 16-bit
Duration : 00:00:54.15 = 2388191 samples = 4061.55 CDDA sectors
File Size : 2.22M
Bit Rate : 328k
Sample Encoding: MPEG audio (layer I, II or III)
Comments :
Title=Figures In Black
Artist=Perky Macabre
Album=Gnawing At The Fragrant Heart
Tracknumber=2
Year=2019

[/more]

Register
(3) artscald, Olethros, Rosen,
Yesterday, 15:10:00 Perky Macabre - Severed Hands Grasping The Void [ep] (2019)


*Artist: Perky Macabre
*Album: Severed Hands Grasping The Void [ep]
*Year: 2019
*Genre: Grindcore
*Country: United States
*Format: mp3@CBR320kbps
*Size: 5MB

Tracklist:
01. Wallowing In Filth 00:02
02. Surreal Bloodletting 00:08
03. Conspiring With Satan 00:14
04. Human Lanterns Filled With Dirt 00:21
05. Floating Moonlit Corpse 00:15
06. Meandering Meat 00:19
07. Reflections Of The Truly Sick 00:09
******************************
Total playing time: 1:28



[more=Technical info]
Input File: 02. Surreal Bloodletting.mp3
Channels : 2
Sample Rate : 44100
Precision : 16-bit
Duration : 00:00:08.36 = 368632 samples = 626.925 CDDA sectors
File Size : 397k
Bit Rate : 380k
Sample Encoding: MPEG audio (layer I, II or III)
Comments :
Title=Surreal Bloodletting
Artist=Perky Macabre
Album=Severed Hands Grasping The Void
Tracknumber=2
Year=2019

[/more]

Register
(3) artscald, Olethros, Rosen,
Yesterday, 14:59:26 Navian - Reset [ep] (2019)


*Artist: Navian
*Album: Reset [ep]
*Year: 2019
*Genre: Instrumental/Progressive Metal
*Country: Norway
*Format: mp3@CBR320kbps
*Size: 40MB

Tracklist:
01. Multiplayer
02. Schoolyard
03. Matcha Tea
04. Shiba
******************************
Total playing time: 17:25



[more=Technical info]
Input File: 02. Schoolyard.mp3
Channels : 2
Sample Rate : 44100
Precision : 16-bit
Duration : 00:03:47.83 = 10047259 samples = 17087.2 CDDA sectors
File Size : 10.1M
Bit Rate : 354k
Sample Encoding: MPEG audio (layer I, II or III)
Comments :
Title=Schoolyard
Artist=Navian
Album=Reset
Tracknumber=2/4
Year=2019

[/more]

Register
(3) artscald, Olethros, Rosen,
Yesterday, 14:51:45 Godsfear - What's Left? [ep] (2019)


*Artist: Godsfear
*Album: What's Left? [ep]
*Year: 2019
*Genre: Thrash/Stoner Metal
*Country: Canada
*Format: mp3@CBR320kbps
*Size: 86MB

Tracklist:
01. Killing Years 06:22
02. No Chainsaw 04:10
03. What's Left 03:39
04. Apocalypse (Live) 06:29
05. Mob (Live) 06:14
06. Jester (Live) 04:45
07. Hellbilly Voices (Live) 04:23
******************************
Total playing time: 36:02





[more=Technical info]
Input File: 02. No Chainsaw.mp3
Channels : 2
Sample Rate : 44100
Precision : 16-bit
Duration : 00:04:10.37 = 11041493 samples = 18778 CDDA sectors
File Size : 10.5M
Bit Rate : 337k
Sample Encoding: MPEG audio (layer I, II or III)
Comments :
Title=No Chainsaw
Artist=GODsFEAR
Album=What's Left?
Tracknumber=2/7
Year=2019

[/more]

Register
(5) artscald, ErikGoth, Olethros, Rosen, stumpheavyrock,
Yesterday, 14:41:20 Sacred Monster - The Monster Lives! [live] (2019)


*Artist: Sacred Monster
*Album: The Monster Lives! [live]
*Year: 2019
*Genre: Stoner/Heavy/Doom Metal
*Country: United States
*Format: mp3@CBR320kbps
*Size: 86MB

Tracklist:
01. Running the Risk 04:13
02. The Hound 04:25
03. High Confessor 05:03
04. Nightmare at 20,000 Feet 04:36
05. Re-Animator 04:22
06. Face of My Father 05:05
07. The Wraith 04:04
08. The Mothman Lives 03:51
******************************
Total playing time: 35:39





[more=Technical info]
Input File: Sacred Monster - The Monster Lives - 02 The Hound (Live).mp3
Channels : 2
Sample Rate : 44100
Precision : 16-bit
Duration : 00:04:25.92 = 11726852 samples = 19943.6 CDDA sectors
File Size : 10.8M
Bit Rate : 325k
Sample Encoding: MPEG audio (layer I, II or III)
Comments :
Title=The Hound (Live)
Artist=Sacred Monster
Album=The Monster Lives
Tracknumber=2
Year=2019

[/more]

Register
(4) artscald, Olethros, Rosen, VALERY,
Yesterday, 14:31:35 Mortales - Death Rattle Valley (2019)


*Artist: Mortales
*Album: Death Rattle Valley
*Year: 2019
*Genre: Stoner Metal
*Country: United States
*Format: mp3@CBR320kbps
*Size: 95MB

Tracklist:
01. Warhead 06:01
02. Hostility of a Bomb 07:39
03. Psilocyborg 05:44
04. Bring All Your Fire 05:28
05. Bricks 04:53
06. Golem 03:51
07. Nazareth 07:46
******************************
Total playing time: 41:22

Preview 1


[more=Technical info]
Input File: 2 - Hostility of a Bomb.mp3
Channels : 2
Sample Rate : 44100
Precision : 16-bit
Duration : 00:07:39.70 = 20272858 samples = 34477.6 CDDA sectors
File Size : 18.5M
Bit Rate : 321k
Sample Encoding: MPEG audio (layer I, II or III)
Comments :
Title=Hostility of a Bomb
Artist=MoRTaLes
Album=Death Rattle Valley
Tracknumber=2
Year=2019
Genre=Alternative/Indie Rock/Metal
Discnumber=1

[/more]

Register
(6) artscald, Fryz, Olethros, Rosen, stub888, VALERY,
Yesterday, 14:22:25 Alexander Korolev - Ad Astra (2019)


*Artist: Alexander Korolev
*Album: Ad Astra
*Year: 2019
*Genre: Instrumental/Progressive Metal
*Country: Russian Federation
*Format: mp3@CBR320kbps
*Size: 95MB

Tracklist:
01. Accretion, Pt. 1 02:12
02. Accretion, Pt. 2 03:35
03. Pulsar 04:25
04. Luyten 726-8 02:48
05. Epsilon Eridani 06:08
06. Nebula 04:16
07. Quasar 04:28
08. Ad Astra 11:38
******************************
Total playing time: 39:30



[more=Technical info]
Input File: 03. Pulsar.mp3
Channels : 2
Sample Rate : 44100
Precision : 16-bit
Duration : 00:04:24.77 = 11676269 samples = 19857.6 CDDA sectors
File Size : 11.1M
Bit Rate : 336k
Sample Encoding: MPEG audio (layer I, II or III)
Comments :
Title=Pulsar
Artist=Alexander Korolev
Album=Ad Astra
Tracknumber=3/8
Year=2019

[/more]

Register
(5) artscald, autumnwood, Olethros, Rosen, Сварог Барг,
Yesterday, 14:14:02 Another - Firebuns Returns (2019)


*Artist: Another
*Album: Firebuns Returns
*Year: 2019
*Genre: Instrumental/Progressive Metal
*Country: United States
*Format: mp3@CBR320kbps
*Size: 77MB

Tracklist:
01. The Return
02. The Demon Army
03. The Dead Will Rise
04. Heroes' Proclamation
05. Scourge of Bunsriel
06. Battle of Black Water Ridge
07. Into the Fields of Haven
08. Centuries Battle, Pt. 1
09. Centuries Battle, Pt. 2
10. Victorious
******************************
Total playing time: 33:29

[more=Technical info]
Input File: 02. The Demon Army.mp3
Channels : 2
Sample Rate : 44100
Precision : 16-bit
Duration : 00:03:31.53 = 9328385 samples = 15864.6 CDDA sectors
File Size : 8.66M
Bit Rate : 327k
Sample Encoding: MPEG audio (layer I, II or III)
Comments :
Title=The Demon Army
Artist=Another
Album=Firebuns Returns
Tracknumber=2/10
Year=2019

[/more]

Register
(3) artscald, Olethros, Rosen,
Yesterday, 14:00:21 Dave Van Detta - A Revelation Retold (2019)


*Artist: Dave Van Detta
*Album: A Revelation Retold
*Year: 2019
*Genre: Symphonic Black Metal
*Country: United States
*Format: mp3@CBR320kbps
*Size: 91MB

Tracklist:
01. Opus Dei
02. She Gave Me of the Tree, and I Did Eat
03. Dawn Has Appeared
04. Echoes (After the Fall)
05. A Plague Upon Gaia
06. Gematria
07. Sounding the Seventh Trumpet
08. Opus Bestia
******************************
Total playing time: 39:35




[more=Technical info]
Input File: 02. She Gave Me of the Tree, and I Did Eat.mp3
Channels : 2
Sample Rate : 44100
Precision : 16-bit
Duration : 00:04:44.10 = 12528810 samples = 21307.5 CDDA sectors
File Size : 11.7M
Bit Rate : 330k
Sample Encoding: MPEG audio (layer I, II or III)
Comments :
Title=She Gave Me of the Tree, and I Did Eat
Artist=Dave Van Detta
Album=A Revelation Retold
Tracknumber=2/8
Year=2019

[/more]

Register
(12) artscald, metalwoman, Olethros, Ostinato, Rosen, sadmannn, sergsazan, VALERY, vasiljev_sergej, yuratroll, zhol, Сварог Барг,
Yesterday, 13:40:25 Kalt || Weiss - Serotonin (2019)


*Artist: Kalt || Weiss
*Album: Serotonin
*Year: 2019
*Genre: Avant-Garde Black Metal
*Country: Austria
*Format: mp3@CBR320kbps
*Size: 82MB

Tracklist:
01. Serotonin 09:11
02. Übermensch 08:23
03. Lichtgestalt 07:10
04. Fleisch und Verstand 10:23
******************************
Total playing time: 35:07




[more=Technical info]
Input File: 02. Ubermensch.mp3
Channels : 2
Sample Rate : 44100
Precision : 16-bit
Duration : 00:08:23.62 = 22209598 samples = 37771.4 CDDA sectors
File Size : 20.5M
Bit Rate : 326k
Sample Encoding: MPEG audio (layer I, II or III)
Comments :
Title=Ubermensch
Artist=KALT || WEISS
Album=Serotonin
Tracknumber=2/4
Year=2019

[/more]

Register
(11) 1968_janeart, ahp, artscald, Olethros, Ostinato, Rosen, stub888, VALERY, vasiljev_sergej, yuratroll, zhol,
Yesterday, 13:29:34 New Age Doom - New Age Doom (2019)


*Artist: New Age Doom
*Album: New Age Doom
*Year: 2019
*Genre: Instrumental/Progressive Metal
*Country: United States
*Format: mp3@CBR320kbps
*Size: 148MB

Tracklist:
01. The Way of Primordial Sound
02. First Projection
03. Flight of the Windhorse
04. Cosmic Tortoise Ouroboros
05. Skeletons Dance at Naraka's Threshold
06. Jazz from the Void
07. X
08. Two Sips from Mahakala's Skull Cup
09. Incinerated Highway
10. Sound Flood
11. A Pyramid of Vapours
12. Underground Vaulted Archways
13. One Seed Every Hundred Thousand Years
******************************
Total playing time: 1:04:17

[more=Technical info]
Input File: 02. First Projection.mp3
Channels : 2
Sample Rate : 44100
Precision : 16-bit
Duration : 00:05:20.62 = 14139386 samples = 24046.6 CDDA sectors
File Size : 13.6M
Bit Rate : 339k
Sample Encoding: MPEG audio (layer I, II or III)
Comments :
Title=First Projection
Artist=New Age Doom
Album=New Age Doom
Tracknumber=2/13
Year=2019

[/more]

Register
(5) ahp, artscald, Olethros, Rosen, uncolored,
Yesterday, 13:18:04 Inonum - Follow The Witch (2019)


*Artist: Inonum
*Album: Follow The Witch
*Year: 2019
*Genre: Melodic Death Metal
*Country: United States
*Format: mp3@CBR320kbps
*Size: 113MB

Tracklist:
01. Red Contortion 04:31
02. The Eighth Circle 03:57
03. I Once Stopped for Death 03:38
04. Follow the Witch 04:17
05. The Artist 02:12
06. Hypnosis 01:46
07. Haunted in Your Head 03:31
08. Kill the Light 03:30
09. Firefrost 06:47
******************************
Total playing time: 34:09




[more=Technical info]
Input File: Inonum - Follow the Witch - 02 The Eighth Circle.mp3
Channels : 2
Sample Rate : 44100
Precision : 16-bit
Duration : 00:03:57.75 = 10484907 samples = 17831.5 CDDA sectors
File Size : 9.60M
Bit Rate : 323k
Sample Encoding: MPEG audio (layer I, II or III)
Comments :
Title=The Eighth Circle
Artist=Inonum
Album=Follow the Witch
Tracknumber=2
Year=2019

[/more]

Register
(8) artscald, infozahist, metalwoman, Olethros, Rosen, stumpheavyrock, VALERY, zhol,
Sep 19 2019, 16:54:50 Moon And Azure Shadow - Age Of Darkness And Frost (2019)


*Artist: Moon And Azure Shadow
*Album: Age Of Darkness And Frost
*Year: 2019
*Genre: Atmospheric Black Metal
*Country: United States
*Format: mp3@CBR320kbps
*Size: 115MB

Tracklist:
01. Across Dark Landscapes 03:18
02. Age of Darkness and Frost 08:52
03. Black Winged Gates of Destiny Descend 02:13
04. Abyssic Lunar Tower 17:27
05. Through the Channeling of Souls 03:17
06. Unholy Vanquishing 10:45
07. Passage Through Time and Cold 04:30
******************************
Total playing time: 50:22





[more=Technical info]
Input File: 02. Age of Darkness and Frost.mp3
Channels : 2
Sample Rate : 44100
Precision : 16-bit
Duration : 00:08:52.72 = 23492996 samples = 39954.1 CDDA sectors
File Size : 21.3M
Bit Rate : 320k
Sample Encoding: MPEG audio (layer I, II or III)
Comments :
Title=Age of Darkness and Frost
Artist=Moon and Azure Shadow
Album=Age of Darkness and Frost
Tracknumber=2/7
Year=2019
Genre=9
Discnumber=1/1

[/more]

Register
(17) ahp, artscald, Darkthronefoad, infiltrator, kalmametallinen, kim666, kimkayoung, lucifix, Olethros, Rosen, Sanctus, SilentNidhogg, stub888, suseka, tOmV, VALERY, vasiljev_sergej,
Sep 19 2019, 16:07:39 Downstroke - Grit (2019)


*Artist: Downstroke
*Album: Grit
*Year: 2019
*Genre: Groove Metal
*Country: Norway
*Format: mp3@CBR320kbps
*Size: 87MB

Tracklist:
01. Vultures 03:22
02. War of Nerves 03:17
03. Gone Forever 03:42
04. Corporate Americ 03:22
05. Hillbilly Sticku 03:54
06. Soul Searchin 03:35
07. Twisted Sou 03:15
08. Trenche 03:09
09. The Fal 03:29
10. Ministers of Righteousness 03:12
11. Osl 03:25
******************************
Total playing time: 37:51




[more=Technical info]
Input File: 02. War of Nerves.mp3
Channels : 2
Sample Rate : 44100
Precision : 16-bit
Duration : 00:03:17.92 = 8728140 samples = 14843.8 CDDA sectors
File Size : 7.96M
Bit Rate : 322k
Sample Encoding: MPEG audio (layer I, II or III)
Comments :
Title=War of Nerves
Artist=Downstroke
Album=Grit
Tracknumber=2/11
Year=2019
Genre=9
Discnumber=1/1

[/more]

Register
(6) artscald, boby9052, infiltrator, Olethros, Rosen, stumpheavyrock,
Sep 19 2019, 15:56:38 Gus G. - Live In Budapest - Part 1 [ep] (2019)


*Artist: Gus G.
*Album: Live In Budapest - Part 1 [ep]
*Year: 2019
*Genre: Heavy Metal/Shred
*Country: Greece
*Format: mp3@CBR320kbps
*Size: 38MB

Tracklist:
01. Fearless
02. My Will Be Done
03. Cold Sweat
04. Don't Tread on Me
******************************
Total playing time: 16:31



[more=Technical info]
Input File: 2 - My Will Be Done (Live).mp3
Channels : 2
Sample Rate : 44100
Precision : 16-bit
Duration : 00:03:31.00 = 9305188 samples = 15825.1 CDDA sectors
File Size : 8.50M
Bit Rate : 322k
Sample Encoding: MPEG audio (layer I, II or III)
Comments :
Title=My Will Be Done (Live)
Artist=Gus G.
Album=Live in Budapest, Pt. 1
Tracknumber=2
Year=2019
Genre=Rock/Hard Rock/Metal
Discnumber=1

[/more]

Register
(8) artscald, aviacademy, infiltrator, Olethros, Reverend, Rosen, Rover, Wail,
Sep 19 2019, 15:34:20 Deception - Epidemic [ep] (2019)


*Artist: Deception
*Album: Epidemic [ep]
*Year: 2019
*Genre: Melodic Death Metal
*Country: Norway
*Format: mp3@CBR320kbps
*Size: 58MB

Tracklist:
01. Repent 01:20
02. Penitential Psalm 04:35
03. Grimalkin 06:42
04. The Merchant 03:30
05. Gangrene 04:27
06. Memento Mori 04:22
******************************
Total playing time: 24:56






[more=Technical info]
Input File: 02. Penitential Psalm.mp3
Channels : 2
Sample Rate : 44100
Precision : 16-bit
Duration : 00:04:35.53 = 12150917 samples = 20664.8 CDDA sectors
File Size : 11.2M
Bit Rate : 326k
Sample Encoding: MPEG audio (layer I, II or III)
Comments :
Title=Penitential Psalm
Artist=Deception (NOR)
Album=Epidemic
Tracknumber=2/6
Year=2019
Genre=9
Discnumber=1/1

[/more]

Register
(15) ahp, artscald, djsema4, infiltrator, metalwoman, MMMMM, Olethros, Pentium.Disel, Rosen, sergsazan, soulflesh, stumpheavyrock, VALERY, zhol, Сварог Барг,
Sep 19 2019, 15:17:10 Jaggu - Revenantian (2019)


*Artist: Jaggu
*Album: Revenantian
*Year: 2019
*Genre: Stoner/Doom Metal
*Country: Norway
*Format: mp3@CBR320kbps
*Size: 114MB

Tracklist:
01. Harakiri 09:17
02. Misaka 05:07
03. Hannya 05:57
04. Oni 05:15
05. Green Sea 06:55
06. Jiko 06:10
07. Revenantian 08:44
08. Michi 02:10
******************************
Total playing time: 49:35





[more=Technical info]
Input File: 02. Misaka.mp3
Channels : 2
Sample Rate : 44100
Precision : 16-bit
Duration : 00:05:07.56 = 13563352 samples = 23066.9 CDDA sectors
File Size : 12.4M
Bit Rate : 323k
Sample Encoding: MPEG audio (layer I, II or III)
Comments :
Title=Misaka
Artist=JAGGU
Album=Revenantian
Tracknumber=2/8
Year=2019
Genre=9
Discnumber=1/1

[/more]

Register
(14) AHBAnep, ahp, artscald, autumnwood, infiltrator, marilin, Olethros, Ostinato, Rosen, s810ic1, SatanicPanzer, stub888, stumpheavyrock, VALERY,
Sep 19 2019, 15:04:31 Becoming Akh - The Apophis Solution (2019)


*Artist: Becoming Akh
*Album: The Apophis Solution
*Year: 2019
*Genre: Progressive Deathcore/Djent
*Country: United States
*Format: mp3@CBR320kbps
*Size: 181MB

Tracklist:
01. The War That Time Forgot
02. Congregation of Snakes
03. The Culling
04. Venom Sermon
05. Divine Punishment
06. Supervoid
07. Communion
08. New Age Enthrallment
09. Despotism
10. Sacrilege
11. Branded
12. Regime Dismemberment (feat. Brandon Venard)
13. Zero Tolerance
14. Abrogate (feat. Dakota Rivera of a Scarlet Gospel & Hellthorne)
15. The Apophis Solution
******************************
Total playing time: 1:18:45





[more=Technical info]
Input File: 02. Congregation of Snakes.mp3
Channels : 2
Sample Rate : 44100
Precision : 16-bit
Duration : 00:05:37.24 = 14872108 samples = 25292.7 CDDA sectors
File Size : 13.6M
Bit Rate : 323k
Sample Encoding: MPEG audio (layer I, II or III)
Comments :
Title=Congregation of Snakes
Artist=Becoming Akh
Album=The Apophis Solution
Tracknumber=2/15
Year=2019
Genre=9
Discnumber=1/1

[/more]

Register
(6) Antkh, artscald, infiltrator, kimkayoung, Olethros, Rosen,
Sep 19 2019, 14:55:51 Distaste - Deibel (2019)


*Artist: Distaste
*Album: Deibel
*Year: 2019
*Genre: Grindcore
*Country: Austria
*Format: mp3@CBR320kbps
*Size: 74MB

Tracklist:
01. Positionsresistent
02. Judas
03. Staubgeboren
04. Versuskalibriert
05. Gesagt, getan
06. Deibel
07. Die spinnen, die Römer 13:1-7
08. Patriarchetyp
09. Mutter
10. Wermutstropfen
11. Parlamentarische Pleonexie
12. Bestätigungssubjektivität
13. Omnipotent
14. Der Rote Winter
15. Der Gerät
******************************
Total playing time: 32:11





[more=Technical info]
Input File: 02 Judas.mp3
Channels : 2
Sample Rate : 44100
Precision : 16-bit
Duration : 00:00:00.09 = 4145 samples = 7.04932 CDDA sectors
File Size : 4.28M
Bit Rate : 364M
Sample Encoding: MPEG audio (layer I, II or III)
Comments :
Title=Judas
Artist=Distaste
Album=Deibel
Tracknumber=2/15
Year=2019
Genre=Metal
Discnumber=1/1

[/more]

Register
(9) A.L.Rapsod, artscald, atavist, infiltrator, Olethros, Rosen, SatanicPanzer, Zhelezjaka, Герб,
Sep 19 2019, 14:46:05 Giant Sleeper - Eternal Migration [ep] (2019)


*Artist: Giant Sleeper
*Album: Eternal Migration [ep]
*Year: 2019
*Genre: Progressive Metal
*Country: Costa Rica
*Format: mp3@CBR320kbps
*Size: 63MB

Tracklist:
01. Mountainhead 05:01
02. The Awakening 06:14
03. Eternal Migration 06:51
04. Valley of Whales 04:40
05. The Observer 04:56
******************************
Total playing time: 27:42



[more=Technical info]
Input File: 02. The Awakening.mp3
Channels : 2
Sample Rate : 44100
Precision : 16-bit
Duration : 00:06:13.60 = 16475804 samples = 28020.1 CDDA sectors
File Size : 15.0M
Bit Rate : 321k
Sample Encoding: MPEG audio (layer I, II or III)
Comments :
Title=The Awakening
Artist=Giant Sleeper
Album=Eternal Migration
Tracknumber=2/5
Year=2019
Genre=9
Discnumber=1/1

[/more]

Register
(8) artscald, aviacademy, infiltrator, metala, MMMMM, Olethros, Rosen, Yarri,
Sep 19 2019, 14:30:19 Pangaea - Vespr (2019)


*Artist: Pangaea
*Album: Vespr
*Year: 2019
*Genre: Technical/Progressive Metal
*Country: United States
*Format: mp3@CBR320kbps
*Size: 110MB

Tracklist:
01. Survivor's Guilt
02. Denial
03. Eighteen Nights
04. A Gateway to Nothing
05. Seen in Parallel
06. Black Tower
07. Acceptance
08. The Vespr Session
******************************
Total playing time: 47:55





[more=Technical info]
Input File: 2 - Denial.mp3
Channels : 2
Sample Rate : 44100
Precision : 16-bit
Duration : 00:01:36.92 = 4274128 samples = 7268.93 CDDA sectors
File Size : 3.92M
Bit Rate : 324k
Sample Encoding: MPEG audio (layer I, II or III)
Comments :
Title=Denial
Artist=Pangaea
Album=Vespr
Tracknumber=2
Year=2019
Genre=Alternative/Indie Rock/Metal
Discnumber=1

[/more]

Register
(10) AHBAnep, artscald, infiltrator, kimkayoung, metala, Morgoth, Olethros, Ostinato, Rosen, Witchmaster,
Sep 19 2019, 14:20:52 Necrowar - All Trajectory (2019)


*Artist: Necrowar
*Album: All Trajectory
*Year: 2019
*Genre: Death Metal
*Country: Brazil
*Format: mp3@CBR320kbps
*Size: 137MB

Tracklist:
01. Libya 2019 00:37
02. Reality of Apocalypse 03:43
03. Killing a Blind 03:42
04. Victims of Ambition 04:37
05. Revolt 02:20
06. Blood War 06:12
07. Fruits of Greed 04:42
08. Venezuela 2019 00:48
09. Endless Sacrifice 04:07
10. Save World 04:13
11. Verdict 04:38
12. Open Now Brain 04:01
13. Alone 03:58
14. Gulf 1991 01:24
15. Uncertainties 06:44
16. The End 03:23
******************************
Total playing time: 59:09






[more=Technical info]
Input File: 02. Reality of Apocalypse.mp3
Channels : 2
Sample Rate : 44100
Precision : 16-bit
Duration : 00:03:43.36 = 9850264 samples = 16752.1 CDDA sectors
File Size : 9.04M
Bit Rate : 324k
Sample Encoding: MPEG audio (layer I, II or III)
Comments :
Title=Reality of Apocalypse
Artist=Necrowar
Album=All Trajectory
Tracknumber=2/16
Year=2019
Genre=9
Discnumber=1/1

[/more]

Register
(9) 666kolobok666, artscald, atavist, infiltrator, infozahist, metala, Olethros, Rosen, VALERY,

1380 Pages V   1 2 3 > » 
- Lo-Fi Version Support form
Copyrights and abuse reports form
Time is now: 21st September 2019 - 11:54:00