Welcome Guest ( Log In | Register )

История благодарностей участнику necroscum ::: Спасибо сказали: 432032 раз(а)
Дата поста: В теме: За сообщение: Спасибо сказали:
May 7 2021, 13:59:07 Noctysmal - Stella Moriens [ep] (2021)


*Artist: Noctysmal
*Album: Stella Moriens [ep]
*Year: 2021
*Genre: Atmospheric Black Metal
*Country: United States
*Format: mp3@CBR320kbps
*Size: 59MB

Tracklist:
01. Ab Immemorabili 03:31
02. Channeling Light from Aeons Ago 05:32
03. SAO 245567 - Ode to a Dying Star 03:02
04. Watchers 02:46
05. Extensum Spatii et Temporis 11:11
******************************
Total playing time: 26:02


Preview 2



[more=Extended info]Exclusive for Metalarea.org[/more]

[more=Technical info]
Input File: 02 - Channeling Light From Aeons Ago.mp3
Channels : 2
Sample Rate : 44100
Precision : 16-bit
Duration : 00:05:32.00 = 14641200 samples = 24900 CDDA sectors
File Size : 13.4M
Bit Rate : 324k
Sample Encoding: MPEG audio (layer I, II or III)
Comments :
Title=Channeling Light From Aeons Ago
Artist=Noctysmal
Album=Stella Moriens
Tracknumber=2
Year=2021-01-13
Genre=Metal
Discnumber=1

[/more]

Register
(12) aleon, infiltrator, kim666, kimkayoung, Lukittaz, Ostinato, robertho777, satanist666, sergsazan, SilentNidhogg, undeadlich, VALERY,
May 7 2021, 13:49:04 Sete Star Sept - Bird [ep] (2021)


*Artist: Sete Star Sept
*Album: Bird [ep]
*Year: 2021
*Genre: Grindcore/Noisegrind
*Country: Japan
*Format: mp3@CBR320kbps
*Size: 22MB

Tracklist:
01. Fear To Cross 00:28
02. Third World 00:54
03. Atonement For Sin 00:39
04. Distorted Reality 00:48
05. Rigid Body 00:52
06. Be Screened 00:36
07. Process Of Evolution 00:38
08. Chopped Contract 00:35
09. Silk Thread 00:33
10. Fake Tenderness 00:29
11. Evolved Murderer 00:30
12. Far North Door 00:41
13. Awakening The Ego 00:31
14. God's Breath 00:36
******************************
Total playing time: 8:50



Preview 3
Preview 4


[more=Extended info]Exclusive for Metalarea.org[/more]

[more=Technical info]
Input File: 02 - Third World.mp3
Channels : 2
Sample Rate : 44100
Precision : 16-bit
Duration : 00:00:54.00 = 2381400 samples = 4050 CDDA sectors
File Size : 2.28M
Bit Rate : 338k
Sample Encoding: MPEG audio (layer I, II or III)
Comments :
Title=Third World
Artist=SETE STAR SEPT
Album=Bird
Tracknumber=2
Year=2021-02-02
Genre=Rap/Hip Hop/Rock
Discnumber=1

[/more]

Register
(4) craP_cillA, infiltrator, kefka, Zhelezjaka,
May 7 2021, 13:19:46 Jute Gyte - Mitrealität (2021)


*Artist: Jute Gyte
*Album: Mitrealität
*Year: 2021
*Genre: Experimental Black Metal/Ambient
*Country: United States
*Format: mp3@CBR320kbps
*Size: 158MB

Tracklist:
01. The Griding Sword with Discontinuous Wound 16:53
02. Prometheus Ends in Onan 12:12
03. Οφιούχος 10:40
04. Mitrealität 18:40
05. Pentalpha 09:47
******************************
Total playing time: 1:08:12





[more=Technical info]
Input File: Jute Gyte - Mitrealität - 02 Prometheus Ends in Onan.mp3
Channels : 2
Sample Rate : 44100
Precision : 16-bit
Duration : 00:12:12.75 = 32314231 samples = 54956.2 CDDA sectors
File Size : 29.5M
Bit Rate : 322k
Sample Encoding: MPEG audio (layer I, II or III)
Comments :
Title=Prometheus Ends in Onan
Artist=Jute Gyte
Album=Mitrealität
Tracknumber=2
Year=2021

[/more]

Register
(11) ENDSMOUTH, HMHamster, infiltrator, kimkayoung, kolar666, lunaraurora, Reverend, robertho777, Sanctus, SilentNidhogg, VALERY,
May 6 2021, 13:52:56 Violet Cold - Empire Of Love (2021)


*Artist: Violet Cold
*Album: Empire Of Love
*Year: 2021
*Genre: Experimental Black Metal
*Country: Azerbaijan
*Format: mp3@CBR320kbps
*Size: 87MB

Tracklist:
01. Cradle 02:27
02. Pride 05:00
03. Be Like Magic 05:30
04. We Met During The Revolution 05:15
05. Shegnificant 05:08
06. Working Class 03:42
07. Togetherness 06:14
08. Life Dimensions 04:51
******************************
Total playing time: 38:07



[more=Technical info]
Input File: Violet Cold - Empire Of Love - 02 Pride.mp3
Channels : 2
Sample Rate : 44100
Precision : 16-bit
Duration : 00:05:00.09 = 13233749 samples = 22506.4 CDDA sectors
File Size : 12.0M
Bit Rate : 321k
Sample Encoding: MPEG audio (layer I, II or III)
Comments :
Title=Pride
Artist=Violet Cold
Album=Empire Of Love
Tracknumber=2
Year=2021

[/more]

Register
(16) Aynekko, craP_cillA, HMHamster, infiltrator, JP_Belmont, kim666, kimkayoung, Lionheart-P, metala, nadin85, Olethros, regorgitated, robertho777, Shadechaser, VALERY, Авел,
May 6 2021, 12:37:46 Marius Danielsen's Legend Of Valley Doom - Marius Danielsen's Legend Of Valley Doom Part 3 (2021)


*Artist: Marius Danielsen's Legend Of Valley Doom
*Album: Marius Danielsen's Legend Of Valley Doom Part 3
*Year: 2021
*Genre: Symphonic Power Metal
*Country: Norway
*Format: mp3@CBR320kbps
*Size: 182MB

Tracklist:
01. Seven Ancient Artefacts 05:35
02. Journey to the North 04:12
03. The Ballad of Arnoth the Wild 06:06
04. Mines of Eloroth 05:28
05. Battle for Eloroth 03:52
06. March into the Storm 06:18
07. Bane of Lord Cremortius 08:46
08. The Sarlinian Bow 08:28
09. Deep in the Mountain 06:55
10. Tomb of the Fallen Kings 06:31
11. Stars Will Light the Way 05:01
12. For Our King and for Our Land 09:09
******************************
Total playing time: 1:16:21



Preview 3


[more=Technical info]
Input File: 02. Journey to the North.mp3
Channels : 2
Sample Rate : 44100
Precision : 16-bit
Duration : 00:04:12.20 = 11122020 samples = 18915 CDDA sectors
File Size : 10.7M
Bit Rate : 338k
Sample Encoding: MPEG audio (layer I, II or III)
Comments :
Title=Journey to the North
Artist=Marius Danielsen, Elisa C. Martín, Raphael Mendes, Jonas Heidgert, Ronni Le Tekro, Arnaud Menard
Album=Legend of Valley Doom, Pt. 3
Tracknumber=2/12
Year=2021
Genre=Alternative
Discnumber=1/1

[/more]

Register
(14) ace73pq, boby9052, chipsgott, Darkness, djsema4, DragonDragon, gwar, Herrant, HMHamster, infiltrator, Olethros, sergsazan, zhol, Сварог Барг,
May 6 2021, 11:54:05 False Memories - The Last Night Of Fall (2021)


*Artist: False Memories
*Album: The Last Night Of Fall
*Year: 2021
*Genre: Gothic/Dark Metal
*Country: Italy
*Format: mp3@CBR320kbps
*Size: 112MB

Tracklist:
01. Black Shades 04:33
02. Rain of Souls 04:33
03. Voices 04:50
04. Hysteria 04:40
05. The Illusionist 04:23
06. Erased 04:14
07. White Crows 04:36
08. Unfaithful Dream 04:32
09. Sea of Nothingness 04:33
10. Deep Breath 03:17
11. Don't Forget 04:40
******************************
Total playing time: 48:51


Preview 2


[more=Technical info]
Input File: 02. Rain of Souls.mp3
Channels : 2
Sample Rate : 44100
Precision : 16-bit
Duration : 00:04:33.23 = 12049399 samples = 20492.2 CDDA sectors
File Size : 10.9M
Bit Rate : 320k
Sample Encoding: MPEG audio (layer I, II or III)
Comments :
Title=Rain of Souls
Artist=False Memories
Album=The Last Night of Fall
Tracknumber=02
Year=2021-21-20
Discnumber=1

[/more]

Register
(11) ace73pq, HMHamster, Ice Gnoll, infiltrator, kimkayoung, metala, Olethros, robertho777, rominow, sadmannn, VALERY,
May 4 2021, 14:11:41 Monasteries - Silence [ep] (2020)


*Artist: Monasteries
*Album: Silence [ep]
*Year: 2020
*Genre: Progressive/Technical Deathcore
*Country: United Kingdom
*Format: mp3@CBR320kbps
*Size: 50MB

Tracklist:
01. Jorogumo Yokai 04:43
02. One Minute To Midnight 03:11
03. Digital Suicide 03:33
04. Allowing Your Traitors To Die 04:21
05. Silence (In The Place Where Heaven Should Be Found) 04:19
******************************
Total playing time: 20:07





[more=Technical info]
Input File: 02 One Minute to Midnight.mp3
Channels : 2
Sample Rate : 44100
Precision : 16-bit
Duration : 00:03:11.88 = 8462040 samples = 14391.2 CDDA sectors
File Size : 8.41M
Bit Rate : 351k
Sample Encoding: MPEG audio (layer I, II or III)
Comments :
Title=One Minute to Midnight
Artist=Monasteries
Album=Silence
Tracknumber=2/5
Year=2021-21-20
Genre=Metal
Discnumber=1/1

[/more]

Register
(7) CletusVII, infiltrator, kimkayoung, Marek, metala, Olethros, Sanctus,
May 4 2021, 14:03:10 Prekurxor - Seasons None Live To Tell [ep] (2020)


*Artist: Prekurxor
*Album: Seasons None Live To Tell [ep]
*Year: 2020
*Genre: Black Metal
*Country: Singapore
*Format: mp3@CBR320kbps
*Size: 23MB

Tracklist:
01. Tribune of All Fates 03:46
02. Seasons None Live to Tell 05:54
******************************
Total playing time: 9:40



[more=Technical info]
Input File: Prekurxor - Seasons None Live To Tell - 02 Seasons None Live To Tell.mp3
Channels : 2
Sample Rate : 44100
Precision : 16-bit
Duration : 00:05:55.05 = 15657661 samples = 26628.7 CDDA sectors
File Size : 14.3M
Bit Rate : 322k
Sample Encoding: MPEG audio (layer I, II or III)
Comments :
Title=Seasons None Live To Tell
Artist=Prekurxor
Album=Seasons None Live To Tell
Tracknumber=2
Year=2020

[/more]

Register
(7) infiltrator, Olethros, Sanctus, satanist666, SilentNidhogg, VALERY, vasiljev_sergej,
Apr 30 2021, 13:35:20 Goblin - Appearance Out Of Nowhere (2021)


*Artist: Goblin
*Album: Appearance Out Of Nowhere
*Year: 2021
*Genre: Black Metal
*Country: Chile
*Format: mp3@CBR320kbps
*Size: 86MB

Tracklist:
01. Pact with God 01:57
02. Appearance out of Nowhere 03:12
03. Immerse in a Strange Sensation 05:44
04. The Hill 03:25
05. Infected 03:33
06. Starting the Last Phase 02:18
07. Trapped 02:04
80. A Lugubrious Melody 02:38
09. Obscured by Reality 05:28
10. Final (outro) 03:05
******************************
Total playing time: 33:24





[more=Technical info]
Input File: Goblin - Appearance out of nowhere - 03 Immerse in a strange sensation.mp3
Channels : 2
Sample Rate : 44100
Precision : 16-bit
Duration : 00:05:45.02 = 15215294 samples = 25876.4 CDDA sectors
File Size : 14.0M
Bit Rate : 324k
Sample Encoding: MPEG audio (layer I, II or III)
Comments :
Title=Immerse in a strange sensation
Artist=Goblin
Album=Appearance out of nowhere
Tracknumber=3
Year=2020

[/more]

Register
(21) AlexSmith, atavist, cesar, dcatagua, HMHamster, infiltrator, judaz, kim666, metaljosue, multizwilling, Olethros, Reverend, Rover, satanist666, SilentNidhogg, suseka, toly1917, unit731, VALERY, varlam4, Wail,
Apr 29 2021, 14:20:03 Dreams In Fragments - When Echoes Fade (2021)


*Artist: Dreams In Fragments
*Album: When Echoes Fade
*Year: 2021
*Genre: Symphonic Metal
*Country: Switzerland
*Format: mp3@CBR320kbps
*Size: 129MB

Tracklist:
01. Hey You 04:27
02. Nightmare 04:32
03. Rage and Fire 03:44
04. By the Sea Forever 04:11
05. Bulletproof 04:22
06. To Avalon 04:57
07. She's the Fall 04:48
08. The Queen's Crown 04:27
09. We Shout Again 04:15
10. The Mind's Abyss 04:38
11. Showgirl 05:10
12. Own the Night 03:59
******************************
Total playing time: 53:30


Preview 2


[more=Technical info]
Input File: 02 - Nightmare.mp3
Channels : 2
Sample Rate : 44100
Precision : 16-bit
Duration : 00:04:32.00 = 11995200 samples = 20400 CDDA sectors
File Size : 11.1M
Bit Rate : 326k
Sample Encoding: MPEG audio (layer I, II or III)
Comments :
Title=Nightmare
Artist=Dreams In Fragments
Album=When Echoes Fade
Tracknumber=2
Year=2021-30-04
Discnumber=1

[/more]

Register
(15) ace73pq, Alpha_Prime, aviacademy, caro, Cartman223, chipsgott, gwar, infiltrator, Lukittaz, metala, Olethros, postal67, Rover, sergsazan, Сварог Барг,
Apr 29 2021, 14:05:48 Zombie Mortician - Guardian Of The Dead (2021)


*Artist: Zombie Mortician
*Album: Guardian Of The Dead
*Year: 2021
*Genre: Death/Black Metal/Grindcore
*Country: Norway
*Format: mp3@CBR320kbps
*Size: 113MB

Tracklist:
01. Guardian of the Dead 05:06
02. Wounded to the Bones 04:10
03. Bloody Flesh on the Cross 05:20
04. Scream of Terror 04:30
05. Cracked Skull 05:12
06. Come in the Flesh 04:09
07. Darkness Is Past 04:59
08. These Three Are One 05:27
09. Be with Us for Ever 04:10
10. Bless Them That Curse You 05:54
******************************
Total playing time: 48:57




[more=Technical info]
Input File: Zombie Mortician - Guardian Of The Dead (demo) - 02 Wounded To The Bones.mp3
Channels : 2
Sample Rate : 44100
Precision : 16-bit
Duration : 00:04:10.58 = 11050578 samples = 18793.5 CDDA sectors
File Size : 10.1M
Bit Rate : 322k
Sample Encoding: MPEG audio (layer I, II or III)
Comments :
Title=Wounded To The Bones
Artist=Zombie Mortician
Album=Guardian Of The Dead (demo)
Tracknumber=2
Year=2021

[/more]

Register
(11) atavist, caro, infiltrator, metala, multizwilling, Occultas, Olethros, suseka, VALERY, varlam4, vyacheslav,
Apr 29 2021, 13:41:09 Ironbound - The Lightbringer (2021)


*Artist: Ironbound
*Album: The Lightbringer
*Year: 2021
*Genre: Heavy Metal
*Country: Poland
*Format: mp3@CBR320kbps
*Size: 111MB

Tracklist:
01. Far Away 01:06
02. The Witch Hunt 04:37
03. When Eagles Fly 05:30
04. Smoke and Mirrors 06:52
05. The Lightbringer 04:28
06. Children Left by God 06:38
07. The Turn of the Tide 06:36
08. Light Up the Skies 05:21
09. Beyond the Horizon 05:08
******************************
Total playing time: 46:16





[more=Technical info]
Input File: 02 - The Witch Hunt.mp3
Channels : 2
Sample Rate : 44100
Precision : 16-bit
Duration : 00:04:37.00 = 12215700 samples = 20775 CDDA sectors
File Size : 11.3M
Bit Rate : 327k
Sample Encoding: MPEG audio (layer I, II or III)
Comments :
Title=The Witch Hunt
Artist=Ironbound
Album=The Lightbringer
Tracknumber=2
Year=2021-30-04
Discnumber=1

[/more]

Register
(16) BugEyes, caro, cesar, eyes0re, HMHamster, infiltrator, Lukittaz, Marek, metala, MеtalHead, Olethros, Olrak, Rover, stumpheavyrock, wgs73, zaqxsw,
Apr 29 2021, 13:18:32 Marcelo Souza - Human Vs Machine (2021)


*Artist: Marcelo Souza
*Album: Human Vs Machine
*Year: 2021
*Genre: Instrumental/Progressive Metal
*Country: Brazil
*Format: mp3@CBR320kbps
*Size: 87MB

Tracklist:
01. Duel of Serpents 04:08
02. Human vs Machine 05:02
03. Take a Chance 03:59
04. Secret Code 05:02
05. Stronger 04:51
06. High Tension 03:13
07. Artificial Intelligence 01:39
08. Dangerous Game 04:52
09. 74' White Maverick 03:36
10. Tomorrow 01:34
******************************
Total playing time: 37:56




[more=Technical info]
Input File: 04. Secret Code.mp3
Channels : 2
Sample Rate : 44100
Precision : 16-bit
Duration : 00:05:02.47 = 13338707 samples = 22684.9 CDDA sectors
File Size : 12.2M
Bit Rate : 322k
Sample Encoding: MPEG audio (layer I, II or III)
Comments :
Title=Secret Code
Artist=Marcelo Souza
Album=Human Vs Machine
Tracknumber=04/10
Year=2021-04-23
Discnumber=1

[/more]

Register
(8) caro, cesar, infiltrator, kimkayoung, metala, Olethros, Луч, Сварог Барг,
Apr 29 2021, 13:07:26 Bloody Hell - The Bloodening (2021)


*Artist: Bloody Hell
*Album: The Bloodening
*Year: 2021
*Genre: Heavy Metal
*Country: Finland
*Format: mp3@CBR320kbps
*Size: 138MB

Tracklist:
01. Hangover Rider 04:37
02. Face in Hell 04:02
03. The Undertaker 04:54
04. In the Night We Burn 04:30
05. Smoking 05:16
06. What the Hell 04:11
07. Burn Witch Burn 03:57
08. Murders She Wrote 05:01
09. Midnight Man 03:43
10. Long Road to Hell 05:32
11. Bite 04:24
12. Kiasma (The Museum of Modern Art) 07:03
******************************
Total playing time: 57:10





[more=Technical info]
Input File: 02 - Face In Hell.mp3
Channels : 2
Sample Rate : 44100
Precision : 16-bit
Duration : 00:04:02.00 = 10672200 samples = 18150 CDDA sectors
File Size : 9.91M
Bit Rate : 327k
Sample Encoding: MPEG audio (layer I, II or III)
Comments :
Title=Face In Hell
Artist=Bloody Hell
Album=The Bloodening
Tracknumber=2
Year=2021-30-04
Discnumber=1

[/more]

Register
(18) BugEyes, caro, cesar, Darkness, DTGB, HMHamster, infiltrator, LightWizard, Lukittaz, Marek, metala, MеtalHead, Olethros, Rover, stumpheavyrock, varlam4, wgs73, Xtohar,
Apr 29 2021, 12:56:23 Axewitch - Out Of The Ashes Into The Fire (2021)


*Artist: Axewitch
*Album: Out Of The Ashes Into The Fire
*Year: 2021
*Genre: Heavy Metal
*Country: Sweden
*Format: mp3@CBR320kbps
*Size: 139MB

Tracklist:
01. The Pusher 04:04
02. In Pitch Black Darkness 05:33
03. Dues to Pay 05:34
04. Let Sleeping Dogs Lie 04:30
05. Boogie of Death 04:52
06. Losing You 04:57
07. Going Down 05:31
08. The Healer 05:11
09. Lie to Me 04:51
10. Violator 04:25
11. Nightmare (Bonus Track) 05:03
12. Axewitch (Bonus Track )03:21
******************************
Total playing time: 57:52




[more=Technical info]
Input File: 02 - In Pitch Black Darkness.mp3
Channels : 2
Sample Rate : 44100
Precision : 16-bit
Duration : 00:05:32.00 = 14641200 samples = 24900 CDDA sectors
File Size : 13.5M
Bit Rate : 326k
Sample Encoding: MPEG audio (layer I, II or III)
Comments :
Title=In Pitch Black Darkness
Artist=Axewitch
Album=Out Of The Ashes Into The Fire
Tracknumber=2
Year=2021-30-04
Discnumber=1

[/more]

Register
(18) andreikun, canadaspaceman, caro, DTGB, HMHamster, infiltrator, Lukittaz, Marek, metala, Olethros, postal67, Rover, sergsazan, stumpheavyrock, varlam4, vir2al, Wail, Сварог Барг,
Apr 29 2021, 12:32:34 Temtris - Ritual Warfare (2021)


*Artist: Temtris
*Album: Ritual Warfare
*Year: 2021
*Genre: Heavy Metal
*Country: Australia
*Format: mp3@CBR320kbps
*Size: 103MB

Tracklist:
01. Race To The End
02. One For All
03. Seven Sins Of Man
04. Forever
05. Ritual Warfare
06. Tempus Aeturnum
07. Erased
08. Always United
******************************
Total playing time: 44:51






[more=Technical info]
Input File: 02 - One for All.mp3
Channels : 2
Sample Rate : 44100
Precision : 16-bit
Duration : 00:05:28.00 = 14464800 samples = 24600 CDDA sectors
File Size : 13.3M
Bit Rate : 325k
Sample Encoding: MPEG audio (layer I, II or III)
Comments :
Title=One for All
Artist=Temtris
Album=Ritual Warfare
Tracknumber=2
Year=2021-30-04
Genre=GetMetal.club
Discnumber=1

[/more]

Register
(13) andreikun, BugEyes, caro, HMHamster, infiltrator, Lukittaz, Marek, metala, Olethros, Olrak, Rover, stumpheavyrock, Сварог Барг,
Apr 29 2021, 11:57:50 Witchbound - End Of Paradise (2021)


*Artist: Witchbound
*Album: End Of Paradise
*Year: 2021
*Genre: Heavy Metal
*Country: Germany
*Format: mp3@CBR320kbps
*Size: 137MB

Tracklist:
01. Prelude
02. Battle Of Kadesh
03. Interstellar Odyssey
04. End Of Paradise
05. Carved In Stone
06. Flags Of Freedom
07. Torquemada
08. Nevermore
09. Last Divide
10. Sea Of Sorrow
11. Foreign Shores
12. Dance Of The Dead
13. These Tears
14. As Long As We Can Rock
15. Our Hope
******************************
Total playing time: 59:34


Preview 2


[more=Technical info]
Input File: 02 - Battle of Kadesh.mp3
Channels : 2
Sample Rate : 44100
Precision : 16-bit
Duration : 00:03:34.00 = 9437400 samples = 16050 CDDA sectors
File Size : 8.71M
Bit Rate : 326k
Sample Encoding: MPEG audio (layer I, II or III)
Comments :
Title=Battle of Kadesh
Artist=Witchbound
Album=End of Paradise
Tracknumber=2
Year=2021-30-04
Genre=GetMetal.club
Discnumber=1

[/more]

Register
(16) AHBAnep, Boozer, caro, cesar, Darkness, DTGB, HMHamster, infiltrator, Lukittaz, Marek, metala, metalfaze, Olethros, Rover, stumpheavyrock, Сварог Барг,
Apr 29 2021, 11:41:07 Poverty's No Crime - A Secret To Hide (2021)


*Artist: Poverty's No Crime
*Album: A Secret To Hide
*Year: 2021
*Genre: Progressive Metal
*Country: Germany
*Format: mp3@CBR320kbps
*Size: 141MB

Tracklist:
01. Supernatural 08:01
02. Hollow Phrases 06:15
03. Flesh and Bone 07:09
04. Grey to Green 08:46
05. Within the Veil 06:35
06. The Great Escape 06:09
07. Schizophrenic 06:13
08. In the Shade 10:13
******************************
Total playing time: 59:21





[more=Technical info]
Input File: 02 - Hollow Phrases.mp3
Channels : 2
Sample Rate : 44100
Precision : 16-bit
Duration : 00:06:15.00 = 16537500 samples = 28125 CDDA sectors
File Size : 15.2M
Bit Rate : 324k
Sample Encoding: MPEG audio (layer I, II or III)
Comments :
Title=Hollow Phrases
Artist=Poverty's No Crime
Album=A Secret To Hide
Tracknumber=2
Year=2021-30-04
Discnumber=1

[/more]

Register
(20) ace73pq, andgrek28, boby9052, caro, HMHamster, infiltrator, Jorn777, kimkayoung, Lukittaz, Marek, metala, MMMMM, Ogidni, Olethros, Postal, Rhoads, Rover, sadmannn, Shadowman, ZamanFu,
Apr 29 2021, 11:28:10 Vreid - Wild North West (2021)


*Artist: Vreid
*Album: Wild North West
*Year: 2021
*Genre: Melodic Black Metal
*Country: Norway
*Format: mp3@CBR320kbps
*Size: 106MB

Tracklist:
01. Wild North West 05:23
02. Wolves at Sea 05:14
03. The Morning Red 05:42
04. Shadows of Aurora 05:20
05. Spikes of God 04:10
06. Dazed and Reduced 04:55
07. Into the Mountains 05:20
08. Shadowland 09:53
******************************
Total playing time: 45:57







[more=Technical info]
Input File: 02 - Wolves at Sea.mp3
Channels : 2
Sample Rate : 44100
Precision : 16-bit
Duration : 00:05:14.00 = 13847400 samples = 23550 CDDA sectors
File Size : 12.7M
Bit Rate : 324k
Sample Encoding: MPEG audio (layer I, II or III)
Comments :
Title=Wolves at Sea
Artist=Vreid
Album=Wild North West
Tracknumber=2
Year=2021-04-30
Genre=Металл
Discnumber=1

[/more]

Register
(51) AlexSmith, andeimon, atavist, BugEyes, cancer1974, caro, Constantinus I, DarkHorde, ForzaMinardi1977, garml2, Golodomor, hazel78, infiltrator, JD666Hellion, Jorn777, judaz, Kasper969, kim666, kimkayoung, kryptor, Lukittaz, MadCarrot, madera, Marek, Mencae77, metala, MMMMM, nemx, quicksand, Reverend, ripper33, robertho777, Rover, sergsazan, Shadechaser, SilentNidhogg, Sjelekval, StabWound, suseka, TeamatSE, thenecromancer, tim47, toly1917, VALERY, varlam4, wtk.412, xska, yuratroll, ZambuL, zhol, Сварог Барг,
Apr 28 2021, 14:18:50 Akvan - Two Centuries Ov Silence/دو قرن سکوت [ep] (2020)


*Artist: Akvan
*Album: Two Centuries Ov Silence/دو قرن سکوت [ep]
*Year: 2020
*Genre: Folk/Black Metal
*Country: Iran
*Format: mp3@CBR320kbps
*Size: 53MB

Tracklist:
01. انتقام فریدون / Fereydoon's Revenge 06:30
02. اسفندیار / Esfandiyar 06:20
03. شکوه بربد / Barbad's Glory 02:37
04. آپرانیک / Apranik 06:33
******************************
Total playing time: 22:00





[more=Technical info]
Input File: اکوان (Akvan) - Two Centuries of Silence - دو قرن سکوت - 02 اسفندیار - Esfandiyar.mp3
Channels : 2
Sample Rate : 44100
Precision : 16-bit
Duration : 00:06:20.18 = 16765982 samples = 28513.6 CDDA sectors
File Size : 15.5M
Bit Rate : 325k
Sample Encoding: MPEG audio (layer I, II or III)
Comments :
Title=اسفندیار / Esfandiyar
Artist=اکوان (Akvan)
Album=Two Centuries of Silence / دو قرن سکوت
Tracknumber=2
Year=2020

[/more]

Register
(15) Cartman223, Femto, gwar, HMHamster, infiltrator, kimkayoung, Lucju, Lukittaz, Shadechaser, talismanFS, thenecromancer, VALERY, varlam4, Авел, Сварог Барг,
Apr 28 2021, 14:03:25 Jute Gyte - Helian [compilation] (2021)


*Artist: Jute Gyte
*Album: Helian [compilation]
*Year: 2021
*Genre: Experimental Black Metal/Ambient
*Country: United States
*Format: mp3@CBR320kbps
*Size: 120MB

Tracklist:
01. Helian I 19:52
02. Helian II 16:20
03. Helian III 14:54
******************************
Total playing time: 51:06





[more=Technical info]
Input File: Jute Gyte - Helian - 02 Helian II.mp3
Channels : 2
Sample Rate : 44100
Precision : 16-bit
Duration : 00:16:20.12 = 43223116 samples = 73508.7 CDDA sectors
File Size : 39.4M
Bit Rate : 322k
Sample Encoding: MPEG audio (layer I, II or III)
Comments :
Title=Helian II
Artist=Jute Gyte
Album=Helian
Tracknumber=2
Year=2021

[/more]

Register
(9) CletusVII, infiltrator, kimkayoung, LordOvDarkness, marilin, Reverend, robertho777, VALERY, varlam4,
Apr 27 2021, 14:16:11 Jute Gyte - Laocoön [compilation] (2021)


*Artist: Jute Gyte
*Album: Laocoön [compilation]
*Year: 2021
*Genre: Experimental Black Metal/Ambient
*Country: United States
*Format: mp3@CBR320kbps
*Size: 139MB

Tracklist:
01. The Night Door Under Lock and Key 20:00
02. Funereal Like a Life in Wait 19:54
03. Laocoön 19:55
******************************
Total playing time: 59:49





[more=Technical info]
Input File: Jute Gyte - Laocoön - 02 Funereal Like a Life in Wait.mp3
Channels : 2
Sample Rate : 44100
Precision : 16-bit
Duration : 00:19:54.38 = 52672334 samples = 89578.8 CDDA sectors
File Size : 47.9M
Bit Rate : 321k
Sample Encoding: MPEG audio (layer I, II or III)
Comments :
Title=Funereal Like a Life in Wait
Artist=Jute Gyte
Album=Laocoön
Tracknumber=2
Year=2021

[/more]

Register
(8) Boozer, infiltrator, marilin, Reverend, SilentNidhogg, uncolored, VALERY, varlam4,
Apr 22 2021, 14:13:56 Left To Suffer - On Death [ep] (2021)


*Artist: Left To Suffer
*Album: On Death [ep]
*Year: 2021
*Genre: Deathcore
*Country: United States
*Format: mp3@CBR320kbps
*Size: 48MB

Tracklist:
01. Event
02. Denial (feat. Ryo Kinoshita of Crystal Lake)
03. Anger
04. Bargaining (feat. Lochie Keogh of Alpha Wolf)
05. Depression
06. Death (feat. Tom Barber of Chelsea Grin / Darko US)
******************************
Total playing time: 21:13




[more=Technical info]
Input File: 02. Denial (feat. Ryo Kinoshita of Crystal Lake).mp3
Channels : 2
Sample Rate : 44100
Precision : 16-bit
Duration : 00:02:43.80 = 7223404 samples = 12284.7 CDDA sectors
File Size : 6.55M
Bit Rate : 320k
Sample Encoding: MPEG audio (layer I, II or III)
Comments :
Title=Denial (feat. Ryo Kinoshita of Crystal Lake)
Artist=Left to Suffer
Album=On Death
Tracknumber=02/06
Year=2021-21-20
Discnumber=1/1

[/more]

Register
(6) chipsgott, infiltrator, Marek, Olethros, sludge666, varlam4,
Apr 22 2021, 14:00:38 Nexus Opera - La Guera Granda (The Great Call To Arms) (2021)


*Artist: Nexus Opera
*Album: La Guera Granda (The Great Call To Arms)
*Year: 2021
*Genre: Power Metal
*Country: Italy
*Format: mp3@CBR320kbps
*Size: 136MB

Tracklist:
01. Great Call to Arms 05:31
02. Strafexpedition 06:25
03. Raid Over Vienna 04:27
04. M.A.S. 05:15
05. Dreams Fade Away 05:53
06. Trenches 06:44
07. The Mine 05:34
08. The River 04:56
09. If Even the Sky Burns 07:08
10. Ignoto Militi 04:52
******************************
Total playing time: 56:45


Preview 2


[more=Technical info]
Input File: 02 - Strafexpedition.mp3
Channels : 2
Sample Rate : 44100
Precision : 16-bit
Duration : 00:06:25.00 = 16978500 samples = 28875 CDDA sectors
File Size : 15.6M
Bit Rate : 325k
Sample Encoding: MPEG audio (layer I, II or III)
Comments :
Title=Strafexpedition
Artist=Nexus Opera
Album=La Guera Granda (The Great Call To Arms)
Tracknumber=2
Year=2021-23-04
Discnumber=1

[/more]

Register
(15) aviacademy, boby9052, Cartman223, gwar, Herrant, HMHamster, infiltrator, Marek, Mogozoz, Olethros, randumbum, Reverend, Rover, zhol, Сварог Барг,
Apr 22 2021, 13:50:34 Desolate Realm - Desolate Realm (2021)


*Artist: Desolate Realm
*Album: Desolate Realm
*Year: 2021
*Genre: Heavy/Doom Metal
*Country: Finland
*Format: mp3@CBR320kbps
*Size: 104MB

Tracklist:
01. Spire
02. Beneath the Surface
03. The Circle
04. Crypt
05. Reckoning
06. The Chosen
07. A Tall Order
08. Tormented Souls
******************************
Total playing time: 45:11





[more=Technical info]
Input File: 02 - Beneath the Surface.mp3
Channels : 2
Sample Rate : 44100
Precision : 16-bit
Duration : 00:05:50.00 = 15435000 samples = 26250 CDDA sectors
File Size : 14.3M
Bit Rate : 327k
Sample Encoding: MPEG audio (layer I, II or III)
Comments :
Title=Beneath The Surface
Artist=Desolate Realm
Album=Desolate Realm
Tracknumber=2
Year=2021-23-04
Discnumber=1

[/more]

Register
(20) Aamiinaa, after21allD, andreikun, BlazonStone, caro, DeathDragon, HMHamster, infiltrator, lacrimatorium, Marek, marilin, metala, Mogozoz, Old Vyaine, Olethros, poeira, Rover, sergsazan, stumpheavyrock, VALERY,

1436 Pages V   1 2 3 > » 
- Lo-Fi Version Support form
Copyrights and abuse reports form
Time is now: 9th May 2021 - 05:14:37