Welcome Guest ( Log In | Register )

История благодарностей участнику necroscum ::: Спасибо сказали: 434800 раз(а)
Дата поста: В теме: За сообщение: Спасибо сказали:
Yesterday, 14:07:24 Ghoul - Live In The Flesh [live] (2021)


*Artist: Ghoul
*Album: Live In The Flesh [live]
*Year: 2021
*Genre: Thrash/Death Metal/Grindcore
*Country: United States
*Format: mp3@CBR320kbps
*Size: 135MB

Tracklist:
01. Intro 01:31
02. Ghoulunatics 05:03
03. Ghetto Blasters 01:44
04. Bringer of War 03:23
05. Dungeon Bastards 03:29
06. Metallicus Ex Mortis 02:55
07. Off with Their Heads 04:13
08. Shred the Dead 03:39
09. Splatterthrash 03:35
10. Rot Gut 02:09
11. Spill Your Guts 01:48
12. Word is Law 03:58
13. Wall of Death 04:43
14. As Your Casket Closes 04:19
15. Death in the Swamp 01:38
16. Abominox 05:04
17. Gutbucket Blues 03:57
******************************
Total playing time: 57:08






[more=Technical info]
Input File: 02 - Ghoulunatics (Live).mp3
Channels : 2
Sample Rate : 44100
Precision : 16-bit
Duration : 00:05:03.80 = 13397448 samples = 22784.8 CDDA sectors
File Size : 12.4M
Bit Rate : 326k
Sample Encoding: MPEG audio (layer I, II or III)
Comments :
Title=Ghoulunatics (Live)
Artist=Ghoul
Album=Live in the Flesh
Tracknumber=2
Year=2021
Discnumber=1/1

[/more]

Register
(3) kefka, stumpheavyrock, Taakeferd,
Oct 22 2021, 14:35:12 Collizion Zero - The Plague I Witness [ep] (2014)


*Artist: Collizion Zero
*Album: The Plague I Witness [ep]
*Year: 2014
*Genre: Symphonic Death/Black Metal
*Country: Greece
*Format: mp3@CBR320kbps
*Size: 42MB

Tracklist:
01. The Plague I Witness 04:19
02. Ur-Nammu 04:32
03. I, The Deamon 04:32
04. 48 Calls 04:48
******************************
Total playing time: 18:11




[more=Extended info]Exclusive for Metalarea.org[/more]

[more=Technical info]
Input File: 02. Ur-Nammu.mp3
Channels : 2
Sample Rate : 44100
Precision : 16-bit
Duration : 00:04:32.13 = 12001021 samples = 20409.9 CDDA sectors
File Size : 11.1M
Bit Rate : 326k
Sample Encoding: MPEG audio (layer I, II or III)
Comments :
Title=Ur-Nammu
Artist=Collizion Zero
Album=The Plague I Witness
Tracknumber=2
Year=2015

[/more]

Register
(1) Сварог Барг,
Oct 22 2021, 12:46:49 Zych - Dante's Inferno Part I (2021)


*Artist: Zych
*Album: Dante's Inferno Part I
*Year: 2021
*Genre: Progressive/Power Metal
*Country: United States
*Format: mp3@CBR320kbps
*Size: 157MB

Tracklist:
01. Canto I - Overture
02. Canto II - Gates of Sorrow
03. Canto III - All Hope Abandon
04. Canto IV - Limbo
05. Canto V - Lust
06. Canto VI - The Gluttonous
07. Canto VII - The Avaricious & The Wrathful
08. Canto VIII - Into the Depths of Hell
******************************
Total playing time: 1:08:12


Preview 2



[more=Technical info]
Input File: 02 - Canto II (Gates Of Sorrow).mp3
Channels : 2
Sample Rate : 44100
Precision : 16-bit
Duration : 00:05:23.28 = 14256780 samples = 24246.2 CDDA sectors
File Size : 13.0M
Bit Rate : 322k
Sample Encoding: MPEG audio (layer I, II or III)
Comments :
Title=Canto II (Gates Of Sorrow)
Artist=Zych
Album=Dante's Inferno, Pt. 1
Tracknumber=2/8
Year=2021

[/more]

Register
(4) Herrant, Marek, stumpheavyrock, Сварог Барг,
Oct 21 2021, 16:08:12 Wild Freedom - Polarize (2021)


*Artist: Wild Freedom
*Album: Polarize
*Year: 2021
*Genre: Heavy Metal
*Country: Spain
*Format: mp3@CBR320kbps
*Size: 85MB

Tracklist:
01. New Dawn 04:21
02. My Life 03:52
03. Monsters 04:04
04. I Am the Storm 04:35
05. Rain 03:53
06. Meteor 03:42
07. What Is Human 03:51
08. End of Our Scars 04:02
09. Promise 04:01
******************************
Total playing time: 36:21




[more=Technical info]
Input File: 02 - My Life.mp3
Channels : 2
Sample Rate : 44100
Precision : 16-bit
Duration : 00:03:52.00 = 10231200 samples = 17400 CDDA sectors
File Size : 9.49M
Bit Rate : 327k
Sample Encoding: MPEG audio (layer I, II or III)
Comments :
Title=My Life
Artist=Wild Freedom
Album=Polarize
Tracknumber=2
Year=2021-10-22
Genre=Metal
Discnumber=1

[/more]

Register
(11) caro, dcatagua, gwar, HMHamster, infozahist, metala, sergsazan, stumpheavyrock, Taakeferd, vir2al, wgs73,
Oct 21 2021, 16:02:45 Seven Sisters - Shadow Of A Fallen Star Pt.1 (2021)


*Artist: Seven Sisters
*Album: Shadow Of A Fallen Star Pt.1
*Year: 2021
*Genre: Heavy Metal
*Country: United Kingdom
*Format: mp3@CBR320kbps
*Size: 93MB

Tracklist:
01. Andromeda Rising 02:42
02. Beyond the Black Stars 03:55
03. The Artifice 04:52
04. Whispers in the Dark 04:42
05. Horizon’s Eye 06:46
06. Wounds of Design 05:55
07. Shadow of a Falling Star 04:11
08. Truth's Burden 06:58
******************************
Total playing time: 40:01


Preview 2
Preview 3


[more=Technical info]
Input File: 02 - Beyond The Black Stars.mp3
Channels : 2
Sample Rate : 44100
Precision : 16-bit
Duration : 00:03:56.00 = 10407600 samples = 17700 CDDA sectors
File Size : 9.63M
Bit Rate : 326k
Sample Encoding: MPEG audio (layer I, II or III)
Comments :
Title=Beyond The Black Stars
Artist=Seven Sisters
Album=Shadow Of A Fallen Star, Pt. 1
Tracknumber=2
Year=2021-10-22
Genre=Rock
Discnumber=1

[/more]

Register
(16) caro, cesar, chipsgott, dcatagua, gwar, HMHamster, madera, Marek, metala, older68, sergsazan, stumpheavyrock, Taakeferd, VTX, wgs73, Сварог Барг,
Oct 21 2021, 15:51:10 In From The Cold - Isolation Blues (2021)


*Artist: In From The Cold
*Album: Isolation Blues
*Year: 2021
*Genre: Sludge/Stoner Metal
*Country: Serbia
*Format: mp3@CBR320kbps
*Size: 84MB

Tracklist:
01. Isolation Blues 05:42
02. Groundhog Day 03:35
03. Too Late 03:15
04. From Within & With Many Names 05:43
05. Firewater Ritual 06:30
06. How Far is the Sun? 04:55
07. The Prime 06:25
******************************
Total playing time: 36:05







[more=Technical info]
Input File: 02 - Groundhog Day.mp3
Channels : 2
Sample Rate : 44100
Precision : 16-bit
Duration : 00:03:34.77 = 9471225 samples = 16107.5 CDDA sectors
File Size : 8.81M
Bit Rate : 328k
Sample Encoding: MPEG audio (layer I, II or III)
Comments :
Title=Groundhog Day
Artist=In From The Cold
Album=Isolation Blues
Tracknumber=2
Year=2021
Discnumber=1/1

[/more]

Register
(5) caro, eddbuzz, HMHamster, marilin, stumpheavyrock,
Oct 21 2021, 15:45:02 Black Falcon - Skyburner (2021)


*Artist: Black Falcon
*Album: Skyburner
*Year: 2021
*Genre: Heavy/Groove Metal
*Country: United Kingdom
*Format: mp3@CBR320kbps
*Size: 86MB

Tracklist:
01. Alone As A God 06:26
02. Don't Shackle The Drifter 05:00
03. Reign True 04:41
04. To What Ends Do You Wonder 05:44
05. Ego Mortem Machina 03:46
06. Fate Cries Foul 04:20
07. Rooting For The Storm 07:13
******************************
Total playing time: 37:10




[more=Technical info]
Input File: 02 - Don\'t Shackle the Drifter.mp3
Channels : 2
Sample Rate : 44100
Precision : 16-bit
Duration : 00:05:00.09 = 13233881 samples = 22506.6 CDDA sectors
File Size : 12.2M
Bit Rate : 325k
Sample Encoding: MPEG audio (layer I, II or III)
Comments :
Title=Don't Shackle the Drifter
Artist=Black Falcon
Album=Skyburner
Tracknumber=2
Year=2021
Discnumber=1/1

[/more]

Register
(6) caro, dcatagua, infozahist, Marek, stumpheavyrock, Taakeferd,
Oct 21 2021, 15:35:33 Slaves Of Kali - Uncharted Trails (2021)


*Artist: Slaves Of Kali
*Album: Uncharted Trails
*Year: 2021
*Genre: Groove Metal
*Country: Germany
*Format: mp3@CBR320kbps
*Size: 91MB

Tracklist:
01. Shelters Will Burn 04:09
02. Leaders and Scapegoats 04:29
03. Sneak Before You Run 00:58
04. Tripping in Trenches 03:27
05. Expectations 03:57
06. Time to Disgust 06:47
07. Beach 02:42
08. Tides 00:52
09. Clocks and Pills 05:50
10. Electric Slavery 03:52
11. Ascend 01:49
******************************
Total playing time: 38:52


Preview 2



[more=Technical info]
Input File: 02 - Leaders And Scapegoats.mp3
Channels : 2
Sample Rate : 44100
Precision : 16-bit
Duration : 00:04:29.00 = 11862900 samples = 20175 CDDA sectors
File Size : 10.9M
Bit Rate : 325k
Sample Encoding: MPEG audio (layer I, II or III)
Comments :
Title=Leaders And Scapegoats
Artist=Slaves of Kali
Album=Uncharted Trails
Tracknumber=2
Year=2021-10-22
Genre=Metal
Discnumber=1

[/more]

Register
(3) caro, chipsgott, gwar,
Oct 21 2021, 15:22:24 Solution 13 - Chapters From Private Hell (2021)


*Artist: Solution 13
*Album: Chapters From Private Hell
*Year: 2021
*Genre: Groove Metal
*Country: Finland
*Format: mp3@CBR320kbps
*Size: 101MB

Tracklist:
01. My Private Hell 02:48
02. When the Night Falls Down 04:06
03. Sweet Surrender 04:49
04. Never Unbroken 04:03
05. My Civil War 03:41
06. I Dont Believe in Miracles 04:24
07. Storm 03:47
08. Tortured Son 04:45
09. What I Need 04:20
10. Turn to Dust 06:30
******************************
Total playing time: 43:13


Preview 2


[more=Technical info]
Input File: 02 - When the Night Falls Down.mp3
Channels : 2
Sample Rate : 44100
Precision : 16-bit
Duration : 00:04:05.00 = 10804500 samples = 18375 CDDA sectors
File Size : 9.98M
Bit Rate : 326k
Sample Encoding: MPEG audio (layer I, II or III)
Comments :
Title=When the Night Falls Down
Artist=Solution 13
Album=Chapters from Private Hell
Tracknumber=2
Year=2021-10-22
Genre=Metal
Discnumber=1

[/more]

Register
(5) caro, chipsgott, comradEnemy, gwar, Marek,
Oct 21 2021, 15:15:37 Indigo Raven - Looking For Transcendence (2021)


*Artist: Indigo Raven
*Album: Looking For Transcendence
*Year: 2021
*Genre: Doom Metal
*Country: France
*Format: mp3@CBR320kbps
*Size: 85MB

Tracklist:
01. Our Sacred Soil 05:20
02. Palin Genesis 06:26
03. Small-hearted & Blind 07:01
04. The White Knight Syndrome 06:35
05. Nightshade Winds 06:32
06. Where Lies Our Heart 05:12
******************************
Total playing time: 37:06


Preview 2


[more=Technical info]
Input File: 02 - Palin Genesis.mp3
Channels : 2
Sample Rate : 44100
Precision : 16-bit
Duration : 00:06:26.09 = 17026481 samples = 28956.6 CDDA sectors
File Size : 15.5M
Bit Rate : 321k
Sample Encoding: MPEG audio (layer I, II or III)
Comments :
Title=Palin Genesis
Artist=Indigo Raven
Album=Looking for Transcendence
Tracknumber=2
Year=2021
Discnumber=1/1

[/more]

Register
(11) Aamiinaa, caro, chipsgott, fallen, HMHamster, infozahist, Lux, marilin, quarantine, sergsazan, stumpheavyrock,
Oct 21 2021, 15:08:48 Ravenous - Hubris (2021)


*Artist: Ravenous
*Album: Hubris
*Year: 2021
*Genre: Power Metal
*Country: Canada
*Format: mp3@CBR320kbps
*Size: 126MB

Tracklist:
01. Carnage in Carthage 04:37
02. Astral Elixir 05:16
03. Son of Storms 04:33
04. Die 1,000 Deaths (feat. Heinrich Yoshio) 05:24
05. Bridgeburner 06:10
06. The Alder Queen (feat. Nina Osegueda) 03:16
07. March of Hunger 04:47
08. Claw is the Law (feat. The Dread Crew of Oddwood) 05:23
09. Onwards & Upwards (feat. Mathias Blad) 04:09
10. ...Of Beasts & Faust (feat. Vincent Jones) 10:21
******************************
Total playing time: 53:56


Preview 2



[more=Technical info]
Input File: 02 - Astral Elixir.mp3
Channels : 2
Sample Rate : 44100
Precision : 16-bit
Duration : 00:05:16.00 = 13935600 samples = 23700 CDDA sectors
File Size : 12.9M
Bit Rate : 326k
Sample Encoding: MPEG audio (layer I, II or III)
Comments :
Title=Astral Elixir
Artist=Ravenous E.H.
Album=Hubris
Tracknumber=2
Year=2021-10-22
Genre=Metal
Discnumber=1

[/more]

Register
(14) ace73pq, boby9052, caro, chipsgott, flamandez, gwar, Herrant, HMHamster, Marek, sergsazan, stumpheavyrock, Taakeferd, zhol, Сварог Барг,
Oct 21 2021, 15:02:08 Horns Of Domination - Where Voices Leave No Echo (2021)


*Artist: Horns Of Domination
*Album: Where Voices Leave No Echo
*Year: 2021
*Genre: Black/Death/Doom Metal
*Country: Germany
*Format: mp3@CBR320kbps
*Size: 84MB

Tracklist:
01. No Beyond (For No One) 07:18
02. Vanish 00:38
03. Untamed 03:39
04. Oscillating 05:09
05. Cold Breath 01:17
06. Where Voices Leave No Echo 05:00
07. Die Here, In Solitude 05:50
08. Throne of Ecstasy 06:43
******************************
Total playing time: 35:34





[more=Technical info]
Input File: 02 - Vanish.mp3
Channels : 2
Sample Rate : 44100
Precision : 16-bit
Duration : 00:00:38.00 = 1675800 samples = 2850 CDDA sectors
File Size : 1.77M
Bit Rate : 372k
Sample Encoding: MPEG audio (layer I, II or III)
Comments :
Title=Vanish
Artist=Horns Of Domination
Album=Where Voices Leave No Echo
Tracknumber=2
Year=2021-10-22
Genre=Rock
Discnumber=1

[/more]

Register
(11) AlexSmith, caro, Dmitry1977, Doooomed, madera, quarantine, robertho777, sergsazan, SilentNidhogg, Taakeferd, yuratroll,
Oct 21 2021, 14:54:46 Feral Season - Rotting Body In The Range Of Light (2021)


*Artist: Feral Season
*Album: Rotting Body In The Range Of Light
*Year: 2021
*Genre: Atmospheric Black Metal
*Country: United States
*Format: mp3@CBR320kbps
*Size: 103MB

Tracklist:
01. Tied to the Sun 06:34
02. Methuselah 09:27
03. Rotting Body in the Range of Light 07:07
04. Seized in Emerald Grief 06:18
05. Thickets 08:22
06. The Sigil of Snags 07:04
******************************
Total playing time: 44:52


Preview 2



[more=Technical info]
Input File: 02 - Methuselah.mp3
Channels : 2
Sample Rate : 44100
Precision : 16-bit
Duration : 00:09:27.10 = 25009110 samples = 42532.5 CDDA sectors
File Size : 22.8M
Bit Rate : 322k
Sample Encoding: MPEG audio (layer I, II or III)
Comments :
Title=Methuselah
Artist=Feral Season
Album=Rotting Body in the Range of Light
Tracknumber=2
Year=2021
Discnumber=1/1

[/more]

Register
(13) AlexSmith, caro, Forest Silence, guidanner, kim666, Marek, Nattfodd, nemx, robertho777, rominow, sergsazan, SilentNidhogg, Taakeferd,
Oct 21 2021, 14:46:43 Hulkoff - Ragnarök (2021)


*Artist: Hulkoff
*Album: Ragnarök
*Year: 2021
*Genre: Heavy/Viking/Folk Metal
*Country: Sweden
*Format: mp3@CBR320kbps
*Size: 193MB

Tracklist:
CD 1:
01. Sigrgaldr 01:06
02. Holmgång (Svitjod Edition) 03:31
03. Vápnum (Svitjod Edition) 03:05
04. Ulfhednar (Svitjod Edition) 03:31
05. Hardrádi (Svitjod Edition) 05:05
06. Till Valhall (Svitjod Edition) 03:43
07. Jörmungand (Svitjod Edition) 04:13
08. Hekwos (Svitjod Edition) 04:05
09. Sänd dina Korpar (Svitjod Edition) 04:52
10. FNFAL (Svitjod Edition) 04:07
11. Ragnarök (Svitjod Edition) 04:27
CD 2:
12. Sigrgaldr (Vinland Edition) 01:06
13. Holmgang (Vinland Edition) 03:31
14. Vápnum (Vinland Edition) 03:05
15. Ulfhednar (Vinland Edition) 03:31
16. Hardrádi (Vinland Edition) 05:05
17. To Valhalla (Vinland Edition) 03:43187. Jormungandr (Vinland Edition) 04:13
19. Hekwos (Vinland Edition) 04:05
20. Send Me a Raven (Vinland Edition) 04:51
21. FNFAL (Vinland Edition) 04:07
22. Ragnarök (Vinland Edition) 04:27
******************************
Total playing time: 1:23:29


Preview 2




[more=Technical info]
Input File: 02 - Holmgång (Svitjod Edition).mp3
Channels : 2
Sample Rate : 44100
Precision : 16-bit
Duration : 00:03:31.00 = 9305100 samples = 15825 CDDA sectors
File Size : 8.52M
Bit Rate : 323k
Sample Encoding: MPEG audio (layer I, II or III)
Comments :
Title=Holmgång (Svitjod Edition)
Artist=Hulkoff
Album=Ragnarök
Tracknumber=2
Year=2021-10-22
Genre=Rock
Discnumber=1

[/more]

Register
(11) caro, chipsgott, dcatagua, gwar, HMHamster, infozahist, sergsazan, Taakeferd, talismanFS, zhol, Сварог Барг,
Oct 21 2021, 14:24:04 Ember Sun - On Earth And Heaven (2021)


*Artist: Ember Sun
*Album: On Earth And Heaven
*Year: 2021
*Genre: Funeral Doom Metal
*Country: Greece
*Format: mp3@CBR320kbps
*Size: 104MB

Tracklist:
01. Swallowed Back into My Sorrow 9:38
02. Respawn 4:44
03. On Earth and Heaven 9:20
04. Ember Heart of Me 5:38
05. The Chapel 5:39
06. My Essence Fades in Time 10:29
******************************
Total playing time: 45:28




[more=Technical info]
Input File: 02 - Respawn.mp3
Channels : 2
Sample Rate : 44100
Precision : 16-bit
Duration : 00:04:44.13 = 12529957 samples = 21309.5 CDDA sectors
File Size : 11.4M
Bit Rate : 322k
Sample Encoding: MPEG audio (layer I, II or III)
Comments :
Title=Respawn
Artist=Ember Sun
Album=On Earth and Heaven
Tracknumber=2
Year=2021
Discnumber=1/1

[/more]

Register
(12) AlexSmith, autumnwood, caro, chipsgott, fallen, HMHamster, Marek, marilin, quarantine, robertho777, sergsazan, vyacheslav,
Oct 21 2021, 14:15:43 Le Chant Noir - La Société Satanique Des Poètes Morts (2021)


*Artist: Le Chant Noir
*Album: La Société Satanique Des Poètes Morts
*Year: 2021
*Genre: Avant-Garde Black Metal
*Country: Brazil
*Format: mp3@CBR320kbps
*Size: 91MB

Tracklist:
01. Messe noir 01:14
02. Le vampire 06:18
03. Prière à satan 04:25
04. Nuit de l'enfer 05:24
05. Le baron sanglant 04:05
06. Marche infernale 01:49
07. Les métamorphoses du vampire 05:27
08. La danse macabre 04:29
09. Eloa, le bel ange 04:25
10. La morte vivante 01:31
******************************
Total playing time: 39:07






[more=Technical info]
Input File: 02 - Le vampire.mp3
Channels : 2
Sample Rate : 44100
Precision : 16-bit
Duration : 00:06:18.00 = 16669800 samples = 28350 CDDA sectors
File Size : 15.3M
Bit Rate : 323k
Sample Encoding: MPEG audio (layer I, II or III)
Comments :
Title=Le vampire
Artist=Le Chant Noir
Album=La société satanique des poétes morts
Tracknumber=2
Year=2021-10-22
Genre=Rock
Discnumber=1

[/more]

Register
(17) AlexSmith, alikkon, caro, dcatagua, deadterror, demonosz, ger_man_thorn, infozahist, kauyumari, kefka, kim666, kimkayoung, Mencae77, robertho777, sabr, SilentNidhogg, Taakeferd,
Oct 21 2021, 13:59:41 Hand Of Kalliach - Samhainn (2021)


*Artist: Hand Of Kalliach
*Album: Samhainn
*Year: 2021
*Genre: Folk Metal
*Country: United Kingdom
*Format: mp3@CBR320kbps
*Size: 98MB

Tracklist:
01. Beneath Starlit Waters 05:06
02. Solas Neònach 04:53
03. Each Uisge 05:01
04. Roil 03:28
05. Cinders 03:02
06. The Lull of Loch Uigeadail 03:49
07. Ascendant 03:13
08. Òran na Tein'-éigin 04:10
09. Trial of the Beithir-Nimh 03:49
10. Return to Stone 05:21
******************************
Total playing time: 41:52





[more=Technical info]
Input File: 02 - Solas Neònach.mp3
Channels : 2
Sample Rate : 44100
Precision : 16-bit
Duration : 00:04:53.00 = 12921300 samples = 21975 CDDA sectors
File Size : 11.9M
Bit Rate : 326k
Sample Encoding: MPEG audio (layer I, II or III)
Comments :
Title=Solas Neònach
Artist=Hand of Kalliach
Album=Samhainn
Tracknumber=2
Year=2021-10-22
Genre=Metal
Discnumber=1

[/more]

Register
(9) caro, chipsgott, dcatagua, grimoir, gwar, HMHamster, Taakeferd, zhol, Сварог Барг,
Oct 21 2021, 13:50:35 In Crucem Agere - Calling The Void (2021)


*Artist: In Crucem Agere
*Album: Calling The Void
*Year: 2021
*Genre: Black Metal
*Country: Austria
*Format: mp3@CBR320kbps
*Size: 87MB

Tracklist:
01. The Gods Sent No Sign 07:38
02. Fall of the Idols 06:24
03. Calling the Void 05:41
04. A Descent into the Maelstrom 05:54
05. The Bicameral Mind 06:41
06. Eosos Nova 05:23
******************************
Total playing time: 37:41



Preview 3


[more=Technical info]
Input File: 02 - Fall of the Idols.mp3
Channels : 2
Sample Rate : 44100
Precision : 16-bit
Duration : 00:06:24.44 = 16953892 samples = 28833.1 CDDA sectors
File Size : 15.5M
Bit Rate : 322k
Sample Encoding: MPEG audio (layer I, II or III)
Comments :
Title=Fall of the Idols
Artist=In Crucem Agere
Album=Calling the Void
Tracknumber=2
Year=2021
Discnumber=1/1

[/more]

Register
(19) AlexSmith, artscald, Carcharoth, caro, judaz, kim666, Korpse, madera, Marek, Mencae77, Ostinato, robertho777, SilentNidhogg, stormhatt, stub888, suseka, Taakeferd, thenecromancer, yuratroll,
Oct 21 2021, 13:44:15 Hex A.D. - Funeral Tango For Gods & Men (2021)


*Artist: Hex A.D.
*Album: Funeral Tango For Gods & Men
*Year: 2021
*Genre: Progressive Doom Metal
*Country: Norway
*Format: mp3@CBR320kbps
*Size: 113MB

Tracklist:
01. Naadegave 02:38
02. Seven Blades 05:15
03. Got the Devil by the Tail 08:25
04. One Day of Wrath, Another Gesture of Faith 08:27
05. Painting With Panic 03:04
06. Hell Hath No Fury 06:49
07. All the Rage 04:55
08. Positively Draconian 08:34
******************************
Total playing time: 48:07




[more=Technical info]
Input File: 02-hex_ad-seven_blades-50d8ebde.mp3
Channels : 2
Sample Rate : 44100
Precision : 16-bit
Duration : 00:05:15.45 = 13911301 samples = 23658.7 CDDA sectors
File Size : 13.1M
Bit Rate : 333k
Sample Encoding: MPEG audio (layer I, II or III)
Comments :
Title=Seven Blades
Artist=HEX A.D.
Album=Funeral Tango for Gods & Men
Tracknumber=2/8
Year=2021
Genre=Metal

[/more]

Register
(15) after21allD, autumnwood, cancer1974, caro, chipsgott, dimitriusk, HMHamster, infozahist, kimkayoung, Marek, marilin, Mencae77, Olrak, stumpheavyrock, suseka,
Oct 21 2021, 12:56:16 Drown In Sulphur - Sulphur Cvlt (2021)


*Artist: Drown In Sulphur
*Album: Sulphur Cvlt
*Year: 2021
*Genre: Deathcore
*Country: Italy
*Format: mp3@CBR320kbps
*Size: 90MB

Tracklist:
01. Essence 04:01
02. Descendent Sunrise 04:21
03. Blessed End 03:24
04. Vivant Tenebrae 04:36
05. The Crawling Chaos 04:07
06. As Above so Below 03:28
07. The Sleeping Abomination 03:51
08. Sulphur Cvlt 04:40
09. Everything Has Been Read 04:19
******************************
Total playing time: 36:47




[more=Technical info]
Input File: 02 - Drown in Sulphur - Descendent Sunrise.mp3
Channels : 2
Sample Rate : 44100
Precision : 16-bit
Duration : 00:04:21.84 = 11547100 samples = 19637.9 CDDA sectors
File Size : 11.1M
Bit Rate : 340k
Sample Encoding: MPEG audio (layer I, II or III)
Comments :
Title=Descendent Sunrise
Artist=Drown in Sulphur
Album=Sulphur Cvlt
Tracknumber=2/9
Year=2021
Discnumber=1/1

[/more]

Register
(8) aa144aa, caro, chipsgott, DenisKov, Marek, respect, Taakeferd, zhol,
Oct 21 2021, 12:26:13 Catalyst Crime - Catalyst Crime (2021)


*Artist: Catalyst Crime
*Album: Catalyst Crime
*Year: 2021
*Genre: Symphonic Metal
*Country: Germany
*Format: mp3@CBR320kbps
*Size: 118MB

Tracklist:
01. With Only the Sun as My Witness (Intro) 02:38
02. Projection of My Mind 04:42
03. Condemn Me to Chaos 04:35
04. Mother Dearest 03:48
05. Twice Upon a Time 04:52
06. Cognitive Dissonance (feat. Jake E) 04:17
07. Break Even 04:11
08. Chasing the Ghost 05:10
09. Nowhere Near Dead Yet 05:04
10. Without Anesthesia 04:29
11. Not Even Once 03:55
12. One and Counting (Outro) 02:43
******************************
Total playing time: 50:24



[more=Technical info]
Input File: 02 - Projection of My Mind.mp3
Channels : 2
Sample Rate : 44100
Precision : 16-bit
Duration : 00:04:42.00 = 12436200 samples = 21150 CDDA sectors
File Size : 11.5M
Bit Rate : 325k
Sample Encoding: MPEG audio (layer I, II or III)
Comments :
Title=Projection of My Mind
Artist=Catalyst Crime
Album=Catalyst Crime
Tracknumber=2
Year=2021-10-22
Genre=Rock
Discnumber=1

[/more]

Register
(11) ace73pq, Alpha_Prime, artscald, caro, chipsgott, DenisKov, gwar, Olrak, serjred, talismanFS, Сварог Барг,
Oct 21 2021, 12:14:16 Zornheym - The Zornheim Sleep Experiment (2021)


*Artist: Zornheym
*Album: The Zornheim Sleep Experiment
*Year: 2021
*Genre: Symphonic Black/Death Metal
*Country: Sweden
*Format: mp3@CBR320kbps
*Size: 86MB

Tracklist:
01. Corpus Vile 05:26
02. An Evil Within 00:25
03. Dead Silence 05:11
04. Keep the Devil Away 04:18
05. Slumber comes in Time 05:43
06. Black Nine 04:00
07. The Veiling of Bettelheim’s Eye 01:18
08. The Revelation 03:40
09. Keep Cutting 04:53
10. The Madness that lurks within (Epilogue) 02:05
******************************
Total playing time: 36:59


Preview 2


[more=Extended info]Also released with bonus track Whom the Night Brings...[/more]

[more=Technical info]
Input File: 03 - Dead Silence.mp3
Channels : 2
Sample Rate : 44100
Precision : 16-bit
Duration : 00:05:11.00 = 13715100 samples = 23325 CDDA sectors
File Size : 12.6M
Bit Rate : 324k
Sample Encoding: MPEG audio (layer I, II or III)
Comments :
Title=Dead Silence
Artist=Zornheym
Album=The Zornheim Sleep Experiment
Tracknumber=3
Year=2021-10-22
Genre=Rock
Discnumber=1

[/more]

Register
(29) aa144aa, ALEXSATHANAS, AlexSmith, artscald, caro, chipsgott, DenisKov, dermarsoran, Druidir, Evjenne, Golodomor, hellbibber, infozahist, kim666, lldma, Luminous, madera, Marek, metala, Moonshtook, PlagueSerpent, pouya, respect, SABRAX, sadmannn, sunska, valegga, yuratroll, Сварог Барг,
Oct 21 2021, 11:38:58 Waking The Cadaver - Authority Through Intimidation (2021)


*Artist: Waking The Cadaver
*Album: Authority Through Intimidation
*Year: 2021
*Genre: Death Metal/Deathcore
*Country: United States
*Format: mp3@CBR320kbps
*Size: 64MB

Tracklist:
01. Civic Assault 03:19
02. Corpse Decomposition 03:12
03. Human Chop Shop 03:50
04. Frenzied Vehicular Rampage 03:18
05. Arbiter of Punishment 04:43
06. Threaten Physical Force 02:58
07. Asphyxiating Ligature 03:12
08. Authoritative Aggressor 02:16
******************************
Total playing time: 26:48







[more=Technical info]
Input File: 02 - Corpse Decomposition.mp3
Channels : 2
Sample Rate : 44100
Precision : 16-bit
Duration : 00:03:12.00 = 8467200 samples = 14400 CDDA sectors
File Size : 7.95M
Bit Rate : 331k
Sample Encoding: MPEG audio (layer I, II or III)
Comments :
Title=Corpse Decomposition
Artist=Waking the Cadaver
Album=Authority Through Intimidation
Tracknumber=2
Year=2021-10-22
Genre=Metal
Discnumber=1

[/more]

Register
(15) aa144aa, ALEXSATHANAS, Brutal, canadaspaceman, caro, chipsgott, HMHamster, madera, maochen, Marek, martintrue, Ostinato, Reverend, suseka, vyacheslav,
Oct 21 2021, 11:32:13 1914 - Where Fear And Weapons Meet (2021)


*Artist: 1914
*Album: Where Fear And Weapons Meet
*Year: 2021
*Genre: Blackened Death/Doom Metal
*Country: Ukraine
*Format: mp3@CBR320kbps
*Size: 148MB

Tracklist:
01. War In 01:11
02. Fn .380 Acp#19074 05:54
03. Vimy Ridge (In Memory of Filip Konowal) 05:11
04. Pillars of Fire (The Battle of Messines) 07:04
05. Don't Tread on Me (Harlem Hellfighters) 07:54
06. Coward (feat. Sasha Boole) 02:55
07. ...and a Cross Now Marks His Place (feat. Nick Holmes) 07:29
08. Corps D'autos-Canons-Mitrailleuses (a.c.m) 07:54
09. Mit Gott Für König Und Vaterland 05:18
10. The Green Fields of France 10:57
11. War Out 01:40
******************************
Total playing time: 1:03:27


Preview 2




[more=Technical info]
Input File: 02 - Fn .380 Acp#19074.mp3
Channels : 2
Sample Rate : 44100
Precision : 16-bit
Duration : 00:05:54.00 = 15611400 samples = 26550 CDDA sectors
File Size : 14.4M
Bit Rate : 325k
Sample Encoding: MPEG audio (layer I, II or III)
Comments :
Title=Fn .380 Acp#19074
Artist=1914
Album=Where Fear and Weapons Meet
Tracknumber=2
Year=2021-10-22
Genre=Metal
Discnumber=1

[/more]

Register
(69) 666days, AlexSmith, alikkon, andeimon, as71, BandR75, Black Cat, Borya_Tvorogov, cancer1974, canco994, caro, Cavemania, cesar, chipsgott, corgoroth, dagger666, dcatagua, dead4, DMIYUR, doomTemplar, fallen, flep, ForzaMinardi1977, Fryz, fylopaloma, grimoir, HMHamster, Ice Gnoll, JD666Hellion, judaz, KakoDaemon, karut, kauyumari, kimkayoung, kluval, KVRT, lacrimatorium, lacrimoza, madera, Marek, metala, metalfanatic666, nadin85, Narasimha, Nattfodd, nnnmmm, noel666, nsk2008, nsmetalhead, Old Vyaine, Reverend, robertho777, SaintVitus, sergsazan, serjred, SilentNidhogg, stumpheavyrock, sunska, TeamatSE, Tino, toto, Victim of fate, VTX, vyacheslav, Winterdark, wrath082, yuratroll, zyklon, Луч,
Oct 21 2021, 11:25:38 Burning Point - Arsonist Of The Soul (2021)


*Artist: Burning Point
*Album: Arsonist Of The Soul
*Year: 2021
*Genre: Melodic Power Metal
*Country: Finland
*Format: mp3@CBR320kbps
*Size: 115MB

Tracklist:
01. Blast in the Past 03:11
02. Rules the Universe 03:28
03. Out of Control (Savage Animals) 03:48
04. Persona Non Grata 04:15
05. Arsonist of the Soul 04:54
06. Hit the Night 03:21
07. Running in the Darkness 03:20
08. Calling 04:54
09. Off the Radar 03:32
10. Fire with Fire 05:00
11. Will I Rise with the Sun 03:56
12. Eternal Life 05:30
******************************
Total playing time: 49:09



Preview 3


[more=Technical info]
Input File: 02 - Rules the Universe.mp3
Channels : 2
Sample Rate : 44100
Precision : 16-bit
Duration : 00:03:28.00 = 9172800 samples = 15600 CDDA sectors
File Size : 8.50M
Bit Rate : 327k
Sample Encoding: MPEG audio (layer I, II or III)
Comments :
Title=Rules the Universe
Artist=Burning Point
Album=Arsonist of the Soul
Tracknumber=2
Year=2021-10-22
Genre=Rock
Discnumber=1

[/more]

Register
(18) ace73pq, after21allD, andgrek28, boby9052, caro, DenisKov, gwar, Herrant, HMHamster, Luminous, madera, Marek, metala, Olrak, talismanFS, Winterdark, zhol, Сварог Барг,

1440 Pages V   1 2 3 > » 
- Lo-Fi Version Support form
Copyrights and abuse reports form
Time is now: 24th October 2021 - 06:49:53