Welcome Guest ( Log In | Register )

История благодарностей участнику necroscum ::: Спасибо сказали: 463755 раз(а)
Дата поста: В теме: За сообщение: Спасибо сказали:
Sep 30 2022, 15:03:41 Sonic Flower - Rides Again (2021)


*Artist: Sonic Flower
*Album: Rides Again
*Year: 2021
*Genre: Instrumental Psychedelic Stoner/Doom Metal
*Country: Japan
*Format: mp3@CBR320kbps
*Size: 70MB

Tracklist:
1. Super Witch 03:26
2. Black Sheep 03:10
3. Jungle Cruise 04:19
4. Captain Frost 03:45
5. Stay Away (Meters cover) 04:42
6. Quicksand Planet 04:08
7. Earthquake (Graham Central Station cover) 04:26
******************************
Total playing time: 27:56






[more=Technical info]
Input File: 01 Super Witch.mp3
Channels : 2
Sample Rate : 44100
Precision : 16-bit
Duration : 00:03:26.54 = 9108194 samples = 15490.1 CDDA sectors
File Size : 9.65M
Bit Rate : 374k
Sample Encoding: MPEG audio (layer I, II or III)
Comments :
Title=Super Witch
Artist=Sonic Flower
Album=Rides Again
Tracknumber=1/7
Year=2021
Genre=Rock

[/more]

Register
(6) artscald, chipsgott, Dante_D, kimkayoung, Korpse, vosmidesijatye,
Sep 29 2022, 16:35:58 Dirty Vicar - Plague Of Demons [ep] (2020)


*Artist: Dirty Vicar
*Album: Plague Of Demons [ep]
*Year: 2020
*Genre: Heavy Metal
*Country: Canada
*Format: mp3@CBR320kbps
*Size: 35MB

Tracklist:
1. F.I.T.F.O.G. 03:22
2. Graveyard of Pint Pots 03:07
3. The Vicar Beckons 03:54
4. Plague of Demons 05:03
******************************
Total playing time: 15:26





[more=Technical info]
Input File: 02. Graveyard of Pint Pots.mp3
Channels : 2
Sample Rate : 44100
Precision : 16-bit
Duration : 00:03:07.33 = 8261429 samples = 14050 CDDA sectors
File Size : 7.58M
Bit Rate : 324k
Sample Encoding: MPEG audio (layer I, II or III)
Comments :
Title=Graveyard of Pint Pots
Artist=Dirty Vicar
Album=Plague of Demons EP
Tracknumber=2
Year=2020

[/more]

Register
(7) after21allD, artscald, Reverend, Rover, sergsazan, stumpheavyrock, wgs73,
Sep 29 2022, 16:25:13 Dirty Vicar - Higher Roads Less Traveled [ep] (2021)


*Artist: Dirty Vicar
*Album: Higher Roads Less Traveled [ep]
*Year: 2021
*Genre: Heavy Metal
*Country: Canada
*Format: mp3@CBR320kbps
*Size: 54MB

Tracklist:
1. I Don't Fancy My Chances 03:49
2. Like Lemmings 04:45
3. The Strain 04:25
4. Old Guard Die Hard 03:53
5. Unto the Flame 06:21
******************************
Total playing time: 23:13





[more=Technical info]
Input File: 02. Like Lemmings.mp3
Channels : 2
Sample Rate : 44100
Precision : 16-bit
Duration : 00:04:45.90 = 12608146 samples = 21442.4 CDDA sectors
File Size : 11.7M
Bit Rate : 326k
Sample Encoding: MPEG audio (layer I, II or III)
Comments :
Title=Like Lemmings
Artist=Dirty Vicar
Album=Higher Roads Less Traveled
Tracknumber=2
Year=2021

[/more]

Register
(6) after21allD, artscald, Reverend, Rover, stumpheavyrock, wgs73,
Sep 29 2022, 16:07:12 Dirty Vicar - Cursed Illumination [ep] (2022)


*Artist: Dirty Vicar
*Album: Cursed Illumination [ep]
*Year: 2022
*Genre: Heavy Metal
*Country: Canada
*Format: mp3@CBR320kbps
*Size: 51MB

Tracklist:
01. Poison King 2:55
02. Scarward 5:26
03. 4-Letter Patsy 3:35
04. The Pain Hand 3:59
05. Sleep Of The Just 6:23
******************************
Total playing time: 22:18





[more=Technical info]
Input File: 02 - Scarward.mp3
Channels : 2
Sample Rate : 44100
Precision : 16-bit
Duration : 00:05:25.00 = 14332500 samples = 24375 CDDA sectors
File Size : 13.1M
Bit Rate : 323k
Sample Encoding: MPEG audio (layer I, II or III)
Comments :
Title=Scarward
Artist=Dirty Vicar
Album=Cursed Illumination
Tracknumber=2
Year=2022
Discnumber=1

[/more]

Register
(7) artscald, joseang, Rover, sergsazan, stumpheavyrock, vir2al, wgs73,
Sep 29 2022, 16:00:42 Eclesios - Halls Of Salvation (2022)


*Artist: Eclesios
*Album: Halls Of Salvation
*Year: 2022
*Genre: Black/Death Metal
*Country: Germany
*Format: mp3@CBR320kbps
*Size: 84MB

Tracklist:
1. Halls of Salvation 09:13
2. Eclesios 07:33
3. N.O.S. 08:41
4. Death Chiming 05:52
5. Nuclear Vulva 05:09
******************************
Total playing time: 36:28





[more=Technical info]
Input File: 02. Eclesios.mp3
Channels : 2
Sample Rate : 44100
Precision : 16-bit
Duration : 00:07:33.75 = 20010331 samples = 34031.2 CDDA sectors
File Size : 18.3M
Bit Rate : 322k
Sample Encoding: MPEG audio (layer I, II or III)
Comments :
Title=Eclesios
Artist=Eclesios
Album=Halls of Salvation
Tracknumber=2/5
Year=2022
Genre=Black Metal, Death Metal
Discnumber=1/1

[/more]

Register
(10) AlexSmith, artscald, Carcharoth, GorAtheist, Marek, metala, MMMMM, stormhatt, supremo, VALERY,
Sep 29 2022, 15:55:03 Labyrinth Of Stars - Spectrum Xenomorph (2022)


*Artist: Labyrinth Of Stars
*Album: Spectrum Xenomorph
*Year: 2022
*Genre: Experimetal/Technical Death Metal
*Country: Germany
*Format: mp3@CBR320kbps
*Size: 75MB

Tracklist:
1. Star Pervertor 03:20
2. Aethereal Solitude 03:12
3. Ancient Machines in Authority 02:26
4. Log Gamma / Orphan With An Abstract Face 00:50
5. Galactic Ritual 02:16
6. Vacuum 03:13
7. Dissolving Into The Eternal Nothingness 04:30
8. Transmission Delta - Exile 12:40
******************************
Total playing time: 32:27

Preview 1



[more=Technical info]
Input File: 02. Aethereal Solitude.mp3
Channels : 2
Sample Rate : 44100
Precision : 16-bit
Duration : 00:03:12.00 = 8467200 samples = 14400 CDDA sectors
File Size : 7.76M
Bit Rate : 323k
Sample Encoding: MPEG audio (layer I, II or III)
Comments :
Title=Aethereal Solitude
Artist=Labyrinth of Stars
Album=Spectrum Xenomorph
Tracknumber=02
Year=2022
Genre=Technical Death, Experimental
Discnumber=1

[/more]

Register
(12) artscald, chipsgott, kimkayoung, LiarOfAngmar, metala, MMMMM, OmegaBlade696, Sanctus, supremo, VALERY, vyacheslav, Zer0,
Sep 29 2022, 15:45:57 Human Compost - Descendants Of Evil (2022)


*Artist: Human Compost
*Album: Descendants Of Evil
*Year: 2022
*Genre: Brutal Death Metal/Goregrind
*Country: Canada
*Format: mp3@CBR320kbps
*Size: 78MB

Tracklist:
01. Veil of Maggots 03:26
02. Sawed in Half 01:57
03. Night in the Crypts 03:16
04. Corporealized 03:52
05. Tortures of the Female Flesh 01:10
06. Erotic Amputation 01:43
07. Network of Blood 02:47
08. Defiled, Tortured, Torn Apart 02:09
09. Funerary Cannibalism 03:27
10. The Possession 02:38
11. Visions Within the Grave 03:31
12. Descendants of Evil 03:38
******************************
Total playing time: 33:34




[more=Technical info]
Input File: 02. Sawed In Half.mp3
Channels : 2
Sample Rate : 44100
Precision : 16-bit
Duration : 00:01:57.27 = 5171739 samples = 8795.47 CDDA sectors
File Size : 4.86M
Bit Rate : 332k
Sample Encoding: MPEG audio (layer I, II or III)
Comments :
Title=Sawed In Half
Artist=Human Compost
Album=Descendants of Evil
Tracknumber=2/12
Year=2022
Genre=Brutal Death
Discnumber=1/1

[/more]

Register
(12) andreikun, artscald, GorAtheist, jared_wanted, jollo, KNessJM, metala, MMMMM, older68, rominow, supremo, vyacheslav,
Sep 29 2022, 15:37:58 Gutsaw - All Lives Splatter [ep] (2022)


*Artist: Gutsaw
*Album: All Lives Splatter [ep]
*Year: 2022
*Genre: Death Metal
*Country: United States
*Format: mp3@CBR320kbps
*Size: 31MB

Tracklist:
1. The Flavor of Flesh 01:32
2. Graveyard Grind Wars 01:06
3. Bleed By Example 02:10
4. Necrojuana 02:21
5. All Lives Splatter 01:57
6. In Gore We Grind 00:52
7. 683 Rest In Peace 02:18
******************************
Total playing time: 12:16






[more=Technical info]
Input File: 03. Bleed by Example.mp3
Channels : 2
Sample Rate : 44100
Precision : 16-bit
Duration : 00:02:10.00 = 5733000 samples = 9750 CDDA sectors
File Size : 5.43M
Bit Rate : 334k
Sample Encoding: MPEG audio (layer I, II or III)
Comments :
Title=Bleed by Example
Artist=Gutsaw
Album=All Lives Splatter
Tracknumber=3
Year=2022
Genre=Technical Death, Grindcore
Discnumber=1

[/more]

Register
(8) artscald, Carcharoth, chipsgott, hell_armageddon, KNessJM, Marek, VALERY, vyacheslav,
Sep 29 2022, 15:32:21 Aura - Underwater (2022)


*Artist: Aura
*Album: Underwater
*Year: 2022
*Genre: Progressive Metal
*Country: Italy
*Format: mp3@CBR320kbps
*Size: 110MB

Tracklist:
01. Lost over Time 05:16
02. Keep It Safe 04:05
03. On Time 04:52
04. Time to Live 04:16
05. My Last Words to You 05:13
06. Promises 05:09
07. Eternal Bliss 03:52
08. Lights Behind the Clouds 05:40
09. Underwater 05:01
10. Astronomy Domine (Pink Floyd cover) 04:17
******************************
Total playing time: 47:41



Preview 3



[more=Technical info]
Input File: 02 - Keep It Safe.mp3
Channels : 2
Sample Rate : 44100
Precision : 16-bit
Duration : 00:04:05.00 = 10804500 samples = 18375 CDDA sectors
File Size : 9.94M
Bit Rate : 325k
Sample Encoding: MPEG audio (layer I, II or III)
Comments :
Title=Keep It Safe
Artist=Aura
Album=Underwater
Tracknumber=2
Year=2022-09-30
Genre=Rock
Discnumber=1

[/more]

Register
(10) ace73pq, after21allD, artscald, aviacademy, LiarOfAngmar, metala, Reverend, Rhoads, Rover, stumpheavyrock,
Sep 29 2022, 15:24:46 Sonic Flower - Me And My Bellbottom Blues (2022)


*Artist: Sonic Flower
*Album: Me And My Bellbottom Blues
*Year: 2022
*Genre: Psychedelic Stoner/Doom Metal
*Country: Japan
*Format: mp3@CBR320kbps
*Size: 108MB

Tracklist:
1. Swineherd 06:58
2. Love Like Rubber 05:33
3. Black Sheep 06:28
4. Captain Frost 03:40
5. Quicksand 05:58
6. Poor Girl 04:00
7. Sonic Flower 07:59
******************************
Total playing time: 40:36




[more=Technical info]
Input File: 02 - Love Like Rubber.mp3
Channels : 2
Sample Rate : 44100
Precision : 16-bit
Duration : 00:05:32.00 = 14641200 samples = 24900 CDDA sectors
File Size : 13.5M
Bit Rate : 325k
Sample Encoding: MPEG audio (layer I, II or III)
Comments :
Title=Love Like Rubber
Artist=Sonic Flower
Album=Me and My Bellbottom Blues
Tracknumber=2
Year=2022
Discnumber=1

[/more]

Register
(14) artscald, chipsgott, ern1kkk, gena, kimkayoung, Korpse, LiarOfAngmar, marilin, metaljosue, SaintVitus, stumpheavyrock, Terrorizer, VALERY, vosmidesijatye,
Sep 29 2022, 15:12:37 Godeater - Vespera (2022)


*Artist: Godeater
*Album: Vespera
*Year: 2022
*Genre: Progressive Death Metal/Deathcore
*Country: United Kingdom
*Format: mp3@CBR320kbps
*Size: 89MB

Tracklist:
1. Self Surgery 05:11
2. God Complex 04:57
3. The Hatchet 03:58
4. Fat of the Land 03:15
5. Silhouette 04:30
6. Out of Body 05:56
7. Backwash 03:33
8. Qualia 06:52
******************************
Total playing time: 38:12


Preview 2




[more=Technical info]
Input File: 02 - God Complex.mp3
Channels : 2
Sample Rate : 44100
Precision : 16-bit
Duration : 00:04:57.83 = 13134171 samples = 22337 CDDA sectors
File Size : 12.2M
Bit Rate : 327k
Sample Encoding: MPEG audio (layer I, II or III)
Comments :
Title=God Complex
Artist=Godeater
Album=Vespera
Tracknumber=2
Year=2022

[/more]

Register
(11) artscald, chipsgott, FunZombie, kimkayoung, LiarOfAngmar, Lionheart-P, Marek, metala, mirotvorets, Sanctus, VALERY,
Sep 29 2022, 15:04:01 Krankheit - Gargantua (2022)


*Artist: Krankheit
*Album: Gargantua
*Year: 2022
*Genre: Gothic Metal
*Country: Germany
*Format: mp3@CBR320kbps
*Size: 87MB

Tracklist:
01. Gargantua 03:14
02. Kommunikation 03:08
03. Bett des Prokrustes 02:56
04. Des Kaisers neue Kleider 03:59
05. Neid 03:10
06. Müll 03:35
07. Ave Maria 06:23
08. Exorzist (feat. Thy Antichrist) 03:47
09. Narr 03:29
10. Endlich 03:06
******************************
Total playing time: 36:47




[more=Technical info]
Input File: 02 - Kommunikation.mp3
Channels : 2
Sample Rate : 44100
Precision : 16-bit
Duration : 00:03:08.00 = 8290800 samples = 14100 CDDA sectors
File Size : 7.83M
Bit Rate : 333k
Sample Encoding: MPEG audio (layer I, II or III)
Comments :
Title=Kommunikation
Artist=Krankheit
Album=Gargantua
Tracknumber=2/10
Year=2022
Discnumber=1/1

[/more]

Register
(10) artscald, Cartman223, chipsgott, gwar, kimkayoung, metala, postal67, robertho777, sergsazan, VALERY,
Sep 29 2022, 14:57:15 Hammerstar - Hammerstar (2022)


*Artist: Hammerstar
*Album: Hammerstar
*Year: 2022
*Genre: Heavy/Power Metal
*Country: United States
*Format: mp3@CBR320kbps
*Size: 106MB

Tracklist:
01. Heart of Stone 05:14
02. Power of Metal 04:13
03. Midnight Ride 04:31
04. Burned Alive 03:33
05. Path of the Brave 04:27
06. Soul Reaper 03:57
07. Rise Above the Skies 05:25
08. Divide and Conquer 03:55
09. Hymn of the Viking 03:04
10. What Have I Become 06:57
******************************
Total playing time: 45:16




[more=Technical info]
Input File: 02 - Power of Metal.mp3
Channels : 2
Sample Rate : 44100
Precision : 16-bit
Duration : 00:04:13.00 = 11157300 samples = 18975 CDDA sectors
File Size : 10.4M
Bit Rate : 329k
Sample Encoding: MPEG audio (layer I, II or III)
Comments :
Title=Power of Metal
Artist=HAMMERSTAR
Album=Hammerstar
Tracknumber=2/10
Year=2022
Discnumber=1/1

[/more]

Register
(15) ace73pq, after21allD, artscald, boby9052, Elfaffo, gwar, Herrant, Marek, metala, Olrak, postal67, Rover, sergsazan, stumpheavyrock, yinchanghanhuang,
Sep 29 2022, 14:48:18 Internal Organs External - The Brutality Of Tomorrow (2022)


*Artist: Internal Organs External
*Album: The Brutality Of Tomorrow
*Year: 2022
*Genre: Brutal Death Metal/Deathcore
*Country: United States
*Format: mp3@CBR320kbps
*Size: 89MB

Tracklist:
1. Propagating The Execution (ft. Zachariah Jackson) 03:56
2. Cybernetic Rebirth 03:42
3. Visceral Desolation 04:01
4. Callous Psyche 03:11
5. Oil Embalmment (ft. Clayton Meade) 03:41
6. Soaked In Obliteration 03:48
7. Proximity of Bone 03:03
8. Entombed In Concrete (ft. Larry Wang) 03:26
9. Articulated Sycophant 03:50
10. Flesh of the Ghost 03:40
******************************
Total playing time: 36:18


Preview 2



[more=Technical info]
Input File: 02. Cybernetic Rebirth.mp3
Channels : 2
Sample Rate : 44100
Precision : 16-bit
Duration : 00:03:42.00 = 9790200 samples = 16650 CDDA sectors
File Size : 9.08M
Bit Rate : 327k
Sample Encoding: MPEG audio (layer I, II or III)
Comments :
Title=Cybernetic Rebirth
Artist=Internal Organs External
Album=The Brutality of Tomorrow
Tracknumber=2
Year=2022
Genre=Deathcore
Discnumber=1

[/more]

Register
(6) akym, artscald, chipsgott, jollo, older68, sludge666,
Sep 29 2022, 14:39:03 Strangle Wire - Shaped By Human Frailty (2022)


*Artist: Strangle Wire
*Album: Shaped By Human Frailty
*Year: 2022
*Genre: Death Metal
*Country: United Kingdom
*Format: mp3@CBR320kbps
*Size: 83MB

Tracklist:
1. Heavily Medicated 03:25
2. Learned Wretchedness 03:58
3. Judas Switch 04:08
4. The Human Tensile Experiment 04:24
5. An Abhorrent Intervention 01:03
6. Shaped by Human Frailty 05:26
7. Dead Before the Still 02:39
8. Psychology of the Sick 03:33
9. Horrors Beneath 05:38
******************************
Total playing time: 34:14


Preview 2



[more=Technical info]
Input File: 02. Learned Wretchedness.mp3
Channels : 2
Sample Rate : 44100
Precision : 16-bit
Duration : 00:03:58.33 = 10510265 samples = 17874.6 CDDA sectors
File Size : 10.0M
Bit Rate : 337k
Sample Encoding: MPEG audio (layer I, II or III)
Comments :
Title=Learned Wretchedness
Artist=Strangle Wire
Album=Shaped by Human Frailty
Tracknumber=2
Year=2022
Genre=Death
Discnumber=1/1

[/more]

Register
(10) artscald, BugEyes, GuldenDraak, jollo, Marek, MMMMM, older68, supremo, VALERY, vyacheslav,
Sep 29 2022, 14:33:53 Blind The Eye - The Lion Of Lions (2022)


*Artist: Blind The Eye
*Album: The Lion Of Lions
*Year: 2022
*Genre: Melodic Death Metal
*Country: Portugal
*Format: mp3@CBR320kbps
*Size: 106MB

Tracklist:
01. The Lion of Lions 03:47
02. Aquilifer 04:17
03. As Vesta's Fire 05:21
04. Tauroctony 04:38
05. Mars! Exulte! 04:42
06. The Roses of Heliogabalus 04:29
07. Crimson Duskfall 03:57
08. Imperial Thunder 05:04
09. Vae Victis 04:56
10. The Humiliation of Charon 03:34
******************************
Total playing time: 44:45


Preview 2


[more=Technical info]
Input File: 02 - Aquilifer.mp3
Channels : 2
Sample Rate : 44100
Precision : 16-bit
Duration : 00:04:17.63 = 11361615 samples = 19322.5 CDDA sectors
File Size : 10.7M
Bit Rate : 334k
Sample Encoding: MPEG audio (layer I, II or III)
Comments :
Title=Aquilifer
Artist=Blind the Eye
Album=The Lion of Lions
Tracknumber=2/10
Discnumber=1/1

[/more]

Register
(16) AHBAnep, akym, Altkiller, artscald, BugEyes, chipsgott, GorAtheist, GuldenDraak, Marek, Melusinara, respect, sergsazan, VALERY, zhol, Сварог Барг, скептик,
Sep 29 2022, 14:24:19 The Low-End Bastard - Last Days Of Sanity (2022)


*Artist: The Low-End Bastard
*Album: Last Days Of Sanity
*Year: 2022
*Genre: Industrial Death Metal
*Country: Brazil
*Format: mp3@CBR320kbps
*Size: 80MB

Tracklist:
1. Endless Hope 04:52
2. Hopeless 03:16
3. Consequences 03:26
4. Evil Minded Bastards 03:14
5. Beginning 03:08
6. Trigger of Madness 04:14
7. The Lost Soul 03:51
8. Mind Disorder 02:43
9. Trying to Understand 05:08
******************************
Total playing time: 33:52


Preview 2



[more=Technical info]
Input File: 02. Hopeless.mp3
Channels : 2
Sample Rate : 44100
Precision : 16-bit
Duration : 00:03:16.00 = 8643600 samples = 14700 CDDA sectors
File Size : 8.03M
Bit Rate : 328k
Sample Encoding: MPEG audio (layer I, II or III)
Comments :
Title=Hopeless
Artist=The Low-End Bastard
Album=Last Days of Sanity
Tracknumber=2
Year=2022
Genre=Death Metal, Industrial Metal
Discnumber=1

[/more]

Register
(5) artscald, gwar, metala, supremo, Сварог Барг,
Sep 29 2022, 14:17:40 Thulsa Doom - A Fate Worse Than Death (2022)


*Artist: Thulsa Doom
*Album: A Fate Worse Than Death
*Year: 2022
*Genre: Death Metal
*Country: Italy
*Format: mp3@CBR320kbps
*Size: 97MB

Tracklist:
1. Where Death Dwells 04:24
2. Cursed Domains Beyond 04:44
3. Into the Vaults of Angmar 04:54
4. Tomb of the Serpent Cult 04:41
5. A Fate Worse than Death 03:17
6. Order of the Black 03:08
7. Hung, Drawn and Quartered 03:59
8. Lost Portal of Xhul 05:39
9. The Dawn of the Fire Age 04:14
10. The Orgy (Outro) 02:38
******************************
Total playing time: 41:38





[more=Technical info]
Input File: 02. Cursed Domains Beyond.mp3
Channels : 2
Sample Rate : 44100
Precision : 16-bit
Duration : 00:04:44.00 = 12524400 samples = 21300 CDDA sectors
File Size : 11.6M
Bit Rate : 326k
Sample Encoding: MPEG audio (layer I, II or III)
Comments :
Title=Cursed Domains Beyond
Artist=Thulsa Doom
Album=A Fate Worse Than Death
Tracknumber=2
Year=2022
Genre=Death
Discnumber=1

[/more]

Register
(16) andreikun, artscald, avather, BugEyes, jollo, madera, Marek, metala, MMMMM, older68, Reverend, supremo, TheVoidReturned, VALERY, vyacheslav, yinchanghanhuang,
Sep 29 2022, 14:05:27 Heir Corpse One - Caribbean Frights [ep] (2022)


*Artist: Heir Corpse One
*Album: Caribbean Frights [ep]
*Year: 2022
*Genre: Death/Groove Metal
*Country: Sweden
*Format: mp3@CBR320kbps
*Size: 36MB

Tracklist:
1. The Wraith 03:31
2. Blood in the Shade 03:51
3. Dwellers Beneath the Sand 03:04
4. Thunderground 03:06
5. A South Sea Burial 01:47
******************************
Total playing time: 15:19





[more=Technical info]
Input File: 02. Blood in the Shade.mp3
Channels : 2
Sample Rate : 44100
Precision : 16-bit
Duration : 00:03:51.00 = 10187100 samples = 17325 CDDA sectors
File Size : 9.42M
Bit Rate : 326k
Sample Encoding: MPEG audio (layer I, II or III)
Comments :
Title=Blood in the Shade
Artist=Heir Corpse One
Album=Caribbean Frights
Tracknumber=2
Year=2022
Genre=OSDM
Discnumber=1

[/more]

Register
(5) artscald, chipsgott, hell_armageddon, Marek, stumpheavyrock,
Sep 29 2022, 13:38:54 Darkest Era - Wither On The Vine (2022)


*Artist: Darkest Era
*Album: Wither On The Vine
*Year: 2022
*Genre: Heavy/Celtic Folk Metal
*Country: United Kingdom
*Format: mp3@CBR320kbps
*Size: 107MB

Tracklist:
01. One Thousand Years of Night 05:54
02. Floodlands 06:33
03. A Path Made of Roots 06:14
04. Tithonus 04:44
05. The Collapse 06:48
06. With Tragedy in Our Blood 06:15
07. The Ashen Plague 05:26
08. Wither on the Vine 04:06
******************************
Total playing time: 46:00



Preview 3



[more=Technical info]
Input File: 02 - Floodlands.mp3
Channels : 2
Sample Rate : 44100
Precision : 16-bit
Duration : 00:06:33.11 = 17336239 samples = 29483.4 CDDA sectors
File Size : 16.0M
Bit Rate : 325k
Sample Encoding: MPEG audio (layer I, II or III)
Comments :
Title=Floodlands
Artist=Darkest Era
Album=Wither On The Vine
Tracknumber=2/8
Year=2022
Discnumber=1/1

[/more]

Register
(14) artscald, BandR75, Cartman223, chipsgott, gwar, kolar666, madera, Olrak, rammmirez, sergsazan, talismanFS, yinchanghanhuang, zhol, Сварог Барг,
Sep 29 2022, 13:30:49 Amaurot - ...To Tread The Ancient Waters (2022)


*Artist: Amaurot
*Album: ...To Tread The Ancient Waters
*Year: 2022
*Genre: Doom/Gothic Metal
*Country: Germany
*Format: mp3@CBR320kbps
*Size: 118MB

Tracklist:
01. Aether Child 05:48
02. Des Wanderers Leid 04:50
03. Starless Sky 05:54
04. Ritual 06:55
05. Gone Forever 05:28
06. To Tread the Ancient Waters 07:36
07. Loneliness 06:39
08. Phoenician Ashes 08:24
******************************
Total playing time: 51:34


Preview 2



[more=Technical info]
Input File: 02 - Des Wanderers Leid.mp3
Channels : 2
Sample Rate : 44100
Precision : 16-bit
Duration : 00:04:50.00 = 12789000 samples = 21750 CDDA sectors
File Size : 11.8M
Bit Rate : 325k
Sample Encoding: MPEG audio (layer I, II or III)
Comments :
Title=Des Wanderers Leid
Artist=Amaurot
Album=...to Tread the Ancient Waters
Tracknumber=2
Year=2022-09-30
Discnumber=1

[/more]

Register
(16) Altkiller, artscald, Cartman223, chipsgott, gwar, kimkayoung, kluval, metala, Olrak, postal67, quarantine, sergsazan, Shadechaser, stumpheavyrock, VALERY, vlad74,
Sep 29 2022, 13:24:09 Clifford - Soulless (2022)


*Artist: Clifford
*Album: Soulless
*Year: 2022
*Genre: Progressive Deathcore
*Country: United States
*Format: mp3@CBR320kbps
*Size: 103MB

Tracklist:
01. Dark Descent 03:19
02. Bete Noire 03:36
03. Euthanize 03:49
04. Foundation 05:11
05. Craniopathy 02:22
06. Sea of Tragedy 04:27
07. Vultures 02:48
08. Cervus 03:03
09. Grandeur 02:45
10. Poor Souls 04:38
11. Soul Estate 06:43
******************************
Total playing time: 42:41

Preview 1


[more=Technical info]
Input File: 02 - Bete Noire.mp3
Channels : 2
Sample Rate : 44100
Precision : 16-bit
Duration : 00:03:36.07 = 9528687 samples = 16205.2 CDDA sectors
File Size : 9.18M
Bit Rate : 340k
Sample Encoding: MPEG audio (layer I, II or III)
Comments :
Title=Bete Noire
Artist=Clifford
Album=Soulless
Tracknumber=2/11
Year=2022
Genre=Progressive Deathcore
Discnumber=1/1

[/more]

Register
(4) artscald, chipsgott, GuldenDraak, Marek,
Sep 29 2022, 13:08:26 Raven - Leave 'Em Bleeding [compilation] (2022)


*Artist: Raven
*Album: Leave 'Em Bleeding [compilation]
*Year: 2022
*Genre: NWOBHM/Speed Metal
*Country: United Kingdom
*Format: mp3@CBR320kbps
*Size: 111MB

Tracklist:
01. Top of the Mountain 03:36
02. Metal City 03:28
03. The Power 03:55
04. Destroy All Monsters 06:06
05. Battle March / Tank Treads 05:26
06. Crash Bang Wallop (live) 04:09
07. Necessary Evil 03:54
08. Space Station #5 04:02
09. Malice in Geordieland 03:05
10. Bad Reputation (Thin Lizzy cover) 03:05
11. Rock This Town 03:52
12. Stay Hard (live) 03:04
******************************
Total playing time: 47:42



Preview 3


[more=Technical info]
Input File: 02 - Metal City.mp3
Channels : 2
Sample Rate : 44100
Precision : 16-bit
Duration : 00:03:28.00 = 9172800 samples = 15600 CDDA sectors
File Size : 8.50M
Bit Rate : 327k
Sample Encoding: MPEG audio (layer I, II or III)
Comments :
Title=Metal City
Artist=Raven
Album=Leave 'Em Bleeding
Tracknumber=2
Year=2022-09-30
Genre=Rock
Discnumber=1

[/more]

Register
(8) artscald, chipsgott, gwar, joseang, kimkayoung, recber, stumpheavyrock, supremo,
Sep 29 2022, 12:56:24 Dark Forest - Ridge & Furrow [ep] (2022)


*Artist: Dark Forest
*Album: Ridge & Furrow [ep]
*Year: 2022
*Genre: Heavy/Power Metal
*Country: United Kingdom
*Format: mp3@CBR320kbps
*Size: 59MB

Tracklist:
1. Skylark 06:40
2. The Golden Acre 05:38
3. Ridge & Furrow 06:27
4. Meadowland 02:12
5. Under the Greenwood Tree 04:41
******************************
Total playing time: 25:38






[more=Technical info]
Input File: 02 - The Golden Acre.mp3
Channels : 2
Sample Rate : 44100
Precision : 16-bit
Duration : 00:05:37.00 = 14861700 samples = 25275 CDDA sectors
File Size : 13.7M
Bit Rate : 326k
Sample Encoding: MPEG audio (layer I, II or III)
Comments :
Title=The Golden Acre
Artist=Dark Forest
Album=Ridge & Furrow
Tracknumber=2
Year=2022-09-30
Genre=Rock
Discnumber=1

[/more]

Register
(14) after21allD, artscald, aviacademy, BandR75, boby9052, chipsgott, gwar, joseang, Marek, Reverend, Rover, sergsazan, strato20, stumpheavyrock,
Sep 29 2022, 12:49:14 Distrüster - Sic Semper Tyrannis (2022)


*Artist: Distrüster
*Album: Sic Semper Tyrannis
*Year: 2022
*Genre: Speed/Death Metal/Crust
*Country: Poland
*Format: mp3@CBR320kbps
*Size: 83MB

Tracklist:
1. Nobody Dares 02:03
2. Now 3 03:35
3. Die! 01:55
4. To Live Beautifully 03:09
5. A.P.O.S 00:29
6. Burning. Open. Wounds 03:19
7. Martyr's Game 01:57
8. Over and Over 04:57
9. Loyal to None 02:34
10. Bullshit 04:45
11. Calm Under Fire 06:14
******************************
Total playing time: 34:57


Preview 2



[more=Technical info]
Input File: 02 - Now.mp3
Channels : 2
Sample Rate : 44100
Precision : 16-bit
Duration : 00:03:35.00 = 9481500 samples = 16125 CDDA sectors
File Size : 8.93M
Bit Rate : 332k
Sample Encoding: MPEG audio (layer I, II or III)
Comments :
Title=Now
Artist=Distrüster
Album=Sic Semper Tyrannis
Tracknumber=2/11
Year=2022
Discnumber=1/1

[/more]

Register
(6) artscald, chipsgott, maochen, metala, stumpheavyrock, supremo,

1491 Pages V   1 2 3 > » 
- Lo-Fi Version Support form
Copyrights and abuse reports form
Time is now: 4th October 2022 - 07:29:46