Welcome Guest ( Log In | Register )

Объявления

* gmail.com упорно продолжает считать почту с нас "unsolicited" и отбивает в том числе и письма активации, поэтому просьба использовать альтернативные почтовые ящики.
------------
* gmail.com continues reject all mail from us as "unsolicited" (activation mails too) therefore please use alternate mail servers.
История благодарностей участнику necroscum ::: Спасибо сказали: 527728 раз(а)
Дата поста: В теме: За сообщение: Спасибо сказали:
Jul 22 2024, 16:10:21 Anamura - Passion (2024)


*Artist: Anamura
*Album: Passion
*Year: 2024
*Genre: Symphonic Metal
*Country: Spain
*Format: mp3@CBR320kbps
*Size: 159MB

Tracklist:
1. Passion 06:02
2. Begeisterung 05:14
3. Enttäuschung 05:08
4. Vereitelung 06:51
5. Anpassung 05:22
6. Überwindung 04:40
7. Vereitelung (Alternativ) 06:51
8. Passion (Alternativ) 06:02
******************************
Total playing time: 46:10



[more=Extended info]Free download from bandcamp in any formats[/more]

[more=Technical info]
Input File: Anamura - Passion - 06 Überwindung.mp3
Channels : 2
Sample Rate : 44100
Precision : 16-bit
Duration : 00:04:40.13 = 12353557 samples = 21009.5 CDDA sectors
File Size : 11.3M
Bit Rate : 324k
Sample Encoding: MPEG audio (layer I, II or III)
Comments :
Title=Überwindung
Artist=Anamura
Album=Passion
Tracknumber=6
Year=2024

[/more]

Register
(7) artscald, hellraiser69, metala, Nolan2025, Piriaka_Power_Station, Wail, watasan,
Jul 20 2024, 13:27:41 Invoke Thy Wrath - Forced [single] (2022)


*Artist: Invoke Thy Wrath
*Album: Forced [single]
*Year: 2022
*Genre: Brutal Death Metal/Deathcore
*Country: United States
*Format: mp3@CBR320kbps
*Size: 6MB

Tracklist:
1. Forced 02:57
******************************
Total playing time: 2:57


Preview 2



[more=Technical info]
Input File: 01. Forced.mp3
Channels : 2
Sample Rate : 44100
Precision : 16-bit
Duration : 00:02:57.64 = 7834012 samples = 13323.1 CDDA sectors
File Size : 7.15M
Bit Rate : 322k
Sample Encoding: MPEG audio (layer I, II or III)
Comments :
Title=Forced
Artist=Invoke Thy Wrath
Album=Forced
Tracknumber=1
Year=2022

[/more]

Register
(2) artscald, Wail,
Jul 20 2024, 13:22:03 Invoke Thy Wrath - Invoke Thy Wrath [ep] (2024)


*Artist: Invoke Thy Wrath
*Album: Invoke Thy Wrath [ep]
*Year: 2024
*Genre: Brutal Death Metal/Deathcore
*Country: United States
*Format: mp3@CBR320kbps
*Size: 33MB

Tracklist:
1. Deadman 02:04
2. Forced Insemination 03:06
3. Snakes Always Smile (Feat. Cody Smith) 04:39
4. Maniacal Bloodthirsty Thanatophilia 04:38
******************************
Total playing time: 14:27


Preview 2



[more=Technical info]
Input File: 02. FORCED INSEMINATION.mp3
Channels : 2
Sample Rate : 44100
Precision : 16-bit
Duration : 00:03:06.13 = 8208421 samples = 13959.9 CDDA sectors
File Size : 7.50M
Bit Rate : 323k
Sample Encoding: MPEG audio (layer I, II or III)
Comments :
Title=FORCED INSEMINATION
Artist=Invoke Thy Wrath
Album=Invoke Thy Wrath - EP
Tracknumber=2
Year=2024

[/more]

Register
(4) artscald, cesar, sludge666, Wail,
Jul 19 2024, 16:16:21 To Hell With Religion & Descab - To Hell With Descab [split] (2024)


*Artist: To Hell With Religion & Descab
*Album: To Hell With Descab [split]
*Year: 2024
*Genre: Noisecore/Powerviolence | Brutal Death Metal/Grindcore
*Country: United States | Canada
*Format: mp3@CBR320kbps
*Size: 27MB

Tracklist:
To Hell With Religion:
1. Humid Weather = Ingrown Toenails 01:05
2. Throwing A Nine Year Old Girl In The Dumpster At Church Because She Farted On Me 00:49
3. To Hell With Religion - Suing Pepsi For Taking Flat Coke And Reselling It As, Well, Pepsi 00:48
4. Building A Ten Foot High Wall Between Canada And America To Keep Gordie From Descab And Zee From Regurgitasi Away From My Homeland 00:54
5. Days Off Are For Crying In The Shower 00:49
6. Long Weekends Are For Driving Down To Tallahassee And Beating Up The Elderly. A.K.A The Inferior. Because They're Old And Can't Fight Back 00:52
Descab:
7. Making A Sandwich After Disemboweling You 02:18
8. I Prefer Blood ... Not Mayonnaise 03:12
******************************
Total playing time: 10:47



[more=Technical info]
Input File: 02. Throwing A Nine Year Old Girl In The Dumpster.mp3
Channels : 2
Sample Rate : 44100
Precision : 16-bit
Duration : 00:00:49.74 = 2193490 samples = 3730.43 CDDA sectors
File Size : 2.32M
Bit Rate : 373k
Sample Encoding: MPEG audio (layer I, II or III)
Comments :
Title=Throwing A Nine Year Old Girl In The Dumpster At Church Because She Farted On Me
Artist=To Hell With Religion
Album=To Hell With Descab
Tracknumber=2
Year=2024

[/more]

Register
(2) artscald, Wail,
Jul 19 2024, 16:01:30 Arseny & Infectious Jelqing - Multidimensional Wigger Brutality [split] (2022)


*Artist: Arseny & Infectious Jelqing
*Album: Multidimensional Wigger Brutality [split]
*Year: 2022
*Genre: Brutal Death Metal | Brutal Death Metal
*Country: United States | United States
*Format: mp3@CBR320kbps
*Size: 30MB

Tracklist:
Arseny:
1. Hot Wigga 01:52
2. 30,000 LB Gold Chain 02:08
3. Eat. Sleep. Meth. Repeat. 02:33
4. 2 Seater Hoe Beater (Necrofuckphilia Cover) 01:21
Infectious Jelqing:
5. Malt Liquor Meltdown 01:23
6. This Generation Is Truly Lost 01:31
7. Whistle Tip$$$ 01:36
******************************
Total playing time: 12:24


Preview 2




[more=Technical info]
Input File: 03. Eat. Sleep. Meth. Repeat..mp3
Channels : 2
Sample Rate : 44100
Precision : 16-bit
Duration : 00:02:33.84 = 6784476 samples = 11538.2 CDDA sectors
File Size : 6.37M
Bit Rate : 331k
Sample Encoding: MPEG audio (layer I, II or III)
Comments :
Title=Eat. Sleep. Meth. Repeat.
Artist=Arseny
Album=Multidimensional Wigger Brutality
Tracknumber=3
Year=2022

[/more]

Register
(3) artscald, grobator, Wail,
Jul 19 2024, 15:50:06 Arseny & Infectious Jelqing - Slam Shawtys [split] (2023)


*Artist: Arseny & Infectious Jelqing
*Album: Slam Shawtys [split]
*Year: 2023
*Genre: Brutal Death Metal | Brutal Death Metal
*Country: United States | United States
*Format: mp3@CBR320kbps
*Size: 50MB

Tracklist:
Arseny:
1. Hostile Wigger Takeover 03:51
2. Gas Station Weed Rampage 03:29
3. Section Hate 02:42
4. Hoe Brutalization Protocol 03:29
Infectious Jelqing:
5. Slam Shawtys On My Dick 01:50
6. I Want All These Hoes To Know, That A Real Wigga Just Hit The Doe 01:38
7. Chiefing Hoes Until Death (C.H.U.D) 01:57
8. Savagely Beating My Ex Bitch With A Sledgehammer 01:57
******************************
Total playing time: 20:53


Preview 2




[more=Technical info]
Input File: 02. Gas Station Weed Rampage.mp3
Channels : 2
Sample Rate : 44100
Precision : 16-bit
Duration : 00:03:29.38 = 9233790 samples = 15703.7 CDDA sectors
File Size : 8.73M
Bit Rate : 333k
Sample Encoding: MPEG audio (layer I, II or III)
Comments :
Title=Gas Station Weed Rampage
Artist=Arseny
Album=Slam Shawtys

[/more]

Register
(3) artscald, grobator, Wail,
Jul 19 2024, 15:33:25 Infectious Jelqing & Arseny - White Boy Thuggery [split] (2024)


*Artist: Infectious Jelqing & Arseny
*Album: White Boy Thuggery [split]
*Year: 2024
*Genre: Brutal Death Metal | Brutal Death Metal
*Country: United States | United States
*Format: mp3@CBR320kbps
*Size: 16MB

Tracklist:
Infectious Jelqing:
1. White Boy Swag 02:20
Arseny:
2. Nuclear Thuggery 04:05
******************************
Total playing time: 6:25

Preview 1





[more=Technical info]
Input File: 02. NUCLEAR THUGGERY.mp3
Channels : 2
Sample Rate : 44100
Precision : 16-bit
Duration : 00:04:05.51 = 10827079 samples = 18413.4 CDDA sectors
File Size : 10.3M
Bit Rate : 335k
Sample Encoding: MPEG audio (layer I, II or III)
Comments :
Title=NUCLEAR THUGGERY
Artist=Arseny
Album=WHITE BOY THUGGERY
Tracknumber=2
Year=2024

[/more]

Register
(3) artscald, grobator, Wail,
Jul 19 2024, 15:23:33 Infectious Jelqing & Arseny - Roke Up And Crashed Out [split] (2024)


*Artist: Infectious Jelqing & Arseny
*Album: Roke Up And Crashed Out [split]
*Year: 2024
*Genre: Brutal Death Metal | Brutal Death Metal
*Country: United States | United States
*Format: mp3@CBR320kbps
*Size: 15MB

Tracklist:
Infectious Jelqing:
1. Roke Up In The Wrong Hood 03:38
Arseny:
2. Homicidal Crashout 03:08
******************************
Total playing time: 6:46

Preview 1





[more=Technical info]
Input File: 02. Arseny - Homicidal Crashout.mp3
Channels : 2
Sample Rate : 44100
Precision : 16-bit
Duration : 00:03:08.69 = 8321317 samples = 14151.9 CDDA sectors
File Size : 7.61M
Bit Rate : 323k
Sample Encoding: MPEG audio (layer I, II or III)
Comments :
Title=Homicidal Crashout
Artist=Arseny
Album=Roke Up and Crashed Out
Tracknumber=2
Year=2024
Genre=Brutal Death

[/more]

Register
(3) artscald, grobator, Wail,
Jul 19 2024, 15:06:10 Onchocerciasis Esophagogastroduodenoscopy - Interspecies Defloration [demo] (2019)


*Artist: Onchocerciasis Esophagogastroduodenoscopy
*Album: Interspecies Defloration [demo]
*Year: 2019
*Genre: Brutal Death Metal/Goregrind
*Country: Canada
*Format: mp3@CBR320kbps
*Size: 20MB

Tracklist:
1. ホワイト クリスマス 01:09
2. Interspecies Defloration 01:26
3. Lolita Complex 00:57
4. Swallow My Seed 01:14
5. Kindergarten Kranioplasty 00:54
6. Bishōnen Bukkake 01:18
7. The Lost Snail 01:23
******************************
Total playing time: 8:21


Preview 2


[more=Technical info]
Input File: 03. Lolita Complex.mp3
Channels : 2
Sample Rate : 44100
Precision : 16-bit
Duration : 00:00:57.34 = 2528738 samples = 4300.57 CDDA sectors
File Size : 2.46M
Bit Rate : 343k
Sample Encoding: MPEG audio (layer I, II or III)
Comments :
Title=Lolita Complex
Artist=Onchocerciasis Esophagogastroduodenoscopy
Album=Interspecies Defloration
Tracknumber=3
Year=2019

[/more]

Register
(4) artscald, Carcharoth, grobator, Wail,
Jul 19 2024, 14:55:39 Onchocerciasis Esophagogastroduodenoscopy - Adoration Of Decaying Innocence [ep] (2020)


*Artist: Onchocerciasis Esophagogastroduodenoscopy
*Album: Adoration Of Decaying Innocence [ep]
*Year: 2020
*Genre: Brutal Death Metal/Goregrind
*Country: Canada
*Format: mp3@CBR320kbps
*Size: 54MB

Tracklist:
1. Warmth Of The Womb 03:33
2. Despoiled Crypt Of Posthumous Pubescent Decay 03:00
3. Harvesting The Ripened Bairn Malformations For The Adoration Of Decaying Innocence Upon The Gnarled Horns Of Omnipotent Sanctity 01:10
4. Stult Carnality 02:26
5. To Bathe Within Streams Of Adolescent Seminal Filth 03:08
6. Rapid Descent To Dissentient Bliss 01:18
******************************
Total playing time: 14:35


Preview 2



[more=Extended info]Exclusive for Metalarea.org[/more]

[more=Technical info]
Input File: 02. Despoiled Crypt of Posthumous Pubescent Decay.mp3
Channels : 2
Sample Rate : 44100
Precision : 16-bit
Duration : 00:03:00.75 = 7971119 samples = 13556.3 CDDA sectors
File Size : 10.8M
Bit Rate : 476k
Sample Encoding: MPEG audio (layer I, II or III)
Comments :
Title=Despoiled Crypt of Posthumous Pubescent Decay
Artist=Onchocerciasis Esophagogastroduodenoscopy
Album=Adoration of Decaying Innocence
Tracknumber=2
Year=2020
Genre=Hard Rock

[/more]

Register
(3) artscald, Carcharoth, Wail,
Jul 19 2024, 14:26:09 Immolated - Suicidal Apathy [single] (2024)


*Artist: Immolated
*Album: Suicidal Apathy [single]
*Year: 2024
*Genre: Death Metal
*Country: United States
*Format: mp3@CBR320kbps
*Size: 10MB

Tracklist:
01. Suicidal Apathy 04:42
******************************
Total playing time: 4:42

Preview 1



[more=Technical info]
Input File: 01. Suicidal Apathy.mp3
Channels : 2
Sample Rate : 44100
Precision : 16-bit
Duration : 00:04:42.43 = 12454943 samples = 21181.9 CDDA sectors
File Size : 11.4M
Bit Rate : 322k
Sample Encoding: MPEG audio (layer I, II or III)
Comments :
Title=Suicidal Apathy (DEMO)
Artist=Immolated
Album=Suicidal Apathy
Tracknumber=1
Year=2024

[/more]

Register
(2) artscald, Wail,
Jul 19 2024, 14:20:34 Immolated - Torn And Slaughtered [single] (2024)


*Artist: Immolated
*Album: Torn And Slaughtered [single]
*Year: 2024
*Genre: Death Metal
*Country: United States
*Format: mp3@CBR320kbps
*Size: 11MB

Tracklist:
01. Torn And Slaughtered 04:53
******************************
Total playing time: 4:53

Preview 1



[more=Technical info]
Input File: 01. Torn and Slaughtered.mp3
Channels : 2
Sample Rate : 44100
Precision : 16-bit
Duration : 00:04:53.48 = 12942248 samples = 22010.6 CDDA sectors
File Size : 11.9M
Bit Rate : 323k
Sample Encoding: MPEG audio (layer I, II or III)
Comments :
Title=Torn and Slaughtered (DEMO)
Artist=Immolated
Album=Torn And Slaughtered
Tracknumber=1
Year=2024

[/more]

Register
(2) artscald, Wail,
Jul 19 2024, 14:14:50 Immolated - Pull The Trigger [single] (2024)


*Artist: Immolated
*Album: Pull The Trigger [single]
*Year: 2024
*Genre: Death Metal
*Country: United States
*Format: mp3@CBR320kbps
*Size: 7MB

Tracklist:
01. Pull The Trigger 02:57
******************************
Total playing time: 2:57

Preview 1



[more=Technical info]
Input File: 01. Pull The Trigger.mp3
Channels : 2
Sample Rate : 44100
Precision : 16-bit
Duration : 00:02:57.30 = 7819018 samples = 13297.6 CDDA sectors
File Size : 7.20M
Bit Rate : 325k
Sample Encoding: MPEG audio (layer I, II or III)
Comments :
Title=Pull The Trigger (DEMO)
Artist=Immolated
Album=Pull The Trigger
Tracknumber=1
Year=2024

[/more]

Register
(2) artscald, Wail,
Jul 19 2024, 14:00:30 Disarmer - A Lesson In Fear And Death [ep] (2024)


*Artist: Disarmer
*Album: A Lesson In Fear And Death [ep]
*Year: 2024
*Genre: Deathcore
*Country: United States
*Format: mp3@CBR320kbps
*Size: 29MB

Tracklist:
1. A Lesson (Intro) 01:13
2. Down 02:04
3. Fear 03:44
4. Isolation 02:55
5. And Death (Outro) 01:44
******************************
Total playing time: 11:40


Preview 2


[more=Technical info]
Input File: 03 - FEAR.mp3
Channels : 2
Sample Rate : 44100
Precision : 16-bit
Duration : 00:03:44.46 = 9898642 samples = 16834.4 CDDA sectors
File Size : 9.44M
Bit Rate : 337k
Sample Encoding: MPEG audio (layer I, II or III)
Comments :
Title=FEAR
Artist=Disarmer
Album=A LESSON IN FEAR AND DEATH
Tracknumber=3/5
Year=2024
Discnumber=1/1

[/more]

Register
(5) artscald, Marek, sludge666, suicidalrampage, Wail,
Jul 18 2024, 16:48:20 Immolated - Nuclear Extermination [demo] (2024)


*Artist: Immolated
*Album: Nuclear Extermination [demo]
*Year: 2024
*Genre: Death Metal
*Country: United States
*Format: mp3@CBR320kbps
*Size: 16MB

Tracklist:
1. Columbian Necktie 03:39
2. Eradicate 03:04
******************************
Total playing time: 6:43

Preview 1



[more=Technical info]
Input File: 02. Eradicate.mp3
Channels : 2
Sample Rate : 44100
Precision : 16-bit
Duration : 00:03:04.70 = 8145050 samples = 13852.1 CDDA sectors
File Size : 7.63M
Bit Rate : 330k
Sample Encoding: MPEG audio (layer I, II or III)
Comments :
Title=Eradicate
Artist=Immolated
Album=NUCLEAR EXTERMINATION
Tracknumber=2
Year=2024

[/more]

Register
(4) artscald, Marek, suicidalrampage, Wail,
Jul 18 2024, 16:41:04 Cute Puppy Decapitation - Promo '24 [demo] (2024)


*Artist: Cute Puppy Decapitation
*Album: Promo '24 [demo]
*Year: 2024
*Genre: Brutal Death Metal
*Country: United States
*Format: mp3@CBR320kbps
*Size: 20MB

Tracklist:
1. Chomp.avi 03:21
2. Snuggling On Dog Powdered Food 02:35
3. Adogholdingknife.jpg 02:58
******************************
Total playing time: 8:54



[more=Extended info]Free download from bandcamp in any formats[/more]

[more=Technical info]
Input File: 02. snuggling on dog powdered food.mp3
Channels : 2
Sample Rate : 44100
Precision : 16-bit
Duration : 00:02:35.72 = 6867428 samples = 11679.3 CDDA sectors
File Size : 6.30M
Bit Rate : 323k
Sample Encoding: MPEG audio (layer I, II or III)
Comments :
Title=snuggling on dog powdered food
Artist=cute puppy decapitation
Album=promo '24
Tracknumber=2
Year=2022

[/more]

Register
(2) artscald, Wail,
Jul 18 2024, 16:32:31 Necromonger - Necropromo 2024: Slam Poetry [demo] (2024)


*Artist: Necromonger
*Album: Necropromo 2024: Slam Poetry [demo]
*Year: 2024
*Genre: Brutal Death Metal
*Country: Canada
*Format: mp3@CBR320kbps
*Size: 22MB

Tracklist:
1. Blunt Force Trauma Dump 02:07
2. Devil In The Details 02:22
3. Anagram Flesh 02:25
4. Long Pig 02:22
******************************
Total playing time: 9:16

Preview 1


[more=Technical info]
Input File: 02. Devil In The Details.mp3
Channels : 2
Sample Rate : 44100
Precision : 16-bit
Duration : 00:02:22.48 = 6283324 samples = 10685.9 CDDA sectors
File Size : 5.87M
Bit Rate : 330k
Sample Encoding: MPEG audio (layer I, II or III)
Comments :
Title=Devil In The Details
Artist=Necromonger
Album=Necropromo 2024: Slam Poetry
Tracknumber=2
Year=2024

[/more]

Register
(3) artscald, maochen, Wail,
Jul 18 2024, 16:22:15 Rev3rent - Last Trace [ep] (2024)


*Artist: Rev3rent
*Album: Last Trace [ep]
*Year: 2024
*Genre: Deathcore
*Country: United States
*Format: mp3@CBR320kbps
*Size: 36MB

Tracklist:
1. Smile! Wait For The Flash 01:45
2. My Hand, Your Demise 02:56
3. ...Of Blood And Brutality 03:07
4. Last Trace (Feat. Ana-Kamilla Arnback Of Lilith's Demise) 03:23
5. If I Die Here First 02:33
6. Tormented Fate 01:28
******************************
Total playing time: 15:12




[more=Technical info]
Input File: 02. My Hand, Your Demise.mp3
Channels : 2
Sample Rate : 44100
Precision : 16-bit
Duration : 00:02:56.78 = 7795998 samples = 13258.5 CDDA sectors
File Size : 7.19M
Bit Rate : 325k
Sample Encoding: MPEG audio (layer I, II or III)
Comments :
Title=My Hand, Your Demise
Artist=Rev3rent
Album=Last Trace
Tracknumber=2
Year=2024
Genre=Deathcore, Slam

[/more]

Register
(5) artscald, KILLERS12, Marek, suicidalrampage, Wail,
Jul 18 2024, 16:10:02 Loners - Moonwoke (2024)


*Artist: Loners
*Album: Moonwoke
*Year: 2024
*Genre: Death Metal/Grindcore
*Country: Belgium
*Format: mp3@CBR320kbps
*Size: 71MB

Tracklist:
1. Intro 00:22
2. Abducted 01:31
3. Shit 00:55
4. Love Is Everywhere Except In My Cunt 02:11
5. I'm Not A Monkey Darwin 01:17
6. Quickflip On The Spaceship 01:50
7. Code Orange Like The Juice 01:55
8. Hardcore Kid 02:13
9. Midget As A Pet 00:54
10. Interlude Pipeau 01:22
11. Dude Where Is My Soucoupe Volante? 01:52
12. Wombo Pongo 01:42
13. Aliens Ate My Tacos 01:51
14. Woke In The Wok 10:36
******************************
Total playing time: 30:31



[more=Technical info]
Input File: 04. Love Is Everywhere Except in My Cunt.mp3
Channels : 2
Sample Rate : 44100
Precision : 16-bit
Duration : 00:02:11.64 = 5805236 samples = 9872.85 CDDA sectors
File Size : 5.35M
Bit Rate : 325k
Sample Encoding: MPEG audio (layer I, II or III)
Comments :
Title=Love Is Everywhere Except in My Cunt
Artist=Loners
Album=Moonwoke
Tracknumber=4
Year=2024
Genre=Death Metal, Grindcore, Crust

[/more]

Register
(4) artscald, cesar, jollo, Wail,
Jul 18 2024, 15:40:03 Tomb Cheese - Tomb Cheese (2024)


*Artist: Tomb Cheese
*Album: Tomb Cheese
*Year: 2024
*Genre: Brutal Death Metal
*Country: United States
*Format: mp3@CBR320kbps
*Size: 92MB

Tracklist:
01. Cheddar Aggressor 02:43
02. Incoherent Descent 01:38
03. The Skin Of Human Friends 03:54
04. We've Been Trying To Reach You (With A Very Long Knife) 02:43
05. Ladle To The Grave 02:47
06. King Of The Wicker People 02:14
07. Eternal Congestion 03:16
08. Stealing Bags Of Biological Waste From The Hospital 02:43
09. Abysspisser 02:43
10. Feral, Rampant, Unbothered 02:10
11. Bowel Whistler 02:36
12. Sailing The Seas Of Raw Sewage 03:15
13. Bursting At The Seams With Blood 02:42
14. Testicular Torment 02:10
15. Decaying Delicacies (Bonus Track) 02:43
******************************
Total playing time: 40:17



[more=Technical info]
Input File: 02. Incoherent Descent.mp3
Channels : 2
Sample Rate : 44100
Precision : 16-bit
Duration : 00:01:38.10 = 4326122 samples = 7357.35 CDDA sectors
File Size : 3.93M
Bit Rate : 320k
Sample Encoding: MPEG audio (layer I, II or III)
Comments :
Title=Incoherent Descent
Artist=Tomb Cheese
Album=Tomb Cheese
Tracknumber=02/15
Year=2024
Genre=Brutal Death

[/more]

Register
(14) alikkon, Altkiller, artscald, audiohome, cesar, Golfzilla, grobator, jollo, maochen, metala, Pathologistov, suicidalrampage, vyacheslav, Wail,
Jul 18 2024, 15:27:26 Delucide - Memento Mori [ep] (2024)


*Artist: Delucide
*Album: Memento Mori [ep]
*Year: 2024
*Genre: Symphonic/Blackened Deathcore
*Country: Japan
*Format: mp3@CBR320kbps
*Size: 42MB

Tracklist:
01. The Beast Of The Diocesan Chancellor 02:05
02. Memento Mori 03:08
03. Hazardous Sanctuary 04:51
04. Void 03:10
05. The Fate Of Exorcist 05:16
******************************
Total playing time: 18:30

Preview 1


[more=Technical info]
Input File: 03. Hazardous sanctuary.mp3
Channels : 2
Sample Rate : 44100
Precision : 16-bit
Duration : 00:04:51.00 = 12833100 samples = 21825 CDDA sectors
File Size : 11.7M
Bit Rate : 320k
Sample Encoding: MPEG audio (layer I, II or III)
Comments :
Title=Hazardous sanctuary
Artist=Delucide
Album=Memento Mori
Tracknumber=3
Year=2024-03-20

[/more]

Register
(3) artscald, Wail, zhol,
Jul 18 2024, 15:19:10 Kommandant - Exhibition Of Conquest [ep] (2024)


*Artist: Kommandant
*Album: Exhibition Of Conquest [ep]
*Year: 2024
*Genre: Death/Black Metal
*Country: United States
*Format: mp3@CBR320kbps
*Size: 62MB

Tracklist:
1. Reborn Into Violence 04:52
2. Arsenal 05:11
3. Zweikampf 05:36
4. The Standard 06:13
5. Exhibition Of Conquest 05:24
******************************
Total playing time: 27:16







[more=Technical info]
Input File: 04. The Standard.mp3
Channels : 2
Sample Rate : 44100
Precision : 16-bit
Duration : 00:06:13.41 = 16467557 samples = 28006 CDDA sectors
File Size : 15.0M
Bit Rate : 321k
Sample Encoding: MPEG audio (layer I, II or III)
Comments :
Title=The Standard
Artist=Kommandant
Album=Exhibition of Conquest
Genre=Black Metal

[/more]

Register
(17) AlexSmith, Altkiller, artscald, blaskhyrk, Carcharoth, ErickLeoni, HelenVaughan, kefka, khestanow3001, pwoods, sacrut, supremo, VALERY, vyacheslav, Wail, wtk.412, yuratroll,
Jul 18 2024, 15:03:59 Slovgh - Emetic Fluid Transaction [ep] (2024)


*Artist: Slovgh
*Album: Emetic Fluid Transaction [ep]
*Year: 2024
*Genre: Death Metal/Goregrind
*Country: Denmark
*Format: mp3@CBR320kbps
*Size: 18MB

Tracklist:
1. Skin Sloughing 00:47
2. Open Face Surgery 01:17
3. The Mortician 01:35
4. Emetic Fluid Transaction 00:20
5. Ensnared (By The Knife) 01:45
6. Vomit Evisceration 01:23
******************************
Total playing time: 7:07


Preview 2



[more=Technical info]
Input File: 02. Open Face Surgery.mp3
Channels : 2
Sample Rate : 44100
Precision : 16-bit
Duration : 00:01:17.77 = 3429657 samples = 5832.75 CDDA sectors
File Size : 3.43M
Bit Rate : 353k
Sample Encoding: MPEG audio (layer I, II or III)
Comments :
Title=Open Face Surgery
Artist=Slovgh
Album=Emetic Fluid Transaction
Tracknumber=2
Year=2024
Genre=Death/Grind, Goregrind, Slam

[/more]

Register
(4) artscald, RotAnus, supremo, Wail,
Jul 18 2024, 14:23:29 Quiescent Mantis - Here Comes The Swarm (2024)


*Artist: Quiescent Mantis
*Album: Here Comes The Swarm
*Year: 2024
*Genre: Technical Death Metal/Deathcore
*Country: United States
*Format: mp3@CBR320kbps
*Size: 85MB

Tracklist:
1. Open The Gates 03:40
2. Here Comes The Swarm 03:22
3. Apex Predator 03:19
4. P.R.E.Y. 04:06
5. Shake The Cage 05:10
6. Breed. Feed. Repeat. 03:30
7. Primal Form Of Aggression 03:52
8. Killer Bee, Killed 02:34
9. Fight! 03:32
10. This Is The End. 02:38
******************************
Total playing time: 35:43


Preview 2



[more=Technical info]
Input File: 03. Apex Predator.mp3
Channels : 2
Sample Rate : 44100
Precision : 16-bit
Duration : 00:03:19.43 = 8794819 samples = 14957.2 CDDA sectors
File Size : 8.29M
Bit Rate : 332k
Sample Encoding: MPEG audio (layer I, II or III)
Comments :
Title=Apex Predator
Artist=Quiescent Mantis
Album=Here Comes the Swarm
Tracknumber=3
Year=2024
Genre=Modern Technical Death/Black, Hardcore

[/more]

Register
(10) artscald, cesar, john73, maochen, Marek, metala, suicidalrampage, VALERY, vyacheslav, Wail,
Jul 18 2024, 14:07:29 The Depressick - Faded​.​exe (2024)


*Artist: The Depressick
*Album: Faded​.​exe
*Year: 2024
*Genre: Atmospheric/Depressive Post-Black Metal
*Country: Mexico
*Format: mp3@CBR320kbps
*Size: 98MB

Tracklist:
1. Shattered Heart 08:59
2. Greywave 06:10
3. HCI 09:29
4. Indlandsis 07:25
5. Papillon (Part I) 06:37
6. Papillon (Part II) 03:34
******************************
Total playing time: 42:14


Preview 2



[more=Extended info]Also released limited edition with track ,,Gray Ocean (piano version)"[/more]

[more=Technical info]
Input File: 06 - Papillon (Part II).mp3
Channels : 2
Sample Rate : 44100
Precision : 16-bit
Duration : 00:03:34.00 = 9437400 samples = 16050 CDDA sectors
File Size : 8.88M
Bit Rate : 332k
Sample Encoding: MPEG audio (layer I, II or III)
Comments :
Title=Papillon (Part II)
Artist=The Depressick
Album=faded.exe
Tracknumber=6
Year=2024-07-19
Genre=Metal
Discnumber=1

[/more]

Register
(14) aleon, AlexSmith, artscald, Condehate, kim666, marraz, nemx, Otcmetal, Poemer, robertho777, supremo, VALERY, vasiljev_sergej, Wail,

1650 Pages V   1 2 3 > » 
- Lo-Fi Version Support form
Copyrights and abuse reports form
Time is now: 24th July 2024 - 13:10:50