Welcome Guest ( Log In | Register )

История благодарностей участнику necroscum ::: Спасибо сказали: 412011 раз(а)
Дата поста: В теме: За сообщение: Спасибо сказали:
Jan 25 2020, 15:09:07 Perky Macabre - Strange Ways [ep] (2020)


*Artist: Perky Macabre
*Album: Strange Ways [ep]
*Year: 2020
*Genre: Grindcore
*Country: United States
*Format: mp3@CBR320kbps
*Size: 9MB

Tracklist:
01. Blitz 00:14
02. Baphomet 00:54
03. Naked 00:27
04. True Enlightenment 00:25
05. Cross-Hair Eyes 00:29
******************************
Total playing time: 2:29



[more=Technical info]
Input File: 02. Baphomet.mp3
Channels : 2
Sample Rate : 44100
Precision : 16-bit
Duration : 00:00:54.63 = 2408963 samples = 4096.88 CDDA sectors
File Size : 2.28M
Bit Rate : 335k
Sample Encoding: MPEG audio (layer I, II or III)
Comments :
Title=Baphomet
Artist=Perky Macabre
Album=Strange Ways
Tracknumber=2
Year=2020

[/more]

Register
(3) infiltrator, Olethros, Rosen,
Jan 25 2020, 14:58:34 Brutal Contamination - Purulent Cadaver [ep] (2018)


*Artist: Brutal Contamination
*Album: Purulent Cadaver [ep]
*Year: 2018
*Genre: Goregrind
*Country: Brazil
*Format: mp3@CBR320kbps
*Size: 8MB

Tracklist:
01. Splattered Brains 00:48
02. Head Trauma 01:04
03. Purulent Cadaver 00:57
04. Pyelonephritis II 00:57
******************************
Total playing time: 3:46




[more=Technical info]
Input File: 04. Pyelonephritis II.mp3
Channels : 2
Sample Rate : 44100
Precision : 16-bit
Duration : 00:00:57.26 = 2525298 samples = 4294.72 CDDA sectors
File Size : 2.41M
Bit Rate : 337k
Sample Encoding: MPEG audio (layer I, II or III)
Comments :
Title=4 - Pyelonephritis II
Artist=Brutal Contamination
Album=Purulent cadaver - EP - 2018
Tracknumber=4
Year=2018

[/more]

Register
(4) infiltrator, Olethros, Rosen, satanist666,
Jan 25 2020, 14:42:01 Toxocara Canis - Complete Disgoregraphy [compilation] (2020)


*Artist: Toxocara Canis
*Album: Complete Disgoregraphy [compilation]
*Year: 2020
*Genre: Goregrind
*Country: United States
*Format: mp3@CBR320kbps
*Size: 176MB

Tracklist:
01. Postnatal Drip 01:47
02. Infected At Birth 00:54
03. One With The Wvrm 00:43
04. At Your Cervix 00:41
05. Visceral Larvae Migration 00:40
06. Trichomonas Vaginalis 00:42
07. Cvlt Of The Wvrm 00:43
08. Hypergammaglobulinaemia 01:04
09. Human Host Transmission 00:42
10. Covert Toxocariarsis 00:48
11. Deworming Death Squad 00:41
12. Ascarsis 00:23
13. Living Dissection 00:54
14. Porcum Oculus Interficiam Dimidium 00:53
15. W.V.R.M. 00:11
16. Postmortem Examination 02:07
17. Entrapped Larvae 00:50
18. Eosinophilic Granulomatous Mass 00:31
19. Testicular Torsion 00:29
20. Parasitized Humans 00:22
21. Ascaridida Toxocaridae 00:14
22. Hemisected Organ Harvest 00:37
23. Sphenopalatine Ganglioneuralgia 00:30
24. Hellminth Gonochorism 00:21
25. Nitrogenous Waste 00:44
26. Hellminthiases 01:02
27. Xiphinema Index 00:42
28. Immunocompromised Patients 00:56
29. Verminous Hemorrhagic Dermatitis 00:56
30. Hemolytic-Uremic Syndrome 00:58
31. Unguis Incarnates 00:44
32. Vasovagal Syncope 00:49
33. Fenbendazole Overdose 00:48
34. Gangrenouse Selamctin Injection 00:22
35. Antihelmintic Thiabendazole 00:31
36. Pyrantel Pamoate 01:18
37. Ancylostoma Braziliense 00:22
38. Dichlorvos Heptomegaly 00:03
39. Covert Nematode Ophthalmitis Toxocaral Disease 00:03
40. Pleural Effusion 00:04
41. Bloodstained Cuticula 00:36
42. Ocular Larvae Migration 00:34
43. Blinded By The Wvrm 00:35
44. Cataract Sight 01:01
45. Hepatomegaly Abdominal Mass 00:24
46. Enucleation Of The Eye 00:36
47. Manifestation Of The Wvrm 00:34
48. Ingest Infective Eggs 00:39
49. Eyes Erroneously Removed 00:23
50. Unilateral Visual Disturbances 00:16
51. Ocular Toxocariasis 00:28
52. Necrotizing Retinochoroiditis 00:30
53. De Vermis Mysteriis 01:03
54. Pasteurella Multocida Transmission 00:47
55. Capnocytophaga Canimorsus 00:41
56. Marked Peripheral Eosinophilia 00:54
57. Trypanosoma Cruzi 00:36
58. Myocarditis 00:53
59. Wide Cervical Alae 00:46
60. Single Nucleotide Polymorphisms 01:00
61. Transmissible Spongiform Encephalopathy 01:21
62. Ischemic Cerebrovascular Bleeding 01:43
63. Methicillin-Resistant Staphylococcus Aureus 01:21
64. Baylisascaris Procyonis 00:55
65. Ascaris Suum 01:06
66. Zoonotic Infections 01:41
67. Larva Migrans Syndromes 00:55
68. Inflammatory Cardiomyopathy 00:41
69. Fetal Brain Deformation 00:47
70. Cancerous Retinoblastoma 00:26
71. Vertical Placental Transmission 00:22
72. Pneumocystis Jirovecii Infection 00:59
73. Diagnosis Of Cutaneous Toxoplasmosis 00:43
74. Toxocarasitic 00:53
75. Congenital Toxoplasmosis 01:39
76. Ingestion Of Raw Stem Cell Transplants 01:13
77. Placental Cord Blood 01:21
78. Intracranial Artheriosclerosis 00:42
79. Fetal Death And Abortion 00:36
80. Malleus Maleficarum 00:53
81. Toxascaris Leonina 00:56
82. Ascarid Nematode 00:24
83. Numerous Neural Alterations 00:34
84. Parasitophorous Vacuole 00:39
85. Toxoplasma Gondii Oocysts 00:30
86. Eosinophilic Pseudoleukemia 00:59
87. Ubiquitous Gastrointestinal Wvrms 00:44
88. Bulging Lymphadenitis 00:42
89. Canid Devestation 00:47
90. Elevated Isohaemagglutinins 00:56
91. Retinal Granulomas 00:53
******************************
Total playing time: 1:09:46



[more=Extended info]Tracks 1-13 from Postnatal Drip
Tracks 14-18 from 3-way Split with Chikara & Coke Nail
Tracks 19-24 from Split with TimexCube
Tracks 25-29 from Split with Millions of Dead Parazites
Tracks 30-32 from 5-way Split with Blenncardichromodacryexgenitohaemgene, Fibromyalgia, Cirrhosis of the Liver, & Goregasmatron
Tracks 33-37 from Split with Bacteria Filled Urine Bag
Tracks 38-40 from Microgore Compilation
Tracks 41-53 from Bloodstained Cuticula
Tracks 54-59 from Split with Gangrene Discharge
Tracks 60-63 from 4-way Split with Lymphocytic, Shitwater Healing, & Epidemic Pain
Tracks 64-68 from Split with Varkolak
Tracks 69-74 from Split with Renal Hydronephrosis
Tracks 75-80 from Split with Agathocles
Tracks 81-85 from Split with K9 Hemorrhoids
Tracks 86-91 from Split with Haggus[/more]

[more=Technical info]
Input File: Toxocara Canis - Complete DisGOREgraphy - 58 Myocarditis.mp3
Channels : 2
Sample Rate : 44100
Precision : 16-bit
Duration : 00:00:53.06 = 2339814 samples = 3979.28 CDDA sectors
File Size : 2.35M
Bit Rate : 355k
Sample Encoding: MPEG audio (layer I, II or III)
Comments :
Title=Myocarditis
Artist=Toxocara Canis
Album=Complete DisGOREgraphy
Tracknumber=58
Year=2020

[/more]

Register
(5) alikkon, infiltrator, Olethros, Rosen, satanist666,
Jan 25 2020, 14:27:16 Toxocara Canis - The Splits [compilation] (2020)


*Artist: Toxocara Canis
*Album: The Splits [compilation]
*Year: 2020
*Genre: Goregrind
*Country: United States
*Format: mp3@CBR320kbps
*Size: 122MB

Tracklist:
01. Porcum Oculus Interficiam Dimidium 00:53
02. W.V.R.M. 00:11
03. Postmortem Examination 02:07
04. Entrapped Larvae 00:50
05. Eosinophilic Granulomatous Mass 00:31
06. Testicular Torsion 00:29
07. Parasitized Humans 00:22
08. Ascaridida Toxocaridae 00:14
09. Hemisected Organ Harvest 00:37
10. Sphenopalatine Ganglioneuralgia 00:30
11. Hellminth Gonochorism 00:21
12. Nitrogenous Waste 00:44
13. Hellminthiases 01:02
14. Xiphinema Index 00:42
15. Verminous Hemorrhagic Dermatitis 00:56
16. Immunocompromised Patients 00:56
17. Hemolytic-Uremic Syndrome 00:58
18. Unguis Incarnates 00:44
19. Vasovagal Syncope 00:49
20. Fenbendazole Overdose 00:48
21. Gangrenouse Selamctin Injection 00:22
22. Antihelmintic Thiabendazole 00:31
23. Pyrantel Pamoate 01:18
24. Ancylostoma Braziliense 00:22
25. Pasteurella Multocida Transmission 00:47
26. Capnocytophaga Canimorsus 00:41
27. Marked Peripheral Eosinophilia 00:54
28. Trypanosoma Cruzi 00:36
29. Myocarditis 00:53
30. Wide Cervical Alae 00:46
31. Single Nucleotide Polymorphisms 01:00
32. Transmissible Spongiform Encephalopathy 01:21
33. Ischemic Cerebrovascular Bleeding 01:43
34. Methicillin-Resistant Staphylococcus Aureus 01:21
35. Baylisascaris Procyonis 00:55
36. Ascaris Suum 01:06
37. Zoonotic Infections 01:41
38. Larva Migrans Syndromes 00:55
39. Inflammatory Cardiomyopathy 00:41
40. Cancerous Retinoblastoma 00:26
41. Diagnosis Of Cutaneous Toxoplasmosis 00:43
42. Fetal Brain Deformation 00:47
43. Pneumocystis Jirovecii Infection 00:59
44. Vertical Placental Transmission 00:22
45. Congenital Toxoplasmosis 01:39
46. Ingestion Of Raw Stem Cell Transplants 01:13
47. Placental Cord Blood 01:21
48. Intracranial Artheriosclerosis 00:42
49. Fetal Death And Abortion 00:36
50. Malleus Maleficarum 00:53
51. Toxascaris Leonina 00:56
52. Ascarid Nematode 00:24
53. Numerous Neural Alterations 00:34
54. Parasitophorous Vacuole 00:39
55. Toxoplasma Gondii Oocysts 00:30
56. Eosinophilic Pseudoleukemia 00:59
57. Ubiquitous Gastrointestinal Wvrms 00:44
58. Bulging Lymphadenitis 00:42
59. Canid Devestation 00:47
60. Elevated Isohaemagglutinins 00:56
61. Retinal Granulomas 00:53
******************************
Total playing time: 50:22



[more=Technical info]
Input File: Toxocara Canis - The Splits - 25 Pasteurella Multocida Transmission.mp3
Channels : 2
Sample Rate : 44100
Precision : 16-bit
Duration : 00:00:47.52 = 2095588 samples = 3563.93 CDDA sectors
File Size : 2.06M
Bit Rate : 347k
Sample Encoding: MPEG audio (layer I, II or III)
Comments :
Title=Pasteurella Multocida Transmission
Artist=Toxocara Canis
Album=The Splits
Tracknumber=25
Year=2020

[/more]

Register
(5) alikkon, infiltrator, Olethros, Rosen, satanist666,
Jan 25 2020, 14:05:13 Various Artists - Necropathologic Sound Compilation [compilation] (2019)


*Artist: Various Artists
*Album: Necropathologic Sound Compilation [compilation]
*Year: 2019
*Genre: Goregrind/Pornogrind/Noisegrind
*Country: Many
*Format: mp3@CBR320kbps
*Size: 158MB

Tracklist:
Enema Jizz:
01. Untitled 1 00:23
02. Untitled 2 00:26
Paraphimosis:
03. Organ Dealer 01:31
Death Hark Nark:
04. Verdosa En Los Genitales Masculinos 00:22
05. Brain Infested Maggots 00:28
Aromas Of An Corpse:
06. Rotten And Melted 01:00
Parafilia Grotesca:
07. Picardias De Una Cholita 02:41
08. Ayer Cague Y Me Acorde De Ti 02:35
CxExGxBxCxUxMxVxIx:
09. Edema Indurado Con Esclerosis 00:55
10. Sexo Incestuoso Entre Hermanos Con Obesidad Morbida 01:20
Triquina De Cerdo:
11. No Soy Gay Pero Me Gusta Kudai 03:00
12. Regaytoon Culeo Intenso 02:18
I Hate Your Guts:
13. Dick Tick 00:27
14. Sex Glove 00:20
Intracranial Hemorrhage Trauma:
15. 2 Tracks 02:33
Svlfvr Kvfvr:
16. Unreleased Gorbage 1 00:31
17. Unreleased Gorbage 2 00:46
Mionecrosis Clostridial:
18. Armin Meiwes 00:26
19. Desmembrando Metaleros 00:26
Intestinal Simphony:
20. Casi Me Muero Cagando 03:13
21. 47 Segundos De Agonia 00:44
Señor Del Estiercol:
22. Señor Del Estiercol 00:35
23. Pozo De Mierda 00:29
Bubble Butt Teen Command:
24. Desayuno Rectal 03:06
25. Cyber Orgia Con Jovencitas Japonesas 01:03
CxPxAxSxZxGxCxCx:
26. Transexuales Alienigenas Aterrorizan Los Campos Secuestrando Toros Para Su Satisfacción Anal 01:04
27. Visceras Humanas Asadas Al Estilo Norteño Alterado De Botas Y A Caballo 01:50
Cum Book:
28. Dirty Talking Whore 01:34
29. Wrong Hole 01:06
Crack Addict Babies:
30. Track Shooting Heroin Into A Brain Tumor 01:10
Human Aberration:
31. Slyme 02:21
32. Toxic Mac 01:38
RxHx:
33. Subsequent Necrosis Of Fetal Tissuehypertensive Hemorrhage In The Brainstemulcerative Colitisscrotal Lymphedema Esophagogast 00:52
34. Scrotal Acid Attack 00:26
Necrologyst:
35. Deapitated 02:11
36. Regurgitated Worms 03:10
Gonorrea:
37. Donkey Cock 01:09
38. Cow 01:25
Ateriovenous Stomachal Malformation:
39. 5 Tracks 01:26
Peptic Testicle Vomitus:
40. 5 Tracks 02:22
Ulceropulcopronecrobiovulpectomy:
41. Enanoaxilismoexcrementuomeningocloriandrusipectomiaencinepolislacapitaldelcine 00:24
42. Ecxitanteejecuciónaraterohijodeputacondenadoalsufrimientoeternoytorturasodomizadallevadaacaboporunarameraleprosa 00:32
Ektopia:
43. Filmando Porno Gratis 01:08
44. Orgasmo Simultaneo 02:03
WxAxIxFxUx:
45. Intro Maked In A Bathroom Of The Old Man With Sida 00:19
46. I Have 1 Gorenoise Project Because My Fathers Don't Give Attention 00:18
Organic Fluids Used For Extensive Pervert And Forensic Imagination:
47. Enema 00:49
Medical Waste:
48. Scalped With Glass 00:32
49. Lobotomized And Sodomized 01:02
Urticaria Penicilina Maligna :
50. Raped By A Pseudogrinder 01:19
Autistic Octopus Clan:
51. Appapu The Rock 00:26
52. Blubby The Awesome Whale 00:41
******************************
Total playing time: 1:04:55







[more=Technical info]
Input File: 02. Untitled 2.mp3
Channels : 2
Sample Rate : 44100
Precision : 16-bit
Duration : 00:00:26.18 = 1154362 samples = 1963.2 CDDA sectors
File Size : 1.29M
Bit Rate : 394k
Sample Encoding: MPEG audio (layer I, II or III)
Comments :
Title=Enema Jizz - Untitled 2
Artist=Various Artists
Album=Necropathologic Sound Compilation
Tracknumber=2
Year=2019

[/more]

Register
(4) alikkon, carnegrinder, infiltrator, Rosen,
Jan 24 2020, 16:56:58 Cheerleader Concubine & Dehumanizing Itatrain Worship - The Divine Union Of Serrated Flesh [split] (2018)


*Artist: Cheerleader Concubine & Dehumanizing Itatrain Worship
*Album: The Divine Union Of Serrated Flesh [split]
*Year: 2018
*Genre: Porno Goregrind | Brutal Death Metal
*Country: United States | China
*Format: mp3@VBR278kbps
*Size: 61MB

Tracklist:
Cheerleader Concubine:
01. Diarrhea Creampie 02:36
02. Monster Girls Craving Monster Cock 03:00
03. Battle Anal Lolita 02:49
04. Mail Order Shotacon 02:50
Dehumanizing Itatrain Worship:
05. 殺してやるばんざーい! 05:42
06. Disgusting Scars On Me 04:29
07. Slowly Joshikouseis Rot 02:52
08. 血肉の城で踊りたい 04:34
******************************
Total playing time: 28:52






[more=Extended info]Scene CD-rip[/more]

[more=Technical info]
Input File: 02-cheerleader_concubine-monster_girls_craving_monster_cock.mp3
Channels : 2
Sample Rate : 44100
Precision : 16-bit
Duration : 00:03:00.77 = 7971825 samples = 13557.5 CDDA sectors
File Size : 6.14M
Bit Rate : 272k
Sample Encoding: MPEG audio (layer I, II or III)
Comments :
Title=Monster Girls Craving Monster Cock
Artist=Cheerleader Concubine
Album=The Divine Union of Serrated Flesh
Tracknumber=2/8
Year=2018
Genre=Death Metal
Discnumber=1/1

[/more]

Register
(5) infiltrator, morbidangelo, Rosen, satanist666, Герб,
Jan 24 2020, 16:05:52 Toxocariasis - Demo II [demo] (2018)


*Artist: Toxocariasis
*Album: Demo II [demo]
*Year: 2018
*Genre: Goregrind
*Country: Canada
*Format: mp3@CBR320kbps
*Size: 20MB

Tracklist:
01. Vasectomy For Misanthropy 01:25
02. Methadone Influenced Self-Inflicted Trans-Orbital Lobotomy 01:57
03. Festering Cesspool Of Malignant Ligaments 02:28
04. Smog In My Ass 00:58
05. Gastrochisis Party/ In The Name Of The Father, The Son, And Ben Durham: Gorenoise 01:37
******************************
Total playing time: 8:25




[more=Technical info]
Input File: 02. methadone influenced self-inflicted trans-orbital lobotomy.mp3
Channels : 2
Sample Rate : 44100
Precision : 16-bit
Duration : 00:01:57.61 = 5186557 samples = 8820.68 CDDA sectors
File Size : 4.87M
Bit Rate : 331k
Sample Encoding: MPEG audio (layer I, II or III)
Comments :
Title=methadone influenced self-inflicted trans-orbital lobotomy
Artist=Toxocariasis
Album=Demo II
Tracknumber=2
Year=2018

[/more]

Register
(7) denver, infiltrator, morbidangelo, Olethros, Rosen, satanist666, Yggdrasil,
Jan 24 2020, 15:54:17 Cerebral Digestion - Demo 2018 [demo] (2018)


*Artist: Cerebral Digestion
*Album: Demo 2018 [demo]
*Year: 2018
*Genre: Brutal Death Metal
*Country: Sweden
*Format: mp3@CBR320kbps
*Size: 25MB

Tracklist:
01. Vigilante in the Vivisection-Cellar 02:11
02. Frantically Ripping off Foreskin 02:47
03. Scorched by Boiling Bile 02:32
04. Fine-Cut in Torture 01:53
******************************
Total playing time: 9:23




[more=Technical info]
Input File: 02. Frantically Ripping off Foreskin.mp3
Channels : 2
Sample Rate : 44100
Precision : 16-bit
Duration : 00:02:47.38 = 7381238 samples = 12553.1 CDDA sectors
File Size : 6.86M
Bit Rate : 328k
Sample Encoding: MPEG audio (layer I, II or III)
Comments :
Title=Frantically Ripping off Foreskin
Artist=Cerebral Digestion
Album=Demo 2018
Tracknumber=2
Year=2018

[/more]

Register
(5) infiltrator, morbidangelo, Olethros, Rosen, satanist666,
Jan 24 2020, 15:46:19 Anal Submarine - Demo 2019 [demo] (2019)


*Artist: Anal Submarine
*Album: Demo 2019 [demo]
*Year: 2019
*Genre: Goregrind
*Country: Russian Federation
*Format: mp3@CBR320kbps
*Size: 18MB

Tracklist:
01. Vulcanic Diarrhea 01:05
02. Hank Hill's Urethra 00:59
03. Turd Eater 00:59
04. Lessons In Proctology 00:47
05. Swimming In Liquid Stool 00:59
06. Rectal Caviar 00:43
07. Spanked To Death 00:52
08. Defecated Genitalia 00:20
09. Anal Submarine 00:51
******************************
Total playing time: 7:35




[more=Technical info]
Input File: 02. Hank Hill\'s Urethra.mp3
Channels : 2
Sample Rate : 44100
Precision : 16-bit
Duration : 00:00:59.25 = 2612837 samples = 4443.6 CDDA sectors
File Size : 2.47M
Bit Rate : 334k
Sample Encoding: MPEG audio (layer I, II or III)
Comments :
Title=Hank Hill's Urethra
Artist=Anal Submarine
Album=Demo 2019
Tracknumber=2
Year=2019

[/more]

Register
(6) denver, infiltrator, morbidangelo, Olethros, Rosen, satanist666,
Jan 24 2020, 15:33:47 Nxaaxul - Evoke War Vomit [ep] (2019)


*Artist: Nxaaxul
*Album: Evoke War Vomit [ep]
*Year: 2019
*Genre: Death/Black Metal
*Country: United States
*Format: mp3@CBR320kbps
*Size: 46MB

Tracklist:
01. Sadistik Wierdness 00:48
02. Nekromaniakal Deathlust 04:26
03. Fukking War Vomit To Death 02:45
04. Sodomizing Fallen Souls 04:45
05. Nekrokannibalistik Kunt 03:57
06. Spiritual Horned Mania 03:23
******************************
Total playing time: 20:04



[more=Technical info]
Input File: 02. Nekromaniakal Deathlust.mp3
Channels : 2
Sample Rate : 44100
Precision : 16-bit
Duration : 00:04:26.78 = 11764866 samples = 20008.3 CDDA sectors
File Size : 10.8M
Bit Rate : 322k
Sample Encoding: MPEG audio (layer I, II or III)
Comments :
Title=Nekromaniakal Deathlust
Artist=Nxaaxul
Album=Evoke War Vomit
Tracknumber=2
Year=2019

[/more]

Register
(10) infiltrator, morbidangelo, Olethros, Rosen, SilentNidhogg, Styx, VALERY, vasiljev_sergej, Wail, wanderer73,
Jan 24 2020, 14:37:40 The White Bear Project - Descent [ep] (2020)


*Artist: The White Bear Project
*Album: Descent [ep]
*Year: 2020
*Genre: Deathcore
*Country: United States
*Format: mp3@CBR320kbps
*Size: 46MB

Tracklist:
01. Psychosis 03:33
02. Falsity (Feat. Bryce Scheldbauer) 03:17
03. Mortal Chain (Feat. Bob Warner) 03:11
04. Interlude 02:18
05. Violence 03:13
06. Ides of Depravity (Feat. Kyle Williams & Alex Ives) 04:25
******************************
Total playing time: 19:57





[more=Technical info]
Input File: 02. Falsity (ft. Bryce Scheldbauer).mp3
Channels : 2
Sample Rate : 44100
Precision : 16-bit
Duration : 00:03:17.76 = 8721260 samples = 14832.1 CDDA sectors
File Size : 7.95M
Bit Rate : 321k
Sample Encoding: MPEG audio (layer I, II or III)
Comments :
Title=Falsity (ft. Bryce Scheldbauer)
Artist=The White Bear Project
Album=Descent
Tracknumber=2
Year=2020
Genre=Deathcore

[/more]

Register
(3) infiltrator, Olethros, Rosen,
Jan 24 2020, 14:22:48 T.O.M.B. - Thin The Veil (2020)


*Artist: T.O.M.B.
*Album: Thin The Veil
*Year: 2020
*Genre: Avant-Garde Black Metal
*Country: United States
*Format: mp3@CBR320kbps
*Size: 95MB

Tracklist:
01. No Return 04:31
02. Where the Wretched Lurk 06:01
03. Pestilence 03:21
04. Invocation 01:36
05. Thin the Veil 03:10
06. Decapitation of the Gods 04:24
07. Lunar Reckoning 04:37
08. Escape from Phlegethon 04:23
09. License to Depart 03:14
10. Pure Noise Necromancy 03:42
11. Hellmouth 05:42
******************************
Total playing time: 44:41





[more=Technical info]
Input File: 10. Pure Noise Necromancy.mp3
Channels : 2
Sample Rate : 44100
Precision : 16-bit
Duration : 00:03:42.53 = 9813397 samples = 16689.5 CDDA sectors
File Size : 9.04M
Bit Rate : 325k
Sample Encoding: MPEG audio (layer I, II or III)
Comments :
Title=Pure Noise Necromancy
Artist=T.O.M.B.
Album=Thin the Veil
Tracknumber=10/11
Year=2020
Genre=9
Discnumber=1/1

[/more]

Register
(19) 1968_janeart, alikkon, as71, atavist, dma-09, finisterre, HMHamster, infiltrator, metala, Moonshtook, Occultas, Olethros, Rosen, satanist666, stub888, suseka, toly1917, VALERY, vasiljev_sergej,
Jan 24 2020, 14:05:32 Nxaaxul - Black Abyss Of The Tartarean Wormhole Of The Chaotic Singularity (2020)


*Artist: Nxaaxul
*Album: Black Abyss Of The Tartarean Wormhole Of The Chaotic Singularity
*Year: 2020
*Genre: Death/Black Metal
*Country: United States
*Format: mp3@CBR320kbps
*Size: 72MB

Tracklist:
01. Black Abyss Of The Tartarean Wormhole Of The Chaotic Singularity 07:00
02. Symmetry Of The Trinity Of Death 07:15
03. Disembodied Corpse Of The Newborn 08:11
04. Interstellar Cremation Of The Spear Of Abraxas 05:57
05. Misamic Frequency Of The Rotating Four Armed Death Wheel 06:31
******************************
Total playing time: 34:54



[more=Technical info]
Input File: 04. Interstellar Cremation Of The Spear Of Abraxas.mp3
Channels : 2
Sample Rate : 44100
Precision : 16-bit
Duration : 00:05:57.61 = 15770601 samples = 26820.8 CDDA sectors
File Size : 14.4M
Bit Rate : 322k
Sample Encoding: MPEG audio (layer I, II or III)
Comments :
Title=Interstellar Cremation Of The Spear Of Abraxas
Artist=Nxaaxul
Album=Black Abyss Of The Tartarean Wormhole Of The Chaotic Singularity
Tracknumber=4
Year=2020

[/more]

Register
(8) atavist, infiltrator, Olethros, Rosen, SilentNidhogg, VALERY, vasiljev_sergej, Wail,
Jan 24 2020, 13:57:57 Nxaaxul - Seven Malignant Burning Spears Of Astral Anticosmos (2019)


*Artist: Nxaaxul
*Album: Seven Malignant Burning Spears Of Astral Anticosmos
*Year: 2019
*Genre: Death/Black Metal
*Country: United States
*Format: mp3@CBR320kbps
*Size: 63MB

Tracklist:
01. Noxious Fumes Quell The Abrahamic SH 02:58
02. The Abyssal Biochemigoat 03:41
03. Satanic War 04:30
04. Ordo Satanicum Imperium 02:27
05. Biochemical Warterror 666 02:19
06. Genocidal Protocol Of Luciferian Ethos 10:00
07. Vengeance Of Thermonuclear Goatvomit 01:55
08. Quayth Goetia N'xaaxul 01:43
******************************
Total playing time: 29:33



[more=Technical info]
Input File: 06. Genocidal Protocol Of Luciferian Ethos.mp3
Channels : 2
Sample Rate : 44100
Precision : 16-bit
Duration : 00:10:00.93 = 26500881 samples = 45069.5 CDDA sectors
File Size : 24.2M
Bit Rate : 322k
Sample Encoding: MPEG audio (layer I, II or III)
Comments :
Title=Genocidal Protocol Of Luciferian Ethos
Artist=Nxaaxul
Album=Seven Malignant Burning Spears Of Astral Anticosmos
Tracknumber=6
Year=2019

[/more]

Register
(9) atavist, infiltrator, Olethros, Rosen, SilentNidhogg, Styx, VALERY, vasiljev_sergej, Wail,
Jan 23 2020, 16:11:07 Midnight Betrothed - To Follow Your Spirit Into The Night​.​.​. [demo] (2020)


*Artist: Midnight Betrothed
*Album: To Follow Your Spirit Into The Night​.​.​. [demo]
*Year: 2020
*Genre: Symphonic Black Metal
*Country: Australia
*Format: mp3@CBR320kbps
*Size: 47MB

Tracklist:
01. Necromantic Passions 04:39
02. To Follow Your Spirit Into The Night... 04:49
03. The Enchantments Of My Grief 04:54
04. Between Here And The Hereafter, Lies The Land Of Hope 05:52
******************************
Total playing time: 20:14




[more=Technical info]
Input File: 02. To Follow Your Spirit Into The Night....mp3
Channels : 2
Sample Rate : 44100
Precision : 16-bit
Duration : 00:04:49.37 = 12761393 samples = 21703 CDDA sectors
File Size : 11.7M
Bit Rate : 323k
Sample Encoding: MPEG audio (layer I, II or III)
Comments :
Title=To Follow Your Spirit Into The Night...
Artist=Midnight Betrothed
Album=To Follow Your Spirit Into The Night...
Tracknumber=2
Year=2020

[/more]

Register
(15) csgmnk, Evjenne, infiltrator, kim666, krotovich, morbidangelo, Olethros, Rosen, Sanctus, satanist666, Shadechaser, VALERY, vasiljev_sergej, zhol, Сварог Барг,
Jan 23 2020, 16:01:41 Thermohaline - Thermohaline [ep] (2020)


*Artist: Thermohaline
*Album: Thermohaline [ep]
*Year: 2020
*Genre: Avant-Garde Black Metal
*Country: Brazil
*Format: mp3@CBR320kbps
*Size: 71MB

Tracklist:
01. The Calling 13:17
02. Thy Skull Shall Be Mine 09:28
03. Abyssal Reefs 08:01
******************************
Total playing time: 30:46



[more=Technical info]
Input File: 02. Thy Skull Shall Be Mine.mp3
Channels : 2
Sample Rate : 44100
Precision : 16-bit
Duration : 00:09:28.19 = 25057355 samples = 42614.5 CDDA sectors
File Size : 22.8M
Bit Rate : 321k
Sample Encoding: MPEG audio (layer I, II or III)
Comments :
Title=Thy Skull Shall Be Mine
Artist=Thermohaline
Album=Thermohaline EP
Tracknumber=2
Year=2020

[/more]

Register
(10) fuoco, Ice Gnoll, infiltrator, morbidangelo, Occultas, Olethros, Rosen, Sanctus, satanist666, vasiljev_sergej,
Jan 23 2020, 15:52:28 Totenheer - Die Schwarze Spinne (2020)


*Artist: Totenheer
*Album: Die Schwarze Spinne
*Year: 2020
*Genre: Black Metal
*Country: Switzerland
*Format: mp3@CBR320kbps
*Size: 170MB

Tracklist:
01. Einklang
02. Der Komthur
03. Leibhaftiger Dämon Luzifer
04. Der Pakt mit dem Teufel
05. Feuerschweif
06. Taufsakrament
07. Höllenbrut
08. Die schwarze Spinne
09. Kindsraub
10. Verbannung
11. Die Verwandlung
12. Komthurs letzter Ritt
13. Martyrium
14. Ausklang
******************************
Total playing time: 1:14:02






[more=Technical info]
Input File: 02 - Der Komthur.mp3
Channels : 2
Sample Rate : 44100
Precision : 16-bit
Duration : 00:04:40.05 = 12350249 samples = 21003.8 CDDA sectors
File Size : 11.3M
Bit Rate : 324k
Sample Encoding: MPEG audio (layer I, II or III)
Comments :
Title=Der Komthur
Artist=Totenheer
Album=Die schwarze Spinne
Tracknumber=2
Year=2020
Genre=Metal
Discnumber=1

[/more]

Register
(29) alikkon, atavist, chipsgott, discordum, fuoco, infiltrator, kim666, Korpse, LEGION69, morbidangelo, multizwilling, Narasimha, nord6666, obsidianninja, Olethros, Ostinato, Rosen, sandr666, satanist666, SilentNidhogg, stub888, suseka, thenecromancer, tim47, tOmV, VALERY, vasiljev_sergej, V_H_H_V, zotyo1975,
Jan 23 2020, 15:33:19 Scars Of The Flesh - Reaching Into The Void [ep] (2020)


*Artist: Scars Of The Flesh
*Album: Reaching Into The Void [ep]
*Year: 2020
*Genre: Progressive Death Metal
*Country: United States
*Format: mp3@CBR320kbps
*Size: 87MB

Tracklist:
01. Infinite Static 06:28
02. Behold the Below 03:46
03. The End of It All 07:25
04. Reaching Into the Void 06:15
05. Hell in My Head 07:17
06. Where the Shadows End 04:12
******************************
Total playing time: 35:23




[more=Technical info]
Input File: 2 - Behold the Below.mp3
Channels : 2
Sample Rate : 44100
Precision : 16-bit
Duration : 00:03:46.08 = 9970084 samples = 16955.9 CDDA sectors
File Size : 9.19M
Bit Rate : 325k
Sample Encoding: MPEG audio (layer I, II or III)
Comments :
Title=Behold The Below
Artist=Scars Of The Flesh
Album=Reaching Into The Void
Tracknumber=2
Year=2020
Genre=Metal
Discnumber=1

[/more]

Register
(12) chipsgott, infiltrator, infozahist, maochen, morbidangelo, Morgoth, Niknne, Olethros, Ostinato, Rosen, serjred, VALERY,
Jan 23 2020, 15:24:34 Vananidr - Damnation (2020)


*Artist: Vananidr
*Album: Damnation
*Year: 2020
*Genre: Melodic Black Metal
*Country: Sweden
*Format: mp3@CBR320kbps
*Size: 111MB

Tracklist:
01. Distilled 07:17
02. Damnation 07:56
03. Hunter 07:14
04. Tides of Blood 06:02
05. Wounds of Old 05:58
06. Reflection 06:37
07. Void 05:57
******************************
Total playing time: 47:01





[more=Technical info]
Input File: 02. Damnation.mp3
Channels : 2
Sample Rate : 44100
Precision : 16-bit
Duration : 00:07:56.79 = 21026439 samples = 35759.2 CDDA sectors
File Size : 19.2M
Bit Rate : 322k
Sample Encoding: MPEG audio (layer I, II or III)
Comments :
Title=Damnation
Artist=Vananidr
Album=Damnation
Tracknumber=2
Year=2020
Discnumber=1

[/more]

Register
(34) atavist, BugEyes, DevilSign, Dmitry1977, infiltrator, isvili, Korpse, LEGION69, metala, morbidangelo, Morgoth, multizwilling, nord6666, Olethros, Ostinato, peppuzzo, Protey, robertho777, Rosen, SaintVitus, satanist666, Satyr, Shadechaser, SilentNidhogg, Sjelekval, suseka, tim47, tOmV, VALERY, vasiljev_sergej, vovenom, zhol, Авел, Сварог Барг,
Jan 23 2020, 15:17:11 Ikonodrama - Etched In The Spirit (2020)


*Artist: Ikonodrama
*Album: Etched In The Spirit
*Year: 2020
*Genre: Gothic Metal
*Country: Poland
*Format: mp3@CBR320kbps
*Size: 112MB

Tracklist:
01. Open Darkness
02. Your Mephisto
03. Orpheus
04. Demonology
05. The Lantern of the Lost
06. Maldoror’s Song
07. The Mess Sire
08. My Swan Syndrome
09. Dead Master
10. Maldoror
******************************
Total playing time: 48:43



[more=Technical info]
Input File: 09. Dead Master.mp3
Channels : 2
Sample Rate : 44100
Precision : 16-bit
Duration : 00:05:24.10 = 14292634 samples = 24307.2 CDDA sectors
File Size : 13.0M
Bit Rate : 322k
Sample Encoding: MPEG audio (layer I, II or III)
Comments :
Title=Dead Master
Artist=IKONODRAMA
Album=Etched in the Spirit
Tracknumber=9/10
Year=2020
Genre=17
Discnumber=1/1

[/more]

Register
(15) Alpha_Prime, Buregon, chipsgott, Ice Gnoll, infiltrator, infozahist, kluval, morbidangelo, nord6666, Olethros, postal67, Rosen, satanist666, soulflesh, terron,
Jan 23 2020, 14:55:35 Frigoris - ...In Stille (2020)


*Artist: Frigoris
*Album: ...In Stille
*Year: 2020
*Genre: Atmospheric/Post-Black Metal
*Country: Germany
*Format: mp3@CBR320kbps
*Size: 153MB

Tracklist:
01. Aurora stirbt 08:51
02. Funkenflug 07:50
03. Das Licht in mir 05:19
04. Stimmen im Regen 09:45
05. Einkehr 08:21
06. Scheideweg 09:02
07. Die Gleise an denen wir starben I (Nur ein Moment...) 03:00
08. Die Gleise an denen wir starben II (...in Stille) 12:37
******************************
Total playing time: 1:04:45






[more=Technical info]
Input File: 05 Einkehr.mp3
Channels : 2
Sample Rate : 44100
Precision : 16-bit
Duration : 00:00:00.50 = 22050 samples = 37.5 CDDA sectors
File Size : 20.7M
Bit Rate : 332M
Sample Encoding: MPEG audio (layer I, II or III)
Comments :
Title=Einkehr
Artist=Frigoris
Album=...in Stille
Tracknumber=5/8
Year=2020-20-20
Genre=Alternative
Discnumber=1/1

[/more]

Register
(27) 0x13, 1968_janeart, craP_cillA, EvilPiet, fallen, Ice Gnoll, infernallord, infiltrator, kim666, Korpse, morbidangelo, Morgoth, multizwilling, Olethros, Olrak, Ostinato, robertho777, Rosen, Sanctus, satanist666, Shadechaser, singrad, suseka, tim47, tOmV, VALERY, vasiljev_sergej,
Jan 23 2020, 14:45:42 Crimson Sun - Fates (2020)


*Artist: Crimson Sun
*Album: Fates
*Year: 2020
*Genre: Melodic Heavy Metal
*Country: Finland
*Format: mp3@CBR320kbps
*Size: 92MB

Tracklist:
01. The Beast Within
02. Virtual Reality
03. We Are One
04. The Prison
05. Overcome
06. Fate of Nora
07. Trailblazer
08. Distant Stars
09. Essence of Creation
10. Last Day on Earth
******************************
Total playing time: 39:57





[more=Technical info]
Input File: 2 - Virtual Reality.mp3
Channels : 2
Sample Rate : 44100
Precision : 16-bit
Duration : 00:03:07.02 = 8247758 samples = 14026.8 CDDA sectors
File Size : 7.55M
Bit Rate : 323k
Sample Encoding: MPEG audio (layer I, II or III)
Comments :
Title=Virtual Reality
Artist=Crimson Sun
Album=Fates
Tracknumber=2
Year=2020
Genre=Metal
Discnumber=1

[/more]

Register
(22) AHBAnep, BugEyes, Devourer, djsema4, gwar, Herrant, Ice Gnoll, infiltrator, infozahist, karpenka, metala, MetalW, morbidangelo, multizwilling, Niknne, Olethros, postal67, Rosen, Rover, sergsazan, zhol, Сварог Барг,
Jan 23 2020, 14:31:03 Doomraiser - The Dark Side Of Old Europa (2020)


*Artist: Doomraiser
*Album: The Dark Side Of Old Europa
*Year: 2020
*Genre: Doom Metal
*Country: Italy
*Format: mp3@CBR320kbps
*Size: 119MB

Tracklist:
01. Passage 03:03
02. Chimera 05:34
03. The Dark Side of Old Europa 06:29
04. Tauroctony (The Secret Cult of Mithras) 08:30
05. Terminal Dusk 09:30
06. Häxan 07:14
07. Continuum Pt. 1 (Suspended in Darkness) 03:02
08. Loathsome Explorer Interpolation 08:35
******************************
Total playing time: 51:57







[more=Technical info]
Input File: 02 - Chimera.mp3
Channels : 2
Sample Rate : 44100
Precision : 16-bit
Duration : 00:05:34.10 = 14733854 samples = 25057.6 CDDA sectors
File Size : 13.4M
Bit Rate : 321k
Sample Encoding: MPEG audio (layer I, II or III)
Comments :
Title=Chimera
Artist=Doomraiser
Album=The Dark Age of Old Europa
Tracknumber=2
Year=2020
Genre=Doom Metal
Discnumber=1

[/more]

Register
(23) autumnwood, BERZERK, dalek, EpicDoomLord, HMHamster, Ice Gnoll, infiltrator, Leshiy666, Lux, marilin, mart2203, metala, multizwilling, Niknne, nord6666, Olethros, Rosen, russ777, SaintVitus, stub888, stumpheavyrock, VALERY, zhol,
Jan 23 2020, 14:23:05 Jordablod - The Cabinet Of Numinous Song (2020)


*Artist: Jordablod
*Album: The Cabinet Of Numinous Song
*Year: 2020
*Genre: Black Metal
*Country: Sweden
*Format: mp3@CBR320kbps
*Size: 99MB

Tracklist:
01. A Grand Unveiling 07:40
02. The Two Wings of Becoming 03:21
03. Hin ondes mystär 04:39
04. The Beauty of Every Wound 06:05
05. Blood and Rapture 07:28
06. The Cabinet of Numinous Song 05:26
07. To Bleed Gold 08:18
******************************
Total playing time: 42:57






[more=Technical info]
Input File: 06 - The Cabinet of Numinous Song.mp3
Channels : 2
Sample Rate : 44100
Precision : 16-bit
Duration : 00:05:25.51 = 14354815 samples = 24413 CDDA sectors
File Size : 13.2M
Bit Rate : 325k
Sample Encoding: MPEG audio (layer I, II or III)
Comments :
Title=The Cabinet of Numinous Song
Artist=Jordablod
Album=The Cabinet of Numinous Song
Tracknumber=6
Year=2020
Genre=Metal
Discnumber=1

[/more]

Register
(32) 1968_janeart, alikkon, atavist, Beazth, bloodwind, boba, Brann, infiltrator, kim666, Korpse, Morgoth, multizwilling, nemx, Occultas, Olethros, poeira, rammmirez, ripper33, Rosen, SaintVitus, sandr666, satanist666, SilentNidhogg, Sjelekval, smes, stub888, suseka, tim47, toly1917, VALERY, vasiljev_sergej, yuratroll,
Jan 23 2020, 14:11:45 Last Frontier - Aether (Equivalent Exchange) (2020)


*Artist: Last Frontier
*Album: Aether (Equivalent Exchange)
*Year: 2020
*Genre: Atmospheric Heavy Metal
*Country: Italy
*Format: mp3@CBR320kbps
*Size: 124MB

Tracklist:
01. Toward the Last Frontier
02. Cults of Cargo
03. Fields of Thetis
04. Flames of Moloch
05. Wings of Stone
06. The Willow
07. The River
08. The Brier
09. Shahar
******************************
Total playing time: 53:51






[more=Technical info]
Input File: 02 - Cults of Cargo.mp3
Channels : 2
Sample Rate : 44100
Precision : 16-bit
Duration : 00:06:09.50 = 16294906 samples = 27712.4 CDDA sectors
File Size : 14.9M
Bit Rate : 324k
Sample Encoding: MPEG audio (layer I, II or III)
Comments :
Title=Cults of Cargo
Artist=Last Frontier
Album=Aether (Equivalent Exchange)
Tracknumber=2
Year=2020
Genre=Rock/Hard Rock/Metal
Discnumber=1

[/more]

Register
(16) aviacademy, Ice Gnoll, infiltrator, infozahist, Ludwig Hagen, metala, Niknne, Olethros, Olrak, postal67, Rosen, Rover, SaintVitus, sergsazan, stumpheavyrock, Сварог Барг,

1408 Pages V   1 2 3 > » 
- Lo-Fi Version Support form
Copyrights and abuse reports form
Time is now: 27th January 2020 - 09:47:30