Welcome Guest ( Log In | Register )

История благодарностей участнику necroscum ::: Спасибо сказали: 404870 раз(а)
Дата поста: В теме: За сообщение: Спасибо сказали:
Nov 18 2019, 16:09:22 Drugoth & Odinsgoat - Harbingers Of War [split] (2019)


*Artist: Drugoth & Odinsgoat
*Album: Harbingers Of War [split]
*Year: 2019
*Genre: Black Metal/Crust | Black Metal/Grindcore
*Country: Australia | United States
*Format: mp3@CBR320kbps
*Size: 19MB

Tracklist:
Drugoth:
01. Sunduam 00:45
02. Nixir 01:04
03. Grond 03:10
Odinsgoat:
04. Burzthauk 00:54
05. Tharm Bartas 00:31
06. Vadokan Korb 00:58
07. Zuzar 00:31
******************************
Total playing time: 7:53




[more=Technical info]
Input File: 03. GROND.mp3
Channels : 2
Sample Rate : 44100
Precision : 16-bit
Duration : 00:03:10.34 = 8393906 samples = 14275.4 CDDA sectors
File Size : 7.71M
Bit Rate : 324k
Sample Encoding: MPEG audio (layer I, II or III)
Comments :
Title=DRUGOTH - GROND
Artist=DRUGOTH
Album=HARBINGERS OF WAR
Tracknumber=3
Year=2019

[/more]

Register
(2) vasiljev_sergej, wgs73,
Nov 18 2019, 15:53:11 Torturepig - Menthol Flavored Condom [ep] (2019)


*Artist: Torturepig
*Album: Menthol Flavored Condom [ep]
*Year: 2019
*Genre: Goregrind
*Country: United States
*Format: mp3@CBR320kbps
*Size: 13MB

Tracklist:
01. Big Fucking Money 00:48
02. My Dick Is Stuck In The Garbage Disposal 00:40
03. It Hurts Really Bad, Please Help 00:40
04. Slit Open And Pegged 00:36
05. Menthol Flavored Condom 01:03
06. Throwing Yourself Into A Meat Grinder 00:50
07. Longpig 00:59
******************************
Total playing time: 5:36




[more=Technical info]
Input File: 02. My Dick Is Stuck In The Garbage Disposal.mp3
Channels : 2
Sample Rate : 44100
Precision : 16-bit
Duration : 00:00:40.86 = 1801794 samples = 3064.28 CDDA sectors
File Size : 1.72M
Bit Rate : 336k
Sample Encoding: MPEG audio (layer I, II or III)
Comments :
Title=My Dick Is Stuck In The Garbage Disposal
Artist=TORTUREPIG
Album=Menthol Flavored Condom
Tracknumber=2
Year=2019

[/more]

Register
(1) Olethros,
Nov 16 2019, 14:23:42 Perky Macabre & Rotten Redolence - Perky Macabre​/Rotten Redolence [split] (2019)


*Artist: Perky Macabre & Rotten Redolence
*Album: Perky Macabre​/Rotten Redolence [split]
*Year: 2019
*Genre: Grindcore | Goregrind/Noisegrind
*Country: United States | United States
*Format: mp3@CBR320kbps
*Size: 9MB

Tracklist:
Perky Macabre:
01. Gutsy 00:10
02. Nuance 00:12
03. Sulfuric 00:06
04. Vermin 00:12
05. Womb 00:14
06. Insidious 00:14
07. Ghoulish 00:11
08. Shrapnel 00:19
Rotten Redolence:
09. Specimen #1 00:09
10. Specimen #2 00:12
11. Specimen #3 00:11
12. Specimen #4 00:04
13. Specimen #5 00:11
14. Specimen #6 00:08
15. Specimen #7 00:11
16. Specimen #8 00:11
******************************
Total playing time: 2:55




[more=Technical info]
Input File: 02. Nuance.mp3
Channels : 2
Sample Rate : 44100
Precision : 16-bit
Duration : 00:00:12.36 = 544900 samples = 926.701 CDDA sectors
File Size : 645k
Bit Rate : 417k
Sample Encoding: MPEG audio (layer I, II or III)
Comments :
Title=Perky Macabre - Nuance
Artist=Perky Macabre
Album=Perky Macabre/Rotten Redolence - Split
Tracknumber=2
Year=2019

[/more]

Register
(1) Rosen,
Nov 16 2019, 14:06:13 Perky Macabre - Intrusive Thoughts [ep] (2019)


*Artist: Perky Macabre
*Album: Intrusive Thoughts [ep]
*Year: 2019
*Genre: Grindcore
*Country: United States
*Format: mp3@CBR320kbps
*Size: 3MB

Tracklist:
01. Psychopath 00:09
02. Unwelcome Guest 00:11
03. Safe Space Bludgeoning 00:04
04. Dried Bits Of Blood 00:09
05. Creating A Specter 00:08
06. Quiet Home 00:21
******************************
Total playing time: 1:02



[more=Technical info]
Input File: 02. Unwelcome Guest.mp3
Channels : 2
Sample Rate : 44100
Precision : 16-bit
Duration : 00:00:11.42 = 503446 samples = 856.201 CDDA sectors
File Size : 548k
Bit Rate : 384k
Sample Encoding: MPEG audio (layer I, II or III)
Comments :
Title=Unwelcome Guest
Artist=Perky Macabre
Album=Intrusive Thoughts
Tracknumber=2
Year=2019

[/more]

Register
(2) Olethros, Rosen,
Nov 16 2019, 13:55:47 Tsar Bomb - Neowarfare (2012)


*Artist: Tsar Bomb
*Album: Neowarfare
*Year: 2012
*Genre: Black/Death Metal
*Country: Spain
*Format: mp3@CBR320kbps
*Size: 89MB

Tracklist:
01. Intro 02:01
02. Tsar Bomb 03:13
03. Victorious Death 04:24
04. Nuclear Feast 03:49
05. Neowarfare 03:48
06. Ashes Of My Enemies 05:12
07. Zyklon-B For The Human Race 04:29
08. Tupolev TU-95 06:03
09. Nammu 05:48
******************************
Total playing time: 38:47







[more=Technical info]
Input File: 02. Tsar Bomb.mp3
Channels : 2
Sample Rate : 44100
Precision : 16-bit
Duration : 00:03:13.08 = 8514872 samples = 14481.1 CDDA sectors
File Size : 7.85M
Bit Rate : 325k
Sample Encoding: MPEG audio (layer I, II or III)
Comments :
Title=Tsar Bomb
Artist=Tsar Bomb
Album=Neowarfare
Tracknumber=2
Year=2012

[/more]

Register
(7) atavist, metala, Olethros, Rosen, VALERY, vasiljev_sergej, Сварог Барг,
Nov 14 2019, 16:51:03 Noctysmal - Noctysmal [demo] (2019)


*Artist: Noctysmal
*Album: Noctysmal [demo]
*Year: 2019
*Genre: Atmospheric Black Metal
*Country: United States
*Format: mp3@CBR320kbps
*Size: 32MB

Tracklist:
01. One with Night 02:44
02. Shadows of the Past 02:57
03. Vastness 04:47
04. Portent (Interlude) 01:11
05. My Path Alone 02:46
******************************
Total playing time: 14:25




[more=Technical info]
Input File: 03. Vastness.mp3
Channels : 2
Sample Rate : 44100
Precision : 16-bit
Duration : 00:04:47.49 = 12678441 samples = 21562 CDDA sectors
File Size : 11.5M
Bit Rate : 320k
Sample Encoding: MPEG audio (layer I, II or III)
Comments :
Title=Vastness
Artist=Noctysmal
Album=Noctysmal (Demo)
Tracknumber=3
Year=2019

[/more]

Register
(12) 1968_janeart, aleon, kim666, Lunaris, Olethros, robertho777, Rosen, Sanctus, stub888, thenecromancer, VALERY, vasiljev_sergej,
Nov 14 2019, 16:35:58 Indus - Insanity In The Infernal Codex (2019)


*Artist: Indus
*Album: Insanity In The Infernal Codex
*Year: 2019
*Genre: Death Metal
*Country: United States
*Format: mp3@CBR320kbps
*Size: 110MB

Tracklist:
01. Aggregate Individual 01:58
02. Godless America 04:00
03. Pisschrist Saviour 05:33
04. Order of Destruction 04:54
05. Desolate Earth 05:48
06. Neohuman Integrity 06:00
07. Total Psychosis 02:26
08. Symphony of Madness 03:53
09. Nihilistic Resurgence 07:08
10. Symbiotic Construction 02:52
11. Home Nucleonics [Strapping Young Lad Cover] 02:27
******************************
Total playing time: 46:59



[more=Technical info]
Input File: 02. Godless America.mp3
Channels : 2
Sample Rate : 44100
Precision : 16-bit
Duration : 00:04:00.73 = 10616237 samples = 18054.8 CDDA sectors
File Size : 9.75M
Bit Rate : 324k
Sample Encoding: MPEG audio (layer I, II or III)
Comments :
Title=Godless America
Artist=Indus
Album=Insanity in the Infernal Codex
Tracknumber=2
Year=2019

[/more]

Register
(10) atavist, Foneg, jollo, multizwilling, Olethros, Rosen, SaintVitus, TeamatSE, VALERY, wanderer73,
Nov 14 2019, 16:20:37 Obscene Evisceration - Despotism Of Lust And Death [ep] (2019)


*Artist: Obscene Evisceration
*Album: Despotism Of Lust And Death [ep]
*Year: 2019
*Genre: Brutal Death Metal
*Country: Greece
*Format: mp3@CBR320kbps
*Size: 52MB

Tracklist:
01. Repulsive Blatancy 03:20
02. Cannibalism is an Act of Dominance 03:52
03. Night of the Flowing Blood 05:34
04. Perpetual Black Terror 05:20
05. Profane Rituals & Chaos 03:29
******************************
Total playing time: 21:35






[more=Technical info]
Input File: 02. Cannibalism is an Act of Dominance.mp3
Channels : 2
Sample Rate : 44100
Precision : 16-bit
Duration : 00:03:52.50 = 10253338 samples = 17437.6 CDDA sectors
File Size : 9.44M
Bit Rate : 325k
Sample Encoding: MPEG audio (layer I, II or III)
Comments :
Title=Cannibalism is an Act of Dominance
Artist=Obscene Evisceration
Album=Despotism of Lust and Death
Tracknumber=2
Year=2019

[/more]

Register
(5) maochen, Olethros, Rosen, Styx, uk82,
Nov 14 2019, 16:09:07 Drift Into Black - Anthems From The Darkest Winter (2019)


*Artist: Drift Into Black
*Album: Anthems From The Darkest Winter
*Year: 2019
*Genre: Gothic/Doom Metal
*Country: United States
*Format: mp3@CBR320kbps
*Size: 118MB

Tracklist:
01. Snowbound
02. No Tomorrow
03. The Ending of Silence
04. Blood and Betrayal
05. The Darkest Winter
06. Seasons
07. Rebirth
08. Below the Earth
09. Washed Away
10. High Hopes
******************************
Total playing time: 51:19





[more=Technical info]
Input File: 02. No Tomorrow.mp3
Channels : 2
Sample Rate : 44100
Precision : 16-bit
Duration : 00:07:07.02 = 18831758 samples = 32026.8 CDDA sectors
File Size : 17.2M
Bit Rate : 321k
Sample Encoding: MPEG audio (layer I, II or III)
Comments :
Title=No Tomorrow
Artist=Drift into Black
Album=Anthems from the Darkest Winter
Tracknumber=2/10
Year=2019
Genre=9
Discnumber=1/1

[/more]

Register
(10) Cartman223, chipsgott, DevilSign, metala, Olethros, Olrak, robertho777, Rosen, sergsazan, VALERY,
Nov 14 2019, 15:57:40 Wrought Of Obsidian - Children Of A Shattered Infinity (2019)


*Artist: Wrought Of Obsidian
*Album: Children Of A Shattered Infinity
*Year: 2019
*Genre: Melodic Black/Death Metal
*Country: United States
*Format: mp3@CBR320kbps
*Size: 92MB

Tracklist:
01. Transmuted in Vantablack
02. Of Tempestuous Fire
03. Silence Thereafter
04. Carrion Inheritance
05. Children of a Shattered Infinity
06. Upon Somewhere Undeserved
07. Viridian Dawn
08. Nebulean Tides
******************************
Total playing time: 40:02






[more=Technical info]
Input File: 02 - Of Tempestuous Fire.mp3
Channels : 2
Sample Rate : 44100
Precision : 16-bit
Duration : 00:05:25.40 = 14350096 samples = 24404.9 CDDA sectors
File Size : 13.1M
Bit Rate : 322k
Sample Encoding: MPEG audio (layer I, II or III)
Comments :
Title=Of Tempestuous Fire
Artist=Wrought Of Obsidian
Album=Children of a Shattered Infinity
Tracknumber=2
Year=2019
Genre=Alternative/Indie Rock/Metal
Discnumber=1

[/more]

Register
(14) AHBAnep, atavist, BugEyes, metala, Olethros, Ostinato, Rosen, Sanctus, SnaP, VALERY, vasiljev_sergej, yuratroll, zhol, Сварог Барг,
Nov 14 2019, 15:48:32 Subterfuge - Prometheus (2019)


*Artist: Subterfuge
*Album: Prometheus
*Year: 2019
*Genre: Progressive/Heavy Metal
*Country: Poland
*Format: mp3@CBR320kbps
*Size: 215MB

Tracklist:
CD 1:
01. Dreamless Sleep 01:22
02. Earth, Sun and Life 05:40
03. Aliens 08:13
04. Identity 04:22
05. The Meeting 04:28
06. Enslaved 06:30
07. Experiment 08:00
08. Truth 13:06
CD 2:
09. Escape 06:44
10. Prometheus 05:29
11. Chosen 06:15
12. Revenge 04:35
13. Nightfall 04:04
14. Subterfuge 03:22
15. Farewell 09:54
16. To the Stars 01:37
******************************
Total playing time: 1:33:41




[more=Technical info]
Input File: 2 - Earth, Sun & Life.mp3
Channels : 2
Sample Rate : 44100
Precision : 16-bit
Duration : 00:05:39.72 = 14981432 samples = 25478.6 CDDA sectors
File Size : 13.6M
Bit Rate : 321k
Sample Encoding: MPEG audio (layer I, II or III)
Comments :
Title=Earth, Sun & Life
Artist=Subterfuge
Album=Prometheus
Tracknumber=2
Year=2019
Genre=Rock/Hard Rock/Metal
Discnumber=1

[/more]

Register
(11) ace73pq, ahp, aviacademy, metala, Olethros, Olrak, orlov2006vn, postal67, Rosen, Rover, stumpheavyrock,
Nov 14 2019, 15:38:58 Casket Huffer - Filth Ouroboros (2019)


*Artist: Casket Huffer
*Album: Filth Ouroboros
*Year: 2019
*Genre: Death Metal
*Country: United States
*Format: mp3@CBR320kbps
*Size: 99MB

Tracklist:
01. Altars of Despondency 06:25
02. Oblivion Serpents 04:16
03. The Antichrist Vessel 04:30
04. Genocide Thralls 05:20
05. Filth Ouroboros 05:12
06. Caustic Winds 04:51
07. Aghast 03:25
08. Harrowing Mysticism 07:46
******************************
Total playing time: 41:45




[more=Technical info]
Input File: 02. Oblivion Serpents.mp3
Channels : 2
Sample Rate : 44100
Precision : 16-bit
Duration : 00:04:15.78 = 11279854 samples = 19183.4 CDDA sectors
File Size : 10.3M
Bit Rate : 322k
Sample Encoding: MPEG audio (layer I, II or III)
Comments :
Title=Oblivion Serpents
Artist=Casket Huffer
Album=Filth Ouroboros
Tracknumber=2
Year=2019
Discnumber=1

[/more]

Register
(12) AHBAnep, alikkon, andreikun, atavist, jollo, metala, older68, Olethros, Ostinato, Rosen, samokot, VALERY,
Nov 14 2019, 15:32:51 A Persuasive Reason - A Persuasive Reason (2019)


*Artist: A Persuasive Reason
*Album: A Persuasive Reason
*Year: 2019
*Genre: Symphonic/Progressive/Gothic Metal
*Country: United States
*Format: mp3@CBR320kbps
*Size: 154MB

Tracklist:
01. Destination
02. Never Alone
03. Sandstorm (feat. Yannis Papadopoulos)
04. Away With You
05. Rome in Tears
06. Carry On
07. Discernment
08. Have No Fear
09. The World You Know
10. The Eye
11. Mother Earth
12. Sanctuary
13. Denial of Truth
******************************
Total playing time: 1:06:58







[more=Technical info]
Input File: 02. Never Alone.mp3
Channels : 2
Sample Rate : 44100
Precision : 16-bit
Duration : 00:06:07.10 = 16188934 samples = 27532.2 CDDA sectors
File Size : 14.9M
Bit Rate : 324k
Sample Encoding: MPEG audio (layer I, II or III)
Comments :
Title=Never Alone
Artist=A Persuasive Reason
Album=A Persuasive Reason
Tracknumber=2/13
Year=2019
Genre=17
Discnumber=1/1

[/more]

Register
(12) ace73pq, Alpha_Prime, aviacademy, Cartman223, ErikGoth, gwynnbleid, Olethros, Olrak, Rosen, Rover, VALERY, Сварог Барг,
Nov 14 2019, 15:23:21 Angelwarrior Ace - Obsidian (2019)


*Artist: Angelwarrior Ace
*Album: Obsidian
*Year: 2019
*Genre: Power/Thrash Metal
*Country: Germany
*Format: mp3@CBR320kbps
*Size: 150MB

Tracklist:
01. Natures Revenge 05:16
02. Bleeding Black 05:49
03. Dehumanized 05:32
04. Born for the War 04:48
05. The Healing 05:50
06. Wolf Spirit 04:03
07. The Omen 04:39
08. Entireley 04:18
09. Faith Angel 05:11
10. Killing Your Pain 04:26
11. Time Traveler 04:55
12. Black Witch Widow 04:53
13. Obsidian 04:20
14. For Evermore 01:37
******************************
Total playing time: 1:05:37




[more=Technical info]
Input File: 02 - Bleeding Black.mp3
Channels : 2
Sample Rate : 44100
Precision : 16-bit
Duration : 00:05:48.65 = 15375553 samples = 26148.9 CDDA sectors
File Size : 13.9M
Bit Rate : 320k
Sample Encoding: MPEG audio (layer I, II or III)
Comments :
Title=Bleeding Black
Artist=Angelwarrior Ace
Album=Obsidian
Tracknumber=2
Year=2019
Genre=Metal
Discnumber=1

[/more]

Register
(14) aviacademy, boby9052, gwar, Herrant, metala, Olethros, postal67, Rosen, Rover, sergsazan, stumpheavyrock, vir2al, zhol, Сварог Барг,
Nov 14 2019, 15:09:22 Degenerate - Devastation Ahead (2019)


*Artist: Degenerate
*Album: Devastation Ahead
*Year: 2019
*Genre: Melodic Death/Groove Metal
*Country: Netherlands
*Format: mp3@CBR320kbps
*Size: 85MB

Tracklist:
01. X-Ray Annihilation 03:31
02. Incarnated 04:10
03. Recondite Radiation 04:32
04. Afterglow 03:30
05. Here to Root Them Out 04:05
06. Waves 04:12
07. The Hunted Herd 03:48
08. Eternal Return 05:12
09. Eudaimonia 03:37
10. Devastation Ahead 03:23
******************************
Total playing time: 40:00




[more=Technical info]
Input File: 02. Incarnated.mp3
Channels : 2
Sample Rate : 44100
Precision : 16-bit
Duration : 00:04:10.27 = 11036907 samples = 18770.2 CDDA sectors
File Size : 10.2M
Bit Rate : 325k
Sample Encoding: MPEG audio (layer I, II or III)
Comments :
Title=Incarnated
Artist=Degenerate
Album=Devastation Ahead
Tracknumber=2/10
Year=2019
Genre=9
Discnumber=1/1

[/more]

Register
(13) akym, BaKu, BugEyes, Foneg, GEBBELS, gwynnbleid, metalwoman, Morgoth, Olethros, realexxx75, Rosen, VALERY, zhol,
Nov 14 2019, 14:56:16 Behold The Slitted Carcass - Divine Hypothetical Self-Contained Plane Of Existence (2019)


*Artist: Behold The Slitted Carcass
*Album: Divine Hypothetical Self-Contained Plane Of Existence
*Year: 2019
*Genre: Technical/Brutal Death Metal/Deathcore
*Country: United States
*Format: mp3@CBR320kbps
*Size: 61MB

Tracklist:
01. Vicious Monstrosity
02. Born Into Violence
03. 3:00 AM
04. Subjected to a Melovent Ritual
05. Divine Hypothetical Self-Contained Plane of Existence
06. It's in the Walls
07. Imprisioned
08. Systematic Enthusia
09. Horrid Intent
******************************
Total playing time: 26:32



[more=Technical info]
Input File: 08. Systematic Enthusia.mp3
Channels : 2
Sample Rate : 44100
Precision : 16-bit
Duration : 00:02:25.07 = 6397543 samples = 10880.2 CDDA sectors
File Size : 5.88M
Bit Rate : 324k
Sample Encoding: MPEG audio (layer I, II or III)
Comments :
Title=Systematic Enthusia
Artist=Behold the Slitted Carcass
Album=Divine Hypothetical Self-Contained Plane of Existence
Tracknumber=8/9
Year=2019
Genre=9
Discnumber=1/1

[/more]

Register
(4) metala, Olethros, Rosen, satanist666,
Nov 14 2019, 14:41:57 Dysemblem - Autotomy (2019)


*Artist: Dysemblem
*Album: Autotomy
*Year: 2019
*Genre: Death Metal
*Country: United Kingdom
*Format: mp3@CBR320kbps
*Size: 87MB

Tracklist:
01. Funerary Sceptre
02. New Moon Fields
03. Horns
04. Unquiet Peace
05. Charge
06. Lava Prayer
07. Vultures
08. Shinning Torment
09. Death Sabbath
******************************
Total playing time: 37:51





[more=Technical info]
Input File: 02. New Moon Fields.mp3
Channels : 2
Sample Rate : 44100
Precision : 16-bit
Duration : 00:03:19.35 = 8791511 samples = 14951.5 CDDA sectors
File Size : 8.12M
Bit Rate : 326k
Sample Encoding: MPEG audio (layer I, II or III)
Comments :
Title=New Moon Fields
Artist=Dysemblem
Album=Autotomy
Tracknumber=2/9
Year=2019
Discnumber=1/1

[/more]

Register
(10) andreikun, atavist, jollo, metala, older68, Olethros, Ostinato, Rosen, samokot, VALERY,
Nov 14 2019, 14:36:28 Nibiru Ordeal - Solar Eclipse (2019)


*Artist: Nibiru Ordeal
*Album: Solar Eclipse
*Year: 2019
*Genre: Power Metal
*Country: Finland
*Format: mp3@CBR320kbps
*Size: 185MB

Tracklist:
01. Predestined 02:48
02. Gone With The Wind 05:24
03. Spacebeast 06:18
04. Icon 21 05:57
05. Demons & Angels 05:37
06. Namida's Tear 05:51
07. Manual To Life 05:59
08. Stardust 07:03
09. Civilization 06:25
10. Before The Eclipse 02:14
11. Vortex Of The Dead Galaxies 13:00
12. Solar Eclipse 14:00
******************************
Total playing time: 1:20:36





[more=Technical info]
Input File: 2 - Gone with the Wind.mp3
Channels : 2
Sample Rate : 44100
Precision : 16-bit
Duration : 00:05:24.01 = 14289017 samples = 24301 CDDA sectors
File Size : 13.0M
Bit Rate : 321k
Sample Encoding: MPEG audio (layer I, II or III)
Comments :
Title=Gone with the Wind
Artist=Nibiru Ordeal
Album=Solar Eclipse
Tracknumber=2
Year=2019
Genre=Metal
Discnumber=1

[/more]

Register
(16) ace73pq, Devourer, DTGB, Foneg, gwar, gwynnbleid, Herrant, JPV, metala, oldvarg, Olethros, postal67, Rosen, Rover, stratoartica, zhol,
Nov 14 2019, 14:16:10 Conjuring Fate - Curse Of The Fallen (2019)


*Artist: Conjuring Fate
*Album: Curse Of The Fallen
*Year: 2019
*Genre: Heavy/Power Metal
*Country: United Kingdom
*Format: mp3@CBR320kbps
*Size: 102MB

Tracklist:
01. The Premonition 01:27
02. Burn the Witch 04:13
03. Voodoo Wrath 03:53
04. Midnight Skies 04:29
05. Journey's End 05:18
06. Daughter of the Everglades 04:24
07. Night of the Knives 05:20
08. No Escape 04:14
09. Children of the Night 04:15
10. Original Sin 04:44
******************************
Total playing time: 42:17





[more=Technical info]
Input File: 2 - Burn the Witch.mp3
Channels : 2
Sample Rate : 44100
Precision : 16-bit
Duration : 00:04:13.04 = 11159020 samples = 18977.9 CDDA sectors
File Size : 10.2M
Bit Rate : 323k
Sample Encoding: MPEG audio (layer I, II or III)
Comments :
Title=Burn the Witch
Artist=Conjuring Fate
Album=Curse of the Fallen
Tracknumber=2
Year=2019
Genre=Rock/Hard Rock/Metal
Discnumber=1

[/more]

Register
(12) ace73pq, fsc97, gwar, Herrant, metala, Olethros, postal67, Rosen, Rover, stumpheavyrock, vir2al, Сварог Барг,
Nov 14 2019, 14:07:30 Furos - Furos (2019)


*Artist: Furos
*Album: Furos
*Year: 2019
*Genre: Symphonic Death Metal
*Country: Turkey
*Format: mp3@CBR320kbps
*Size: 100MB

Tracklist:
01. The Ember Gaze 01:51
02. Our Salvation 03:45
03. Arcane Lands of the Magistrate 04:31
04. Zeal 03:57
05. Necromantic Rituals 03:33
06. Firestorm Rages 04:26
07. Keeper of Lies 04:08
08. Stench of Foulruin 03:52
09. Birthright 03:18
10. Beheading of Saraf 04:43
11. Era 02:12
******************************
Total playing time: 40:16



[more=Technical info]
Input File: 03. Arcane Lands of the Magistrate.mp3
Channels : 2
Sample Rate : 44100
Precision : 16-bit
Duration : 00:04:30.99 = 11950483 samples = 20324 CDDA sectors
File Size : 11.5M
Bit Rate : 341k
Sample Encoding: MPEG audio (layer I, II or III)
Comments :
Title=Arcane Lands of the Magistrate
Artist=Furos
Album=Furos
Tracknumber=3/11
Year=2019

[/more]

Register
(11) alikkon, Alpha_Prime, atavist, chipsgott, metalwoman, Olethros, Rosen, sergsazan, VALERY, vov7609, Сварог Барг,
Nov 14 2019, 13:46:45 Faun - Marchen & Mythen (2019)


*Artist: Faun
*Album: Marchen & Mythen
*Year: 2019
*Genre: Medieval Folk Rock
*Country: Germany
*Format: mp3@CBR320kbps
*Size: 148MB

Tracklist:
01. Es war einmal... 02:42
02. Rosenrot 03:35
03. Seemann 04:35
04. Hagazussa 04:59
05. Sieben Raben 04:33
06. Aschenbrodel 03:31
07. Die weisse Dame 04:44
08. Jorinde 03:55
09. Spieglein, Spieglein 03:43
10. Drei Wanderer (feat. Versengold) 03:16
11. Holla 06:22
12. The Lily 05:30
13. Falada 03:59
14. Thalia 04:30
15. Sieben Raben (Acoustic) 04:22
******************************
Total playing time: 1:04:16




[more=Technical info]
Input File: 2 - Rosenrot.mp3
Channels : 2
Sample Rate : 44100
Precision : 16-bit
Duration : 00:03:34.82 = 9473386 samples = 16111.2 CDDA sectors
File Size : 8.66M
Bit Rate : 322k
Sample Encoding: MPEG audio (layer I, II or III)
Comments :
Title=Rosenrot
Artist=Faun
Album=Märchen & Mythen
Tracknumber=2
Year=2019
Genre=Pop
Discnumber=1

[/more]

Register
(11) A.L.Rapsod, Cartman223, Dragonballz, Druidir, Femto, gwar, karpenka, leks, oldvarg, Olethros, скептик,
Nov 14 2019, 13:35:43 Crusade Of Bards - Tales Of Bards & Beasts (2019)


*Artist: Crusade Of Bards
*Album: Tales Of Bards & Beasts
*Year: 2019
*Genre: Symphonic Metal
*Country: Spain
*Format: mp3@CBR320kbps
*Size: 88MB

Tracklist:
01. Remembering Quests...
02. Of Bards & Beasts
03. The Golden Vessel (Feat. Lady Ani)
04. Four Fours
05. The Rise of the Kraken
06. An Ocean Between Us Part I - Chapter Twelve (Feat. Eduardo Guill)
07. An Ocean Between Us Part II - Ulysses' Cry (Feat. Henning Basse)
08. Pirates of the Night
09. And so the Bard Sang
10. Gunpowder
******************************
Total playing time: 38:15




[more=Technical info]
Input File: 2 - Of Bards & Beasts.mp3
Channels : 2
Sample Rate : 44100
Precision : 16-bit
Duration : 00:04:54.52 = 12988332 samples = 22089 CDDA sectors
File Size : 11.8M
Bit Rate : 322k
Sample Encoding: MPEG audio (layer I, II or III)
Comments :
Title=Of Bards & Beasts
Artist=Crusade Of Bards
Album=Tales of Bards & Beasts
Tracknumber=2
Year=2019
Genre=Rock/Hard Rock/Metal
Discnumber=1

[/more]

Register
(13) ace73pq, Alpha_Prime, aviacademy, Cartman223, chipsgott, gwar, gwynnbleid, Olethros, Rosen, Rover, sergsazan, talismanFS, Сварог Барг,
Nov 14 2019, 13:28:17 [In Mute] - Chaos Breeder (2019)


*Artist: [In Mute]
*Album: Chaos Breeder
*Year: 2019
*Genre: Melodic Death Metal
*Country: France
*Format: mp3@CBR320kbps
*Size: 84MB

Tracklist:
01. Just(ice) 03:44
02. A Beautiful Disaster 04:21
03. Beyond Death 05:26
04. EcceTorment 04:51
05. Depth of Suffering 04:34
06. Calibrated Face 04:41
07. Chaos Breeder 04:25
08. Unhallowed Divination 04:56
******************************
Total playing time: 36:58





[more=Technical info]
Input File: 02 - A Beautiful Disaster.mp3
Channels : 2
Sample Rate : 44100
Precision : 16-bit
Duration : 00:04:21.53 = 11533297 samples = 19614.5 CDDA sectors
File Size : 10.5M
Bit Rate : 322k
Sample Encoding: MPEG audio (layer I, II or III)
Comments :
Title=A Beautiful Disaster
Artist=[IN MUTE]
Album=Chaos Breeder
Tracknumber=2
Year=2019
Genre=Metal
Discnumber=1

[/more]

Register
(12) Alpha_Prime, atavist, BaKu, BugEyes, death1ess, gwynnbleid, Olethros, Rosen, sergsazan, VALERY, zhol, Сварог Барг,
Nov 14 2019, 13:20:31 Verdun - Astral Sabbath (2019)


*Artist: Verdun
*Album: Astral Sabbath
*Year: 2019
*Genre: Sludge/Doom Metal
*Country: France
*Format: mp3@CBR320kbps
*Size: 125MB

Tracklist:
01. Return of the Space Martyr 09:00
02. Darkness Has Called My Name 10:33
03. Интерлюдия 02:16
04. Venom(s) 09:27
05. The Second Sun 08:24
06. L'enfant nouveau 06:10
07. Ästräl Säbbäth 07:46
******************************
Total playing time: 53:36





[more=Technical info]
Input File: 2 - Darkness Has Called My Name.mp3
Channels : 2
Sample Rate : 44100
Precision : 16-bit
Duration : 00:10:33.84 = 27952520 samples = 47538.3 CDDA sectors
File Size : 25.5M
Bit Rate : 321k
Sample Encoding: MPEG audio (layer I, II or III)
Comments :
Title=Darkness Has Called My Name
Artist=Verdun
Album=Astral Sabbath
Tracknumber=2
Year=2019
Genre=Metal
Discnumber=1

[/more]

Register
(13) ahp, Bolitho, marilin, Metal1964, older68, Olethros, Ostinato, robertho777, Rosen, s810ic1, stub888, stumpheavyrock, VALERY,
Nov 14 2019, 13:14:22 Adrian Benegas - The Revenant (2019)


*Artist: Adrian Benegas
*Album: The Revenant
*Year: 2019
*Genre: Symphonic Metal
*Country: Germany
*Format: mp3@CBR320kbps
*Size: 101MB

Tracklist:
01. Servants of the Death
02. Cadavria
03. Face to Face
04. The Enemy Within
05. Inferno
06. A Change of Heart
07. Carrier of the Sunlight
08. The Light of My Dreams
09. The Revenant
******************************
Total playing time: 43:56




[more=Technical info]
Input File: 02 - Cadavria.mp3
Channels : 2
Sample Rate : 44100
Precision : 16-bit
Duration : 00:06:48.55 = 18017099 samples = 30641.3 CDDA sectors
File Size : 16.4M
Bit Rate : 321k
Sample Encoding: MPEG audio (layer I, II or III)
Comments :
Title=Cadavria
Artist=Adrian Benegas/Henning Basse/Zuberoa Aznárez
Album=The Revenant
Tracknumber=2
Year=2019
Genre=Rock/Hard Rock/Metal
Discnumber=1

[/more]

Register
(12) ace73pq, Devourer, gwar, Herrant, metala, Morgoth, Olethros, Olrak, postal67, Rosen, Rover, Сварог Барг,

1392 Pages V   1 2 3 > » 
- Lo-Fi Version Support form
Copyrights and abuse reports form
Time is now: 20th November 2019 - 12:27:13