Welcome Guest ( Log In | Register )

История благодарностей участнику necroscum ::: Спасибо сказали: 474353 раз(а)
Дата поста: В теме: За сообщение: Спасибо сказали:
Yesterday, 16:36:22 Perky Macabre - Static Prolapse [ep] (2020)


*Artist: Perky Macabre
*Album: Static Prolapse [ep]
*Year: 2020
*Genre: Grindcore
*Country: United States
*Format: mp3@CBR320kbps
*Size: 5MB

Tracklist:
1. Infernal Cloud 00:20
2. Altar Contusions 00:12
3. Acid Desecration 00:25
4. Traipsing Gore 00:21
5. Hissing Moonbeam 00:08
6. Sleep Lacerations 00:08
******************************
Total playing time: 1:34



[more=Technical info]
Input File: Perky Macabre - Static Prolapse - 02 Altar Contusions.mp3
Channels : 2
Sample Rate : 44100
Precision : 16-bit
Duration : 00:00:12.15 = 535683 samples = 911.026 CDDA sectors
File Size : 632k
Bit Rate : 417k
Sample Encoding: MPEG audio (layer I, II or III)
Comments :
Title=Altar Contusions
Artist=Perky Macabre
Album=Static Prolapse
Tracknumber=2
Year=2020

[/more]

Register
(1) artscald,
Yesterday, 16:27:11 Perky Macabre - Advaita Vedanta [ep] (2020)


*Artist: Perky Macabre
*Album: Advaita Vedanta [ep]
*Year: 2020
*Genre: Grindcore
*Country: United States
*Format: mp3@CBR320kbps
*Size: 4MB

Tracklist:
1. Brahman 00:26
2. An Appearance 00:28
3. Names And Forms 00:12
4. (No) Physical Existence 00:13
******************************
Total playing time: 1:19



[more=Technical info]
Input File: Perky Macabre - Advaita Vedanta - 02 An Appearance.mp3
Channels : 2
Sample Rate : 44100
Precision : 16-bit
Duration : 00:00:28.97 = 1277621 samples = 2172.82 CDDA sectors
File Size : 1.26M
Bit Rate : 349k
Sample Encoding: MPEG audio (layer I, II or III)
Comments :
Title=An Appearance
Artist=Perky Macabre
Album=Advaita Vedanta
Tracknumber=2
Year=2020

[/more]

Register
(1) artscald,
Yesterday, 16:22:47 Perky Macabre - Zen Mutations [ep] (2020)


*Artist: Perky Macabre
*Album: Zen Mutations [ep]
*Year: 2020
*Genre: Grindcore
*Country: United States
*Format: mp3@CBR320kbps
*Size: 5MB

Tracklist:
1. Chamomile 00:13
2. A Terrible Way 00:43
3. Salieri Ass 00:25
4. Hop Bullet Vision 00:30
******************************
Total playing time: 1:51



[more=Technical info]
Input File: Perky Macabre - Zen Mutations - 02 A Terrible Way.mp3
Channels : 2
Sample Rate : 44100
Precision : 16-bit
Duration : 00:00:43.52 = 1919320 samples = 3264.15 CDDA sectors
File Size : 1.83M
Bit Rate : 336k
Sample Encoding: MPEG audio (layer I, II or III)
Comments :
Title=A Terrible Way
Artist=Perky Macabre
Album=Zen Mutations
Tracknumber=2
Year=2020

[/more]

Register
(1) artscald,
Yesterday, 16:18:19 Perky Macabre - Rotten Chunks [ep] (2020)


*Artist: Perky Macabre
*Album: Rotten Chunks [ep]
*Year: 2020
*Genre: Grindcore
*Country: United States
*Format: mp3@CBR320kbps
*Size: 4MB

Tracklist:
1. Expulsion Of Guts 00:11
2. Eating The Putrid Remains 00:10
3. Chainsaw Baptism 00:12
4. Skinless Orgy 00:08
5. Suicide Buffet 00:13
6. Dripping From Their Throats 00:05
7. Cannibalized/Shat Out 00:14
******************************
Total playing time: 1:13



[more=Technical info]
Input File: Perky Macabre - Rotten Chunks - 02 Eating The Putrid Remains.mp3
Channels : 2
Sample Rate : 44100
Precision : 16-bit
Duration : 00:00:10.97 = 483865 samples = 822.9 CDDA sectors
File Size : 604k
Bit Rate : 441k
Sample Encoding: MPEG audio (layer I, II or III)
Comments :
Title=Eating The Putrid Remains
Artist=Perky Macabre
Album=Rotten Chunks
Tracknumber=2
Year=2020

[/more]

Register
(1) artscald,
Yesterday, 16:12:34 Perky Macabre - True Orbs [ep] (2020)


*Artist: Perky Macabre
*Album: True Orbs [ep]
*Year: 2020
*Genre: Grindcore
*Country: United States
*Format: mp3@CBR320kbps
*Size: 8MB

Tracklist:
1.[Untitled] 00:26
2. [Untitled] 01:01
3. [Untitled] 00:44
4. [Untitled] 00:59
******************************
Total playing time: 3:10



[more=Technical info]
Input File: Perky Macabre - True Orbs - 02 -Untitled-.mp3
Channels : 2
Sample Rate : 44100
Precision : 16-bit
Duration : 00:01:01.57 = 2715369 samples = 4617.97 CDDA sectors
File Size : 2.53M
Bit Rate : 329k
Sample Encoding: MPEG audio (layer I, II or III)
Comments :
Title=[Untitled]
Artist=Perky Macabre
Album=True Orbs
Tracknumber=2
Year=2020

[/more]

Register
(1) artscald,
Yesterday, 16:08:12 Perky Macabre - Darkness Is A Blessing [ep] (2020)


*Artist: Perky Macabre
*Album: Darkness Is A Blessing [ep]
*Year: 2020
*Genre: Grindcore
*Country: United States
*Format: mp3@CBR320kbps
*Size: 6MB

Tracklist:
1. The Fragrance Of Grave Mist 00:31
2. Disrobed For Possession 00:16
3. Seduced By Death 00:31
4. Posthumous Ecstasy 00:52
******************************
Total playing time: 2:10



[more=Technical info]
Input File: Perky Macabre - Darkness Is A Blessing - 02 Disrobed For Possession.mp3
Channels : 2
Sample Rate : 44100
Precision : 16-bit
Duration : 00:00:16.22 = 715390 samples = 1216.65 CDDA sectors
File Size : 827k
Bit Rate : 408k
Sample Encoding: MPEG audio (layer I, II or III)
Comments :
Title=Disrobed For Possession
Artist=Perky Macabre
Album=Darkness Is A Blessing
Tracknumber=2
Year=2020

[/more]

Register
(1) artscald,
Yesterday, 16:03:11 Perky Macabre - Pure Dark Energy [ep] (2020)


*Artist: Perky Macabre
*Album: Pure Dark Energy [ep]
*Year: 2020
*Genre: Grindcore
*Country: United States
*Format: mp3@CBR320kbps
*Size: 7MB

Tracklist:
1. Cult Noise 00:04
2. Morsel 00:08
3. Naked For Your Family 00:11
4. Permafried 00:14
5. Demon Voyeur 00:27
6. Echoes 00:23
7. Poetic Fuckery 00:26
8. I Think I Am Sick 00:22
9. Lubed For The Orbs 00:35
******************************
Total playing time: 2:50



[more=Technical info]
Input File: Perky Macabre - Pure Dark Energy - 02 Morsel.mp3
Channels : 2
Sample Rate : 44100
Precision : 16-bit
Duration : 00:00:08.23 = 362899 samples = 617.175 CDDA sectors
File Size : 398k
Bit Rate : 387k
Sample Encoding: MPEG audio (layer I, II or III)
Comments :
Title=Morsel
Artist=Perky Macabre
Album=Pure Dark Energy
Tracknumber=2
Year=2020

[/more]

Register
(3) Altkiller, artscald, yarrsuaa,
Yesterday, 15:55:54 Perky Macabre - Cold Encounters [ep] (2020)


*Artist: Perky Macabre
*Album: Cold Encounters [ep]
*Year: 2020
*Genre: Grindcore
*Country: United States
*Format: mp3@CBR320kbps
*Size: 8MB

Tracklist:
1. Unseen Realms 01:01
2. Terminal Enchantment 00:50
3. Wildly Fluctuating Nothings 00:15
4. Loser Bouquet 00:13
5. Morbid Sex Pest 00:28
6. Excavation Freak II 00:22
******************************
Total playing time: 3:09



[more=Technical info]
Input File: Perky Macabre - Cold Encounters - 02 Terminal Enchantment.mp3
Channels : 2
Sample Rate : 44100
Precision : 16-bit
Duration : 00:00:50.21 = 2214261 samples = 3765.75 CDDA sectors
File Size : 2.13M
Bit Rate : 340k
Sample Encoding: MPEG audio (layer I, II or III)
Comments :
Title=Terminal Enchantment
Artist=Perky Macabre
Album=Cold Encounters
Tracknumber=2
Year=2020

[/more]

Register
(1) artscald,
Yesterday, 15:51:32 Perky Macabre - Impaler [ep] (2020)


*Artist: Perky Macabre
*Album: Impaler [ep]
*Year: 2020
*Genre: Grindcore
*Country: United States
*Format: mp3@CBR320kbps
*Size: 4MB

Tracklist:
1. Skewered And Twitching 00:13
2. Fucked By Spikes 00:13
3. Corpse Rotisserie 00:07
4. Ghoulish Ornaments 00:10
5. Quenching The Bloodthirst 00:22
******************************
Total playing time: 1:05



[more=Technical info]
Input File: Perky Macabre - Impaler - 02 Fucked By Spikes.mp3
Channels : 2
Sample Rate : 44100
Precision : 16-bit
Duration : 00:00:13.24 = 584060 samples = 993.299 CDDA sectors
File Size : 700k
Bit Rate : 423k
Sample Encoding: MPEG audio (layer I, II or III)
Comments :
Title=Fucked By Spikes
Artist=Perky Macabre
Album=Impaler
Tracknumber=2
Year=2020

[/more]

Register
(1) artscald,
Feb 2 2023, 17:42:27 Cerebral Mortuus - Brain Dead [ep] (2023)


*Artist: Cerebral Mortuus
*Album: Brain Dead [ep]
*Year: 2023
*Genre: Blackened Death Metal
*Country: United States
*Format: mp3@CBR320kbps
*Size: 24MB

Tracklist:
1. Human Waste 01:59
2. Killing Machine 03:00
3. Watch You Die 02:34
4. All We Want Is Blood 02:12
******************************
Total playing time: 9:45



[more=Technical info]
Input File: 01. human waste.mp3
Channels : 2
Sample Rate : 44100
Precision : 16-bit
Duration : 00:01:59.62 = 5275286 samples = 8971.57 CDDA sectors
File Size : 5.07M
Bit Rate : 339k
Sample Encoding: MPEG audio (layer I, II or III)
Comments :
Title=human waste
Artist=cerebral mortuus
Album=brain dead
Tracknumber=1
Year=2023

[/more]

Register
(6) Grev, infozahist, Lord Of The Siths, Marek, VALERY, Wail,
Feb 2 2023, 17:32:02 Theatruum - Triumphs (2023)


*Artist: Theatruum
*Album: Triumphs
*Year: 2023
*Genre: Experimental Black Metal
*Country: Italy
*Format: mp3@CBR320kbps
*Size: 71MB

Tracklist:
1. Allegory of the Planets and Continents 01:44
2. Scourge of the Serpents 05:13
3. Empire of Flora 05:17
4. The Death of Hyacnth 04:28
5. Time Unveiling Truth 02:51
6. The Magus of Ascalon 03:44
7. The Flight into Egypt 03:52
8. Post Meridiem Theurgy 02:28
******************************
Total playing time: 29:37




[more=Technical info]
Input File: 03-theatruum-empire_of_flora-538cb6f5.mp3
Channels : 2
Sample Rate : 44100
Precision : 16-bit
Duration : 00:05:17.98 = 14023050 samples = 23848.7 CDDA sectors
File Size : 13.1M
Bit Rate : 331k
Sample Encoding: MPEG audio (layer I, II or III)
Comments :
Title=Empire of Flora
Artist=Theatruum
Album=Triumphs
Tracknumber=3/8
Year=2023
Genre=Black Metal

[/more]

Register
(12) AlexSmith, artscald, as71, dermarsoran, Grev, Lord Of The Siths, metala, nemx, SilentNidhogg, suseka, VALERY, Wail,
Feb 2 2023, 17:26:58 Goreshower - Demo 2023 [demo] (2023)


*Artist: Goreshower
*Album: Demo 2023 [demo]
*Year: 2023
*Genre: Brutal Death Metal
*Country: Switzerland
*Format: mp3@CBR320kbps
*Size: 35MB

Tracklist:
1. Intro 00:44
2. Place of Horror feat. Marvin from Pusboil 03:58
3. Days of Suffering 02:41
4. Sadistic Nightmares 03:06
5. Goreshower 04:23
******************************
Total playing time: 14:52


Preview 2



[more=Technical info]
Input File: 02. Place of Horror feat. Marvin from Pusboil.mp3
Channels : 2
Sample Rate : 44100
Precision : 16-bit
Duration : 00:03:58.07 = 10498755 samples = 17855 CDDA sectors
File Size : 9.70M
Bit Rate : 326k
Sample Encoding: MPEG audio (layer I, II or III)
Comments :
Title=Place of Horror feat. Marvin from Pusboil
Artist=Goreshower
Album=Demo 2023
Tracknumber=2
Year=2023

[/more]

Register
(4) artscald, Grev, Lord Of The Siths, Wail,
Feb 2 2023, 17:20:05 Cuntamination - 2023 Demo [demo] (2023)


*Artist: Cuntamination
*Album: 2023 Demo [demo]
*Year: 2023
*Genre: Brutal Death Metal
*Country: United States
*Format: mp3@CBR320kbps
*Size: 22MB

Tracklist:
1. Dead Skin Blunts 02:32
2. Shoot Ya Brains Out Ya Ball Cap 01:42
3. I Smoke Dead People 02:18
4. Emo Kid Got Wet Up 03:18
******************************
Total playing time: 9:50



[more=Technical info]
Input File: 02. Shoot Ya Brains Out Ya Ball Cap.mp3
Channels : 2
Sample Rate : 44100
Precision : 16-bit
Duration : 00:01:42.41 = 4516061 samples = 7680.38 CDDA sectors
File Size : 4.24M
Bit Rate : 331k
Sample Encoding: MPEG audio (layer I, II or III)
Comments :
Title=Shoot Ya Brains Out Ya Ball Cap
Artist=Cuntamination
Album=2023 Demo
Tracknumber=2
Year=2023

[/more]

Register
(3) artscald, Grev, Wail,
Feb 2 2023, 17:06:34 Cyborg Aliens - Alien Encounter (2023)


*Artist: Cyborg Aliens
*Album: Alien Encounter
*Year: 2023
*Genre: Grindcore
*Country: Norway
*Format: mp3@CBR320kbps
*Size: 62MB

Tracklist:
1. Alien Encounter 00:13
2. Destroying The Colony 00:31
3. Crashes Into The Station 00:29
4. Becoming A Great Hunter 00:14
5. Escape Moments Before 00:13
6. Ambushed By The Queen 00:18
7. Hypersleep For Their Return 00:15
8. Dead Facehuggers 00:13
9. Aliens Attack Through The Ceilin 00:17
10. Ammunition And Resources 00:33
11. Before Descending 00:16
12. After Destroying Her Ship 00:22
13. 13 As They Flee For Their Lives 00:15
14. In Different Locations 00:14
15. Predator In The Distance 00:14
16. Colony In A Nuclear Blast 00:21
17. In The Second Dropship 00:11
18. Order To Hunt Humans 00:21
19. Refuses To Talk 00:13
20. Stowed Away In The Dropship 00:10
21. Kills The Men In Combat 00:14
22. Marines To Investigate 00:21
23. Deadly Encounters 00:15
24. Medical Laboratory 00:18
25. Survivors Barricade Themselves 00:38
26. Distracted By The Strange Sounds 00:13
27. Transmitter And Remotely 00:15
28. Drawn By Heat And Conflict 00:16
29. Predominantly Transpiring 00:22
30. Prayer For Their Spirits 00:09
31. Set In The Far Future 00:31
32. Saw The Alien Creatures 00:12
33. Repeated Changes 00:20
34. To Alert The Marines 00:20
35. Through Earth's Quarantine 00:16
36. Threat They've Never Seen Before 00:34
37. To Rescue Corporal 00:23
38. Wasteful Slaughter 00:16
39. Trap For The Mountain 00:19
40. Tumultuous And Rife With Conflicts 00:15
41. Weapons To Destroy Them All 00:31
42. Wounded Hunter And Depart 00:16
43. Having Time Traveled 00:07
44. Systematically Kills 00:15
45. In A Stolen Police Car 00:10
46. Artificially Intelligent 00:06
47. Relentless Killing Machine 00:09
48. Bloodied And Badly Damaged 00:06
49. Crushing And Destroying 00:09
50. Activates Machinery 00:07
51. Plan Their Next Move 00:06
52. Resistance's Victory 00:07
53. Steal Another Car 00:08
54. Motel In A Pickup Truck 00:08
55. Explosion That Burns The Flesh 00:06
56. Pipe Bomb Into Its Midsection 00:07
57. Into The Tanker's Hose Tube 00:06
58. Attacks The Police Station 00:06
59. Steal Guns And Clothing 00:06
60. Cybernetic Assassin 00:10
61. Human Soldier Named 00:13
62. Robust Metal Endoskeleton 00:09
63. Intent On Stopping It 00:05
64. Have Militarily Organized 00:06
65. Becomes Self-Aware 00:10
66. Post-Apocalyptic Aftermath 00:05
67. Against Individual Human Targets 00:05
68. The Apocalyptic Timeline 00:14
69. Future And The Past 00:10
70. To Deactivate The Network 00:06
71. Extraterrestrial Species 00:10
72. Creature And His Recollection 00:07
73. Bodyguard Was Hired 00:06
74. Complex Design Too Difficult 00:05
75. For The Finished Effects 00:09
76. The Green Of The Jungle 00:09
77. Voice Any More Monsters 00:05
78. Create A Convincing Monster 00:10
79. Sound Of The Creature 00:10
80. Humans To An Ancient Predator 00:09
81. Hunts Aliens All Across Town 00:09
82. Fights Predalien Singlehandedly 00:06
83. Evidence Of Their Presence 00:08
84. Extraction And Crucified 00:10
85. The Deadly Alien Hunter 00:06
86. Release Of Predators 00:09
87. Fashions A Plasma Pistol 00:09
88. Clean Up The Infestation 00:07
89. Accidentally Cutting The Power 00:08
90. Way Out Of The Pyramid 00:08
91. Present Within The Corpse 00:09
92. Myrmecophaga Tridactyla 00:05
93. Survives An Assassination 00:09
94. Following The Assassination Attempt 00:09
******************************
Total playing time: 20:01



[more=Technical info]
Input File: 02. Destroying the colony.mp3
Channels : 2
Sample Rate : 44100
Precision : 16-bit
Duration : 00:00:32.05 = 1413537 samples = 2403.97 CDDA sectors
File Size : 1.45M
Bit Rate : 361k
Sample Encoding: MPEG audio (layer I, II or III)
Comments :
Title=Destroying the colony
Artist=Cyborg Aliens
Album=Alien encounter
Tracknumber=2
Year=2023

[/more]

Register
(6) artscald, Grev, grobator, Lord Of The Siths, Radek, Wail,
Feb 2 2023, 16:17:44 Cystus - Tales From Cystic Scum [ep] (2023)


*Artist: Cystus
*Album: Tales From Cystic Scum [ep]
*Year: 2023
*Genre: Death Metal/Goregrind
*Country: Brazil
*Format: mp3@CBR320kbps
*Size: 34MB

Tracklist:
1. Intro: Putrescence II 02:59
2. Acid Bloodbath 01:04
3. Grave Eaters 02:18
4. Disembowel 02:05
5. Queen of the Night (Pombajira cover) 03:40
6. Outro 01:40
******************************
Total playing time: 13:46






[more=Technical info]
Input File: 02. Acid Bloodbath.mp3
Channels : 2
Sample Rate : 44100
Precision : 16-bit
Duration : 00:01:04.58 = 2847890 samples = 4843.35 CDDA sectors
File Size : 3.26M
Bit Rate : 404k
Sample Encoding: MPEG audio (layer I, II or III)
Comments :
Title=Acid Bloodbath
Artist=Cystus
Album=Tales of Cystic Scum
Tracknumber=2
Year=2023
Genre=Goregrind
Discnumber=1

[/more]

Register
(5) artscald, Grev, Lord Of The Siths, RotAnus, Wail,
Feb 2 2023, 15:42:05 Aneanani - Syzygy II [ep] (2023)


*Artist: Aneanani
*Album: Syzygy II [ep]
*Year: 2023
*Genre: Progressive Metal
*Country: Sweden
*Format: mp3@CBR320kbps
*Size: 42MB

Tracklist:
01. Alice in Chemical Reaction 04:45
02. Whale Fall 03:51
03. Moth 01:33
04. Goby 03:35
05. Mellifluous 04:04
******************************
Total playing time: 17:48

Preview 1


[more=Technical info]
Input File: 04 - Goby.mp3
Channels : 2
Sample Rate : 44100
Precision : 16-bit
Duration : 00:03:34.00 = 9437400 samples = 16050 CDDA sectors
File Size : 8.83M
Bit Rate : 330k
Sample Encoding: MPEG audio (layer I, II or III)
Comments :
Title=Goby
Artist=Aneanani
Album=Syzygy II
Tracknumber=4
Year=2023-01-27
Genre=Metal
Discnumber=1

[/more]

Register
(5) artscald, Grev, metala, OmegaBlade696, Wail,
Feb 2 2023, 15:36:13 Aneanani - Syzygy I [ep] (2022)


*Artist: Aneanani
*Album: Syzygy I [ep]
*Year: 2022
*Genre: Progressive Metal
*Country: Sweden
*Format: mp3@CBR320kbps
*Size: 48MB

Tracklist:
01. Attention Brokers 04:29
02. White Noise 05:13
03. Muddle 03:43
04. L'appel Du Vide 02:30
05. Omniac 04:39
******************************
Total playing time: 20:34




[more=Technical info]
Input File: 01 - Attention Brokers.mp3
Channels : 2
Sample Rate : 44100
Precision : 16-bit
Duration : 00:04:29.00 = 11862900 samples = 20175 CDDA sectors
File Size : 11.0M
Bit Rate : 328k
Sample Encoding: MPEG audio (layer I, II or III)
Comments :
Title=Attention Brokers
Artist=Aneanani
Album=Syzygy I
Tracknumber=1
Year=2022-05-18
Genre=Metal
Discnumber=1

[/more]

Register
(5) artscald, Grev, Lord Of The Siths, OmegaBlade696, Wail,
Feb 2 2023, 15:24:18 Mule Skinner - 2021 EP [ep] (2021)


*Artist: Mule Skinner
*Album: 2021 EP [ep]
*Year: 2021
*Genre: Death Metal/Grindcore
*Country: United States
*Format: mp3@CBR320kbps
*Size: 16MB

Tracklist:
1. Mule Bomb/Grenadiers 03:17
2. Internal Aggression 03:54
******************************
Total playing time: 7:11





[more=Extended info]Exclusive for Metalarea.org[/more]

[more=Technical info]
Input File: 02. Internal Aggression.mp3
Channels : 2
Sample Rate : 44100
Precision : 16-bit
Duration : 00:03:54.88 = 10358164 samples = 17615.9 CDDA sectors
File Size : 9.42M
Bit Rate : 321k
Sample Encoding: MPEG audio (layer I, II or III)
Comments :
Title=Internal Aggression
Artist=Mule Skinner
Album=Untitled EP
Tracknumber=2
Year=2021

[/more]

Register
(6) AHBAnep, artscald, denver, Grev, Lord Of The Siths, Wail,
Feb 2 2023, 14:54:16 ArsGoatia - Hiding Amongst Humans (2023)


*Artist: ArsGoatia
*Album: Hiding Amongst Humans
*Year: 2023
*Genre: Black Metal
*Country: Austria
*Format: mp3@CBR320kbps
*Size: 74MB

Tracklist:
1. Tongues Orifice Fire 05:44
2. In The Veins Of The Saints 04:18
3. Rumours Of The Southern Peak 01:16
4. When Heresy Repeats Itself 06:44
5. Slay Burn Immolate 02:08
6. Stigmata's Mouth 04:44
7. Tyrant Of All Men 06:32
******************************
Total playing time: 31:26





[more=Technical info]
Input File: 02-arsgoatia-in_the_veins_of_the_saints-d926eb4a.mp3
Channels : 2
Sample Rate : 44100
Precision : 16-bit
Duration : 00:04:18.16 = 11384812 samples = 19361.9 CDDA sectors
File Size : 10.7M
Bit Rate : 331k
Sample Encoding: MPEG audio (layer I, II or III)
Comments :
Title=In The Veins Of The Saints
Artist=ArsGoatia
Album=Hiding Amongst Humans
Tracknumber=2/7
Year=2023
Genre=Black Metal

[/more]

Register
(18) AlexSmith, Altkiller, artscald, Condehate, Darkfoxz, dermarsoran, Grev, kim666, Korpse, Lord Of The Siths, Marek, SadistikSlayer, SilentNidhogg, suseka, VALERY, Wail, witchfinder, WX419,
Feb 2 2023, 14:41:46 Necrotic Divinity - Death Ritual [ep] (2023)


*Artist: Necrotic Divinity
*Album: Death Ritual [ep]
*Year: 2023
*Genre: Death Metal
*Country: Canada
*Format: mp3@CBR320kbps
*Size: 37MB

Tracklist:
1. Mortal Sin 04:23
2. Chemical Castration 04:23
3. Death Ritual 03:23
4. Torturous Obscenity 04:00
******************************
Total playing time: 16:09


Preview 2



[more=Technical info]
Input File: 02. Chemical Castration.mp3
Channels : 2
Sample Rate : 44100
Precision : 16-bit
Duration : 00:04:23.44 = 11617528 samples = 19757.7 CDDA sectors
File Size : 10.6M
Bit Rate : 323k
Sample Encoding: MPEG audio (layer I, II or III)
Comments :
Title=Chemical Castration
Artist=Necrotic Divinity
Album=Death Ritual
Tracknumber=2/4
Year=2023
Genre=Death Metal, Black Metal
Discnumber=1/1

[/more]

Register
(3) AHBAnep, infozahist, Wail,
Feb 2 2023, 14:34:00 Mithridatum - Harrowing (2023)


*Artist: Mithridatum
*Album: Harrowing
*Year: 2023
*Genre: Progressive Black Metal
*Country: United States
*Format: mp3@CBR320kbps
*Size: 81MB

Tracklist:
1. Sojourn 06:40
2. Silhouette 08:12
3. Mournful Glow 07:49
4. Lower Power 06:09
5. The Passageway 06:29
******************************
Total playing time: 35:19





[more=Technical info]
Input File: 02 - Silhouette.mp3
Channels : 2
Sample Rate : 44100
Precision : 16-bit
Duration : 00:08:12.96 = 21739580 samples = 36972.1 CDDA sectors
File Size : 19.8M
Bit Rate : 321k
Sample Encoding: MPEG audio (layer I, II or III)
Comments :
Title=Silhouette
Artist=Mithridatum
Album=Harrowing
Tracknumber=2/5
Year=2023

[/more]

Register
(16) AlexSmith, artscald, DeathDragon, gongon81, Lord Of The Siths, madera, Marek, metala, MMMMM, murian, nemx, SilentNidhogg, VALERY, Wail, yinchanghanhuang, yuratroll,
Feb 2 2023, 14:07:36 Corvius - Signals (2023)


*Artist: Corvius
*Album: Signals
*Year: 2023
*Genre: Modern Symphonic Metal
*Country: France
*Format: mp3@CBR320kbps
*Size: 89MB

Tracklist:
01. Dr. Badlimb 05:44
02. Beneath Humanity 06:22
03. Light and Shade 04:49
04. Gravity 03:40
05. Origins 06:33
06. Revolution 04:03
07. The Discovery 07:34
******************************
Total playing time: 38:45


Preview 2


[more=Technical info]
Input File: 02 - Beneath Humanity.mp3
Channels : 2
Sample Rate : 44100
Precision : 16-bit
Duration : 00:06:22.12 = 16851360 samples = 28658.8 CDDA sectors
File Size : 15.3M
Bit Rate : 321k
Sample Encoding: MPEG audio (layer I, II or III)
Comments :
Title=Beneath Humanity
Artist=Corvius
Album=Signals
Tracknumber=2/7
Year=2023
Genre=Alternative & Indie
Discnumber=1/1

[/more]

Register
(11) Alpha_Prime, artscald, Cartman223, chipsgott, DeathDragon, gwar, gwynnbleid, metala, Wail, zhol, Сварог Барг,
Feb 2 2023, 13:58:36 Ypres - Solypso (2023)


*Artist: Ypres
*Album: Solypso
*Year: 2023
*Genre: Sludge/Post-Metal
*Country: Russian Federation
*Format: mp3@CBR320kbps
*Size: 101MB

Tracklist:
01. Da Drop 01:24
02. Ember Crown 08:44
03. La Chispa 02:13
04. Humility 06:46
05. Threads 07:29
06. Knowing Light 07:15
07. Ragnit 10:06
******************************
Total playing time: 43:57





[more=Technical info]
Input File: 02 Ember Crown.mp3
Channels : 2
Sample Rate : 44100
Precision : 16-bit
Duration : 00:08:44.34 = 23123174 samples = 39325.1 CDDA sectors
File Size : 21.1M
Bit Rate : 322k
Sample Encoding: MPEG audio (layer I, II or III)
Comments :
Title=Ember Crown
Artist=Ypres
Album=Solypso
Tracknumber=2/7
Year=2023
Genre=9
Discnumber=1/1

[/more]

Register
(6) AndreFrancis, artscald, as71, denver, J0k3r, Wail,
Feb 2 2023, 13:40:43 Skratte - Akt II: Des Wolfes Klagen (2023)


*Artist: Skratte
*Album: Akt II: Des Wolfes Klagen
*Year: 2023
*Genre: Black Metal
*Country: Germany
*Format: mp3@CBR320kbps
*Size: 128MB

Tracklist:
1. Offenbarung 01:05
2. Kältetod 07:00
3. Wolfsklagen 09:49
4. Als der letzte Atem erstarb 02:51
5. Vidéki Ballada 09:45
6. Spuk im Unterholz 01:49
7. Der Waldgeister Tanz 14:59
8. Todgeweiht 08:13
******************************
Total playing time: 55:31


Preview 2



[more=Technical info]
Input File: 02 - Kältetod.mp3
Channels : 2
Sample Rate : 44100
Precision : 16-bit
Duration : 00:07:00.47 = 18542595 samples = 31535 CDDA sectors
File Size : 16.9M
Bit Rate : 322k
Sample Encoding: MPEG audio (layer I, II or III)
Comments :
Title=Kältetod
Artist=Skratte
Album=Akt II - Des Wolfes Klagen
Tracknumber=2/8
Year=2023

[/more]

Register
(20) AlexSmith, Altkiller, artscald, Bulldozzzzzzer, Condehate, ffforest, judaz, kim666, Korpse, Lord Of The Siths, madera, Marek, murian, nsk2008, SilentNidhogg, VALERY, Wail, witchfinder, yinchanghanhuang, Zer0,
Feb 2 2023, 13:32:30 Tension Prophecy - Tribal Hatred (2023)


*Artist: Tension Prophecy
*Album: Tribal Hatred
*Year: 2023
*Genre: Technical/Brutal Death Metal
*Country: Iran
*Format: mp3@CBR320kbps
*Size: 83MB

Tracklist:
1. Last Breath Before Rivived 04:15
2. Uncontrolled Figure 04:18
3. Tribal Hatred 04:05
4. Philosophical Death 03:44
5. Inglorious Power 04:47
6. Intrinsic Fear 03:37
7. Chemical Mass Killing 04:34
8. Misanthrophy 03:04
9. Heinous Divinity 03:10
******************************
Total playing time: 35:34







[more=Technical info]
Input File: 02 - Uncontrolled Figure.mp3
Channels : 2
Sample Rate : 44100
Precision : 16-bit
Duration : 00:04:18.86 = 11415902 samples = 19414.8 CDDA sectors
File Size : 10.5M
Bit Rate : 325k
Sample Encoding: MPEG audio (layer I, II or III)
Comments :
Title=Uncontrolled Figure
Artist=Tension Prophecy
Album=Tribal Hatred
Tracknumber=2/9
Year=2023

[/more]

Register
(19) AHBAnep, andreikun, artscald, chipsgott, Cyrci, grobator, Korpse, lary_veel, Lord Of The Siths, maochen, metala, MMMMM, Radek, suseka, Vladimir, vyacheslav, Wail, WX419, xariton,

1514 Pages V   1 2 3 > » 
- Lo-Fi Version Support form
Copyrights and abuse reports form
Time is now: 9th February 2023 - 06:45:08