Welcome Guest ( Log In | Register )

История благодарностей участнику necroscum ::: Спасибо сказали: 430342 раз(а)
Дата поста: В теме: За сообщение: Спасибо сказали:
Nov 5 2020, 14:52:41 Lucid Dreaming - The Chronicles, Pt. Iii (2020)


*Artist: Lucid Dreaming
*Album: The Chronicles, Pt. Iii
*Year: 2020
*Genre: Power Metal
*Country: Germany
*Format: mp3@CBR320kbps
*Size: 159MB

Tracklist:
01. Introduction 03:48
02. Open Wide the Gate 09:43
03. Born from the River 06:58
04. The Free Commots 03:53
05. Life is a Forge 06:46
06. From Thread to Pattern 05:45
07. Dreams Come Alive 06:45
08. All or Nothing 06:54
09. The Mirror 15:42
******************************
Total playing time: 1:06:14





[more=Technical info]
Input File: 02 - Open Wide the Gate.mp3
Channels : 2
Sample Rate : 44100
Precision : 16-bit
Duration : 00:09:42.00 = 25666200 samples = 43650 CDDA sectors
File Size : 23.5M
Bit Rate : 323k
Sample Encoding: MPEG audio (layer I, II or III)
Comments :
Title=Open Wide the Gate
Artist=Lucid Dreaming
Album=The Chronicles, Pt. III
Tracknumber=2
Year=2020-06-11
Discnumber=1

[/more]

Register
(18) ace73pq, boby9052, gwar, gwynnbleid, Herrant, infiltrator, Lukittaz, Marek, metala, Mogozoz, Olethros, randumbum, Rosen, Rover, vir2al, wn129aa, wreak, zhol,
Nov 5 2020, 14:29:23 Sunniva - Sunniva [ep] (2020)


*Artist: Sunniva
*Album: Sunniva [ep]
*Year: 2020
*Genre: Sludge/Doom/Post-Metal
*Country: Finland
*Format: mp3@CBR320kbps
*Size: 54MB

Tracklist:
01. Nine of Swords 08:33
02. Rakshasa 08:49
03. Gazing into the Eye of the Serpent 06:02
******************************
Total playing time: 23:24




[more=Technical info]
Input File: 2. Rakshasa.mp3
Channels : 2
Sample Rate : 44100
Precision : 16-bit
Duration : 00:00:00.53 = 23329 samples = 39.6752 CDDA sectors
File Size : 21.3M
Bit Rate : 322M
Sample Encoding: MPEG audio (layer I, II or III)
Comments :
Title=Rakshasa
Artist=Sunniva
Album=Sunniva
Tracknumber=2
Year=2020-06-11
Genre=Sludge Metal
Discnumber=1

[/more]

Register
(9) gena, infiltrator, marilin, Olethros, Rosen, sludge666, stumpheavyrock, VALERY, wreak,
Nov 5 2020, 14:21:39 Vacuous - Katabasis [ep] (2020)


*Artist: Vacuous
*Album: Katabasis [ep]
*Year: 2020
*Genre: Death Metal
*Country: United Kingdom
*Format: mp3@CBR320kbps
*Size: 46MB

Tracklist:
01. Katabasis 04:17
02. Unmarked Grave 03:14
03. Fermentation 04:14
04. Voluntary Immurement 04:05
05. Blood Eagle 04:17
******************************
Total playing time: 20:07


Preview 2


[more=Technical info]
Input File: 2. Unmarked Grave.mp3
Channels : 2
Sample Rate : 44100
Precision : 16-bit
Duration : 00:00:00.19 = 8555 samples = 14.5493 CDDA sectors
File Size : 7.87M
Bit Rate : 324M
Sample Encoding: MPEG audio (layer I, II or III)
Comments :
Title=Unmarked Grave
Artist=Vacuous
Album=Katabasis
Tracknumber=2
Year=2020-06-11
Genre=Death Metal
Discnumber=1

[/more]

Register
(14) ahp, cesar, grimoir, Hell_Is_Here, infiltrator, Ludwig Hagen, Marek, MMMMM, Olethros, Rosen, Tino, VALERY, vyacheslav, wreak,
Nov 5 2020, 14:08:51 Shaidar Logoth - Chapter Iii: The Void God (2020)


*Artist: Shaidar Logoth
*Album: Chapter Iii: The Void God
*Year: 2020
*Genre: Black Metal/Ambient
*Country: United States
*Format: mp3@CBR320kbps
*Size: 107MB

Tracklist:
01. Nest of Pigs 18:58
02. Anguish Cradle 05:20
03. Consume Pieces of God 07:16
04. Withered on the Vine 16:00
******************************
Total playing time: 47:34






[more=Technical info]
Input File: 2. Anguish Cradle.mp3
Channels : 2
Sample Rate : 44100
Precision : 16-bit
Duration : 00:05:19.37 = 14084085 samples = 23952.5 CDDA sectors
File Size : 12.9M
Bit Rate : 323k
Sample Encoding: MPEG audio (layer I, II or III)
Comments :
Title=Anguish Cradle
Artist=Shaidar Logoth
Album=Chapter III: The Void God
Tracknumber=2
Year=2020
Discnumber=1/1

[/more]

Register
(22) 1968_janeart, craP_cillA, deadterror, demonosz, El_Chibo, grimoir, Ildjarn, infiltrator, kim666, murian, Olethros, Precaria, randumbum, robertho777, Rosen, shaidarlogoth, SilentNidhogg, stub888, suseka, varlam4, vasiljev_sergej, wreak,
Nov 5 2020, 13:23:06 Surma - The Light Within (2020)


*Artist: Surma
*Album: The Light Within
*Year: 2020
*Genre: Progressive/Symphonic Metal
*Country: Faroe Islands
*Format: mp3@CBR320kbps
*Size: 108MB

Tracklist:
01. Rendition 01:36
02. Reveal the Light Within 04:22
03. Like the River Flows 04:26
04. Fire and Wind 04:02
05. Desire 03:18
06. The City of Winds 03:15
07. The Selkie (Kópakonan) 03:22
08. Until It Rains Again 03:28
09. Emptiness (Is No More) 03:57
10. Cages of Rage 04:50
11. Downfall 04:11
12. Lost to Time 03:48
13. Deconstruction 02:32
******************************
Total playing time: 47:07





[more=Technical info]
Input File: 02. Reveal the Light Within.mp3
Channels : 2
Sample Rate : 44100
Precision : 16-bit
Duration : 00:00:00.26 = 11554 samples = 19.6497 CDDA sectors
File Size : 10.5M
Bit Rate : 322M
Sample Encoding: MPEG audio (layer I, II or III)
Comments :
Title=Reveal the Light Within
Artist=Surma
Album=The Light Within
Tracknumber=2
Year=2020-06-11
Genre=Progressive Metal
Discnumber=1

[/more]

Register
(22) ace73pq, aviacademy, boby9052, chipsgott, DenisKov, grimoir, gwar, gwynnbleid, Herrant, infiltrator, infozahist, metala, Mogozoz, Morgoth, Mplast, oldvarg, Olethros, Rosen, sadmannn, smes, wreak, Сварог Барг,
Nov 5 2020, 13:11:53 Walk In Darkness - On The Road To Babylon (2020)


*Artist: Walk In Darkness
*Album: On The Road To Babylon
*Year: 2020
*Genre: Symphonic/Gothic Metal
*Country: Italy
*Format: mp3@CBR320kbps
*Size: 112MB

Tracklist:
01. The Sound of Rain 05:23
02. On the Road to Babylon 06:21
03. Walk on the Sky 04:39
04. On the Moon or on Mars 04:46
05. Nothing 05:30
06. In the Mists of Time 05:23
07. My Restless Wings 05:18
08. Time to Rise 05:35
09. Critical System Failure 04:06
******************************
Total playing time: 47:01





[more=Technical info]
Input File: 02 - On the Road to Babylon.mp3
Channels : 2
Sample Rate : 44100
Precision : 16-bit
Duration : 00:06:21.00 = 16802100 samples = 28575 CDDA sectors
File Size : 15.4M
Bit Rate : 323k
Sample Encoding: MPEG audio (layer I, II or III)
Comments :
Title=On The Road To Babylon
Artist=Walk In Darkness
Album=On The Road To Babylon
Tracknumber=2
Year=2020-06-11
Discnumber=1

[/more]

Register
(23) ace73pq, after21allD, aleon, Alpha_Prime, aviacademy, boby9052, Cartman223, Evjenne, gwar, gwynnbleid, infiltrator, kimkayoung, metala, Mogozoz, Morgoth, Olethros, Olrak, Rosen, Rover, sadmannn, VALERY, wreak, Сварог Барг,
Nov 5 2020, 12:57:31 Eoront - Gods Have No Home (2020)


*Artist: Eoront
*Album: Gods Have No Home
*Year: 2020
*Genre: Atmospheric Black Metal
*Country: Russian Federation
*Format: mp3@CBR320kbps
*Size: 115MB

Tracklist:
01. The Forlorn Land 07:49
02. Wormwood 07:43
03. The Hermit 09:24
04. The Bonfires of Times 04:08
05. Gods Have No Home 10:42
06. The Midday Herbs 10:13
******************************
Total playing time: 49:59



Preview 3



[more=Technical info]
Input File: 2. Wormwood.mp3
Channels : 2
Sample Rate : 44100
Precision : 16-bit
Duration : 00:00:00.46 = 20418 samples = 34.7245 CDDA sectors
File Size : 18.6M
Bit Rate : 322M
Sample Encoding: MPEG audio (layer I, II or III)
Comments :
Title=Wormwood
Artist=Eoront
Album=Gods Have No Home
Tracknumber=2
Year=2020-06-11
Genre=Atmospheric Black Metal
Discnumber=1

[/more]

Register
(29) ahp, alikkon, Constantinus I, dimpa, doomTemplar, Druidir, eugenezzzis, Glioma, grimoir, Ildjarn, infiltrator, kim666, Korpse, multizwilling, oldvarg, Olethros, Ostinato, randumbum, ripper33, robertho777, Rosen, sandr666, Shadechaser, SilentNidhogg, toto, VALERY, varlam4, vasiljev_sergej, wreak,
Nov 5 2020, 12:46:22 Darkenhöld - Arcanes & Sortilèges (2020)


*Artist: Darkenhöld
*Album: Arcanes & Sortilèges
*Year: 2020
*Genre: Black Metal
*Country: France
*Format: mp3@CBR320kbps
*Size: 107MB

Tracklist:
01. Oriflamme 05:57
02. L'Ost de la Forteresse 06:33
03. Incantations 06:00
04. Mystique de la Vouivre 05:34
05. La Tour de l'Alchimiste 01:00
06. Héraldique 06:07
07. Bestiaire Fantastique 06:31
08. Le Sanctuaire Embrasé 05:49
09. Dans le Cabinet de l'Archimage 03:04
******************************
Total playing time: 46:35







[more=Technical info]
Input File: 2. L\'Ost de la Forteresse.mp3
Channels : 2
Sample Rate : 44100
Precision : 16-bit
Duration : 00:00:00.39 = 17331 samples = 29.4745 CDDA sectors
File Size : 15.8M
Bit Rate : 322M
Sample Encoding: MPEG audio (layer I, II or III)
Comments :
Title=L'Ost de la Forteresse
Artist=Darkenhold
Album=Arcanes & Sortilèges
Tracknumber=2
Year=2020-06-11
Genre=Black Metal
Discnumber=1

[/more]

Register
(67) 1968_janeart, acerbus, ahp, aleon, AlexSmith, alikkon, andivi, Black Cat, Buregon, Bzth, Constantinus I, Daale, DarkHorde, demonosz, doomTemplar, dorn1, El_Chibo, Femto, gena, Golodomor, grimoir, hellbibber, Ildjarn, infiltrator, judaz, kim666, Korpse, legion01, LEGION69, Leshiy666, Marek, MMMMM, Moonshtook, multizwilling, nadin85, Narasimha, nemx, nikolay81, noxspiritus, nsk2008, older68, Olethros, orgondnor, randumbum, robertho777, Rosen, sabr, SaintVitus, sandr666, serjred, SilentNidhogg, smes, SS2998, stub888, suseka, thenecromancer, the_cleanser, toto, VALERY, varlam4, vasiljev_sergej, Vitald, vobiscum, wolverine, wreak, Zenial, Авел,
Nov 5 2020, 12:37:18 Jaded Star - Realign (2020)


*Artist: Jaded Star
*Album: Realign
*Year: 2020
*Genre: Heavy/Power Metal
*Country: Greece
*Format: mp3@CBR320kbps
*Size: 91MB

Tracklist:
01. Female Fronted 03:36
02. Breathing Fire 03:49
03. A Pain All Mine 03:42
04. Maybe 04:21
05. Adrian 04:05
06. Children Of Chaos 03:32
07. Rise Up 04:08
08. We're The Heroes (A Song For Us) 03:18
09. Vertigo 03:30
10. Higher Than Love 04:44
******************************
Total playing time: 38:45


Preview 2



[more=Technical info]
Input File: 02 - Breathing Fire.mp3
Channels : 2
Sample Rate : 44100
Precision : 16-bit
Duration : 00:03:49.00 = 10098900 samples = 17175 CDDA sectors
File Size : 9.41M
Bit Rate : 329k
Sample Encoding: MPEG audio (layer I, II or III)
Comments :
Title=Breathing Fire
Artist=Jaded Star
Album=Realign
Tracknumber=2
Year=2020-06-11
Genre=GetMetal.club
Discnumber=1

[/more]

Register
(19) after21allD, aviacademy, boby9052, DenisKov, Herrant, infiltrator, Lukittaz, Marek, metala, Mogozoz, Olethros, randumbum, Rosen, Rover, sergsazan, vir2al, wreak, WX419, Сварог Барг,
Nov 5 2020, 11:38:20 Loudblast - Manifesto (2020)


*Artist: Loudblast
*Album: Manifesto
*Year: 2020
*Genre: Death Metal
*Country: France
*Format: mp3@CBR320kbps
*Size: 100MB

Tracklist:
01. Todestrieb
02. Relentless horror
03. Erasing reality
04. The promethean fire
05. Preaching spiritual infirmity
06. Invoking to justify
07. Festering pyre
08. Into the greatest of unknowns
09. Solace in hell
10. Infamy be to you
******************************
Total playing time: 43:29





[more=Technical info]
Input File: 02. Relentless horror.mp3
Channels : 2
Sample Rate : 44100
Precision : 16-bit
Duration : 00:00:00.14 = 6042 samples = 10.2755 CDDA sectors
File Size : 5.57M
Bit Rate : 325M
Sample Encoding: MPEG audio (layer I, II or III)
Comments :
Title=Relentless horror
Artist=Loudblast
Album=Manifesto
Tracknumber=2
Year=2020
Genre=Death Metal
Discnumber=1

[/more]

Register
(86) 666kolobok666, after21allD, ALEXSATHANAS, alikkon, andreikun, as71, babanguida, BandR75, BERZERK, Bzth, canadaspaceman, cancer1974, cesar, daemonarch, DarkHorde, DenisKov, Devourer, Evgen79, Femto, ForzaMinardi1977, garml2, Golfzilla, grimoir, hammer, Hell_Is_Here, infiltrator, jollo, judaz, K-61082, Kaotik, KVRT, LEGION69, Lux, Marek, masterpain666, metala, metaljosue, MikkeFFF, Mist13Signifier, MMMMM, Morgoth, Mplast, multizwilling, nadin85, Nattfodd, oldvarg, Olethros, Paradayz, Penetralia, Phlebotomized, respect, ripper33, Rosen, sabr, SadistikSlayer, SaintVitus, Satyr, serjred, Shadechaser, Shadowman, slack, smes, StoneTemple, Storky, stumpheavyrock, suseka, TeamatSE, THROWER666, Tino, tschunioronbeer, Tular, VALERY, verner, Vladimir, vov7609, vyacheslav, wanderer73, wgs73, wolverine, wrath082, wreak, WX419, yuratroll, Zhelezjaka, Нигилист, Язва,
Nov 5 2020, 11:32:22 Neptune - Northern Steel (2020)


*Artist: Neptune
*Album: Northern Steel
*Year: 2020
*Genre: Heavy Metal
*Country: Sweden
*Format: mp3@CBR320kbps
*Size: 101MB

Tracklist:
01. The Prophecy
02. Viking Stone
03. Last Man Standing
04. Fallen Nations
05. Angels
06. Northern Steel
07. Black Rain
08. Run for Your Life
09. Land of Northern
10. Seriously
11. Ruler of the Sea
12. Vanheim
******************************
Total playing time: 43:55




[more=Technical info]
Input File: 02 - Viking Stone.mp3
Channels : 2
Sample Rate : 44100
Precision : 16-bit
Duration : 00:03:32.00 = 9349200 samples = 15900 CDDA sectors
File Size : 8.65M
Bit Rate : 326k
Sample Encoding: MPEG audio (layer I, II or III)
Comments :
Title=Viking Stone
Artist=Neptune
Album=Northern Steel
Tracknumber=2
Year=2020-06-11
Genre=GetMetal.club
Discnumber=1

[/more]

Register
(22) Bzth, chipsgott, gwar, gwynnbleid, infiltrator, Lukittaz, Marek, metala, Mogozoz, Morgoth, Niknne, Olethros, poeira, Rosen, Rover, smes, stumpheavyrock, vir2al, Wail, wgs73, wreak, Yngwarr,
Nov 5 2020, 11:26:26 Deluge - Ægo Templo (2020)


*Artist: Deluge
*Album: Ægo Templo
*Year: 2020
*Genre: Post-Black Metal
*Country: France
*Format: mp3@CBR320kbps
*Size: 131MB

Tracklist:
01. Soufre 05:03
02. Opprobre 04:42
03. Abysses 08:56
04. Fratres 03:47
05. Gloire au silence 06:51
06. Ægo Templo 06:19
07. Baïne 04:36
08. Digue 06:02
09. Béryl 04:00
10. Vers 06:32
******************************
Total playing time: 56:48





[more=Technical info]
Input File: 02. Opprobre.mp3
Channels : 2
Sample Rate : 44100
Precision : 16-bit
Duration : 00:00:00.28 = 12436 samples = 21.1497 CDDA sectors
File Size : 11.4M
Bit Rate : 324M
Sample Encoding: MPEG audio (layer I, II or III)
Comments :
Title=Opprobre
Artist=deluge
Album=Ægo Templo
Tracknumber=2
Year=2020-06-11
Genre=Black Metal
Discnumber=1

[/more]

Register
(23) aleon, BandR75, Black Cat, garml2, grimoir, infiltrator, kim666, multizwilling, murian, nemx, nikolay81, Olethros, Regnat, robertho777, Rosen, smes, suseka, VALERY, varlam4, vasiljev_sergej, wreak, yuratroll, Авел,
Nov 5 2020, 11:18:31 Fates Warning - Long Day Good Night (2020)


*Artist: Fates Warning
*Album: Long Day Good Night
*Year: 2020
*Genre: Progressive Metal
*Country: United States
*Format: mp3@CBR320kbps
*Size: 166MB

Tracklist:
01. The Destination Onward 08:12
02. Shuttered World 05:13
03. Alone We Walk 04:43
04. Now Comes the Rain 04:14
05. The Way Home 07:43
06. Under the Sun 05:49
07. Scars 05:04
08. Begin Again 04:05
09. When Snow Falls 04:15
10. Liar 04:23
11. Glass Houses 03:35
12. The Longest Shadow of the Day 11:29
13. The Last Song 03:50
******************************
Total playing time: 1:12:35







[more=Technical info]
Input File: 02. Shuttered World.mp3
Channels : 2
Sample Rate : 44100
Precision : 16-bit
Duration : 00:00:00.31 = 13803 samples = 23.4745 CDDA sectors
File Size : 12.6M
Bit Rate : 323M
Sample Encoding: MPEG audio (layer I, II or III)
Comments :
Title=Shuttered World
Artist=Fates Warning
Album=Long Day Good Night
Tracknumber=2
Year=2020-06-11
Genre=Progressive Metal
Discnumber=1

[/more]

Register
(68) ace73pq, Alpha_Prime, andgrek28, Antkh, Aresson, avather, BandR75, BERZERK, Black Cat, Bloodn Lord, boby9052, Bzth, Cartman223, Corpuscul, DenisKov, Foneg, Forest, garml2, Ghostb, grimoir, gwar, gwynnbleid, Herrant, HMHamster, Ice Gnoll, infiltrator, Ingvar, JD666Hellion, Jorn777, kimkayoung, KLOP, leks, lucifix, Lukittaz, Luminous, Marek, metala, Metalass, metaljosue, MMMMM, Mogozoz, Mplast, multizwilling, nikolay81, Old Vyaine, oldvarg, Olethros, Paradayz, rammmirez, Reverend, roaroma, Rosen, Rover, sabbracadabra, SaintVitus, Shadechaser, Shadowman, smes, stumpheavyrock, Tino, tschunioronbeer, uvorth, VALERY, varlam4, wreak, Yarri, Нигилист, Сварог Барг,
Nov 4 2020, 14:39:36 Crypt Walk - Rot Gut Prophecies [ep] (2020)


*Artist: Crypt Walk
*Album: Rot Gut Prophecies [ep]
*Year: 2020
*Genre: Grindcore/Powerviolence
*Country: United States
*Format: mp3@CBR320kbps
*Size: 34MB

Tracklist:
01. Breeding Filth 01:17
02. Head Cleaner 01:06
03. Widespread Neurosis 01:34
04. Company Man 01:19
05. Booze Mask 01:37
06. Every Day I Get Worse 00:55
07. Trash People 01:30
08. Hag Magnet 01:28
09. Pig Sticker 02:11
******************************
Total playing time: 12:57

Preview 1



[more=Technical info]
Input File: 02 Head Cleaner.mp3
Channels : 2
Sample Rate : 44100
Precision : 16-bit
Duration : 00:01:06.30 = 2923918 samples = 4972.65 CDDA sectors
File Size : 3.18M
Bit Rate : 384k
Sample Encoding: MPEG audio (layer I, II or III)
Comments :
Title=Head Cleaner
Artist=Crypt Walk
Album=Rot Gut Prophecies
Tracknumber=2/9
Year=2020-20-20
Genre=Alternative
Discnumber=1/1

[/more]

Register
(3) Olethros, Rosen, wreak,
Nov 4 2020, 13:21:19 Mercyless - Sovereign Evil [ep] (2020)


*Artist: Mercyless
*Album: Sovereign Evil [ep]
*Year: 2020
*Genre: Death/Thrash Metal
*Country: France
*Format: mp3@CBR320kbps
*Size: 42MB

Tracklist:
01. Third of the Storms (Hellhammer cover) 02:55
02. In League with Satan (Venom cover) 03:08
03. The Exorcist (Possessed cover) 05:12
04. Go to Hell (Motörhead cover) 03:10
******************************
Total playing time: 14:25




[more=Technical info]
Input File: MERCYLESS - Sovereign Evil - 02 In League with Satan -Venom cover-.mp3
Channels : 2
Sample Rate : 44100
Precision : 16-bit
Duration : 00:03:08.33 = 8305221 samples = 14124.5 CDDA sectors
File Size : 7.70M
Bit Rate : 327k
Sample Encoding: MPEG audio (layer I, II or III)
Comments :
Title=In League with Satan [Venom cover]
Artist=MERCYLESS
Album=Sovereign Evil
Tracknumber=2
Year=2020

[/more]

Register
(33) after21allD, boby9052, canadaspaceman, cancer1974, cesar, chipsgott, Hell_Is_Here, infiltrator, Lukittaz, Marek, Metalass, metaljosue, Morgoth, Niknne, obscenity, oldvarg, Olethros, ripper33, Rosen, sergsazan, smes, spazm, stumpheavyrock, supremo, thenecromancer, Tino, victorinox, vyacheslav, Wail, wanderer73, wgs73, wreak, wtk.412,
Nov 4 2020, 13:07:58 Goregamel - GrindⓧVision Song Contest [ep] (2020)


*Artist: Goregamel
*Album: GrindⓧVision Song Contest [ep]
*Year: 2020
*Genre: Grindcore
*Country: Israel
*Format: mp3@CBR320kbps
*Size: 32MB

Tracklist:
01. Intro... Douze Points Anthem 00:35
02. Toy (I'm Not Your Cock) 00:30
03. Watermeloon 00:36
04. Socrates Super-Grind 00:20
05. (Hopa Ole) De Asses Song 00:13
06. Grindcore Hallelujah 00:40
07. Vooooooolare Oh Oh 00:22
08. Ein Zwei Grind!!! 00:26
09. Viva La Transexual Diva 00:22
10. Dschinghis Grind 00:45
11. Ding A Dong Schlong 00:23
12. A Ba Ni Bi O Bo Ta Grind 00:25
13. Poupée De Grind, Poupée De Gore 00:38
14. Push De Button Ov Terror 00:32
15. Save Your Kick-Ass For Me 00:29
16. Chant For Doner 2020 E.V. (Aka ”Dans Les Rêves” You Idiot!) 02:10
******************************
Total playing time: 9:26





[more=Technical info]
Input File: 02. ToY (I\'m Not Your Cock).mp3
Channels : 2
Sample Rate : 44100
Precision : 16-bit
Duration : 00:00:31.06 = 1369790 samples = 2329.57 CDDA sectors
File Size : 1.49M
Bit Rate : 383k
Sample Encoding: MPEG audio (layer I, II or III)
Comments :
Title=ToY (I'm Not Your Cock)
Artist=Goregamel
Album=GrindⓧvisioN Song Contest
Tracknumber=2
Year=2020

[/more]

Register
(5) infiltrator, Olethros, Rosen, stabilizator, wreak,
Nov 3 2020, 17:05:35 Disinterested Handjob - Music Is Love! (2020)


*Artist: Disinterested Handjob
*Album: Music Is Love!
*Year: 2020
*Genre: Grindcore
*Country: Australia
*Format: mp3@CBR320kbps
*Size: 40MB

Tracklist:
01. Shoot The Fuckwit, Not The Dog 00:43
02. Industrial Strength Turd Machine 00:36
03. N.H.I. (No Human Intelligence) 01:36
04. Signs Of Future Idiocy 00:30
05. NKVD (You Quivering Shits) 00:10
06. Bodyfarming 01:00
07. It's A Coup When We Say It's A Coup 00:38
08. National Exterminator 02:28
09. The Cacogenics Handbook 01:12
10. If Everywhere You Go Smells Like Shit Maybe The Shit Is You 00:45
11. Je Suis Cunt 00:14
12. I'm Going To Microaggression Your Fucking Guts Out 01:05
13. Inmates Ruining The Asylum 00:30
14. The Martin Bryant Appreciation Club And Their Disagreement With The Fans Of Anders Bering Breivik 00:51
15. National Exterminator 02:28
16. Very Angry 01:19
17. Slow News Hour 00:39
******************************
Total playing time: 16:44




[more=Technical info]
Input File: 02. Industrial Strength Turd Machine.mp3
Channels : 2
Sample Rate : 44100
Precision : 16-bit
Duration : 00:00:36.44 = 1607092 samples = 2733.15 CDDA sectors
File Size : 1.58M
Bit Rate : 347k
Sample Encoding: MPEG audio (layer I, II or III)
Comments :
Title=Industrial Strength Turd Machine
Artist=Disinterested Handjob
Album=Music Is Love!
Tracknumber=2
Year=2020

[/more]

Register
(7) chipsgott, DeamonRed, Foneg, infiltrator, Olethros, Rosen, wreak,
Oct 30 2020, 17:12:58 Abstract The Light - Magna Sapientia Quaerere: To The Depths Of Thy Soul... (2020)


*Artist: Abstract The Light
*Album: Magna Sapientia Quaerere: To The Depths Of Thy Soul...
*Year: 2020
*Genre: Black Metal
*Country: Australia
*Format: mp3@CBR320kbps
*Size: 166MB

Tracklist:
01. H.U.N.T.E.R 11:31
02. Spinning Plates in the Tapestry of Existence 06:42
03. Waters of Fire 09:47
04. Broken Shards, of Inner Self 10:29
05. Primeval Essence of Nothingness 09:55
06. Smouldering Black, Thy Heart 08:04
07. Carousels of Eternity 16:06
******************************
Total playing time: 1:12:34





[more=Technical info]
Input File: 02 - Spinning Plates in the Tapestry of Existence.mp3
Channels : 2
Sample Rate : 44100
Precision : 16-bit
Duration : 00:06:42.02 = 17729082 samples = 30151.5 CDDA sectors
File Size : 16.2M
Bit Rate : 323k
Sample Encoding: MPEG audio (layer I, II or III)
Comments :
Title=Spinning Plates in the Tapestry of Existence
Artist=Abstract the Light
Album=Magna Sapientia Quaerere - To the Depths of Thy Soul...
Tracknumber=2
Year=2020

[/more]

Register
(24) acerbus, AlexSmith, demonosz, El_Chibo, infiltrator, kim666, Korpse, Morgoth, nadin85, nemx, Olethros, randumbum, recber, robertho777, Rosen, satanist666, SilentNidhogg, Storky, stub888, VALERY, varlam4, vasiljev_sergej, vov7609, wreak,
Oct 30 2020, 13:39:58 Dawnbreaker - Vanquished Horrible Night (2020)


*Artist: Dawnbreaker
*Album: Vanquished Horrible Night
*Year: 2020
*Genre: Symphonic Black/Death Metal
*Country: United States
*Format: mp3@CBR320kbps
*Size: 96MB

Tracklist:
01. Summoned by Christ's Vicar
02. Evil's Bane
03. The Virtuous Quest
04. Bridge Between Worlds
05. Torment of Anti-Christian Souls
06. Plague Hunters
07. Yours Is the Night
08. A Martyr's Glory
09. Lady of the Snows
10. The Outer Darkness
******************************
Total playing time: 41:47


Preview 2



[more=Technical info]
Input File: 02 - Evil\'s Bane.mp3
Channels : 2
Sample Rate : 44100
Precision : 16-bit
Duration : 00:06:05.47 = 16117359 samples = 27410.5 CDDA sectors
File Size : 14.8M
Bit Rate : 323k
Sample Encoding: MPEG audio (layer I, II or III)
Comments :
Title=Evil's Bane
Artist=Dawnbreaker
Album=Vanquished Horrible Night
Tracknumber=2
Year=2020

[/more]

Register
(19) infiltrator, isvili, kim666, kimkayoung, lldma, Lukittaz, metala, Mogozoz, randumbum, Rosen, sadoc, satanist666, Satyr, sergsazan, suseka, VALERY, varlam4, wreak, zhol,
Oct 30 2020, 13:31:19 Baphomilitia - Goatmilitia (2020)


*Artist: Baphomilitia
*Album: Goatmilitia
*Year: 2020
*Genre: Death/Black Metal
*Country: Turkey
*Format: mp3@CBR320kbps
*Size: 65MB

Tracklist:
01. KhaosDoom 04:07
02. Saboteur of Thousand Mosque 03:26
03. Suffered Before 01:37
04. From Womb to Tomb 04:03
05. BaphoKommand 03:01
06. Metal of Death 01:14
07. HateallaH 03:17
08. Nefret Ettim 03:01
09. Unholy Nuklear Terrorist 02:32
10. Praise Death 02:00
11. Terrorrise 03:01
******************************
Total playing time: 31:19

[more=Extended info]Exclusive for Metalarea.org[/more]

[more=Technical info]
Input File: 02. Saboteur of Thousand Mosque.mp3
Channels : 2
Sample Rate : 48000
Precision : 16-bit
Duration : 00:03:26.18 = 9896832 samples ~ 15463.8 CDDA sectors
File Size : 8.25M
Bit Rate : 320k
Sample Encoding: MPEG audio (layer I, II or III)
Comments :
Title=Saboteur of Thousand Mosque
Artist=Baphomilitia
Album=Goatmilitia
Tracknumber=2
Year=2020

[/more]

Register
(25) andreikun, El_Chibo, Gylve, Hell_Is_Here, infiltrator, infozahist, kefka, Mist13Signifier, Olethros, randumbum, Rosen, satanist666, SilentNidhogg, Styx, suseka, VALERY, varlam4, Velmi, vov7609, vyacheslav, Wail, wanderer73, warslutKK, wreak, wtk.412,
Oct 29 2020, 14:40:10 Nether - Between Shades And Shadows (2020)


*Artist: Nether
*Album: Between Shades And Shadows
*Year: 2020
*Genre: Melodic Black Metal
*Country: Belgium
*Format: mp3@CBR320kbps
*Size: 87MB

Tracklist:
01. The Hand of the Unspoken
02. Mouths Sealed Clenched Fists
03. Abandon
04. To the Shores
05. Humanity's Crescendo
06. The Blood Is Gone
07. The Oathbreakers
08. So All Adore Me
******************************
Total playing time: 37:48




[more=Technical info]
Input File: 02 - Mouths Sealed Clenched Fists.mp3
Channels : 2
Sample Rate : 44100
Precision : 16-bit
Duration : 00:05:45.44 = 15233728 samples = 25907.7 CDDA sectors
File Size : 14.0M
Bit Rate : 324k
Sample Encoding: MPEG audio (layer I, II or III)
Comments :
Title=Mouths Sealed Clenched Fists
Artist=Nether
Album=Between Shades and Shadows
Tracknumber=2
Year=2020

[/more]

Register
(31) AlexSmith, BugEyes, Corpse_Of_The_Christ, DenisKov, gwynnbleid, Ildjarn, infiltrator, kim666, kimkayoung, legion01, Lukittaz, Marek, metala, Mogozoz, MortSathynr, oldvarg, Olethros, Ostinato, randumbum, robertho777, Rosen, SadistikSlayer, sergsazan, Shadechaser, SilentNidhogg, symphonicadiction, VALERY, vasiljev_sergej, wreak, zhol, Сварог Барг,
Oct 29 2020, 14:31:07 Xeno - Sojourn (2020)


*Artist: Xeno
*Album: Sojourn
*Year: 2020
*Genre: Progressive Death Metal
*Country: Netherlands
*Format: mp3@CBR320kbps
*Size: 151MB

Tracklist:
01. Revery 01:22
02. In Statis 06:01
03. Dusk 06:43
04. Epiphany 05:40
05. Exile 06:09
06. Nomad 05:47
07. Memories 02:30
08. Closure 05:31
09. Resurge 06:18
10. Uncaged 06:32
11. Sojourn 13:15
******************************
Total playing time: 1:05:48





[more=Technical info]
Input File: 02. In Stasis.mp3
Channels : 2
Sample Rate : 44100
Precision : 16-bit
Duration : 00:00:00.36 = 15876 samples = 27 CDDA sectors
File Size : 14.5M
Bit Rate : 323M
Sample Encoding: MPEG audio (layer I, II or III)
Comments :
Title=In Stasis
Artist=Xeno
Album=Sojourn
Tracknumber=2
Year=2020-30-10
Genre=Industrial
Discnumber=1

[/more]

Register
(17) andgrek28, chipsgott, daemonarch, Hell_Is_Here, infiltrator, kimkayoung, Marek, metala, metaljosue, Mplast, Olethros, Rosen, VALERY, vyacheslav, wreak, Yngwarr, yuratroll,
Oct 29 2020, 14:21:32 Nahemia - Ar-Caosaji (2020)


*Artist: Nahemia
*Album: Ar-Caosaji
*Year: 2020
*Genre: Black Metal
*Country: Poland
*Format: mp3@CBR320kbps
*Size: 99MB

Tracklist:
01. Teloch
02. Vindictive Malice
03. 9mm
04. A Blast of Steel
05. Misanthropic Division
06. Temple of Glorious Indulgence
07. Torturous Lords of Sheol
08. Nightfall of Blackstorm
09. World Annihilation
******************************
Total playing time: 43:01






[more=Technical info]
Input File: 02 - Vindictive Malice.mp3
Channels : 2
Sample Rate : 44100
Precision : 16-bit
Duration : 00:05:14.43 = 13866231 samples = 23582 CDDA sectors
File Size : 12.7M
Bit Rate : 324k
Sample Encoding: MPEG audio (layer I, II or III)
Comments :
Title=Vindictive Malice
Artist=Nahemia
Album=Ar-Caosaji
Tracknumber=2
Year=2020

[/more]

Register
(18) AlexSmith, caro, El_Chibo, Ildjarn, infiltrator, kim666, kimkayoung, kupiszcze, MortSathynr, Olethros, randumbum, robertho777, Rosen, SilentNidhogg, VALERY, vasiljev_sergej, VVR, wreak,
Oct 29 2020, 14:12:27 Jahbulong - Eclectic Poison Tones (2020)


*Artist: Jahbulong
*Album: Eclectic Poison Tones
*Year: 2020
*Genre: Stoner/Doom Metal
*Country: Italy
*Format: mp3@CBR320kbps
*Size: 105MB

Tracklist:
01. Under the Influence of the Fool 11:18
02. The Tower of the Broken Bones 01:16
03. The Eclipse of the Empress 09:07
04. The Eremite Tired out (Sweed Dreams) 15:19
******************************
Total playing time: 37:00


Preview 2


[more=Technical info]
Input File: 2. The Tower of the Broken Bones.mp3
Channels : 2
Sample Rate : 44100
Precision : 16-bit
Duration : 00:00:00.62 = 27122 samples = 46.1259 CDDA sectors
File Size : 24.7M
Bit Rate : 322M
Sample Encoding: MPEG audio (layer I, II or III)
Comments :
Title=The Tower of the Broken Bones
Artist=Jahbulong
Album=Eclectic Poison Tones
Tracknumber=2
Year=2020-30-10
Genre=Stoner Metal
Discnumber=1

[/more]

Register
(9) frituz3, infiltrator, Niknne, Olethros, Rosen, stub888, stumpheavyrock, VALERY, wreak,
Oct 29 2020, 14:01:48 Botanist - Photosynthesis (2020)


*Artist: Botanist
*Album: Photosynthesis
*Year: 2020
*Genre: Experimental Black Metal
*Country: United States
*Format: mp3@CBR320kbps
*Size: 80MB

Tracklist:
01. Light 02:26
02. Water 05:05
03. Chlorophyll 03:52
04. Dehydration 04:05
05. Bacteria 04:34
06. Stroma 05:12
07. Palisade 02:50
08. Oxygen 06:17
******************************
Total playing time: 34:21





[more=Technical info]
Input File: 2. Water.mp3
Channels : 2
Sample Rate : 44100
Precision : 16-bit
Duration : 00:00:00.31 = 13451 samples = 22.8759 CDDA sectors
File Size : 12.4M
Bit Rate : 324M
Sample Encoding: MPEG audio (layer I, II or III)
Comments :
Title=Water
Artist=Botanist
Album=Photosynthesis
Tracknumber=2
Year=2020-30-10
Genre=Experimental Black Metal
Discnumber=1

[/more]

Register
(28) BandR75, Black Cat, Boozer, El_Chibo, Fallen Soul, gena, infiltrator, judaz, kimkayoung, metala, metaljosue, Mist13Signifier, nemx, noxspiritus, Olethros, Ostinato, pahail, randumbum, robertho777, Rosen, sarcophagus, Shadechaser, SilentNidhogg, stub888, VALERY, vasiljev_sergej, wreak, yuratroll,

1435 Pages V   1 2 3 > » 
- Lo-Fi Version Support form
Copyrights and abuse reports form
Time is now: 5th December 2020 - 15:24:22