Welcome Guest ( Log In | Register )

История благодарностей участнику necroscum ::: Спасибо сказали: 418217 раз(а)
Дата поста: В теме: За сообщение: Спасибо сказали:
Mar 12 2020, 15:39:05 Ockultist - Festering Wounds (2020)


*Artist: Ockultist
*Album: Festering Wounds
*Year: 2020
*Genre: Sludge/Doom Metal
*Country: Sweden
*Format: mp3@CBR320kbps
*Size: 91MB

Tracklist:
01. Vermin
02. Abysmal
03. Lividity
04. Ropes // Necks
05. Left for Ted
******************************
Total playing time: 39:34





[more=Technical info]
Input File: 02. Abysmal.mp3
Channels : 2
Sample Rate : 44100
Precision : 16-bit
Duration : 00:11:01.33 = 29164609 samples = 49599.7 CDDA sectors
File Size : 26.6M
Bit Rate : 321k
Sample Encoding: MPEG audio (layer I, II or III)
Comments :
Title=Abysmal
Artist=Ockultist
Album=Festering Wounds
Tracknumber=2/5
Year=2020
Genre=Metal
Discnumber=1/1

[/more]

Register
(6) fishish, infiltrator, marilin, Olethros, stub888, VALERY,
Mar 12 2020, 15:27:07 Kasbeel - Rebellion And Opposition (2015)


*Artist: Kasbeel
*Album: Rebellion And Opposition
*Year: 2015
*Genre: Black Metal
*Country: Chile
*Format: mp3@CBR320kbps
*Size: 97MB

Tracklist:
01. Born from Satan's Blasphemy 04:29
02. The Art of Church Burning 04:31
03. El Inefable Rey del Infierno 03:22
04. Speaking the Ancient Language 03:54
05. The Army of Fire 04:35
06. Mutilate a Christ 04:15
07. I Invoke Your Name 06:42
08. To the Deepest Abyss 05:22
09. Eradicating the Christianity 05:09
******************************
Total playing time: 42:19





[more=Extended info]Exclusive for Metalarea.org[/more]

[more=Technical info]
Input File: 02 - The Art of Church Burning.mp3
Channels : 2
Sample Rate : 44100
Precision : 16-bit
Duration : 00:04:30.96 = 11949336 samples = 20322 CDDA sectors
File Size : 11.0M
Bit Rate : 324k
Sample Encoding: MPEG audio (layer I, II or III)
Comments :
Title=The Art of Church Burning
Artist=Kasbeel
Album=Rebellion and Opposition
Tracknumber=2
Year=2018-01-24
Genre=Alternative; Indie Rock; Metal
Discnumber=1

[/more]

Register
(10) atavist, Ildjarn, infiltrator, kim666, multizwilling, Ostinato, SilentNidhogg, toly1917, VALERY, vasiljev_sergej,
Mar 12 2020, 15:14:00 Oath Of Damnation - Fury And Malevolence (2020)


*Artist: Oath Of Damnation
*Album: Fury And Malevolence
*Year: 2020
*Genre: Death/Black Metal
*Country: Australia
*Format: mp3@CBR320kbps
*Size: 83MB

Tracklist:
01. Imhullu 04:54
02. The Abortuary 03:46
03. Ardenti Haereticus 07:58
04. With Fire and Malevolence 05:08
05. To Crack the Earth and Bring Down the Sky 03:34
06. In Death's Dominion 04:36
07. I Curse Thee, O' Lord! 06:00
******************************
Total playing time: 35:56






[more=Technical info]
Input File: 2 - The Abortuary.mp3
Channels : 2
Sample Rate : 44100
Precision : 16-bit
Duration : 00:03:46.47 = 9987371 samples = 16985.3 CDDA sectors
File Size : 9.17M
Bit Rate : 324k
Sample Encoding: MPEG audio (layer I, II or III)
Comments :
Title=The Abortuary
Artist=Oath of Damnation
Album=Fury and Malevolence
Tracknumber=2
Year=2020
Genre=Metal
Discnumber=1

[/more]

Register
(11) atavist, Gutter, Hell_Is_Here, infiltrator, lldma, musrenat, Ostinato, SilentNidhogg, stub888, VALERY, vyacheslav,
Mar 12 2020, 14:17:09 Flammenaar - Nusitos (2020)


*Artist: Flammenaar
*Album: Nusitos
*Year: 2020
*Genre: Black Metal
*Country: Germany
*Format: mp3@CBR320kbps
*Size: 132MB

Tracklist:
01. Nusitos Schwur 07:47
02. Der Waffengang 07:09
03. F?gung des Schicksals 08:28
04. In Schmach gebeugt 06:00
05. Die Opferung 10:47
06. Abstieg ins Totenreich 09:41
07. Am Heldengrab des Nusitos 07:53
******************************
Total playing time: 57:45




[more=Technical info]
Input File: 2 - Der Waffengang.mp3
Channels : 2
Sample Rate : 44100
Precision : 16-bit
Duration : 00:07:09.92 = 18959648 samples = 32244.3 CDDA sectors
File Size : 17.3M
Bit Rate : 321k
Sample Encoding: MPEG audio (layer I, II or III)
Comments :
Title=Der Waffengang
Artist=Flammenaar
Album=Nusitos
Tracknumber=2
Year=2020
Genre=Metal
Discnumber=1

[/more]

Register
(20) AlexSmith, atavist, craP_cillA, Indamage, infiltrator, kim666, multizwilling, murian, nadin85, nsk2008, Ostinato, randumbum, robertho777, sandr666, satanist666, SilentNidhogg, suseka, VALERY, vasiljev_sergej, Velmi,
Mar 12 2020, 14:09:56 Ghosts In Gold - Glorious Illumination [ep] (2020)


*Artist: Ghosts In Gold
*Album: Glorious Illumination [ep]
*Year: 2020
*Genre: Black Metal
*Country: United Kingdom
*Format: mp3@CBR320kbps
*Size: 58MB

Tracklist:
01. Those of Faith Shalt Die at Dawn 05:17
02. The True Messiah 04:33
03. March Onwards to the Grave 02:16
04. Baptised in the Light 03:13
05. Projections of Hell upon the Earth 03:09
06. Sex in the Void 03:30
******************************
Total playing time: 21:58



[more=Technical info]
Input File: 02. The True Messiah.mp3
Channels : 2
Sample Rate : 44100
Precision : 16-bit
Duration : 00:04:33.57 = 12064393 samples = 20517.7 CDDA sectors
File Size : 11.1M
Bit Rate : 325k
Sample Encoding: MPEG audio (layer I, II or III)
Comments :
Title=The True Messiah
Artist=Ghosts In Gold
Album=Glorious Illumination
Tracknumber=2
Year=2020

[/more]

Register
(10) infiltrator, kim666, Occultas, Ostinato, randumbum, robertho777, SilentNidhogg, stub888, VALERY, vasiljev_sergej,
Mar 12 2020, 13:58:31 Dirt Woman - The Glass Cliff (2020)


*Artist: Dirt Woman
*Album: The Glass Cliff
*Year: 2020
*Genre: Stoner/Doom Metal
*Country: United States
*Format: mp3@CBR320kbps
*Size: 128MB

Tracklist:
01. Lady of the Dunes 07:23
02. Creator 13:09
03. Fades to Greed 08:27
04. Demagogue 13:30
05. Starhawk 13:45
******************************
Total playing time: 56:14




[more=Technical info]
Input File: 02 Creator.mp3
Channels : 2
Sample Rate : 44100
Precision : 16-bit
Duration : 00:13:08.60 = 34777348 samples = 59145.1 CDDA sectors
File Size : 31.8M
Bit Rate : 323k
Sample Encoding: MPEG audio (layer I, II or III)
Comments :
Title=Creator
Artist=Dirt Woman
Album=The Glass Cliff
Tracknumber=2
Year=2020

[/more]

Register
(15) chipsgott, eddbuzz, fishish, gena, HMHamster, infiltrator, marilin, Mogozoz, Olethros, robertho777, SatanicPanzer, stub888, stumpheavyrock, VALERY, wreak,
Mar 12 2020, 13:50:44 Serpent Cobra - Anatomy Of Abuses (2020)


*Artist: Serpent Cobra
*Album: Anatomy Of Abuses
*Year: 2020
*Genre: Stoner/Doom Metal
*Country: Argentina
*Format: mp3@CBR320kbps
*Size: 148MB

Tracklist:
01. Master of It All 03:50
02. General Discomfort 03:44
03. Rulers of Hell 03:45
04. Screams from the Coffin 05:16
05. Lord High Executioner 04:01
06. Dear Satan 04:33
07. Serpent Eyes 02:40
08. Anatomy of Abuses 06:03
******************************
Total playing time: 33:52





[more=Technical info]
Input File: 02 General Discomfort.mp3
Channels : 2
Sample Rate : 44100
Precision : 16-bit
Duration : 00:03:44.09 = 9882369 samples = 16806.8 CDDA sectors
File Size : 17.4M
Bit Rate : 621k
Sample Encoding: MPEG audio (layer I, II or III)
Comments :
Title=General Discomfort
Artist=Serpent Cobra
Album=Anatomy of Abuses
Tracknumber=2
Year=2020

[/more]

Register
(15) AHBAnep, autumnwood, Foneg, HMHamster, infiltrator, marilin, Mogozoz, multizwilling, Olethros, Ostinato, SatanicPanzer, stumpheavyrock, uncolored, VALERY, wreak,
Mar 12 2020, 13:40:04 Fourth Circle - Worlds (2020)


*Artist: Fourth Circle
*Album: Worlds
*Year: 2020
*Genre: Symphonic Gothic Metal
*Country: France
*Format: mp3@CBR320kbps
*Size: 246MB

Tracklist:
01. Prologue
02. Awake and Lost
03. Worlds
04. A Weight?
05. Survive
06. Feeling
07. Underneath
08. The Truth
09. Who Am I?
10. Nothing
11. Revival
12. One, Together
13. Rising Tensions
14. Battle and Forgiveness
15. Worlds (English Audiobook)
16. Worlds (Livre audio en français)
******************************
Total playing time: 1:47:08






[more=Technical info]
Input File: 02 - Awake and Lost.mp3
Channels : 2
Sample Rate : 44100
Precision : 16-bit
Duration : 00:04:11.21 = 11078361 samples = 18840.8 CDDA sectors
File Size : 10.2M
Bit Rate : 325k
Sample Encoding: MPEG audio (layer I, II or III)
Comments :
Title=Awake and Lost
Artist=Fourth Circle
Album=Worlds
Tracknumber=2
Year=2020

[/more]

Register
(18) Alpha_Prime, aviacademy, Cartman223, chipsgott, GorAtheist, gwar, HMHamster, infiltrator, kimkayoung, legion01, Mogozoz, Olethros, ragio_58, Rover, sadmannn, Sanctus, senecazm, wreak,
Mar 12 2020, 13:30:05 Huntsmen - Mandala Of Fear (2020)


*Artist: Huntsmen
*Album: Mandala Of Fear
*Year: 2020
*Genre: Sludge/Doom/Post-Metal
*Country: United States
*Format: mp3@CBR320kbps
*Size: 179MB

Tracklist:
01. Ride Out 04:54
02. Colossus 06:27
03. Atomic Storms 07:58
04. God Will Stop Trying 07:21
05. Pirates of the Waste 06:00
06. Hill People Drugs 03:39
07. Bone Cathedral 04:36
08. A Nameless Dread 06:14
09. Awake at Time's End 09:07
10. Loss 04:05
11. The Silver Lining 02:30
12. The Swallow 10:41
13. Clearing the Sand 04:49
******************************
Total playing time: 1:18:21





[more=Technical info]
Input File: 02 Colossus.mp3
Channels : 2
Sample Rate : 44100
Precision : 16-bit
Duration : 00:06:27.84 = 17103524 samples = 29087.6 CDDA sectors
File Size : 15.5M
Bit Rate : 320k
Sample Encoding: MPEG audio (layer I, II or III)
Comments :
Title=Colossus
Artist=Huntsmen
Album=Mandala of Fear
Tracknumber=02/13
Year=2020-20-20
Discnumber=1/1

[/more]

Register
(13) BandR75, Battaleon, bubba, gena, infiltrator, kolar666, Olethros, Ostinato, robertho777, SatanicPanzer, skidnik, Unkle Jonny, VALERY,
Mar 12 2020, 13:21:07 Mindtech - Omnipresence (2020)


*Artist: Mindtech
*Album: Omnipresence
*Year: 2020
*Genre: Progressive Metal
*Country: Norway
*Format: mp3@CBR320kbps
*Size: 97MB

Tracklist:
01. The Path of the Sages Part I: The Big Question 06:24
02. The Path of the Sages Part II: The Lotus Eyed 05:25
03. The Path of the Sages Part III: Unity 06:42
04. These Are the Days 05:01
05. The Journey 04:36
06. Standing Tall 03:48
07. Brahman 04:11
08. Through the Veil 06:03
******************************
Total playing time: 42:10






[more=Technical info]
Input File: 2 - The Lotus Eyed.mp3
Channels : 2
Sample Rate : 44100
Precision : 16-bit
Duration : 00:05:25.38 = 14349082 samples = 24403.2 CDDA sectors
File Size : 13.1M
Bit Rate : 322k
Sample Encoding: MPEG audio (layer I, II or III)
Comments :
Title=The Lotus Eyed
Artist=MindTech
Album=Omnipresence
Tracknumber=2
Year=2020
Genre=Metal
Discnumber=1

[/more]

Register
(22) ace73pq, andgrek28, aviacademy, cancer1974, chipsgott, DenisKov, Foneg, infiltrator, maochen, metala, MMMMM, Mogozoz, nospeedlimit, Olethros, Rover, russ777, sadmannn, StoneTemple, terron, VALERY, wreak, Yarri,
Mar 12 2020, 13:10:40 Imperial Child - Compass Of Evil (2020)


*Artist: Imperial Child
*Album: Compass Of Evil
*Year: 2020
*Genre: Progressive Power Metal
*Country: Norway
*Format: mp3@CBR320kbps
*Size: 97MB

Tracklist:
01. William Green
02. The Imperial Child
03. Darren Half-Eye
04. Stormbringer
05. Priscilla
06. The Devil and the Buccaneer
07. A Buccaneer's Hymn
08. Libertalia
09. Victim of Hate
10. The Quest for Jerusalem
******************************
Total playing time: 42:15





[more=Technical info]
Input File: 02. The Imperial Child.mp3
Channels : 2
Sample Rate : 44100
Precision : 16-bit
Duration : 00:05:11.90 = 13754614 samples = 23392.2 CDDA sectors
File Size : 12.6M
Bit Rate : 322k
Sample Encoding: MPEG audio (layer I, II or III)
Comments :
Title=The Imperial Child
Artist=Imperial Child
Album=Compass of Evil
Tracknumber=2/10
Year=2020
Genre=9
Discnumber=1/1

[/more]

Register
(23) ace73pq, andgrek28, boby9052, cancer1974, DenisKov, gwar, Herrant, infiltrator, infozahist, metala, MetalW, multizwilling, nospeedlimit, Olethros, Rhoads, Rover, SAPOGi, senecazm, stumpheavyrock, wn129aa, wreak, zhol, Сварог Барг,
Mar 12 2020, 13:02:15 Feastem - Graveyard Earth (2020)


*Artist: Feastem
*Album: Graveyard Earth
*Year: 2020
*Genre: Grindcore
*Country: Finland
*Format: mp3@CBR320kbps
*Size: 49MB

Tracklist:
01. The Rope Calls Your Name 01:12
02. I Will Never Kill 01:05
03. Sick 01:15
04. Terror Balance 01:51
05. Sortovalta 01:32
06. Verta ja lihaa 01:31
07. Creeping Heat 01:07
08. In Isolation We Die 01:09
09. Pelon voima 01:36
10. Graveyard Earth 02:10
11. Spreading Darkness 01:27
12. Mouths of Others 00:51
13. Turha toivo 00:38
14. Kurjuuden kuningas 01:11
15. Outro 01:14
******************************
Total playing time: 19:49





[more=Technical info]
Input File: 04. Terror Balance.mp3
Channels : 2
Sample Rate : 44100
Precision : 16-bit
Duration : 00:01:50.06 = 4853778 samples = 8254.72 CDDA sectors
File Size : 4.51M
Bit Rate : 328k
Sample Encoding: MPEG audio (layer I, II or III)
Comments :
Title=Terror Balance
Artist=Feastem
Album=Graveyard Earth
Tracknumber=4
Year=2020
Genre=Grind
Discnumber=1

[/more]

Register
(12) BandR75, DarkHorde, FUDEDOR, infiltrator, lldma, Olethros, POMAHOB, satanist666, stabilizator, terron, wgs73, wreak,
Mar 12 2020, 12:52:23 The Unity - Pride (2020)


*Artist: The Unity
*Album: Pride
*Year: 2020
*Genre: Heavy/Power Metal
*Country: Germany
*Format: mp3@CBR320kbps
*Size: 122MB

Tracklist:
01. The New Pandora 01:17
02. Hands of Time 05:33
03. Line and Sinker 05:41
04. We Don't Need Them Here 03:56
05. Destination Unknown 05:06
06. Angel of Dawn 04:42
07. Damn Nation 04:50
08. Wave of Fear 05:39
09. Guess How I Hate This 04:18
10. Scenery of Hate 04:03
11. Rusty Cadillac 03:27
12. You Don't Walk Alone 04:23
******************************
Total playing time: 52:55





[more=Technical info]
Input File: 02 - Hands of Time.mp3
Channels : 2
Sample Rate : 44100
Precision : 16-bit
Duration : 00:05:33.47 = 14706203 samples = 25010.5 CDDA sectors
File Size : 13.4M
Bit Rate : 322k
Sample Encoding: MPEG audio (layer I, II or III)
Comments :
Title=Hands of Time
Artist=The Unity
Album=Pride
Tracknumber=2
Year=2020
Genre=Metal
Discnumber=1

[/more]

Register
(30) ace73pq, aviacademy, Blaubart, boby9052, Dark Sage, Darkness, DTGB, gwar, Herrant, HMHamster, infiltrator, MetalW, mikerx, Mogozoz, multizwilling, oldvarg, Olethros, Olrak, Rhoads, Rover, sadmannn, SAPOGi, satanist666, senecazm, talismanFS, vir2al, wn129aa, wreak, zhol, Сварог Барг,
Mar 12 2020, 12:46:25 Black Hawk - Destination Hell (2020)


*Artist: Black Hawk
*Album: Destination Hell
*Year: 2020
*Genre: Heavy Metal
*Country: Germany
*Format: mp3@CBR320kbps
*Size: 105MB

Tracklist:
01. Hate
02. Destination Hell
03. Smoking Guns
04. Time
05. Voices From The Dark
06. The Eye Of The Beast
07. Speed Ride
08. Bleeding Heart
09. Under Horizone
10. Masters Of Metal
******************************
Total playing time: 45:42





[more=Technical info]
Input File: 02 - Destination Hell.mp3
Channels : 2
Sample Rate : 44100
Precision : 16-bit
Duration : 00:04:39.37 = 12320305 samples = 20952.9 CDDA sectors
File Size : 11.2M
Bit Rate : 322k
Sample Encoding: MPEG audio (layer I, II or III)
Comments :
Title=Destination Hell
Artist=Black Hawk
Album=Destination Hell
Tracknumber=2
Year=2020
Genre=Rock / Hard Rock / Metal
Discnumber=1

[/more]

Register
(17) Dark Sage, DTGB, gwar, infiltrator, metala, Mogozoz, multizwilling, oldvarg, Olethros, Olrak, Rover, senecazm, stumpheavyrock, vir2al, wgs73, wreak, Сварог Барг,
Mar 12 2020, 12:21:11 Coffeinne - Requiem (2020)


*Artist: Coffeinne
*Album: Requiem
*Year: 2020
*Genre: Heavy/Power Metal
*Country: Spain
*Format: mp3@CBR320kbps
*Size: 108MB

Tracklist:
01. Frozen Seas
02. Back to the Light
03. One More Day
04. Forevermore
05. The Showdown
06. Never Again
07. Wake Up
08. Open Your Eyes
09. Crash and Burn
10. Requiem
******************************
Total playing time: 46:58




[more=Technical info]
Input File: 02 - Back to the Light.mp3
Channels : 2
Sample Rate : 44100
Precision : 16-bit
Duration : 00:04:55.46 = 13029962 samples = 22159.8 CDDA sectors
File Size : 11.9M
Bit Rate : 322k
Sample Encoding: MPEG audio (layer I, II or III)
Comments :
Title=Back to the Light
Artist=Coffeinne
Album=Requiem
Tracknumber=2
Year=2020
Genre=Metal
Discnumber=1

[/more]

Register
(22) ace73pq, boby9052, DTGB, gwar, Herrant, HMHamster, infiltrator, metala, MetalW, metalwoman, mikerx, Mogozoz, nospeedlimit, Olethros, Rover, sadmannn, satanist666, senecazm, talismanFS, vir2al, wreak, Сварог Барг,
Mar 12 2020, 12:12:43 Wolf - Feeding The Machine (2020)


*Artist: Wolf
*Album: Feeding The Machine
*Year: 2020
*Genre: Heavy Metal
*Country: Sweden
*Format: mp3@CBR320kbps
*Size: 108MB

Tracklist:
01. Shoot to Kill 03:40
02. Guillotine 04:04
03. Dead Man's Hand 03:09
04. Midnight Hour 03:22
05. Mass Confusion 04:12
06. The Cold Emptiness 03:48
07. Feeding the Machine 03:51
08. Devil in the Flesh 03:18
09. Spoon Bender 03:26
10. The Raven 04:29
11. Black Widow 04:00
12. A Thief Inside 05:33
******************************
Total playing time: 46:52





[more=Technical info]
Input File: 2 - Guillotine.mp3
Channels : 2
Sample Rate : 44100
Precision : 16-bit
Duration : 00:04:04.91 = 10800707 samples = 18368.5 CDDA sectors
File Size : 9.89M
Bit Rate : 323k
Sample Encoding: MPEG audio (layer I, II or III)
Comments :
Title=Guillotine
Artist=Wolf
Album=Feeding The Machine
Tracknumber=2
Year=2020
Genre=Rock / Hard Rock / Metal
Discnumber=1

[/more]

Register
(38) ace73pq, andgrek28, atavist, avather, BladeOvDarkness, Boozer, cast_iron, Darkness, DenisKov, DTGB, gwar, HMHamster, infiltrator, JD666Hellion, Kasper969, Lamby90, metala, Mogozoz, multizwilling, oldvarg, Olethros, Olrak, poeira, Rover, SAPOGi, satanist666, senecazm, skinnyboo, smes, stumpheavyrock, TeamatSE, terron, vir2al, wgs73, wn129aa, wreak, xska, Сварог Барг,
Mar 12 2020, 12:06:29 Ambush - Infidel (2020)


*Artist: Ambush
*Album: Infidel
*Year: 2020
*Genre: Heavy Metal
*Country: Sweden
*Format: mp3@CBR320kbps
*Size: 102MB

Tracklist:
01. Infidel 04:23
02. Yperite 04:19
03. Leave Them to Die 04:39
04. Hellbiter 04:26
05. The Summoning 01:14
06. The Demon Within 04:19
07. A Silent Killer 04:46
08. Iron Helm of War 05:38
09. Heart of Stone 04:46
10. Lust for Blood 04:35
******************************
Total playing time: 43:05




[more=Technical info]
Input File: 2 - Yperite.mp3
Channels : 2
Sample Rate : 44100
Precision : 16-bit
Duration : 00:04:19.49 = 11443553 samples = 19461.8 CDDA sectors
File Size : 10.4M
Bit Rate : 322k
Sample Encoding: MPEG audio (layer I, II or III)
Comments :
Title=Yperite
Artist=Ambush
Album=Infidel
Tracknumber=2
Year=2020
Genre=Rock
Discnumber=1

[/more]

Register
(33) ace73pq, BandR75, BladeOvDarkness, Boozer, Brann, BugEyes, Bzth, canadaspaceman, cast_iron, Darkness, DTGB, HMHamster, infiltrator, metala, MetalW, metalwoman, Mogozoz, multizwilling, oldvarg, Olethros, Olrak, powermetal2000, Rover, SAPOGi, senecazm, stumpheavyrock, Torlof, tschunioronbeer, varlam4, vir2al, wgs73, wreak, Сварог Барг,
Mar 12 2020, 12:00:05 Sicarius - God Of Dead Roots (2020)


*Artist: Sicarius
*Album: God Of Dead Roots
*Year: 2020
*Genre: Black Metal
*Country: United States
*Format: mp3@CBR320kbps
*Size: 116MB

Tracklist:
01. Bia 06:32
02. Open Fire 03:07
03. Immortal Plight 04:34
04. Culling the Heedless 03:24
05. Nekromanteia 06:16
06. A Practiced Hand 03:20
07. Pagan Vestige(s) 04:00
08. God of Dead Roots 05:21
09. Scythe Bearers 05:59
10. Tombs 13:06
******************************
Total playing time: 55:39





[more=Technical info]
Input File: 2 - Open Fire.mp3
Channels : 2
Sample Rate : 44100
Precision : 16-bit
Duration : 00:03:07.57 = 8271925 samples = 14067.9 CDDA sectors
File Size : 7.54M
Bit Rate : 322k
Sample Encoding: MPEG audio (layer I, II or III)
Comments :
Title=Open Fire
Artist=Sicarius
Album=God of Dead Roots
Tracknumber=2
Year=2020
Genre=Metal
Discnumber=1

[/more]

Register
(25) AlexSmith, alikkon, atavist, Cyrci, exorcist1969, Foneg, Hell_Is_Here, Indamage, infiltrator, kim666, Korpse, legion01, multizwilling, nemx, nsk2008, Olethros, randumbum, satanist666, SilentNidhogg, stub888, suseka, toly1917, VALERY, vasiljev_sergej, wreak,
Mar 12 2020, 11:52:51 Afterbirth - Four Dimensional Flesh (2020)


*Artist: Afterbirth
*Album: Four Dimensional Flesh
*Year: 2020
*Genre: Brutal Death Metal
*Country: United States
*Format: mp3@CBR320kbps
*Size: 86MB

Tracklist:
01. Beheading the Buddha 02:34
02. Spiritually Transmitted Disease 04:13
03. Girl in Landscape 02:28
04. Everything in Its Path 04:01
05. Never Ending Teeth 03:47
06. Minimum Safe Distance 01:13
07. Rooms to Nowhere 04:38
08. Swallowing Spiders 04:06
09. Dreaming Astral Body 01:33
10. Black Hole Kaleidoscope 05:00
11. Four Dimensional Flesh 01:54
******************************
Total playing time: 35:27





[more=Technical info]
Input File: 02. Spiritually Transmitted Disease.mp3
Channels : 2
Sample Rate : 44100
Precision : 16-bit
Duration : 00:04:13.77 = 11191257 samples = 19032.8 CDDA sectors
File Size : 10.2M
Bit Rate : 323k
Sample Encoding: MPEG audio (layer I, II or III)
Comments :
Title=Spiritually Transmitted Disease
Artist=Afterbirth
Album=Four Dimensional Flesh
Tracknumber=2
Year=2020
Genre=Brutal Death
Discnumber=1

[/more]

Register
(42) AHBAnep, alikkon, andreikun, atavist, BandR75, cesar, Dmitry1977, Foneg, FUDEDOR, GorAtheist, Hell_Is_Here, himmler615, infiltrator, infozahist, jollo, judaz, KKK1488, Korpse, maochen, mart2203, metala, Metalass, MMMMM, Moonshtook, morbidangelo, Morgoth, multizwilling, Occultas, older68, Olethros, Radek, samokot, satanist666, terron, Terrorizer, varlam4, Vladimir, vyacheslav, wanderer73, wreak, xarmendarizx, yuratroll,
Mar 12 2020, 11:44:06 Burzum - Thulêan Mysteries (2020)


*Artist: Burzum
*Album: Thulêan Mysteries
*Year: 2020
*Genre: Ambient/Dark Folk
*Country: Norway
*Format: mp3@CBR320kbps
*Size: 201MB

Tracklist:
CD 1:
01. The Sacred Well 02:56
02. The Loss of a Hero 00:55
03. ForeBears 04:04
04. A Thulêan Perspective 04:02
05. Gathering of Herbs 01:15
06. Heill auk Sæll 03:38
07. Jötunnheimr 01:39
08. Spell-Lake Forest 01:07
09. The Ettin Stone Heart 01:16
10. The Great Sleep 01:29
11. The Land of Thulê 02:14
12. The Lord of the Dwarves 05:15
13. A Forgotten Realm 07:25
14. Heill Óðinn, Sire 01:19
15. The Ruins of Dwarfmount 01:31
16. The Road to Hel 07:44
17. Thulêan Sorcery 02:12
CD 2:
18. Descent into Niflheimr 01:42
19. Skin Traveller 04:37
20. The Dream Land 08:44
21. Thulêan Mysteries 04:24
22. The Password 15:14
23. The Loss of Thulê 05:04
******************************
Total playing time: 1:29:46





[more=Technical info]
Input File: 02 The Loss of a Hero.mp3
Channels : 2
Sample Rate : 44100
Precision : 16-bit
Duration : 00:00:55.46 = 2445830 samples = 4159.57 CDDA sectors
File Size : 2.22M
Bit Rate : 320k
Sample Encoding: MPEG audio (layer I, II or III)
Comments :
Title=The Loss of a Hero
Artist=Burzum
Album=Thulêan Mysteries
Tracknumber=02/23
Year=2020-20-20
Discnumber=1/1

[/more]

Register
(86) 666days, A.L.Rapsod, abob, Aresson, Boozer, Branis, Bulldozzzzzzer, Bzth, cancer1974, Cartman223, celestial_keeper, DarkYantar, Demonologist, Der_Hexer, DMIYUR, DrkKnight, dromord, Fallen Soul, Fryz, fylopaloma, garml2, gena, godkiller88, gwar, hellbibber, helvetestoner, HMHamster, Infidel, infiltrator, kimkayoung, KKK1488, kolar666, Krosis, lafuma, Lanceatum, Leolomb, mad, Maestrovs, mardak666, marilin, Metalass, metalboll, Metalhead_666, MinMincer, nadin85, NappyRob, Nattfodd, nikolay81, Occultas, oldvarg, Olethros, PainMiseryDeath, princeshr, rabindranad, rammmirez, recber, rockwell666, SAPOGi, satanath, sethurius, Sjelekval, Slavas, sludge666, smes, soulskinner681, stone88, Stug80, suseka, Sycantrhope, Synthaeon, TanyaTX, thenecromancer, tOmV, Trelledorn, Unscarted, Vassago06, vov7609, VVP123, wolverine, wtk.412, Xor, xska, ZA670, ZambuL, zoog, Луч,
Mar 12 2020, 11:35:29 Ruin Lust - Choir Of Babel (2020)


*Artist: Ruin Lust
*Album: Choir Of Babel
*Year: 2020
*Genre: Black/Doom/Death Metal
*Country: United States
*Format: mp3@CBR320kbps
*Size: 68MB

Tracklist:
01. The Choir Of Babel 04:54
02. Prison Of Sentient Horror 04:23
03. Worm 05:30
04. Bestial Magnetism 05:44
05. Rite Of Binding 08:53
******************************
Total playing time: 29:24

Preview 1


[more=Technical info]
Input File: 02 - Prison of Sentient Horror.mp3
Channels : 2
Sample Rate : 44100
Precision : 16-bit
Duration : 00:04:23.57 = 11623305 samples = 19767.5 CDDA sectors
File Size : 10.8M
Bit Rate : 329k
Sample Encoding: MPEG audio (layer I, II or III)
Comments :
Title=Prison of Sentient Horror
Artist=Ruin Lust
Album=Choir of Babel
Tracknumber=2
Year=2020

[/more]

Register
(26) AlexSmith, alikkon, atavist, BandR75, Bzth, infiltrator, judaz, Korpse, metala, multizwilling, murayne, nemx, Olethros, Ostinato, raattent, Rrrawww, Sanctus, satanist666, sergsazan, Shadechaser, suseka, VALERY, varlam4, vasiljev_sergej, Velmi, wreak,
Mar 12 2020, 11:26:34 Maquahuitl - At The Altar Of Mictlampa (2020)


*Artist: Maquahuitl
*Album: At The Altar Of Mictlampa
*Year: 2020
*Genre: Black Metal
*Country: United States
*Format: mp3@CBR320kbps
*Size: 85MB

Tracklist:
01. Illumination of the Dead Sun (Tzontemoc) 03:02
02. Roaring Rivers of Clashing Mountains (Apanohuaya - Tepetl Monamoclia) 07:33
03. Wounds of Flint and Obsidian (IIztepetl) 04:52
04. Laceration Winds and Journey of Desolation (Celhuecayan - Paniecatacoyan) 04:32
05. Piercing Arrows of Unseen Hands (Temiminaloyan) 06:26
06. Feast of a Thousand Beast (Tecoylenaloyan) 04:32
07. Of Anguish and Eternal Rest (Chicunamictlan) 06:22
******************************
Total playing time: 37:19





[more=Technical info]
Input File: 02. Roaring Rivers Of Clashing Mountains (Apanohuaya - Tepetl Monamoclia).mp3
Channels : 2
Sample Rate : 44100
Precision : 16-bit
Duration : 00:07:33.25 = 19988413 samples = 33993.9 CDDA sectors
File Size : 18.1M
Bit Rate : 320k
Sample Encoding: MPEG audio (layer I, II or III)
Comments :
Title=Roaring Rivers Of Clashing Mountains (Apanohuaya - Tepetl Monamoclia)
Artist=Maquahuitl
Album=At The Altar Of Mictlampa
Tracknumber=2
Year=2020
Genre=Black Metal

[/more]

Register
(37) alikkon, atavist, Bekkerev, brth, dagger666, DarkHorde, exorcist1969, Fryz, garmonbozia, gummaz, Ildjarn, Indamage, infiltrator, judaz, kim666, Korpse, multizwilling, nemx, nsk2008, odea, Olethros, Ostinato, raaf, RADeus, randumbum, robertho777, satanist666, Shub, SilentNidhogg, stub888, suseka, toly1917, VALERY, vasiljev_sergej, wreak, yuratroll, Авел,
Mar 9 2020, 16:37:30 Settima Draconis - Vengeance [demo] (2010)


*Artist: Settima Draconis
*Album: Vengeance [demo]
*Year: 2010
*Genre: Symphonic Gothic Metal
*Country: Italy
*Format: flac
*Size: 189MB

Tracklist:
01. Vengeance 07:03
02. What Do I Have Left 09:11
03. Secret Spring 06:42
04. Bloodspawn 05:20
******************************
Total playing time: 28:16







Register
(6) infiltrator, morbidangelo, Olethros, satanist666, thenecromancer, valera2010,
Mar 9 2020, 16:16:33 Omenfilth - Hymns Of Diabolical Treachery (2018)


*Artist: Omenfilth
*Album: Hymns Of Diabolical Treachery
*Year: 2018
*Genre: Black Metal
*Country: Philippines
*Format: flac
*Size: 305MB

Tracklist:
01. Shadows of an Unholy War 05:51
02. Nihil Blood 04:18
03. Demogorgon 05:32
04. Under the Scythe of the Infidel 05:53
05. Black Ritual of Demonic Possession 26:54
******************************
Total playing time: 48:28





Register
(11) atavist, eternald, infiltrator, kim666, morbidangelo, Occultas, Olethros, satanist666, varlam4, vasiljev_sergej, Wail,
Mar 9 2020, 15:56:20 Naked Scarecrow - Naked Scarecrow (1999)


*Artist: Naked Scarecrow
*Album: Naked Scarecrow
*Year: 1999
*Genre: Death Metal
*Country: France
*Format: mp3@VBR236kbps
*Size: 94MB

Tracklist:
01. Nailing 02:51
02. The Naked Scarecrow 04:35
03. Possession 04:25
04. Blood in My Eyes 05:43
05. Jigsaw Mind 04:12
06. Triggering 04:25
07. Demiurge 04:03
08. Satan t'encule 06:42
09. Opus Dei 06:02
10. Messiah 00:46
11. Without 06:28
12. Faith? 04:29
******************************
Total playing time: 54:41






[more=Extended info]Scene CD-rip[/more]

[more=Technical info]
Input File: 02-the_naked_scarecrow-gw.mp3
Channels : 2
Sample Rate : 44100
Precision : 16-bit
Duration : 00:04:34.73 = 12115549 samples = 20604.7 CDDA sectors
File Size : 8.84M
Bit Rate : 258k
Sample Encoding: MPEG audio (layer I, II or III)
Comments :
Title=The Naked Scarecrow
Artist=Naked Scarecrow
Album=Naked Scarecrow
Tracknumber=2/12
Year=1999-00-00
Genre=Black Metal

[/more]

Register
(13) ASkyThatBurns, atavist, chipsgott, Evilded, GorAtheist, infiltrator, jollo, metala, morbidangelo, Olethros, suseka, vyacheslav, wn129aa,

1418 Pages V   1 2 3 > » 
- Lo-Fi Version Support form
Copyrights and abuse reports form
Time is now: 5th April 2020 - 14:06:31