Welcome Guest ( Log In | Register )

История благодарностей участнику necroscum ::: Спасибо сказали: 389447 раз(а)
Дата поста: В теме: За сообщение: Спасибо сказали:
Yesterday, 13:03:41 Midnight Coven - Bewitched (2019)


*Artist: Midnight Coven
*Album: Bewitched
*Year: 2019
*Genre: Doom Metal
*Country: Canada
*Format: mp3@CBR320kbps
*Size: 107MB

Tracklist:
01. Sinister 07:42
02. Blood On The Wall 05:31
03. Midnight Summoning 08:12
04. Corporate Slave 04:41
05. Welcome To The Horror Show 08:27
06. Conditioned Nation 12:30
******************************
Total playing time: 47:03





[more=Technical info]
Input File: 5.Welcome to the Horror Show.mp3
Channels : 2
Sample Rate : 44100
Precision : 16-bit
Duration : 00:08:27.09 = 22362845 samples = 38032 CDDA sectors
File Size : 20.3M
Bit Rate : 320k
Sample Encoding: MPEG audio (layer I, II or III)
Comments :
Title=Welcome to the Horror Show
Artist=Midnight Coven
Album=Bewitched
Tracknumber=5
Year=2019
Genre=Metal

[/more]

Register
(5) metala, stub888, stumpheavyrock, suseka, VALERY,
Yesterday, 12:54:16 The Meads Of Asphodel - Running Out Of Time Doing Nothing (2019)


*Artist: The Meads Of Asphodel
*Album: Running Out Of Time Doing Nothing
*Year: 2019
*Genre: Experimental Black Metal
*Country: United Kingdom
*Format: mp3@CBR320kbps
*Size: 147MB

Tracklist:
01. Bug Splat 02:29
02. I Am Oblivion, Deep Drenched in Forever 06:42
03. I'm Running Out of Time Doing Nothing 03:47
04. Black Is Black & White Is White 06:15
05. Cockroach Marionettes 03:44
06. I Stood Tiptoe, Reaching Up for Heaven 04:32
07. Like Blood Shaped Flakes of Snow 09:24
08. The Broken Wings of a Hud-Hud 03:47
09. Funeral Drums of Insomnia's Labyrinth 06:30
10. Recollections of a Hand Loom-Weaver 08:07
11. Souvenir of Death 09:19
******************************
Total playing time: 1:04:36





[more=Technical info]
Input File: 02 - I Am Oblivion, Deep Drenched in Forever.mp3
Channels : 2
Sample Rate : 44100
Precision : 16-bit
Duration : 00:06:42.76 = 17761496 samples = 30206.6 CDDA sectors
File Size : 16.1M
Bit Rate : 320k
Sample Encoding: MPEG audio (layer I, II or III)
Comments :
Title=I Am Oblivion, Deep Drenched in Forever
Artist=The Meads of Asphodel
Album=Running out of Time Doing Nothing
Tracknumber=2
Year=2019
Genre=Metal

[/more]

Register
(21) 1968_janeart, Altkiller, comradEnemy, Demonologist, ForzaMinardi1977, FUDEDOR, judaz, metala, Moonshtook, Nerevar, Paradayz, pedrohell, popen13, robertho777, scorn33, Slavas, Strygaldwir, stub888, VALERY, vasiljev_sergej, yuratroll,
Jul 16 2019, 13:22:04 Cristo Decapitado - Cristo Decapitado (2019)


*Artist: Cristo Decapitado
*Album: Cristo Decapitado
*Year: 2019
*Genre: Death Metal
*Country: Mexico
*Format: mp3@CBR320kbps
*Size: 65MB

Tracklist:
01. Constelación de la cruz invertida 02:15
02. Christus Sperma Putridum 02:42
03. Mierda de los dioses 03:30
04. Ojos diabólicos de la virgen 03:30
05. Satán te guíe por las estrellas 02:21
06. El sol eructa blasfemias 02:12
07. Satánica legión extraterrestre 04:04
08. Algoritmos luciferianos 02:22
09. Cristo reptiliano 04:30
******************************
Total playing time: 27:26




[more=Technical info]
Input File: 03. Mierda de los Dioses.mp3
Channels : 2
Sample Rate : 44100
Precision : 16-bit
Duration : 00:03:30.12 = 9266160 samples = 15758.8 CDDA sectors
File Size : 8.64M
Bit Rate : 329k
Sample Encoding: MPEG audio (layer I, II or III)
Comments :
Title=Mierda de los Dioses
Artist=Cristo Decapitado
Album=Cristo Decapitado
Tracknumber=3/9
Year=2019

[/more]

Register
(3) jollo, Olethros, VALERY,
Jul 16 2019, 13:10:07 Opera At The Massacre - Mindfuck (2019)


*Artist: Opera At The Massacre
*Album: Mindfuck
*Year: 2019
*Genre: Melodic Death Metal/Metalcore
*Country: Mexico
*Format: mp3@CBR320kbps
*Size: 92MB

Tracklist:
01. Intro
02. Esclavos En Agonia
03. Nino Soldado
04. Fuck You All
05. Cobarde
06. Castigo
07. Asesino
08. Silencer
09. Tierra En Caos
10. 1521
11. Mindfuck
******************************
Total playing time: 40:03



[more=Technical info]
Input File: 02. Esclavos En Agonia.mp3
Channels : 2
Sample Rate : 44100
Precision : 16-bit
Duration : 00:03:14.36 = 8571452 samples = 14577.3 CDDA sectors
File Size : 8.69M
Bit Rate : 358k
Sample Encoding: MPEG audio (layer I, II or III)
Comments :
Title=Esclavos En Agonia
Artist=Opera At The Massacre
Album=MINDFUCK
Tracknumber=2/11
Year=2019

[/more]

Register
(2) metalwoman, VALERY,
Jul 16 2019, 12:44:51 Arctic Sleep - Kindred Spirits (2019)


*Artist: Arctic Sleep
*Album: Kindred Spirits
*Year: 2019
*Genre: Progressive/Atmospheric Doom Metal
*Country: United States
*Format: mp3@CBR320kbps
*Size: 157MB

Tracklist:
01. Meadows 06:44
02. Lantern Curse 04:28
03. Kindred Spirits 05:17
04. Maritime Delusion 05:39
05. Eternal Sunbeam 06:46
06. Connemara Moonset 04:09
07. Night Mirror 05:45
08. Cloud Map 08:10
09. Welcome To The Harbor Light 04:13
10. As Palms Give Way To Pines 08:22
11. Old Soul 09:22
******************************
Total playing time: 1:08:55




[more=Technical info]
Input File: 02 Lantern Curse.mp3
Channels : 2
Sample Rate : 44100
Precision : 16-bit
Duration : 00:04:28.92 = 11859460 samples = 20169.1 CDDA sectors
File Size : 10.8M
Bit Rate : 320k
Sample Encoding: MPEG audio (layer I, II or III)
Comments :
Title=Lantern Curse
Artist=Arctic Sleep
Album=Kindred Spirits
Tracknumber=2
Year=2019
Genre=Metal

[/more]

Register
(11) autumnwood, Foneg, gena, metala, Olethros, Ostinato, robertho777, sergsazan, stumpheavyrock, thenecromancer, VALERY,
Jul 15 2019, 14:55:02 Saint Chaos - Nothing Is Forever [compilation] (2019)


*Artist: Saint Chaos
*Album: Nothing Is Forever [compilation]
*Year: 2019
*Genre: Power Metal
*Country: United States
*Format: mp3@CBR320kbps
*Size: 165MB

Tracklist:
01. Nothing Is Forever
02. Don't Wanna Be Alone
03. Die for You
04. Turn on You
05. Captured by You
06. Here for You
07. Pressure
08. Living in this Misery
09. Cme Back Strong
10. Hellfire
11. God Song
12. By Myself
13. Under Control
14. Wicked Impact
15. Waysted Daze
******************************
Total playing time: 1:11:39



[more=Technical info]
Input File: 10 - Hellfire.mp3
Channels : 2
Sample Rate : 44100
Precision : 16-bit
Duration : 00:03:39.94 = 9699354 samples = 16495.5 CDDA sectors
File Size : 8.80M
Bit Rate : 320k
Sample Encoding: MPEG audio (layer I, II or III)
Comments :
Title=Hellfire
Artist=Saint Chaos
Album=Nothing Is Forever
Tracknumber=10
Year=2019
Genre=Metal

[/more]

Register
(10) aviacademy, csgmnk, infiltrator, LightWizard, metalwoman, Olethros, Rover, stumpheavyrock, wildshadow, zhol,
Jul 15 2019, 14:32:44 First Strike - Call To Glory [compilation] (2019)


*Artist: First Strike
*Album: Call To Glory [compilation]
*Year: 2019
*Genre: Heavy Metal
*Country: United States
*Format: mp3@CBR320kbps
*Size: 151MB

Tracklist:
01. I Will Not Fall
02. Believe in a Dream
03. Flyin' High
04. Call to Glory
05. The End of Time
06. Sail Away
07. Tears
08. Never
09. Dawn of Winter + Bass Solo
10. Rainbow's End
11. First Strike
12. Magic Mirror
13. Hideaway
******************************
Total playing time: 1:05:39



[more=Extended info]Tracks 1-7 from First Strike (Album 1995)
Tracks 8-13 Live at Gee Willigan's, Albuquerque, NM 1995[/more]

[more=Technical info]
Input File: 02 - Believe in a Dream.mp3
Channels : 2
Sample Rate : 44100
Precision : 16-bit
Duration : 00:05:20.44 = 14131316 samples = 24032.9 CDDA sectors
File Size : 12.8M
Bit Rate : 320k
Sample Encoding: MPEG audio (layer I, II or III)
Comments :
Title=Believe in a Dream
Artist=First Strike
Album=Call to Glory
Tracknumber=2
Year=2019
Genre=Heavy Metal

[/more]

Register
(5) aviacademy, infiltrator, Olethros, Rover, stumpheavyrock,
Jul 15 2019, 14:23:37 Wan - Wan Way To Hell (2017)


*Artist: Wan
*Album: Wan Way To Hell
*Year: 2017
*Genre: Black Metal
*Country: Sweden
*Format: mp3@CBR320kbps
*Size: 91MB

Tracklist:
01. Known as Dead 02:17
02. King of Evil 02:13
03. Till kamp 03:26
04. Igeltjärn 05:46
05. The Challenger 02:24
06. Wrought 02:45
07. As If 03:07
08. Spitfire Metal 01:08
09. Full sving 02:10
10. Piss on Your Grave 02:59
11. Inn i ilden 02:48
12. Wan Way to Hell 03:03
13. Svarthäll 05:42
******************************
Total playing time: 39:48






[more=Technical info]
Input File: 2 - King Of Evil.mp3
Channels : 2
Sample Rate : 44100
Precision : 16-bit
Duration : 00:02:12.63 = 5849027 samples = 9947.32 CDDA sectors
File Size : 5.41M
Bit Rate : 326k
Sample Encoding: MPEG audio (layer I, II or III)
Comments :
Title=King Of Evil
Artist=Wan
Album=Wan Way to Hell
Tracknumber=2
Year=2019
Genre=Metal
Discnumber=1

[/more]

Register
(13) 1968_janeart, infiltrator, kim666, Olethros, Ostinato, robertho777, SilentNidhogg, Sjelekval, stub888, suseka, tim47, VALERY, vasiljev_sergej,
Jul 15 2019, 14:10:00 Damn Craters - An Ocean Of Satellites (2019)


*Artist: Damn Craters
*Album: An Ocean Of Satellites
*Year: 2019
*Genre: Psychedelic Doom/Stoner Metal
*Country: United Kingdom
*Format: mp3@CBR320kbps
*Size: 93MB

Tracklist:
01. Bin Money 04:37
02. Kuato Lives 04:30
03. Dinosaurs Have Feathers 07:36
04. Danger Mouth 05:28
05. Neer Do Well 05:14
06. Monomyth 05:55
07. Fighting In The Caves Of Drach 06:36
******************************
Total playing time: 39:56



[more=Technical info]
Input File: 02 - Kauto Lives.mp3
Channels : 2
Sample Rate : 44100
Precision : 16-bit
Duration : 00:04:28.40 = 11836440 samples = 20130 CDDA sectors
File Size : 10.9M
Bit Rate : 325k
Sample Encoding: MPEG audio (layer I, II or III)
Comments :
Title=Kauto Lives
Artist=Damn Craters
Album=An Ocean of Satellites
Tracknumber=2
Year=2019
Genre=Metal
Discnumber=1

[/more]

Register
(13) avkruchinin, gena, infiltrator, marilin, Olethros, Ostinato, robertho777, s810ic1, Sabbathian, SatanicPanzer, stub888, stumpheavyrock, VALERY,
Jul 15 2019, 14:02:28 Sarinvomit & Eggs Of Gomorrh - Encomium Of Depraved Instincts [split] (2019)


*Artist: Sarinvomit & Eggs Of Gomorrh
*Album: Encomium Of Depraved Instincts [split]
*Year: 2019
*Genre: Black/Thrash Metal | Black/Death Metal
*Country: Turkey | Switzerland
*Format: mp3@CBR320kbps
*Size: 78MB

Tracklist:
Sarinvomit:
01. The Glorious Might of Deccal 03:12
02. Screwing the Nailed Prophets 04:36
03. Spreading VX Gas Over Kaaba (live from NRW Deathfest, Germany) 04:52
04. Pandemonic Radiation Descends (live from NRW Deathfest, Germany) 03:29
Eggs Of Gomorrh:
05. Redemption Martyr 03:10
06. Shrine of Disgust 03:10
07. Goat Inkvizitor (live in Hamburg) 03:30
08. Whore of Sodom (live in Hamburg) 03:37
******************************
Total playing time: 29:36






[more=Technical info]
Input File: 02. Screwing the Nailed Prophets.mp3
Channels : 2
Sample Rate : 44100
Precision : 16-bit
Duration : 00:04:36.11 = 12176275 samples = 20708 CDDA sectors
File Size : 12.2M
Bit Rate : 355k
Sample Encoding: MPEG audio (layer I, II or III)
Comments :
Title=Screwing the Nailed Prophets
Artist=Eggs of Gomorrh
Album=Encomium of Depraved Instincts
Tracknumber=2/8
Year=2019

[/more]

Register
(9) infiltrator, kim666, marilin, sacrut, SilentNidhogg, Tyler, VALERY, vasiljev_sergej, wtk.412,
Jul 15 2019, 13:47:43 Lands Of Memories - Silly Things (2019)


*Artist: Lands Of Memories
*Album: Silly Things
*Year: 2019
*Genre: Atmospheric Doom/Black Metal
*Country: France
*Format: mp3@CBR320kbps
*Size: 120MB

Tracklist:
01. Sunlight
02. No Hope Left Behind
03. Blindfolded
04. Lost
05. Insomnia
06. The Call
07. Those Were the Days
08. They've Built a Wall
09. Ocean of Dust
10. Heatwave
11. Silly Things
******************************
Total playing time: 52:16




[more=Technical info]
Input File: 02. No Hope Left Behind.mp3
Channels : 2
Sample Rate : 44100
Precision : 16-bit
Duration : 00:03:56.08 = 10411304 samples = 17706.3 CDDA sectors
File Size : 9.57M
Bit Rate : 324k
Sample Encoding: MPEG audio (layer I, II or III)
Comments :
Title=No Hope Left Behind
Artist=Lands Of Memories
Album=Silly Things
Tracknumber=2/11
Year=2019

[/more]

Register
(15) Altkiller, infiltrator, krotovich, metala, Olethros, Ostinato, robertho777, SatanicPanzer, sergsazan, stub888, thenecromancer, tOmV, VALERY, vasiljev_sergej, Герб,
Jul 15 2019, 13:27:02 Jig-Ai - Entrails Tsunami (2019)


*Artist: Jig-Ai
*Album: Entrails Tsunami
*Year: 2019
*Genre: Goregrind
*Country: Czech Republic
*Format: mp3@CBR320kbps
*Size: 65MB

Tracklist:
01. Fujiculate 00:52
02. Last Fugu Ritual 01:20
03. He-gassen Warrior 01:14
04. Noodle Rice Bondage 00:59
05. The Kokyu Orgasm 01:27
06. Boobzilla 01:48
07. Corporal Jigsore Hitomi 01:39
08. Tattooed by Pitchfork 01:00
09. Geysers of Blood 01:08
10. Shuriken Facelift 00:54
11. Entrails Tsunami 01:19
12. Knak 00:41
13. Kanamara Matsuri 01:20
14. Impaled by Swordfish 00:47
15. Heads on Stakes 01:51
16. Certificate of Perversion 00:56
17. Permanently Hard 01:00
18. Nunchuck Massage 01:19
19. Bamboo Log Worship 01:00
20. Decapitatation Ceremony 01:15
21. Aokigahara Picnic 01:03
******************************
Total playing time: 24:52






[more=Technical info]
Input File: 02 Last Fugu Ritual.mp3
Channels : 2
Sample Rate : 44100
Precision : 16-bit
Duration : 00:01:20.10 = 3532366 samples = 6007.43 CDDA sectors
File Size : 3.41M
Bit Rate : 340k
Sample Encoding: MPEG audio (layer I, II or III)
Comments :
Title=Last Fugu Ritual
Artist=Jig-Ai
Album=Entrails Tsunami
Tracknumber=2
Year=2019
Genre=Goregrind

[/more]

Register
(21) Adskij, alikkon, andreikun, BandR75, BERZERK, carnegrinder, Foneg, FUDEDOR, Grinder999, Indamage, infiltrator, jollo, judaz, kipelov999, Olethros, ripper33, RotAnus, Tular, yuratroll, zotyo1975, Герб,
Jul 15 2019, 12:55:35 Ahnenerbe - Heldentod (2019)


*Artist: Ahnenerbe
*Album: Heldentod
*Year: 2019
*Genre: Pagan Black Metal
*Country: Germany
*Format: mp3@CBR320kbps
*Size: 111MB

Tracklist:
01. Aus Schmiedeglut gewachsen
02. Heil, den siegreichen Toten
03. Gekreuzigt
04. Die Pest
05. Verflucht
06. Heldentod
07. Alte Macht
08. Feuer der Seele
09. Freies Herz
******************************
Total playing time: 48:15

Preview 1

[more=Technical info]
Input File: 02_ahnenerbe-heil_den_siegreichen_toten-pegida.mp3
Channels : 2
Sample Rate : 44100
Precision : 16-bit
Duration : 00:09:21.14 = 24746450 samples = 42085.8 CDDA sectors
File Size : 22.4M
Bit Rate : 320k
Sample Encoding: MPEG audio (layer I, II or III)
Comments :
Title=Heil, Den Siegreichen Toten
Artist=Ahnenerbe
Album=Heldentod
Tracknumber=2
Year=2019
Genre=Black Metal

[/more]

Register
(21) 1968_janeart, ahp, alikkon, Altkiller, BlazonStone, Daale, infiltrator, kim666, Olethros, Ostinato, robertho777, RUDACHUR, SilentNidhogg, Slavas, stub888, suseka, tim47, VALERY, vasiljev_sergej, wolverine, Сварог Барг,
Jul 14 2019, 11:50:26 Shit Life - Reign In Bud (2019)


*Artist: Shit Life
*Album: Reign In Bud
*Year: 2019
*Genre: Grindcore
*Country: United States
*Format: mp3@CBR320kbps
*Size: 105MB

Tracklist:
01. I Hate The Law 00:58
02. Useful Idiots 00:51
03. Dirt Ensemble 01:49
04. Dank State 01:16
05. Grind The Weak 01:06
06. Thought Police 01:32
07. We Don't Give A Fuck What You Think 00:19
08. Fuck Corporate Weed 01:23
09. You Cried On Election Day (Illusion Of Choice) 00:55
10. March Of The Reefer Deathsquad 01:13
11. Don't Bring Piss To A Shit Fight 01:02
12. Thrashgrinding Fuckmachine 01:32
13.SMOKE BREAK 01:16
14. Inhale/Inhale 01:07
15. Grinder's Eve 01:10
16. Heavy Metal Dresscode 01:06
17. High Ground 00:59
18. Nug Destroyer 01:21
19. Shitcophagus 00:57
20. Envelope Full Of Dick Weed 01:12
21. If You Suck, Yer Fucked 00:53
22. You Smoke Mids 01:12
23. Brainslug 01:21
24. Raining Bud 01:32
25. Slow Grind (Take It Sleazy) 00:50
26. *Black Breath (Repulsion) 02:10
27. *Bad Vibrations (Razor) 02:52
******************************
Total playing time: 33:54



[more=Technical info]
Input File: 02. Useful Idiots.mp3
Channels : 2
Sample Rate : 44100
Precision : 16-bit
Duration : 00:00:51.44 = 2268548 samples = 3858.07 CDDA sectors
File Size : 3.05M
Bit Rate : 474k
Sample Encoding: MPEG audio (layer I, II or III)
Comments :
Title=Useful Idiots
Artist=SHIT LIFE
Album=Reign in Bud
Tracknumber=2/27
Year=2019
Genre=Metal
Discnumber=1/1

[/more]

Register
(3) alikkon, Olethros, Герб,
Jul 12 2019, 14:30:42 Quantum Solaris - The Power Of Greed [ep] (2019)


*Artist: Quantum Solaris
*Album: The Power Of Greed [ep]
*Year: 2019
*Genre: Melodic Death Metal
*Country: Denmark
*Format: mp3@CBR320kbps
*Size: 61MB

Tracklist:
01. Amerikarma
02. The Storm
03. Solar Exterminum
04. The Power of Greed
******************************
Total playing time: 26:33



[more=Technical info]
Input File: 02. The Storm.mp3
Channels : 2
Sample Rate : 44100
Precision : 16-bit
Duration : 00:06:51.61 = 18152045 samples = 30870.8 CDDA sectors
File Size : 17.3M
Bit Rate : 336k
Sample Encoding: MPEG audio (layer I, II or III)
Comments :
Title=The Storm
Artist=Quantum Solaris
Album=The Power of Greed
Tracknumber=2/4
Year=2019

[/more]

Register
(8) infiltrator, metalwoman, Olethros, sergsazan, stumpheavyrock, VALERY, zhol, Сварог Барг,
Jul 12 2019, 14:22:29 Lucero Cian - Viento Lejano (2019)


*Artist: Lucero Cian
*Album: Viento Lejano
*Year: 2019
*Genre: Instrumental/Progressive Metal
*Country: Spain
*Format: mp3@CBR320kbps
*Size: 118MB

Tracklist:
01. Evolucion
02. Siganme los buenos
03. Bailes Tribales
04. El Hijo Del Predicador
05. Recuerdos
06. Planeta Aural
07. Viento Lejano
08. Tres Lunas
09. Mirada Misteriosa
10. Y con el juego que
******************************
Total playing time: 51:23

[more=Technical info]
Input File: 02. Siganme los buenos.mp3
Channels : 2
Sample Rate : 44100
Precision : 16-bit
Duration : 00:04:19.20 = 11430896 samples = 19440.3 CDDA sectors
File Size : 11.1M
Bit Rate : 344k
Sample Encoding: MPEG audio (layer I, II or III)
Comments :
Title=Siganme los buenos
Artist=Lucero Cian
Album=Viento Lejano
Tracknumber=2/10
Year=2019

[/more]

Register
(3) infiltrator, Olethros, Сварог Барг,
Jul 12 2019, 14:13:51 Aspic - Stars Collide (2019)


*Artist: Aspic
*Album: Stars Collide
*Year: 2019
*Genre: Progressive Metal
*Country: El Salvador
*Format: mp3@CBR320kbps
*Size: 108MB

Tracklist:
01. Stars Collide 08:40
02. Parallax 04:29
03. The Event Horizon 05:26
04. Under Melting Skies 06:57
05. Mirrors 05:59
06. Introspective 03:39
07. What We Are 07:54
08. Sunrise (feat. Julio Rodas) 02:33
******************************
Total playing time: 45:37




[more=Technical info]
Input File: 02. Parallax.mp3
Channels : 2
Sample Rate : 44100
Precision : 16-bit
Duration : 00:04:29.60 = 11889404 samples = 20220.1 CDDA sectors
File Size : 11.3M
Bit Rate : 335k
Sample Encoding: MPEG audio (layer I, II or III)
Comments :
Title=Parallax
Artist=Aspic
Album=Stars Collide
Tracknumber=2/8
Year=2019

[/more]

Register
(6) aedicksucker, infiltrator, metala, Olethros, Rover, Сварог Барг,
Jul 12 2019, 14:06:08 Shadowstrike - Legends Of Human Spirit (2019)


*Artist: Shadowstrike
*Album: Legends Of Human Spirit
*Year: 2019
*Genre: Power Metal
*Country: United States
*Format: mp3@CBR320kbps
*Size: 155MB

Tracklist:
01. Heart for Yearning Journey 07:01
02. Ascension 01:35
03. Fly with Me 04:52
04. Fields of Valour 06:08
05. The Fiery Seas and Icy Winds 08:11
06. Where Sleeping Gods Await 07:39
07. Forever as One 05:07
08. Voice in the Night 07:47
09. A Dream of Stars 06:31
10. Gales of Winter 10:15
******************************
Total playing time: 1:05:06






[more=Technical info]
Input File: 02. Ascension.mp3
Channels : 2
Sample Rate : 44100
Precision : 16-bit
Duration : 00:01:35.15 = 4195939 samples = 7135.95 CDDA sectors
File Size : 4.40M
Bit Rate : 370k
Sample Encoding: MPEG audio (layer I, II or III)
Comments :
Title=Ascension
Artist=ShadowStrike
Album=Legends of Human Spirit
Tracknumber=2/10
Year=2019

[/more]

Register
(16) ace73pq, csgmnk, gwar, Herrant, infiltrator, Ludwig Hagen, metala, MеtalHead, Olethros, Rover, sayfut, stumpheavyrock, vir2al, wn129aa, zhol, Сварог Барг,
Jul 12 2019, 13:56:05 Tom Gekas - Blasphemy (2019)


*Artist: Tom Gekas
*Album: Blasphemy
*Year: 2019
*Genre: Depressive Black Metal
*Country: Germany
*Format: mp3@CBR320kbps
*Size: 86MB

Tracklist:
01. Astaroth is Coming 04:01
02. Blasphemy 04:46
03. Religion = War 03:36
04. Cruzifix 03:51
05. Satanist 03:49
06. Depression is a Demon, Pt. 1 11:12
07. Depression is a Demon, Pt. 2 05:46
******************************
Total playing time: 37:01



[more=Technical info]
Input File: 02. Blasphemy.mp3
Channels : 2
Sample Rate : 44100
Precision : 16-bit
Duration : 00:04:46.97 = 12655553 samples = 21523 CDDA sectors
File Size : 11.6M
Bit Rate : 325k
Sample Encoding: MPEG audio (layer I, II or III)
Comments :
Title=Blasphemy
Artist=Tom Gekas
Album=Blasphemy
Tracknumber=2/7
Year=2019

[/more]

Register
(14) 1968_janeart, alikkon, craP_cillA, infiltrator, kim666, metala, metalwoman, Olethros, robertho777, sergsazan, SilentNidhogg, VALERY, vasiljev_sergej, Сварог Барг,
Jul 12 2019, 13:44:28 Animus Stench - Lynching The Lunacy (2019)


*Artist: Animus Stench
*Album: Lynching The Lunacy
*Year: 2019
*Genre: Death Metal
*Country: United States
*Format: mp3@CBR320kbps
*Size: 92MB

Tracklist:
01. I. Peperit, II. Exitium 01:06
02. Driving Nails into Flesh 04:04
03. Lynching the Lunacy 04:37
04. Burn in Hell With Me 04:17
05. Unpure Divination 03:50
06. Rotting Ways of Life 05:48
07. Dream With A Cost 04:22
08. I, Despair 04:22
09. The Seven Years 06:52
******************************
Total playing time: 39:18



[more=Technical info]
Input File: 02. Driving Nails Into Flesh.mp3
Channels : 2
Sample Rate : 44100
Precision : 16-bit
Duration : 00:04:04.10 = 10764986 samples = 18307.8 CDDA sectors
File Size : 10.0M
Bit Rate : 328k
Sample Encoding: MPEG audio (layer I, II or III)
Comments :
Title=Driving Nails Into Flesh
Artist=Animus Stench
Album=Lynching the Lunacy
Tracknumber=2/9
Year=2019

[/more]

Register
(9) alikkon, andreikun, Corpuscul, infiltrator, metala, older68, Olethros, scorpionmk, VALERY,
Jul 12 2019, 13:28:45 Intrinsic Souls - Voices Of Mind (2019)


*Artist: Intrinsic Souls
*Album: Voices Of Mind
*Year: 2019
*Genre: Melodic Power Metal
*Country: Mexico
*Format: mp3@CBR320kbps
*Size: 117MB

Tracklist:
01. Introduccion
02. Escape
03. Fighter
04. Awake
05. Sweet Sorrow
06. Feel Your Soul
07. When I Find You
08. Agony
09. Voices Of Mind
******************************
Total playing time: 50:54



[more=Technical info]
Input File: 02. Escape.mp3
Channels : 2
Sample Rate : 44100
Precision : 16-bit
Duration : 00:06:05.11 = 16101351 samples = 27383.2 CDDA sectors
File Size : 15.2M
Bit Rate : 334k
Sample Encoding: MPEG audio (layer I, II or III)
Comments :
Title=Escape
Artist=Intrinsic Souls
Album=Voices of Mind
Tracknumber=2/9
Year=2019

[/more]

Register
(14) ace73pq, aviacademy, djsema4, gwar, Herrant, infiltrator, karpenka, metala, metalwoman, Olethros, sergsazan, talismanFS, wn129aa, Сварог Барг,
Jul 12 2019, 13:16:49 Chaotic Dimenzions - Ad Penumbra (2019)


*Artist: Chaotic Dimenzions
*Album: Ad Penumbra
*Year: 2019
*Genre: Black Metal
*Country: Chile
*Format: mp3@CBR320kbps
*Size: 103MB

Tracklist:
01. Through the Darkest Maze
02. Destroyer of Wisdom
03. Penumbra
04. Portrait of an Isolated Coma
05. Mirrors of Anger
06. Actus Mortis
******************************
Total playing time: 44:51



[more=Technical info]
Input File: 02. Destroyers of Wisdom.mp3
Channels : 2
Sample Rate : 44100
Precision : 16-bit
Duration : 00:04:13.27 = 11169383 samples = 18995.5 CDDA sectors
File Size : 10.9M
Bit Rate : 343k
Sample Encoding: MPEG audio (layer I, II or III)
Comments :
Title=Destroyers of Wisdom
Artist=Chaotic Dimenzions
Album=Ad Penumbra
Tracknumber=2/7
Year=2019

[/more]

Register
(8) 1968_janeart, kim666, Olethros, robertho777, scorpionmk, SilentNidhogg, VALERY, vasiljev_sergej,
Jul 12 2019, 13:07:28 Cleanse The Destroyers - Cleanse The Destroyers (2019)


*Artist: Cleanse The Destroyers
*Album: Cleanse The Destroyers
*Year: 2019
*Genre: Death Metal
*Country: United States
*Format: mp3@CBR320kbps
*Size: 69MB

Tracklist:
01. Monolithic Dialogues 02:59
02. 24 Ridges 03:54
03. Calloused, Singed, And Severed 02:09
04. The Apparition (Of Phobos Forest) 03:04
05. Murder Authority 03:04
06. A Stumble Across the Trail of the Dead 03:41
07. Ruby Rivers and Clouded Eyes 04:06
08. Shrouds of Aeon 04:25
******************************
Total playing time: 27:22



[more=Technical info]
Input File: 02. 24 Ridges.mp3
Channels : 2
Sample Rate : 44100
Precision : 16-bit
Duration : 00:03:54.52 = 10342200 samples = 17588.8 CDDA sectors
File Size : 10.2M
Bit Rate : 347k
Sample Encoding: MPEG audio (layer I, II or III)
Comments :
Title=24 Ridges
Artist=Cleanse the Destroyers
Album=Cleanse the Destroyers
Tracknumber=2/8
Year=2019

[/more]

Register
(5) alikkon, Olethros, scorpionmk, VALERY, wn129aa,
Jul 11 2019, 15:27:14 Blacks0n - Cry For Inspiration [ep] (2019)


*Artist: Blacks0n
*Album: Cry For Inspiration [ep]
*Year: 2019
*Genre: Deathcore
*Country: Italy
*Format: mp3@CBR320kbps
*Size: 38MB

Tracklist:
01. A Forbidden Pleasure
02. On the Wings of Defeat
03. Nowhere to Run
04. Ears on Distant Stars
05. The Vent
******************************
Total playing time: 16:31



[more=Technical info]
Input File: 02. On the Wings of Defeat.mp3
Channels : 2
Sample Rate : 44100
Precision : 16-bit
Duration : 00:03:40.07 = 9705087 samples = 16505.2 CDDA sectors
File Size : 8.85M
Bit Rate : 322k
Sample Encoding: MPEG audio (layer I, II or III)
Comments :
Title=On the Wings of Defeat
Artist=Blacks0n
Album=Cry for Inspiration
Tracknumber=2/5
Year=2019
Genre=9
Discnumber=1/1

[/more]

Register
(1) Olethros,
Jul 11 2019, 15:08:37 Hemisferio - Anacronía (2019)


*Artist: Hemisferio
*Album: Anacronía
*Year: 2019
*Genre: Heavy Metal
*Country: Chile
*Format: mp3@CBR320kbps
*Size: 102MB

Tracklist:
01. Tres sombras 08:21
02. Las palabras ya no existen 04:12
03. Hasta encontrarte 05:07
04. En ausencia 03:55
05. Denia Op.2 03:07
06. Vestigios 04:23
07. La novela taciturna 05:17
08. Visicitud 04:11
09. Sueños de un futuro 05:50
******************************
Total playing time: 44:23





[more=Technical info]
Input File: 02. Las Palabras Ya No Existen.mp3
Channels : 2
Sample Rate : 44100
Precision : 16-bit
Duration : 00:04:12.05 = 11115229 samples = 18903.5 CDDA sectors
File Size : 10.2M
Bit Rate : 323k
Sample Encoding: MPEG audio (layer I, II or III)
Comments :
Title=Las Palabras Ya No Existen
Artist=Hemisferio
Album=Anacronía
Tracknumber=2/9
Year=2019
Genre=9
Discnumber=1/1

[/more]

Register
(8) aviacademy, avkruchinin, metalwoman, Olethros, poeira, Rover, stumpheavyrock, Сварог Барг,

1359 Pages V   1 2 3 > » 
- Lo-Fi Version Support form
Copyrights and abuse reports form
Time is now: 18th July 2019 - 05:36:03