Welcome Guest ( Log In | Register )

Объявления

* gmail.com упорно продолжает считать почту с нас "unsolicited" и отбивает в том числе и письма активации, поэтому просьба использовать альтернативные почтовые ящики.
------------
* gmail.com continues reject all mail from us as "unsolicited" (activation mails too) therefore please use alternate mail servers.
История благодарностей участнику kakha_k ::: Спасибо сказали: 2451 раз(а)
Дата поста: В теме: За сообщение: Спасибо сказали:
Jul 10 2014, 23:33:42 Crimson Hill - Denied (2014)
[youtube]watch?v=XbWRNQqfG0g[/youtube]

Некоторые места мелодичны но сколько можно одно и то же, ничего нового...
(1) DenisKov,
Apr 13 2014, 18:25:20 Warmen - The Evil That Warmen Do [best of/compilation] (2010)
Кто нибудь зааплоадит на русфолдере?

Не надо, нашел уже:
Register
(1) -=Lion=-,
Mar 15 2014, 21:41:32 Slumber - Fallout (2004)
Люблю я этот альбом. Отличные мелодии.
А без мелодии не существует ничего, не то что только музыки, вообще ничего на планете.
(1) Kaphiel,
Mar 5 2014, 23:20:06 Dark Tranquillity - A Memory Construct [ep] (2014)
Что-то карликовым ЕП получлися
Они сейчас точно не УГ делают
Надеюсь и на будущее.
(1) Nattfodd,
Mar 3 2014, 23:48:34 Within Temptation - Enter [demo] (1996)
Оказывается, что да,
вот рип с компакт-кассеты (320@kb/s):
Register
(4) jorgeguldur, t0ffik, thenecromancer, warrr,
Mar 3 2014, 22:40:54 Within Temptation - The Howling [ep] (2007)


*Artist: Within Temptation
*Album: The Howling [ep]
*Year: 2007
*Genre: Melodic/Symphonic/Gothic Metal
*Country: Netherlands
*Format: mp3@CBR320kbps
*Size: 54MB

Tracklist:
1. The Howling 05:34
2. Stand My Ground 04:28
3. Angels 04:01
4. Jillian 04:46
5. Memories 03:51
******************************
Total playing time: 22:40



[more=Technical info]
Input File: The Howling EP (EP)-02-Stand My Ground.mp3
Channels : 2
Sample Rate : 44100
Precision : 16-bit
Duration : 00:04:28.38 = 11835602 samples = 20128.6 CDDA sectors
File Size : 10.8M
Bit Rate : 321k
Sample Encoding: MPEG audio (layer I, II or III)
Comments :
Title=Stand My Ground
Artist=Within Temptation
Album=The Howling EP (EP)
Tracknumber=2
Year=2007
Genre=Melodic/Symphonic/Gothic Metal

[/more]

Register
(12) Aresson, caro, Cartman223, Emhyr var Emreis, fabriziomagno, Jurmagund, Scav, senecazm, spiritualdecay666, VALERY, wreak, zhuyao,
Feb 26 2014, 00:22:38 Asathor - Die Wölfe Heulen Wieder (2008)
Ех лося бы...
(1) Dark_Viking,
Feb 21 2014, 22:45:03 Skyclad - Classix Shape [ep] (1999)


*Artist: Skyclad
*Album: Classix Shape [ep]
*Year: 1999
*Genre: Folk Metal
*Country: United Kingdom
*Format: mp3@VBR231kbps
*Size: 38MB

Tracklist:
1. Vintage Whine 04:26
2. Inequality Street 04:05
3. Constance Eternal 05:53
4. Building a Ruin 03:56
5. Sins of Emission (Unplugged Version) 04:10
******************************
Total playing time: 22:30



Register
(9) caro, Cartman223, cist, fabriziomagno, gwynnbleid, tont, varlam4, wreak, Xutun,
Feb 21 2014, 22:23:35 Skyclad - History Lessens - An Introduction To The Artist [best of/compilation] (2002)


*Artist: SKyclad
*Album: History Lessens - An Introduction To The Artist (Compilation) [best of/compilation]
*Year: 2002
*Genre: Folk Metal
*Country: United Kingdom
*Format: mp3@VBR205kbps
*Size: 92MB

Tracklist:
1. Penny Dreadful (Full Shilling Mix) 03:12
2. The Silver Cloud's Dark Lining 03:20
3. Isle of Jura 04:00
4. No Deposit, No Return 04:30
5. Brimstone Ballet 04:13
6. Constance Eternal 05:53
7. Building a Ruin 03:55
8. Emerald (Thin Lizzy Cover) 03:36
9. I Dubious 03:13
10. Jumping My Shadow 05:28
11. A Bellyful of Emptiness 04:58
12. Kiss My Sweet Brass 00:32
13. Bury Me 04:35
14. Single Phial 06:08
15. By George 01:44
******************************
Total playing time: 59:17



Register
(13) caro, Cartman223, ChrisK, fabriziomagno, homelike, Jurmagund, senecazm, tont, varlam4, vasilisk, watasan, wreak, Xutun,
Feb 21 2014, 18:24:40 Catacombs - Anguish (2014)
Глаз с издали зацепился на МДМ, потом перевел его налево и чуть сердце не екнуло, почудилось, что там написано: Cadacross
Ее нет, нет
(1) Deathtractor,
Feb 21 2014, 18:18:32 Skyclad - Live At The Dynamo [live] (2002)


*Artist: Skyclad
*Album: Live At The Dynamo [live]
*Year: 2002
*Genre: Folk Metal
*Country: United Kingdom
*Format: mp3@CBR192kbps
*Size: 75MB

Tracklist:
1. Intro 01:57
2. Another Fine Mess 04:37
3. Cardboard City 04:40
4. Art Nazi 03:50
5. The Wickedest Man in the World 03:57
6. The One Piece Puzzle 06:01
7. Still Spinning Shrapnel 04:28
8. Just What Nobody Wanted 05:29
9. The Widdershins Jig 03:35
10. The Declaration of Indifference 04:01
11. The Cradle Will Fall 06:47
12. Spinning Jenny 03:09
******************************
Total playing time: 52:31



Register
(7) caro, Cartman223, fabriziomagno, Kaihill, tont, varlam4, wreak,
Feb 7 2014, 23:13:45 Stormwarrior - Odens Krigare [single] (2004)


*Artist: Stormwarrior
*Album: Odens Krigare [single]
*Year: 2004
*Genre: Power/Speed Metal
*Country: Germany
*Format: mp3@CBR320kbps
*Size: 20MB

Tracklist:
1. Odens Krigare 04:17
2. Valhall 03:52
3. Fyllevisa 00:26
******************************
Total playing time: 8:35



[more=Technical info]
Input File: Odens Krigare (Single)-02-Valhall.mp3
Channels : 2
Sample Rate : 44100
Precision : 16-bit
Duration : 00:03:52.08 = 10234552 samples = 17405.7 CDDA sectors
File Size : 9.33M
Bit Rate : 321k
Sample Encoding: MPEG audio (layer I, II or III)
Comments :
Title=Valhall
Artist=Stormwarrior
Album=Odens Krigare (Single)
Tracknumber=2
Year=2004
Genre=Power/Speed Metal

[/more]

Register
(7) cancer1974, grobator, LightWizard, Rosen, suseka, welder150203, wreak,
Feb 7 2014, 23:04:05 Eternal Oath - So Silent [ep] (1996)


*Artist: Eternal Oath
*Album: So Silent [ep]
*Year: 1996
*Genre: Symphonic/Death Metal
*Country: Sweden
*Format: mp3@CBR320kbps
*Size: 65MB

Tracklist:
1. The Dawn 04:56
2. Harmonic Souls Departed 03:48
3. So Silent 05:05
4. Insanity 04:44
5. Eternal Rest 05:02
6. Dream of Rising 04:30
******************************
Total playing time: 28:05



[more=Technical info]
Input File: So Silent (EP)-02-Harmonic Souls Departed.mp3
Channels : 2
Sample Rate : 44100
Precision : 16-bit
Duration : 00:03:47.52 = 10033676 samples = 17064.1 CDDA sectors
File Size : 9.13M
Bit Rate : 321k
Sample Encoding: MPEG audio (layer I, II or III)
Comments :
Title=Harmonic Souls Departed
Artist=Eternal Oath
Album=So Silent (EP)
Tracknumber=2
Year=1996
Genre=Symphonic/Death Metal

[/more]

Register
(13) AHBAnep, Analien, avather, Buregon, caro, Evilded, gwynnbleid, Hell_Is_Here, Proteus_666, Rosen, VALERY, varlam4, Xyzzy,
Feb 4 2014, 20:40:37 Bauda - Euphoria… Of Flesh, Men And The Great Escape (2012)


*Artist: Bauda
*Album: Euphoria… Of Flesh, Men And The Great Escape
*Year: 2012
*Genre: Alternative Rock/Atmospheric Folk Metal
*Country: Chile
*Format: mp3@CBR320kbps
*Size: 139MB

Tracklist:
1. Ghosts of Phantalassa 09:23
2. Humanimals 10:23
3. Silhouettes 05:45
4. Oceanía 07:39
5. The Great Escape 04:41
6. Ascension 08:33
7. Crepuscular 03:44
8. …Mare Nostrvm? (El llanto de Quintay) 09:05
******************************
Total playing time: 59:13



[more=Technical info]
Input File: Euphoria... of Flesh, Men and the Great Escape-02-Humanimals.mp3
Channels : 2
Sample Rate : 44100
Precision : 16-bit
Duration : 00:10:23.93 = 27515445 samples = 46795 CDDA sectors
File Size : 25.0M
Bit Rate : 320k
Sample Encoding: MPEG audio (layer I, II or III)
Comments :
Title=Humanimals
Artist=Bauda
Album=Euphoria… of Flesh, Men and the Great Escape
Tracknumber=2
Year=2012
Genre=Alternative Rock/Atmospheric Folk Metal

[/more]

Register
(17) AwaitingDawn, caro, Cartman223, Death84, Emhyr var Emreis, Exhorder121121, fabriziomagno, GAS, gwynnbleid, MeatWolf, randumbum, Rikardo90, SatanicPanzer, svartrest, tont, VALERY, varlam4,
Jan 9 2014, 22:17:10 Gorefield - As Dawn Bleeds The Sky... (2013)
Ольдскульно, даже слишком. Самобытности может быть не хватает
Кроме ХэвиСпида тут есть еще и Металликовский трэш. И вполне неплохо все сделано.
(1) Genuine Thrashiac,
Jan 9 2014, 22:05:55 Stworz - Blask Wiecznego Ognia [best of/compilation] (2012)
Блин уже это просто феноменально. Я о том, как поляки могут держать свой унижкальный стиль исполнения и звучания в митле! И этот стиль меня привлекает как магнит. Несмотря ни на что, несмотря ни на какие оговорки.
(1) smes,
Jan 7 2014, 23:54:50 Celestis - Aurorae (2013)
На сегодняшний день я бы назвал это неплохой работой.
(1) MeatWolf,
Jan 7 2014, 20:27:49 Viikate - Kymijoen Lautturit (2013)
ЦИТАТА(aesteticvice @ 6th September 2013 - 09:55:10) *
CBR 320 / 96MB
Hidden text
http://rusfolder.com/37917096


Насколько смог уточнить в сети, этот "320" апконвертнут именно с того Variable bitrate рипа.
Неужели лось так и не появится со сканами в придачу?
(1) tt2008,
Dec 23 2013, 22:39:56 Coerced Existence - The Rite (2011)
Совсем не понравилось. И надо быть рваным придурком, чтобы одобрить подобный артворк. Музыка абсолютно соответствует обложке.
(1) GlebKKK,
Dec 8 2013, 22:23:53 3 Inches Of Blood - Live At Mushroom [ep] (2013)
[myspace]https://myspace.com/3iob/music/songs[/myspace]
В общем бесшабашный митл.
И явно чувствуется влияние Judas Priest :-)
Dec 2 2013, 15:01:18 Mylidian - Seven Lords (2013)
Regnat,
You can download 2006 album (320kb/s) in example from here:
Register
(3) Mplast, Regnat, varlam4,
Dec 1 2013, 17:55:23 Glittertind - Djevelsvart (2013)
Ну под фольк все мозжно запихнуть но не под Viking-же
Как это стольким людям понравилось, не понимаю.
(1) neoatheist,
Dec 1 2013, 17:47:59 Divino Disturbo - Op I (2013)
[myspace]https://myspace.com/divino_disturbo/music/songs[/myspace]
(1) libertine,
Nov 28 2013, 10:57:01 Irminsul - Fäder (2013)
Как не любил ихнюю музыку, так и невзлюбил сейчас...
(1) neoatheist,
Nov 13 2013, 20:44:33 Pellek - Christmas With Pellek (2013)
Вокалист кокетливо разговаривает со слушателем. Ужас.
(1) vosmidesijatye,

21 Pages V  < 1 2 3 4 5 > » 
- Lo-Fi Version Support form
Copyrights and abuse reports form
Time is now: 26th May 2024 - 18:12:31