Welcome Guest ( Log In | Register )

История благодарностей участнику lucifix ::: Спасибо сказали: 8045 раз(а)
Дата поста: В теме: За сообщение: Спасибо сказали:
Nov 30 2021, 17:42:37 Plateau Sigma - The True Shape Of Eskatos (2014)
web
Register
(1) Veligor,
Nov 29 2021, 16:59:22 Boisson Divine - La Halha (2020)
320
Register


Boisson Divine - 2021 - Cent cops dé Bastou (Single)
320
Register
(4) Daecadance, DMIYUR, Metalass, Veligor,
Nov 29 2021, 16:51:14 Boisson Divine - Voletat (2016)
320
Register
(2) DMIYUR, Veligor,
Nov 29 2021, 16:48:56 Boisson Divine - Enradigats (2013)
320
Register
(1) Veligor,
Nov 29 2021, 10:28:38 Ultimo Mondo Cannibale - Pornokult (2008)
Register
(1) Veligor,
Nov 26 2021, 18:38:46 Assassin - Interstellar Experience (1988)
web 320
Register
(3) metal73, Veligor, wreak,
Nov 24 2021, 18:23:37 Beseech - ...From A Bleeding Heart (1998)
web
Register
(2) thenecromancer, Veligor,
Nov 24 2021, 18:18:02 Novembre - Ursa (2016)
web
Register
(2) thenecromancer, Veligor,
Nov 23 2021, 17:07:38 Откровения Дождя - Эманация Ненависти (2010)
web
Register
(4) quarantine, stumpheavyrock, Veligor, wreak,
Nov 23 2021, 15:10:57 Tardigrada - Widrstand [demo] (2012)
remastered 2020 320 88mb
Register
(5) Angeldemon617, rimfrost, simonalacacarisa, Veligor, wreak,
Nov 23 2021, 11:04:58 Acid Reign - Obnoxious Demos [demo] (2014)
Register
(3) hell_armageddon, potap03020100, Veligor,
Nov 22 2021, 19:13:47 Testament & Acid Reign - Kerrang! Plastic Explosive [split] (1990)
ЦИТАТА(potap03020100 @ Nov 22 2021, 15:55:54) *
пере залейте пожалуйста! pray.gif

320
Register
(5) cancer1974, hell_armageddon, potap03020100, thenecromancer, Veligor,
Nov 22 2021, 17:25:23 Nerthus - Black Medieval Art (2004)
CBR 320
Register
(3) thenecromancer, Veligor, wreak,
Nov 22 2021, 16:03:02 Nerthus - The Crowneds Reunion (2007)
web
Register
(2) Veligor, wreak,
Nov 20 2021, 17:38:42 Shape Of Despair - Angels Of Distress (2001)
web
Register
(1) Veligor,
Nov 20 2021, 15:52:20 Bal-Sagoth - Starfire Burning Upon The Ice-Veiled Throne Of Ultima Thule (1996)
web
Register
(3) Occultas, Veligor, wreak,
Nov 20 2021, 15:50:07 Bal-sagoth - The Chthonic Chronicles (2006)
web
Register
(3) Emm Human, Veligor, wreak,
Nov 20 2021, 15:48:11 Bal-Sagoth - Atlantis Ascendant (2001)
web
Register
(4) Emm Human, Occultas, Veligor, wreak,
Nov 20 2021, 15:46:22 Bal-Sagoth - The Power Cosmic (1999)
web
Register
(1) Veligor,
Nov 20 2021, 09:51:10 Theatre Of Tragedy - Aegis (1998)
web
Register
(2) Veligor, wreak,
Nov 20 2021, 09:43:53 Vintersorg - Visions From The Spiral Generator (2002)
web
Register
(2) Occultas, Veligor,
Nov 19 2021, 17:38:52 Puissance - Total Cleansing (2001)
320
Register
(2) kimkayoung, Veligor,
Nov 19 2021, 17:33:04 Puissance - Grace Of God (2007)
320
Register
(4) Hexer, kimkayoung, Rodin, Veligor,
Aug 12 2021, 16:51:03 Ice Ages - Vibe Of Scorn (2021)
flac
Register

Register
(7) as71, cancer1974, dk201x, Forest Silence, greyhead, Olethros, Veligor,
Aug 10 2021, 11:41:31 Лихолесье - Шаманские Сумерки (2021)


*Artist: Лихолесье
*Album: Шаманские Сумерки
*Year: 2021
*Genre: Folk Ambient/Dark Folk/Ritual Ambient
*Country: Russian Federation
*Format: mp3@CBR320kbps
*Size: 103MB

Tracklist:
01. От Корней До Ветвей
02. Тысячи Троп
03. Пламя В Глуши
04. Скорбь Глубин
05. Поиск Видений
06. Шаманские Сумерки
07. Ночь После Ритуала
08. Глубина Предрассветных Небес
09. Седые Крылья
******************************
Total playing time: 51:32



[more=Technical info]
Input File: 01 От корней до ветвей.mp3
Channels : 2
Sample Rate : 44100
Precision : 16-bit
Duration : 00:05:22.00 = 14200200 samples = 24150 CDDA sectors
File Size : 12.9M
Bit Rate : 321k
Sample Encoding: MPEG audio (layer I, II or III)
Comments :
Title=Îò êîðíåé äî âåòâåé
Artist=Ëèõîëåñüå
Album=Øàìàíñêèå Ñóìåðêè
Tracknumber=1
Year=2021

[/more]

Register
(23) Aresson, dromord, Emhyr var Emreis, Fryz, Infidel, infiltrator, Maestrovs, Mist13Signifier, Moloch, oldvarg, Olethros, Phlebotomized, recber, Reverend, satanath, Strygaldwir, Stutthof, SyncestrA, Un4given, VALERY, Veligor, Woosad, ZambuL,

50 Pages V  < 1 2 3 4 > » 
- Lo-Fi Version Support form
Copyrights and abuse reports form
Time is now: 25th May 2022 - 04:55:36