Welcome Guest ( Log In | Register )

История благодарностей участнику lary_veel ::: Спасибо сказали: 4108 раз(а)
Дата поста: В теме: За сообщение: Спасибо сказали:
Feb 11 2021, 11:10:20 Serenity In Murder - Reborn (2021)


*Artist: Serenity In Murder
*Album: Reborn
*Year: 2021
*Genre: Symphonic/Melodic Death Metal
*Country: Japan
*Format: mp3@CBR128kbps
*Size: 38MB

Tracklist:
1. The Great Beyond 01:23
2. Anthem 03:54
3. Plead for Your Life 04:37
4. The Titans 03:22
5. Sea of Stars 05:43
6. Rain or Shine 03:28
7. Leaves Burned to Ashes 03:58
8. Beast in Human Shape 04:08
9. The Black Sun 03:15
10. The Glow of Embers 03:09
11. The Four Seasons 4:10
******************************
Total playing time: 41:07



[more=Extended info]Ryuji Guitars
Freddy Guitars, Orchestrations
Yu-ri Bass
Allen Drums
Ayumu Vocals[/more]

[more=Technical info]
Input File: 02 Anthem.mp3
Channels : 2
Sample Rate : 44100
Precision : 16-bit
Duration : 00:03:53.77 = 10309389 samples = 17533 CDDA sectors
File Size : 3.74M
Bit Rate : 128k
Sample Encoding: MPEG audio (layer I, II or III)
Comments :
Title=Anthem
Artist=Serenity In Murder
Album=Reborn
Tracknumber=2
Year=2021
Genre=Melodic Death Metal

[/more]

Register
(9) Forest, infiltrator, infozahist, kimkayoung, mirotvorets, Old Vyaine, Olethros, Orgasmik, zhol,
Mar 21 2020, 13:13:38 Heaven Shall Burn - Of Truth & Sacrifice (2020)


*Artist: Heaven Shall Burn
*Album: Of Truth & Sacrifice
*Year: 2020
*Genre: Melodic Death Metal/Metalcore
*Country: Germany
*Format: mp3@CBR320kbps
*Size: 227MB

Tracklist:
Disc 1
1. March of Retribution 01:21
2. Thoughts and Prayers 04:57
3. Eradicate 04:31
4. Protector 05:26
5. Übermacht 05:24
6. My Heart and the Ocean 05:50
7. Expatriate 08:51
8. What War Means 05:29
9. Terminate the Unconcern 04:41
10. The Ashes of My Enemies 02:02

Disc 2
1. Children of a Lesser God 06:35
2. La résistance 05:05
3. The Sorrows of Victory 08:24
4. Stateless 03:48
5. Tirpitz 05:54
6. Truther 02:40
7. Critical Mass (Nuclear Assault cover) 03:34
8. Eagles Among Vultures 05:05
9. Weakness Leaving My Heart 07:31
******************************
Total playing time: 1:37:08




[more=Extended info]Eric Bischoff Bass (1997-present)
Maik Weichert Guitars (1997-present)
Marcus Bischoff Vocals (1997-present)
Alexander Dietz Guitars (2005-present)
Christian Bass Drums (2013-present)[/more]

[more=Technical info]
Input File: 02 Thoughts and Prayers.mp3
Channels : 2
Sample Rate : 44100
Precision : 16-bit
Duration : 00:04:58.52 = 13164732 samples = 22389 CDDA sectors
File Size : 12.2M
Bit Rate : 327k
Sample Encoding: MPEG audio (layer I, II or III)
Comments :
Title=Thoughts and Prayers
Artist=Heaven Shall Burn
Album=Of Truth And Sacrifice
Tracknumber=2
Year=2020
Genre=Metalcore
Discnumber=1/2

[/more]

Register
(60) 0x13, 6666666, aa144aa, akym, ALEXSATHANAS, Antkh, BaKu, berserkr, Bloodn Lord, boby9052, carla667, chipsgott, DenisKov, GorAtheist, GuldenDraak, gwynnbleid, hellbibber, Hollenthorn, Hovnoliaty, Indamage, infiltrator, J0k3r, John Beak, kimkayoung, Konst, Korpse, Lukittaz, Metalass, metaljosue, Mogozoz, morbidangelo, multizwilling, murayne, Old Vyaine, oldvarg, Olethros, Ostinato, postal67, rabindranad, Regnat, Rodriga, Rover, sadmannn, satanist666, savaman, Shadechaser, smes, talismanFS, TeamatSE, tschunioronbeer, VALERY, varlam4, Victim of fate, White28, wn129aa, wreak, WX419, XperiaX16183, zhol, скептик,
Nov 24 2018, 20:42:39 Veiled In Scarlet - Atonement (2018)


*Artist: Veiled In Scarlet
*Album: Atonement
*Year: 2018
*Genre: Melodic Death Metal
*Country: Japan
*Format: mp3@CBR320kbps
*Size: 84MB

Tracklist:
1. Closer to Dawn
2. The Throne
3. Prisoner's Sorrow
4. Atonement
5. Incarnation of Fear
6. In the Void
7. Insurrection
8. Dark Prayer
9. Blind Crow
10. Roar the Winter
******************************
Total playing time: 36:00




[more=Extended info]Keija Drums, Keyboards
Syo Guitars
Izo Guitars (2015-present)
Satoshi Bass (2016-present)[/more]

[more=Technical info]
Input File: 01. Closer to Dawn.mp3
Channels : 2
Sample Rate : 44100
Precision : 16-bit
Duration : 00:00:50.05 = 2207249 samples = 3753.82 CDDA sectors
File Size : 2.01M
Bit Rate : 321k
Sample Encoding: MPEG audio (layer I, II or III)
Comments :
Title=Closer to Dawn
Artist=Veiled in Scarlet
Album=Atonement
Tracknumber=1
Year=2018
Genre=Melodic Death Metal

[/more]

Register
(8) Forest, MeatWolf, Rosen, satanist666, sergsazan, wn129aa, zhol, скептик,
Jan 9 2015, 00:45:33 Sylosis - Dormant Heart (2015)


*Artist: Sylosis
*Album: Dormant Heart
*Year: 2015
*Genre: Melodic Death/Thrash Metal
*Country: United Kingdom
*Format: mp3@CBR320kbps
*Size: 151MB

Tracklist:
1. Where The Wolves Come To Die 02:55
2. Victims And Pawns 05:00
3. Dormant Heart 05:14
4. To Build A Tomb 04:21
5. Overthrown 04:08
6. Leech 05:01
7. Servitude 04:02
8. Indoctrinated 04:40
9. Harm 04:55
10. Mercy 04:51
11. Callous Souls 05:01
12. Quiescent 09:02
13. Pillars Erode (Bonus) 04:11
14. Zero (Bonus) 02:39
******************************
Total playing time: 1:06:00



[more=Technical info]
Input File: 09 - Harm.mp3
Channels : 2
Sample Rate : 44100
Precision : 16-bit
Duration : 00:04:55.45 = 13029521 samples = 22159 CDDA sectors
File Size : 11.8M
Bit Rate : 320k
Sample Encoding: MPEG audio (layer I, II or III)
Comments :
Title=Harm
Artist=Sylosis
Album=Dormant Heart
Tracknumber=09
Year=2015
Genre=Death Metal

[/more]

Register
(41) AHBAnep, aorta3, avather, BeerBear, Buregon, chon, DenisKov, Diflock, Dirt_ORFEY, Fess, JAWA, Korpse, Kuzya, lucifix, lyukon, MeatKnife, MMMMM, Mogozoz, mort, oldvarg, Ostinato, Phlebotomized, princeshr, Rosen, sadmannn, Samaritianin, satanist666, StoneTemple, Stringer, talismanFS, toly1917, tranquillit, Unkle Jonny, VALERY, varlam4, Visitor, wanderer73, wreak, zerger, zhw8tz1, скептик,
Nov 22 2014, 19:36:18 Prey For Nothing - The Reasoning (2014)


*Artist: Prey For Nothing
*Album: The Reasoning
*Year: 2014
*Genre: Melodic Death Metal
*Country: Israel
*Format: mp3@CBR320kbps
*Size: 150MB

Tracklist:
1. The Reasoning
2. No Heir To The Throne
3. The Devil's Words (From The Angel's Mouth)
4. Lost To The Flame
5. The Chemical Crusaders
6. The Scale
7. Wolves In Wolve's Clothings
8. Sacred Evolution
9. Faith In Humanity Destroyed
10. Shrouded Haven
11. Mentally Blind (Death cover)
******************************
Total playing time: 1:05:38




[more=Extended info]Fabio Lione (Rhapsody Of Fire) Vocals on track 10[/more]

[more=Technical info]
Input File: 01 - The Reasoning.mp3
Channels : 2
Sample Rate : 44100
Precision : 16-bit
Duration : 00:08:31.14 = 22541318 samples = 38335.6 CDDA sectors
File Size : 20.4M
Bit Rate : 320k
Sample Encoding: MPEG audio (layer I, II or III)
Comments :
Title=The Reasoning
Artist=Prey For Nothing
Album=The Reasoning
Tracknumber=1
Year=2014
Genre=Melodic Death Metal

[/more]

Register
(15) artscald, chon, DenisKov, gwynnbleid, infiltrator, Mogozoz, princeshr, Rosen, Samaritianin, satanist666, Sergei78, soulflesh, StoneTemple, VALERY, wreak,
Sep 16 2014, 15:48:30 Azrail - Primordial (2009)


*Artist: Azrail
*Album: Primordial
*Year: 2009
*Genre: Death Metal
*Country: South Africa
*Format: mp3@CBR256kbps
*Size: 78MB

Tracklist:
1. The Birth of Damnation 00:45
2. Slave Devoured Soul 05:35
3. Entombed in Silence 04:27
4. Degeneration over God 04:41
5. Gods of War 04:12
6. Born of Blood 05:11
7. Absence of Mercy 03:57
8. Tempted 03:24
9. The Coming of Uhuru 04:57
10. Stepping Through the Nether Portal 5:23
******************************
Total playing time: 42:32



Register
(14) andreikun, Darkthronefoad, jollo, metala, MMMMM, morbidangelo, randumbum, Rosen, spiritualdecay666, varlam4, Vincent, vyacheslav, wreak, Герб,
Sep 11 2014, 16:18:50 Gargoyle - Geshiki (2014)


*Artist: Gargoyle
*Album: Geshiki
*Year: 2014
*Genre: Thrash Metal
*Country: Japan
*Format: mp3@CBR320kbps
*Size: 113MB

Tracklist:
01 Gordian Knot
02 Kettei
03 Uzumaku Taiyou
04 Fullcolor Answer
05 Chokugei
06 Mankai Oratio
07 Tsubasa No Kioku
08 Tiny Song
09 Enriedo
10 S.W.POWER
11 Namida No Kachi
******************************
Total playing time: 49:24



[more=Technical info]
Input File: 02 - Kettei.mp3
Channels : 2
Sample Rate : 44100
Precision : 16-bit
Duration : 00:03:41.86 = 9783806 samples = 16639.1 CDDA sectors
File Size : 8.88M
Bit Rate : 320k
Sample Encoding: MPEG audio (layer I, II or III)
Comments :
Title=Kettei
Artist=Gargoyle
Album=Geshiki
Tracknumber=2
Year=2014
Genre=Thrash Metal

[/more]

Register
(17) aesteticvice, AHBAnep, avkruchinin, Darkness, Diflock, HMHamster, killingod, Kowalski, marilin, metala, MMMMM, neoatheist, potap03020100, Reverend, Rosen, TheEND, wreak,
Jun 20 2014, 15:50:19 Beyond Your Ritual - Neogenesis (2011)


*Artist: Beyond Your Ritual
*Album: Neogenesis
*Year: 2011
*Genre: Thrash/Death Metal
*Country: Madagascar
*Format: mp3@VBR256kbps
*Size: 77MB

Tracklist:
1. Prélude 02:00
2. From Utopia to Extinction, Pt. 1 05:11
3. From Utopia to Extinction, Pt. 2 03:49
4. Falling in Rage 03:50
5. 400 Years of Agony 03:47
6. No Man's Land 04:06
7. Asylum 03:19
8. See Yourself 03:54
9. Grind You Down 04:27
10. Until I Kill You Too 06:24
******************************
Total playing time: 40:47



Register
(8) gardenofdemise, Genuine Thrashiac, maxapero, Rosen, spiritualdecay666, wanderer73, wreak, yrewill,
Sep 26 2013, 16:54:55 Vassline - Black Silence (2013)


*Artist: Vassline
*Album: Black Silence
*Year: 2013
*Genre: Metalcore
*Country: South Korea
*Format: mp3@CBR192kbps
*Size: 80MB

Tracklist:
01. RADIX
02. The Protester
03. Red Raven Conspiracy
04. Lost In Ruins
05. Hatred Catalyst
06. Fall Of Fortuna
07. Expression Of The Arogant God
08. Overture To Recomposition
09. Against The Tide
10. The Handler
11. From Nothing To Infinity
12. Rubicon
13. Deadenders War
14. Tracing The Untraceable
******************************
Total playing time: 57:53



Register
(4) caro, Oops, Phlebotomized, senecazm,
Sep 21 2013, 23:45:31 Weaken The Adversary - Burn Me Alive (2005)


*Artist: Weaken The Adversary
*Album: Burn Me Alive
*Year: 2005
*Genre: Melodic Death/Thrash Metal
*Country: United States
*Format: mp3@CBR256kbps
*Size: 80MB

Tracklist:
1. Burn Me Alive 04:51
2. Caskets 04:26
3. Ashes of the Dawn 04:58
4. Self Induced Slavery 04:17
5. Human Condition 03:56
6. Spitting Teeth 03:43
7. War of Angels 04:39
8. Demon Within 04:17
9. Playing Dead 03:45
10. The Trooper (Iron Maiden cover) 04:04
******************************
Total playing time: 42:56



Register
(10) Buregon, caro, gwynnbleid, metadeat, metala, Mogozoz, nikfo, Ostinato, VALERY, yrewill,
Sep 2 2013, 14:48:55 Day Turns Night - Fallen Legacy (2009)


*Artist: Day Turns Night
*Album: Fallen Legacy
*Year: 2009
*Genre: Melodic Death Metal/Deathcore
*Country: South Africa
*Format: mp3@CBR256kbps
*Size: 87MB

Tracklist:
1. Ecce Humanitas 00:35
2. Forward the Demons March 03:28
3. Far Away 04:27
4. Six Feet from My Soul 03:30
5. Counting the Days 04:54
6. Bloodshed 03:37
7. Slavery 04:43
8. Two Coins 03:47
9. Barriers of Time 03:35
10. In the Hands of Destiny 04:43
11. Order of the Orphans 03:47
12. Feed the Flame 03:59
13. Legacy 02:10
******************************
Total playing time: 47:15




Register
(5) caro, Mogozoz, Reverend, VALERY, yrewill,
Aug 21 2013, 14:02:10 Evocation - Abracadabra (2013)


*Artist: Evocation
*Album: Abracadabra
*Year: 2013
*Genre: Melodic Death/Black Metal
*Country: China
*Format: mp3@VBR212kbps
*Size: 68MB

Tracklist:
1. War. Soul. Sequence 01:59
2. The More Empty Revenge 04:59
3. Hurried Retreat 04:22
4. Loess 06:12
5. Abracadabra 06:24
6. Immortal Dynasty 05:50
7. Regime Change 04:50
8. Immortality 03:26
9. Myth 06:06
******************************
Total playing time: 44:08



Register
(25) 0x13, Analien, BRUTAL06, caro, chon, Endymion, Gelukas, gwynnbleid, ironyserg, IzverGOD, Korpse, metala, Mogozoz, neoatheist, oldvarg, Reverend, Saalingurth, toly1917, Typhoid, VALERY, wgs73, wreak, yrewill, zerger, Абигор,
Aug 16 2013, 13:21:59 Manipulated Slaves - Love & Death (2012)


*Artist: Manipulated Slaves
*Album: Love & Death
*Year: 2012
*Genre: Melodic Death/Thrash Metal
*Country: Japan
*Format: mp3@CBR320kbps
*Size: 106MB

Tracklist:
1. The Pain of Mortal Sin 01:32
2. Howl to the Full Moon 04:57
3. Voices from the Horizon 05:51
4. Defeated Man Must Die 05:01
5. Eternal Loop 05:25
6. Death After the Five Seconds 05:01
7. Villain Told Destiny 04:29
8. Lower the Skies 05:53
9. Time to Die 01:56
10. The Sign of Rebellion 05:22
11. Love and Death 01:21
******************************
Total playing time: 46:48



[more=Technical info]
Input File: 02 Howl To The Full Moon.mp3
Channels : 2
Sample Rate : 44100
Precision : 16-bit
Duration : 00:04:57.00 = 13097700 samples = 22275 CDDA sectors
File Size : 11.9M
Bit Rate : 320k
Sample Encoding: MPEG audio (layer I, II or III)
Comments :
Title=Howl To The Full Moon
Artist=Manipulated Slaves
Album=Love & Death
Tracknumber=2
Year=2012
Genre=Melodic Death Metal

[/more]

Register
(14) AHBAnep, avather, caro, chon, doriama, gwynnbleid, metala, Mogozoz, VALERY, wanderer73, wgs73, wreak, yrewill, Сатаник,
Aug 3 2013, 09:41:14 Submission - Blind Sighted (2009)


*Artist: Submission
*Album: Blind Sighted
*Year: 2009
*Genre: Heavy Metal
*Country: Namibia
*Format: mp3@CBR192kbps
*Size: 57MB

Tracklist:
1. Lords of Chaos 05:00
2. Zeitgeist 04:34
3. Your Denial 04:05
4. Blind Sighted 05:04
5. Silent Pain (Of Your Demise) 06:05
6. Out of Darkness 03:57
7. The War Within 06:16
8. Forgotten Gods 05:52
******************************
Total playing time: 40:53



Register
(8) caro, Darkness, FILDV, Mogozoz, varlam4, wgs73, wreak, yrewill,
Apr 23 2013, 09:44:53 Gargoyle - Kijuu (2013)


*Artist: Gargoyle
*Album: Kijuu
*Year: 2013
*Genre: Progressive Thrash Metal
*Country: Japan
*Format: mp3@CBR320kbps
*Size: 115MB

Tracklist:
1. Face of Fate 04:53
2. ケルベロス 02:57
3. S.L.A. 04:36
4. ABC 03:52
5. 愚鈍 06:20
6. SHIT嫉妬SHIT 03:58
7. 命の傷 05:13
8. 底抜け人生ゲーム 03:49
9. 純血サンクチュアリ 04:01
10. 夢果実 05:03
11. The Gun 05:11
******************************
Total playing time: 49:53



[more=Extended info]Toshiyuki "Toshi" Sueyoshi Bass
Kazuhisa "Kiba" Tochihara Vocals, Lyrics
Katsuji Kirita Drums
Kentaro Yokota Guitars[/more]

[more=Technical info]
Input File: 01-Face Of Fate.mp3
Channels : 2
Sample Rate : 44100
Precision : 16-bit
Duration : 00:04:53.46 = 12941718 samples = 22009.7 CDDA sectors
File Size : 11.7M
Bit Rate : 320k
Sample Encoding: MPEG audio (layer I, II or III)
Comments :
Title=Face Of Fate
Artist=Gargoyle
Album=Kijuu
Tracknumber=01
Year=2013
Genre=Thrash Metal

[/more]

Register
(14) AHBAnep, avkruchinin, Daale, Diflock, Genuine Thrashiac, marilin, MeathookSeed, MEmethuselah, MMMMM, Pentium.Disel, Tino, varlam4, wreak, yrewill,
Mar 20 2013, 18:35:14 April Weeps - Outer Calm, Pain Within (2013)


*Artist: April Weeps
*Album: Outer Calm, Pain Within
*Year: 2013
*Genre: Melodic Death/Gothic Metal
*Country: Slovakia
*Format: mp3@CBR256kbps
*Size: 90MB

Tracklist:
1. Sacrificial Rite 04:28
2. Dream-Master 04:06
3. Buried 03:48
4. Outer Calm, Pain Within 04:44
5. Forever Falling 04:32
6. Shards 06:58
7. Waiting For The Sun 04:36
8. In A Hurry 04:09
9. Positive Energy 03:40
10. Faded Memory 04:16
11. Pass Away 03:31
******************************
Total playing time: 48:48


Preview 2

[more=Extended info]male & female vocals in evenly combination[/more]

Register
(21) Cartman223, chon, DenisKov, garretje, gwynnbleid, Kleos-Kaleos, metaljan, MMMMM, Mogozoz, old, Old Vyaine, Reikjavik, satanist666, senecazm, SS2998, talismanFS, VALERY, Vincent, vkryuger, yrewill, скептик,
Sep 21 2012, 14:19:52 Method - The Constant (2012)


*Artist: Method
*Album: The Constant
*Year: 2012
*Genre: Melodic Death/Thrash Metal
*Country: South Korea
*Format: mp3@CBR256kbps
*Size: 108MB

Tracklist:
1. Unsettled Times
2. Another Anthem
3. The Division
4. Result In Redemption
5. Crying For Liberation Part 2
6. Wandering
7. Disrupt The Equilibrium
8. Detonate Anger
9. In Cold Reality
10. Condemned Person To Hell
11. Last Remains
12. Desolation Across
13. Another Anthem (Korean Version)
******************************
Total playing time: 57:22



Register
(20) analbleeding, Andrew, avkruchinin, Bloodn Lord, chon, DCLXVI-135, DenisKov, Elfrey, Fetus_In_Fetu, Genuine Thrashiac, gwynnbleid, metala, satanist666, SS2998, stone88, VALERY, varlam4, vkryuger, wanderer73, yrewill,
Sep 12 2012, 11:17:06 Sakadoya - Back To The Age Of Slaves (2009)


*Artist: Sakadoya
*Album: Back To The Age Of Slaves
*Year: 2009
*Genre: Melodic Death/Thrash Metal
*Country: Morocco
*Format: mp3@CBR256kbps
*Size: 72MB

Tracklist:
1. Get Back 05:22
2. Victims History 04:30
3. Dimal Moments 05:44
4. Crime Without Punishment 04:08
5. No More Submission 04:30
6. Let Us Pray 05:11
7. Resistance Victory 04:22
8. Back to the Age of Slaves 04:48
******************************
Total playing time: 38:35



Register
(13) Andrew, chon, DenisKov, Genuine Thrashiac, gwynnbleid, Hell_Is_Here, metala, Mogozoz, Reverend, VALERY, varlam4, wanderer73, yrewill,
Sep 10 2012, 00:03:18 Disconsolate - Behind The Doors Of Perception (2011)


*Artist: Disconsolate
*Album: Behind The Doors Of Perception
*Year: 2011
*Genre: Death Metal
*Country: Slovakia
*Format: mp3@CBR320kbps
*Size: 85MB

Tracklist:
1. Into The Mind 2:01
2. The Dark Forest In My Thoughts 4:49
3. Blind Man, Empty Soul 2:55
4. Confused 3:58
5. The Deepest Secrets 3:25
6. Putrefy 4:51
7. Entrance To Decay 4:45
8. Destruct 3:15
9. Behind The Doors Of Perception 3:22
10. Wanderer 3:41
******************************
Total playing time: 37:02

Preview 1

[more=Extended info]Boris Palko - gitara
Štefan Timko - vokály
Martin Pribula - gitara
Marko Petruš - basgitara
Jozef Kešej - bicie


Input File: 02 The Dark Forest In My Thoughts.mp3
Channels : 2
Sample Rate : 44100
Precision : 16-bit
Duration : 00:04:49.78 = 12779210 samples = 21733.4 CDDA sectors
File Size : 11.6M
Bit Rate : 320k
Sample Encoding: MPEG audio (layer I, II or III)
Comments :
Title=The Dark Forest In My Thoughts
Artist=Disconsolate
Album=Behind The Doors Of Perception
Tracknumber=2
Year=2011
Genre=Death Metal

[/more]

Register
(15) AHBAnep, andreikun, Darkthronefoad, Diflock, Foneg, gardenofdemise, Hell_Is_Here, MaelstromxXx, MMMMM, NecroDeath, qzmit4, varlam4, Vincent, wreak, yrewill,
Sep 9 2012, 10:07:26 Dream Of Unreality - The Burden (2011)


*Artist: Dream Of Unreality
*Album: The Burden
*Year: 2011
*Genre: Melodic Death Metal
*Country: Finland
*Format: mp3@CBR320kbps
*Size: 80MB

Tracklist:
1. Last Words 04:24
2. Your Curse 03:47
3. Remember and Pray 06:00
4. Without Conscience 04:39
5. Mind Concealed 04:50
6. Surpass the Burden Pt. 1 05:02
7. Surpass the Burden Pt. 2 06:03
******************************
Total playing time: 34:45



[more=Extended info]


Input File: 01 Last Words.mp3
Channels : 2
Sample Rate : 44100
Precision : 16-bit
Duration : 00:04:24.44 = 11661760 samples = 19832.9 CDDA sectors
File Size : 10.6M
Bit Rate : 320k
Sample Encoding: MPEG audio (layer I, II or III)
Comments :
Title=Last Words
Artist=Dream Of Unreality
Album=The Burden
Tracknumber=1/7
Year=2011
Genre=Melodic Death Metal
Discnumber=1

[/more]

Register
(47) aa144aa, aGoo, AHBAnep, Andrew, Any-maL, aorta2, chon, DCLXVI-135, DenisKov, Diflock, e2_81, ehfeka44, Elfrey, Emhyr var Emreis, Fetus_In_Fetu, gav-gafi, Gelukas, GlebKKK, gwynnbleid, metadeat, MetalgeR, metaljan, Mogozoz, Mplast, Old Vyaine, oldvarg, qzmit4, realexxx75, Reverend, Sathana, savatage13, slavabog, sperminator, SS2998, StoneTemple, talismanFS, TeamatSE, VALERY, varlam4, Vincent, wanderer73, WND, wreak, yrewill, zaqxsw, zhol, Смусмумбрик,
Sep 5 2012, 13:57:46 Geist Of Trinity - Geist Of Trinity (2012)


*Artist: Geist Of Trinity
*Album: Geist Of Trinity
*Year: 2012
*Genre: Melodic Death Metal
*Country: Japan
*Format: mp3@CBR320kbps
*Size: 110MB

Tracklist:
01. Call To Judgement 4:01
02. Face The Enemy 4:59
03. Lost 4:45
04. The Only Right Choice 4:21
05. Chaos In My Hand 3:06
06. Bring My End 3:56
07. We'll Never Run Away 4:47
08. Seventh Time 4:53
09. I'm Alone Again 3:54
10. My Last Wish 4:26
11. Apocalypse 5:09
******************************
Total playing time: 48:17



[more=Extended info]


Input File: 02 Face The Enemy.mp3
Channels : 2
Sample Rate : 44100
Precision : 16-bit
Duration : 00:04:58.72 = 13173332 samples = 22403.6 CDDA sectors
File Size : 11.9M
Bit Rate : 320k
Sample Encoding: MPEG audio (layer I, II or III)
Comments :
Title=Face The Enemy
Artist=Geist Of Trinity
Album=Geist Of Trinity
Tracknumber=2
Year=2012
Genre=Melodic Death Metal

[/more]

Register
(9) DenisKov, Endymion, Mogozoz, Phlebotomized, v.v.m, varlam4, wanderer73, WND, yrewill,
May 31 2012, 11:16:53 Sorrow Of Tranquility - Engagement-Hill [ep] (2002)
Register
(1) BlackArrow,
May 3 2012, 15:03:47 Ad Astra - Open Wide (2012)


*Artist: Ad Astra
*Album: Open Wide
*Year: 2012
*Genre: Progressive Metal
*Country: Hungary
*Format: mp3@CBR320kbps
*Size: 133MB

Tracklist:
1. Paycheck
2. Fake
3. The Substitute
4. Into Sour
5. Binary Bravery
6. Borderline
7, Wings of the Vulture
8. Finite
9. Director’s Cut
10. Undone
11. Sledgehammer (bonus track – Peter Gabriel cover)
******************************
Total playing time: 58:16

Register
(20) -=Lion=-, ace73pq, AHBAnep, artscald, dimitris p., dimitriusk, Endymion, hammer, Hector73, Itisme, metala, MMMMM, Mogozoz, SAPOGi, VALERY, varlam4, wreak, Yarri, yrewill, zerger,
Feb 6 2012, 15:19:21 Divine Damnation - Dystonation (2011)


*Artist: Divine Damnation
*Album: Dystonation
*Year: 2011
*Genre: Melodic Death Metal
*Country: Hungary
*Format: mp3@CBR192kbps
*Size: 45MB

Tracklist:
01. I'll Come Back
02. Who Laught The Last
03. At My Funeral
04. Tower Of Babel
05. Blood Of Christ
06. Prayer For A Forgotten
07.The Ring Of Vultures
******************************
Total playing time: 32:27



[more=Extended info]Szilárd - vocals
Kadosa - bass
Norbert - drums
Ádám - guitar
Csaba - guitar[/more]

Register
(21) -=Lion=-, Andrew, AshenLight, chon, EirikBloodAxe, Endymion, Fetus_In_Fetu, gwynnbleid, ImNotRussian, Karpath, Killrain, malganus, MCMLXXXIX, metala, MMMMM, Mogozoz, Scuns, SS2998, v.v.m, VALERY, zhol,
Feb 5 2012, 17:54:44 Casketgarden - The Estrangement Process (2012)


*Artist: Casketgarden
*Album: The Estrangement Process
*Year: 2012
*Genre: Melodic Death/Thrash Metal
*Country: Hungary
*Format: mp3@CBR128kbps
*Size: 35MB

Tracklist:
1. Black Hole Maelstrom 03:27
2. Unlike 04:08
3. They 03:59
4. A Machine Within 04:02
5. So Eager To Play 03:54
6. Confess 03:25
7. The Eternal Tremble 05:32
8. Disgusting Soul 02:28
9. The Minus Terminus 03:21
10. Where Sanity Ends 03:44
******************************
Total playing time: 38:00



[more=Extended info]Attila Cseh Drums

Toth Balázs Guitars (lead)

István Cseh Vocals

Dénes Schummel Bass

István Csutak Guitars

ONLY 128kbps IF YOU LIKE IT, BUT IT & SUPPORT THE BAND !!![/more]

Register
(8) Agressor, DenisKov, Genuine Thrashiac, metala, Protey, Reikjavik, satanath, zhol,

13 Pages V   1 2 3 > » 
- Lo-Fi Version Support form
Copyrights and abuse reports form
Time is now: 26th September 2021 - 00:23:18