Welcome Guest ( Log In | Register )

История благодарностей участнику smysl ::: Спасибо сказали: 76833 раз(а)
Дата поста: В теме: За сообщение: Спасибо сказали:
Yesterday, 20:23:51 Bestial Putrefaction - Demo [demo] (2021)


*Artist: Bestial Putrefaction
*Album: Demo [demo]
*Year: 2021
*Genre: Black/Death Metal
*Country: Canada
*Format: mp3@CBR320kbps
*Size: 28MB

Tracklist:
1.Vomited Chaos 00:56
2.Rites of Butchery 01:01
3.Regurgitated Thorns 00:53
4.Hordes of Gore 00:47
5.Heretic Noose 00:59
6.Entrails of Hate 01:10
7.Cruel Malevolence 01:14
8.Primitive Pathology 02:15
9.Christ Dismemberment 02:02
******************************
Total playing time: 11:17



[more=Technical info]
Input File: 02 Rites of Butchery.mp3
Channels : 2
Sample Rate : 44100
Precision : 16-bit
Duration : 00:01:01.47 = 2710915 samples = 4610.4 CDDA sectors
File Size : 2.62M
Bit Rate : 341k
Sample Encoding: MPEG audio (layer I, II or III)
Comments :
Title=Rites of Butchery
Artist=Bestial Putrefaction
Album=Demo
Tracknumber=2
Year=2021
Genre=Bestial Black Metal

[/more]

Register
(5) Marek, Olethros, Taakeferd, VALERY, wanderer73,
Yesterday, 20:13:31 Eighten Neintres - What Do You Know About The Devil [demo] (2021)


*Artist: Eighten Neintres
*Album: What Do You Know About The Devil [demo]
*Year: 2021
*Genre: Raw Black Metal
*Country: United States
*Format: mp3@CBR320kbps
*Size: 37MB

Tracklist:
1.The Suffering knows no end (Intro) 01:53
2.Eternal Torment of the Bastard Christ 03:59
3.Better in Darkness 04:58
4.Open wide The Gates of Hell 04:09
******************************
Total playing time: 14:59



[more=Technical info]
Input File: 02 Eternal Torment of the Bastard Christ.mp3
Channels : 2
Sample Rate : 44100
Precision : 16-bit
Duration : 00:03:59.19 = 10548411 samples = 17939.5 CDDA sectors
File Size : 9.74M
Bit Rate : 326k
Sample Encoding: MPEG audio (layer I, II or III)
Comments :
Title=Eternal Torment of the Bastard Christ
Artist=Eighten Neintres
Album=What do you know about The Devil
Tracknumber=2
Year=2021
Genre=Black Metal

[/more]

Register
(5) kim666, Olethros, randumbum, Taakeferd, VALERY,
Yesterday, 19:23:07 Spear Of Teuta - Scorn [ep] (2021)


*Artist: Spear Of Teuta
*Album: Scorn [ep]
*Year: 2021
*Genre: Black Metal/Post-Punk
*Country: Croatia
*Format: mp3@CBR320kbps
*Size: 28MB

Tracklist:
1.Scorn 06:07
2.Tiha Jeka 05:46
******************************
Total playing time: 11:53



[more=Technical info]
Input File: 01 Scorn.mp3
Channels : 2
Sample Rate : 44100
Precision : 16-bit
Duration : 00:06:07.67 = 16214247 samples = 27575.2 CDDA sectors
File Size : 14.9M
Bit Rate : 323k
Sample Encoding: MPEG audio (layer I, II or III)
Comments :
Title=Scorn
Artist=Spear of Teuta
Album=Scorn (EP)
Tracknumber=1
Year=2021
Genre=Black Metal

[/more]

Register
(6) ent404, grimmstone, Olethros, robertho777, Taakeferd, VALERY,
Yesterday, 19:00:03 Clarion Knell - Vanguard Of Stone [ep] (2021)


*Artist: Clarion Knell
*Album: Vanguard Of Stone [ep]
*Year: 2021
*Genre: Atmospheric Black Metal
*Country: France
*Format: mp3@CBR320kbps
*Size: 74MB

Tracklist:
1.Tour de Garde 06:26
2.Utopist 05:48
3.Insurgent Spear 07:12
4.Open Wounds 03:52
5.Ascending to Emptiness 08:57
******************************
Total playing time: 32:15



[more=Technical info]
Input File: 01 Tour de Garde.mp3
Channels : 2
Sample Rate : 44100
Precision : 16-bit
Duration : 00:06:26.14 = 17028774 samples = 28960.5 CDDA sectors
File Size : 15.5M
Bit Rate : 321k
Sample Encoding: MPEG audio (layer I, II or III)
Comments :
Title=Tour de Garde
Artist=Clarion Knell
Album=Vanguard Of Stone
Tracknumber=1
Year=2021
Genre=Atmospheric Black Metal

[/more]

Register
(7) kim666, Olethros, randumbum, robertho777, sergsazan, Taakeferd, VALERY,
Jan 18 2021, 18:16:29 Leprophiliac & Concilio Cadavérico - La Carne Se Desprende De Los Huesos [split] (2021)


*Artist: Leprophiliac & Concilio Cadavérico
*Album: La Carne Se Desprende De Los Huesos [split]
*Year: 2021
*Genre: Death Metal | Grindcore/Death Metal
*Country: Spain | Mexico
*Format: mp3@CBR320kbps
*Size: 43MB

Tracklist:
Leprophiliac:
1.Flesh for the Beast 03:40
2.Bricomaniac 04:31
Concilio Cadavérico:
3.Efigies De Sangre Y Carne 03:34
4.Incienso Y Putrefaccion 03:26
5.Aberraciones Inhumanas 02:40
******************************
Total playing time: 17:51



[more=Technical info]
Input File: 01 Leprophiliac - Flesh for the Beast.mp3
Channels : 2
Sample Rate : 44100
Precision : 16-bit
Duration : 00:03:40.46 = 9722374 samples = 16534.6 CDDA sectors
File Size : 8.91M
Bit Rate : 323k
Sample Encoding: MPEG audio (layer I, II or III)
Comments :
Title=Flesh for the Beast
Artist=Leprophiliac
Album=La Carne Se Desprende De Los Huesos
Tracknumber=1
Year=2021
Genre=Death Metal

[/more]

Register
(7) ENDSMOUTH, infiltrator, Occultas, Rosen, Taakeferd, vyacheslav, wanderer73,
Jan 17 2021, 22:15:48 Graancirkel - Demo MMXXI [demo] (2021)


*Artist: Graancirkel
*Album: Demo MMXXI [demo]
*Year: 2021
*Genre: Raw Black Metal
*Country: Indonesia
*Format: mp3@CBR320kbps
*Size: 26MB

Tracklist:
1. Invasjon I 01:24
2. Invasjon II 02:45
3. Invasjon III 03:25
4. Invasjon IV 03:09
******************************
Total playing time: 10:43



[more=Technical info]
Input File: 01 Invasjon I.mp3
Channels : 2
Sample Rate : 44100
Precision : 16-bit
Duration : 00:01:24.91 = 3744311 samples = 6367.88 CDDA sectors
File Size : 3.54M
Bit Rate : 333k
Sample Encoding: MPEG audio (layer I, II or III)
Comments :
Title=Invasjon I
Artist=Graancirkel
Album=Demo MMXXI
Tracknumber=1
Year=2021
Genre=Raw Black Metal

[/more]

Register
(13) Cramloth, infiltrator, kim666, mondlicht, Occultas, Olethros, randumbum, robertho777, Rosen, Taakeferd, thenecromancer, VALERY, vasiljev_sergej,
Jan 17 2021, 21:21:53 Omnikinetic - Dragon Hymns [ep] (2021)


*Artist: Omnikinetic
*Album: Dragon Hymns [ep]
*Year: 2021
*Genre: Black/Death Metal
*Country: United States
*Format: mp3@CBR320kbps
*Size: 32MB

Tracklist:
1.Dragon Hymn 03:43
2.Skylakitin 03:47
3.Rites of the Moon 02:56
******************************
Total playing time: 10:26



[more=Technical info]
Input File: 01 Dragon Hymn.mp3
Channels : 2
Sample Rate : 44100
Precision : 16-bit
Duration : 00:03:43.73 = 9866405 samples = 16779.6 CDDA sectors
File Size : 9.04M
Bit Rate : 323k
Sample Encoding: MPEG audio (layer I, II or III)
Comments :
Title=Dragon Hymn
Artist=Omnikinetic
Album=Dragon Hymns (EP)
Tracknumber=1
Year=2021
Genre=Black/Death Metal

[/more]

Register
(10) infiltrator, Marek, Olethros, randumbum, Rosen, Taakeferd, VALERY, vasiljev_sergej, Wail, wanderer73,
Jan 17 2021, 21:03:07 Apocalyptic Leaders - Macabre (2021)


*Artist: Apocalyptic Leaders
*Album: Macabre
*Year: 2021
*Genre: Black Metal
*Country: Greece
*Format: mp3@CBR320kbps
*Size: 60MB

Tracklist:
1.Macabre 02:00
2.The doors of hell 04:22
3.Dead in the winter 04:50
4.Salvation death 02:19
5.Infinite black 05:20
6.Obscurantism (Burned alive) 03:49
7.Insomniac people 03:32
******************************
Total playing time: 26:12




[more=Technical info]
Input File: 01 Macabre.mp3
Channels : 2
Sample Rate : 44100
Precision : 16-bit
Duration : 00:02:00.07 = 5294999 samples = 9005.1 CDDA sectors
File Size : 4.88M
Bit Rate : 325k
Sample Encoding: MPEG audio (layer I, II or III)
Comments :
Title=Macabre
Artist=Apocalyptic Leaders
Album=Macabre
Tracknumber=1
Year=2021
Genre=Black Metal

[/more]

Register
(16) AlexSmith, atavist, Gylve, infiltrator, judaz, kim666, M0ns1gn0r, Marek, Olethros, randumbum, robertho777, Rosen, Taakeferd, undeadlich, VALERY, vasiljev_sergej,
Jan 17 2021, 17:45:16 Último Vómito - Cadáver Reanimado [ep] (2020)


*Artist: Último Vómito
*Album: Cadáver Reanimado [ep]
*Year: 2020
*Genre: Black/Thrash Metal
*Country: Argentina
*Format: mp3@CBR320kbps
*Size: 24MB

Tracklist:
1. Último vómito 02:28
2. Cadáver reanimado 02:50
3. Gritos de ultratumba 03:18
4. Deathrash (Sarcofago cover) 01:25
******************************
Total playing time: 10:01




[more=Technical info]
Input File: 01 Último Vómito.mp3
Channels : 2
Sample Rate : 44100
Precision : 16-bit
Duration : 00:02:29.01 = 6571473 samples = 11176 CDDA sectors
File Size : 6.12M
Bit Rate : 328k
Sample Encoding: MPEG audio (layer I, II or III)
Comments :
Title=Último Vómito
Artist=Último Vómito
Album=Cadáver Reanimado
Tracknumber=1
Year=2020
Genre=Black/Thrash Metal

[/more]

Register
(11) boby9052, craP_cillA, infiltrator, Olethros, Rosen, stumpheavyrock, Styx, Taakeferd, vasiljev_sergej, wanderer73, wgs73,
Jan 17 2021, 16:55:16 Morbid Winds - The Black Corridors Of The Abyssal Depths Of Existence Opened Their Gates (2021)


*Artist: Morbid Winds
*Album: The Black Corridors Of The Abyssal Depths Of Existence Opened Their Gates
*Year: 2021
*Genre: Black Metal
*Country: Poland
*Format: mp3@CBR320kbps
*Size: 79MB

Tracklist:
1.The Black Corridors of the Abyssal Depths of Existence Opened Their Gates 33:44
******************************
Total playing time: 33:44



[more=Technical info]
Input File: 01 The Black Corridors of the Abyssal Depths of Existence Opened Their Gates.mp3
Channels : 2
Sample Rate : 44100
Precision : 16-bit
Duration : 00:33:44.74 = 89290814 samples = 151855 CDDA sectors
File Size : 81.3M
Bit Rate : 321k
Sample Encoding: MPEG audio (layer I, II or III)
Comments :
Title=The Black Corridors of the Abyssal Depths of Existence Opened Their Gates
Artist=Morbid Winds
Album=The Black Corridors of the Abyssal Depths of Existence Opened Their Gates
Tracknumber=1
Year=2021
Genre=Black Metal

[/more]

Register
(18) axedot, Bzth, cesar, craP_cillA, ent404, infiltrator, kim666, Marek, Occultas, Olethros, rimfrost, Rosen, SaintVitus, SSBandera, Taakeferd, undeadlich, VALERY, vasiljev_sergej,
Jan 17 2021, 00:04:48 Adrasteia & Lehman - Split Mmxxi [split] (2021)


*Artist: Adrasteia & Lehman
*Album: Split Mmxxi [split]
*Year: 2021
*Genre: Raw Black Metal/Ambient | Ambient
*Country: United States | United States
*Format: mp3@CBR320kbps
*Size: 144MB

Tracklist:
Adrasteia:
1.Polaris 29:55
Lehman:
2.As The Moon Watches Over Me 07:18
3.Frost On The Fence Line 04:03
4.Snow In The Night Sky 07:52
5.A Beautiful Blizzard 12:48
******************************
Total playing time: 1:01:56







[more=Technical info]
Input File: 01 Adrasteia - Polaris.mp3
Channels : 2
Sample Rate : 44100
Precision : 16-bit
Duration : 00:29:56.02 = 79204350 samples = 134701 CDDA sectors
File Size : 72.0M
Bit Rate : 321k
Sample Encoding: MPEG audio (layer I, II or III)
Comments :
Title=Adrasteia - Polaris
Artist=Adrasteia / Lehman
Album=Split MMXXI
Tracknumber=1
Year=2021

[/more]

Register
(8) infiltrator, kim666, Lamby90, randumbum, Rosen, SilentNidhogg, stub888, vasiljev_sergej,
Jan 16 2021, 21:58:02 Prosatanos - All Power To The Evil - Blasphemic Mess [demo] (2006)


*Artist: Prosatanos
*Album: All Power To The Evil - Blasphemic Mess [demo]
*Year: 2006
*Genre: Thrash/Death/Black Metal
*Country: Germany
*Format: mp3@CBR320kbps
*Size: 49MB

Tracklist:
1.Intro 01:31
2.Death Of Fucking Jesus Christ 02:33
3.Abschaum Mensch 04:56
4.Endsieg 666 03:10
5.All Power To The Evil 03:44
6.The Final Battle (Bonus Track) 05:13
******************************
Total playing time: 21:07




[more=Technical info]
Input File: 02 Death Of Fucking Jesus Christ.mp3
Channels : 2
Sample Rate : 44100
Precision : 16-bit
Duration : 00:02:33.09 = 6751225 samples = 11481.7 CDDA sectors
File Size : 6.21M
Bit Rate : 324k
Sample Encoding: MPEG audio (layer I, II or III)
Comments :
Title=Death Of Fucking Jesus Christ
Artist=Prosatanos
Album=All Power to the Evil - Blasphemic Mess
Tracknumber=2
Year=2021
Genre=Black Metal

[/more]

Register
(8) Evilded, infiltrator, Olethros, Rosen, stumpheavyrock, Taakeferd, vasiljev_sergej, Wail,
Jan 16 2021, 21:42:31 Prosatanos - Rise Of The Dead [demo] (1998)


*Artist: Prosatanos
*Album: Rise Of The Dead [demo]
*Year: 1998
*Genre: Thrash/Death/Black Metal
*Country: Germany
*Format: mp3@CBR320kbps
*Size: 48MB

Tracklist:
1.Prosatanos 04:49
2.Vampire 02:59
3.Death Of Christians Maiden 03:52
4.Pain, Torture, Horror 04:03
5.The Final Battle 05:13
******************************
Total playing time: 20:56




[more=Technical info]
Input File: 01 Prosatanos.mp3
Channels : 2
Sample Rate : 44100
Precision : 16-bit
Duration : 00:04:49.69 = 12775373 samples = 21726.8 CDDA sectors
File Size : 11.7M
Bit Rate : 323k
Sample Encoding: MPEG audio (layer I, II or III)
Comments :
Title=Prosatanos
Artist=Prosatanos
Album=Rise Of The Dead
Tracknumber=1
Year=1998
Genre=Black Metal

[/more]

Register
(10) Evilded, infiltrator, metala, Olethros, Rosen, SSBandera, stumpheavyrock, Taakeferd, vasiljev_sergej, Wail,
Jan 16 2021, 21:25:18 Prosatanos - Victims Of Inquisition [demo] (1999)
Prosatanos - Victims Of Inquisition [demo] (1999)
mp3@CBR320kbps (42MB)

Register
(2) stumpheavyrock, Wail,
Jan 16 2021, 19:59:18 Amargor - Demo Ii [demo] (2021)


*Artist: Amargor
*Album: Demo Ii [demo]
*Year: 2021
*Genre: Raw Black Metal
*Country: Spain
*Format: mp3@CBR320kbps
*Size: 33MB

Tracklist:
1.White Fumes Ov The Dark Plant 03:49
2.Trapped In The Eternal Limbo 02:07
3.Resurface Into Darkness 04:48
4.Devourer Ov Soulless Entities 03:35
******************************
Total playing time: 14:19



[more=Technical info]
Input File: 01 White Fumes Ov The Dark Plant.mp3
Channels : 2
Sample Rate : 44100
Precision : 16-bit
Duration : 00:03:49.08 = 10102560 samples = 17181.2 CDDA sectors
File Size : 9.30M
Bit Rate : 325k
Sample Encoding: MPEG audio (layer I, II or III)
Comments :
Title=White Fumes Ov The Dark Plant
Artist=Amargor
Album=Demo II
Tracknumber=1
Year=2021
Genre=Black Metal

[/more]

Register
(11) INDARKNESS, infiltrator, kim666, Olethros, randumbum, Rosen, SilentNidhogg, stub888, Taakeferd, VALERY, vasiljev_sergej,
Jan 16 2021, 18:43:02 Rvbber Vvitch - Mastvrbations Malveillantes Mmxvii (2019)


*Artist: Rvbber Vvitch
*Album: Mastvrbations Malveillantes Mmxvii
*Year: 2019
*Genre: Industrial Black Metal
*Country: Canada
*Format: mp3@CBR320kbps
*Size: 108MB

Tracklist:
1.Sous l'oeil du Maitre Infernal 07:58
2.Majeste Divine 07:19
3.Adoration de Satan 07:47
4.Marquis du Sombre Empire 09:55
5.Gloire Maufait! 09:58
6.La Fiancee du Diable 04:14
******************************
Total playing time: 47:11




[more=Technical info]
Input File: 01 Sous l\'oeil du Maitre Infernal.mp3
Channels : 2
Sample Rate : 44100
Precision : 16-bit
Duration : 00:07:58.62 = 21107098 samples = 35896.4 CDDA sectors
File Size : 19.2M
Bit Rate : 322k
Sample Encoding: MPEG audio (layer I, II or III)
Comments :
Title=Sous l'oeil du Maitre Infernal
Artist=RVBBER VVITCH
Album=Mastvrbations Malveillantes MMXVII
Tracknumber=1
Year=2021
Genre=Industrial Black Metal

[/more]

Register
(19) aleon, AlexSmith, infiltrator, kim666, Morgoth666, Occultas, Olethros, randumbum, robertho777, Rosen, Semargl2010, SilentNidhogg, Taakeferd, toly1917, VALERY, vasiljev_sergej, Vitald, Козлотролль, Сварог Барг,
Jan 16 2021, 16:57:35 Aylwin - The Arch Holder (2021)


*Artist: Aylwin
*Album: The Arch Holder
*Year: 2021
*Genre: Atmospheric/Post-Black Metal
*Country: United States
*Format: mp3@CBR320kbps
*Size: 70MB

Tracklist:
1.The Arch Holder 30:28
******************************
Total playing time: 30:28



[more=Technical info]
Input File: 01 The Arch Holder.mp3
Channels : 2
Sample Rate : 44100
Precision : 16-bit
Duration : 00:30:28.60 = 80641128 samples = 137145 CDDA sectors
File Size : 73.2M
Bit Rate : 320k
Sample Encoding: MPEG audio (layer I, II or III)
Comments :
Title=The Arch Holder
Artist=Aylwin
Album=The Arch Holder
Tracknumber=1
Year=2021
Genre=Atmospheric Black Metal

[/more]

Register
(12) AlexSmith, infiltrator, kim666, Olethros, randumbum, robertho777, Rosen, SilentNidhogg, sludge666, Taakeferd, VALERY, vasiljev_sergej,
Jan 15 2021, 17:33:35 Dark Desires - Storm (2021)


*Artist: Dark Desires
*Album: Storm
*Year: 2021
*Genre: Black Metal
*Country: Brazil
*Format: mp3@CBR320kbps
*Size: 73MB

Tracklist:
1.Under my Code 02:142.
In the Darkest Abyss 04:09
3.War in my Mind 04:14
4.Through my Eyes 04:20
5.Mountains of Wisdom 05:01
6.An Old Desire 03:59
7.Only the True 03:26
8.The Storm 04:20
******************************
Total playing time: 31:43



[more=Technical info]
Input File: 01 Under my Code.mp3
Channels : 2
Sample Rate : 44100
Precision : 16-bit
Duration : 00:02:14.62 = 5936698 samples = 10096.4 CDDA sectors
File Size : 5.44M
Bit Rate : 323k
Sample Encoding: MPEG audio (layer I, II or III)
Comments :
Title=Under my Code
Artist=Dark Desires
Album=Storm
Tracknumber=1
Year=2021
Genre=Black Metal

[/more]

Register
(12) AlexSmith, atavist, caro, infiltrator, kim666, Olethros, randumbum, Rosen, SilentNidhogg, Taakeferd, VALERY, vasiljev_sergej,
Jan 14 2021, 21:30:18 Kiukinberg - Full Moon Veneration [demo] (2021)


*Artist: Kiukinberg
*Album: Full Moon Veneration [demo]
*Year: 2021
*Genre: Black Metal
*Country: United States
*Format: mp3@CBR320kbps
*Size: 45MB

Tracklist:
1.Blood of Goats 03:07
2.The Cock Rises With Every Dawn 03:24
3.Bone Mother 02:19
4.Thunderstorms Over Kiukinberg 06:01
5.Full Moon Veneration 03:58
******************************
Total playing time: 18:49





[more=Technical info]
Input File: 01 Blood of Goats.mp3
Channels : 2
Sample Rate : 44100
Precision : 16-bit
Duration : 00:03:07.86 = 8284626 samples = 14089.5 CDDA sectors
File Size : 7.63M
Bit Rate : 325k
Sample Encoding: MPEG audio (layer I, II or III)
Comments :
Title=Blood of Goats
Artist=Kiukinberg
Album=Full Moon Veneration
Tracknumber=1
Year=2021
Genre=Black Metal

[/more]

Register
(10) caro, infiltrator, kim666, Olethros, randumbum, robertho777, Rosen, SilentNidhogg, VALERY, vasiljev_sergej,
Jan 14 2021, 20:42:09 Funeral Fullmoon - Revelation Of Evil (2020)


*Artist: Funeral Fullmoon
*Album: Revelation Of Evil
*Year: 2020
*Genre: Raw Black Metal
*Country: Chile
*Format: mp3@CBR320kbps
*Size: 112MB

Tracklist:
1.Perpetual Hate 06:32
2.Cursed of my Poison Mind 06:04
3.Secret of the Moon 04:32
4.Revelation of Evil 08:42
5.Cold in my Soul 06:12
6.Under the Shining Moon 07:00
7.The Whispers a Dark Dead 09:20
******************************
Total playing time: 48:22




[more=Technical info]
Input File: 07 The Whispers a Dark Dead.mp3
Channels : 2
Sample Rate : 44100
Precision : 16-bit
Duration : 00:09:20.13 = 24701513 samples = 42009.4 CDDA sectors
File Size : 22.6M
Bit Rate : 323k
Sample Encoding: MPEG audio (layer I, II or III)
Comments :
Artist=Funeral Fullmoon
Album=Revelation of Evil
Tracknumber=7
Year=2021
Genre=Black Metal

[/more]

Register
(11) AlexSmith, cesar, infiltrator, kim666, Olethros, randumbum, Rosen, SilentNidhogg, supremo, VALERY, vasiljev_sergej,
Jan 14 2021, 19:11:39 Gevaudans Gauntlet - Ii: Tyrant Bloodlust/Endless Festination [ep] (2021)


*Artist: Gevaudans Gauntlet
*Album: Ii: Tyrant Bloodlust/Endless Festination [ep]
*Year: 2021
*Genre: Raw Black Metal
*Country: Italy
*Format: mp3@CBR320kbps
*Size: 50MB

Tracklist:
1.Yore Of The Unrestful Spirits Incantation 04:39
2.Harvest The Seed Of Infinite Perversion 05:46
3.Enthroned In The Woods By Necromancers 11:13
******************************
Total playing time: 21:38




[more=Technical info]
Input File: 01 Yore Of The Unrestful Spirits Incantation.mp3
Channels : 2
Sample Rate : 44100
Precision : 16-bit
Duration : 00:04:39.11 = 12308751 samples = 20933.2 CDDA sectors
File Size : 11.3M
Bit Rate : 323k
Sample Encoding: MPEG audio (layer I, II or III)
Comments :
Title=Yore Of The Unrestful Spirits Incantation
Artist=Gevaudans Gauntlet
Album=II: Tyrant Bloodlust / Endless Festination
Tracknumber=1
Year=2021
Genre=Black Metal

[/more]

Register
(8) infiltrator, kim666, Olethros, randumbum, Rosen, SilentNidhogg, VALERY, vasiljev_sergej,
Jan 13 2021, 20:35:02 Morbific - Pestilent Hordes [demo] (2020)


*Artist: Morbific
*Album: Pestilent Hordes [demo]
*Year: 2020
*Genre: Old School Death Metal
*Country: Finland
*Format: mp3@CBR320kbps
*Size: 33MB

Tracklist:
1.Cauldron of Execution 03:27
2.Slithering Decay 02:06
3.Sawmill in the Mist 03:36
4.Perverted Surgery 02:39
5.Pestilent Hordes 01:54
******************************
Total playing time: 13:42




[more=Technical info]
Input File: 01 Cauldron of Execution.mp3
Channels : 2
Sample Rate : 44100
Precision : 16-bit
Duration : 00:03:27.30 = 9141754 samples = 15547.2 CDDA sectors
File Size : 8.46M
Bit Rate : 327k
Sample Encoding: MPEG audio (layer I, II or III)
Comments :
Title=Cauldron of Execution
Artist=Morbific
Album=Pestilent Hordes
Tracknumber=1
Year=2020
Genre=Death Metal

[/more]

Register
(17) andreikun, cesar, infiltrator, ITNOR, Marek, marilin, Olethros, Rosen, Sanctus, stumpheavyrock, uncolored, VALERY, varlam4, Wail, wanderer73, Yngwarr, zhol,
Jan 13 2021, 16:52:48 Iscuron - The Nothing Has Defeated Atreyu (2021)


*Artist: Iscuron
*Album: The Nothing Has Defeated Atreyu
*Year: 2021
*Genre: Symphonic Black Metal
*Country: Italy
*Format: mp3@CBR320kbps
*Size: 86MB

Tracklist:
1.The Silent Storm 06:48
2.Princess Of A Dead Land 05:16
3.Mighty Winter Night 04:01
4.Everlasting Realm 06:17
5.The Nothing Has Defeated Atreyu 05:07
6.Caterina 1667 05:55
7.In The Darkness 03:45
******************************
Total playing time: 37:09




[more=Technical info]
Input File: 01 The Silent Storm.mp3
Channels : 2
Sample Rate : 44100
Precision : 16-bit
Duration : 00:06:48.11 = 17997651 samples = 30608.2 CDDA sectors
File Size : 16.5M
Bit Rate : 323k
Sample Encoding: MPEG audio (layer I, II or III)
Comments :
Title=The Silent Storm
Artist=Iscuron
Album=The Nothing Has Defeated Atreyu
Tracknumber=1
Year=2021
Genre=Black Metal

[/more]

Register
(29) AlexSmith, alikkon, demonosz, El_Chibo, infiltrator, kim666, kimkayoung, legion01, metala, multizwilling, Olethros, Orgasmik, Phlebotomized, randumbum, robertho777, Rosen, sadmannn, sergsazan, Shadechaser, symphonicadiction, system36, TeamatSE, undeadlich, VALERY, varlam4, vasiljev_sergej, Wail, zhol, Сварог Барг,
Jan 12 2021, 21:13:54 Lost In Emptiness - Regrets And Sorrow [ep] (2020)


*Artist: Lost In Emptiness
*Album: Regrets And Sorrow [ep]
*Year: 2020
*Genre: Atmospheric/Depressive Black Metal
*Country: Italy
*Format: mp3@CBR320kbps
*Size: 50MB

Tracklist:
1.September Depression 01:53
2.Regrets and Sorrow 04:27
3.Ethereal Melancholy pt1 04:29
4.Ethereal Melancholy pt2 04:31
5.Reaching My End 06:15
******************************
Total playing time: 21:35



[more=Technical info]
Input File: 02 Regrets and Sorrow.mp3
Channels : 2
Sample Rate : 44100
Precision : 16-bit
Duration : 00:04:27.20 = 11783432 samples = 20039.9 CDDA sectors
File Size : 10.8M
Bit Rate : 323k
Sample Encoding: MPEG audio (layer I, II or III)
Comments :
Title=Regrets and Sorrow
Artist=Lost In Emptiness
Album=Regrets & Sorrow
Tracknumber=2
Year=2020
Genre=Depressive Black Metal

[/more]

Register
(14) infiltrator, kim666, Olethros, Ostinato, randumbum, robertho777, Rosen, SilentNidhogg, stone88, Taakeferd, VALERY, varlam4, vasiljev_sergej, Wail,
Jan 12 2021, 18:09:01 Vulpus Rex - Vulpus Rex I (2020)


*Artist: Vulpus Rex
*Album: Vulpus Rex I
*Year: 2020
*Genre: Atmospheric Black/Doom Metal
*Country: Italy
*Format: mp3@CBR320kbps
*Size: 122MB

Tracklist:
1.Marion 04:08
2.Hunt 17:08
3.Her Wood 09:06
4.The Wedding Procession 22:43
******************************
Total playing time: 53:05



[more=Technical info]
Input File: 02 Hunt.mp3
Channels : 2
Sample Rate : 44100
Precision : 16-bit
Duration : 00:17:08.74 = 45367258 samples = 77155.2 CDDA sectors
File Size : 41.2M
Bit Rate : 321k
Sample Encoding: MPEG audio (layer I, II or III)
Comments :
Title=Hunt
Artist=Vulpus Rex
Album=Vulpus Rex I
Tracknumber=2
Year=2020
Genre=Atmospheric Black Metal

[/more]

Register
(19) AlexSmith, cesar, infiltrator, multizwilling, Olethros, Orgasmik, randumbum, robertho777, Rosen, sergsazan, Shadechaser, SilentNidhogg, stone88, Taakeferd, VALERY, varlam4, vasiljev_sergej, Wail, Сварог Барг,

199 Pages V   1 2 3 > » 
- Lo-Fi Version Support form
Copyrights and abuse reports form
Time is now: 20th January 2021 - 23:44:38