Welcome Guest ( Log In | Register )

Объявления

* gmail.com упорно продолжает считать почту с нас "unsolicited" и отбивает в том числе и письма активации, поэтому просьба использовать альтернативные почтовые ящики.
------------
* gmail.com continues reject all mail from us as "unsolicited" (activation mails too) therefore please use alternate mail servers.
История благодарностей участнику smysl ::: Спасибо сказали: 156018 раз(а)
Дата поста: В теме: За сообщение: Спасибо сказали:
Today, 16:45:22 Lament In Winter's Night - Whereunto The Twilight Leads (2024)


*Artist: Lament In Winter's Night
*Album: Whereunto The Twilight Leads
*Year: 2024
*Genre: Atmospheric/Raw Black Metal
*Country: Australia
*Format: mp3@CBR320kbps
*Size: 111MB

Tracklist:
1.The Raven's Journey (In the Halls of Nostalgia) 03:06
2.The Night Beckons in Yellow and Blue 09:43
3.Dawn, Cast Your Heart 07:09
4.Blazing Galactic Kingdoms 09:22
5.Cradle the Flames of a Weary Life 07:14
6.Whereunto the Twilight Leads 06:34
******************************
Total playing time: 43:08




[more=Extended info]Atrocity Altar[/more]

[more=Technical info]
Input File: 01 The Raven\'s Journey (In the Halls of Nostalgia).mp3
Channels : 2
Sample Rate : 44100
Precision : 16-bit
Duration : 00:03:07.02 = 8247758 samples = 14026.8 CDDA sectors
File Size : 7.67M
Bit Rate : 328k
Sample Encoding: MPEG audio (layer I, II or III)
Comments :
Title=The Raven's Journey (In the Halls of Nostalgia)
Artist=Lament In Winter's Night
Album=Whereunto the Twilight Leads
Tracknumber=1
Year=2024
Genre=Black Metal

[/more]

Register
(1) Carcharoth,
Yesterday, 12:20:41 Bestial Bukkake - Total Testo Terror [ep] (2024)


*Artist: Bestial Bukkake
*Album: Total Testo Terror [ep]
*Year: 2024
*Genre: Black/Death Metal
*Country: Germany
*Format: mp3@CBR320kbps
*Size: 53MB

Tracklist:
1.Nuclear Desecration 04:01
2.Disgrace Your Safe Space 02:24
3.Liquid Void (Kali-Ma) 05:56
4.Shrine Of Ghoul 04:54
5.Follow The Line - Sinners Curse 04:46
******************************
Total playing time: 22:01



[more=Technical info]
Input File: 02 Disgrace Your Safe Space.mp3
Channels : 2
Sample Rate : 44100
Precision : 16-bit
Duration : 00:02:24.78 = 6384842 samples = 10858.6 CDDA sectors
File Size : 6.02M
Bit Rate : 333k
Sample Encoding: MPEG audio (layer I, II or III)
Comments :
Title=Disgrace Your Safe Space
Artist=Bestial Bukkake
Album=Total Testo Terror
Tracknumber=2/5
Year=2024
Genre=Black Metal
Discnumber=1/1

[/more]

Register
(11) Altkiller, artscald, Carcharoth, Evrom, Fallen_Angel_of_Doom, Grabarz, Grev, kefka, kim666, sacrut, XxNachtmahRxX,
May 26 2024, 23:17:06 Merzotna Potvora - Su​č​a Maty [ep] (2019)


*Artist: Merzotna Potvora
*Album: Su​č​a Maty [ep]
*Year: 2019
*Genre: Black/Thrash/Speed Metal
*Country: Ukraine
*Format: mp3@CBR320kbps
*Size: 56MB

Tracklist:
1.Intro 03:01
2.Pesyholovci 05:48
3.Suča Maty 03:45
4.Na Stovpach 06:09
5.Zmyty Vohnem 04:01
******************************
Total playing time: 22:44




[more=Extended info]Remastered 2023[/more]

[more=Technical info]
Input File: 03 Suča Maty.mp3
Channels : 2
Sample Rate : 44100
Precision : 16-bit
Duration : 00:03:45.09 = 9926293 samples = 16881.5 CDDA sectors
File Size : 9.15M
Bit Rate : 325k
Sample Encoding: MPEG audio (layer I, II or III)
Comments :
Title=Suča Maty
Artist=Merzotna Potvora
Album=Su​č​a Maty (Remastered 2023)
Tracknumber=3/5
Year=2023
Genre=Metal
Discnumber=1/1

[/more]

Register
(11) artscald, as71, Asketto, boby9052, Evrom, Grev, Piriaka_Power_Station, stumpheavyrock, terron, wgs73, xariton,
May 25 2024, 18:58:09 Bafomet - Baptized In Goat Blood (2023)


*Artist: Bafomet
*Album: Baptized In Goat Blood
*Year: 2023
*Genre: Black/Speed Metal
*Country: Japan
*Format: mp3@CBR320kbps
*Size: 76MB

Tracklist:
1.Baptism 00:48
2.Goat Blood 03:16
3.Lucifer 03:43
4.Beast of Chaos 02:32
5.Scythe of the Reaper 03:04
6.Resurrection 02:21
7.Leviathan’s Priest 03:04
8.Evil Force 01:49
9.Witch's Curse 03:47
10.Take The Knife 03:16
11.Heavy Metal Avenger 03:12
******************************
Total playing time: 30:52





[more=Technical info]
Input File: 05 Scythe of the Reaper.mp3
Channels : 2
Sample Rate : 44100
Precision : 16-bit
Duration : 00:03:04.99 = 8157883 samples = 13874 CDDA sectors
File Size : 7.56M
Bit Rate : 327k
Sample Encoding: MPEG audio (layer I, II or III)
Comments :
Title=Scythe of the Reaper
Artist=Bafomet
Album=Baptized in Goat Blood
Tracknumber=5/11
Year=2023
Genre=Black Metal
Discnumber=1/1

[/more]

Register
(23) 747metaller, AlexSmith, Altkiller, andreikun, artscald, autumnwood, CORPSEMIKA, Deathtractor, desekrator, Evrom, Grev, kefka, lunaraurora, marilin, metala, mishasha, Piriaka_Power_Station, sergsazan, Strid, stumpheavyrock, Wail, wgs73, Zer0,
May 25 2024, 18:02:55 Evil - Buried Alive [demo] (2024)


*Artist: Evil
*Album: Buried Alive [demo]
*Year: 2024
*Genre: Black/Thrash Metal
*Country: Japan
*Format: mp3@CBR320kbps
*Size: 44MB

Tracklist:
1.死霊転生 Necromancer 03:45
2.大魔羅 Demoniac Lust 03:17
3.毘盧舎那 Birushana 03:04
4.生き埋葬 Buried Alive 04:13
5.殺戮画廊 Gallery Of Slaughter 03:10
******************************
Total playing time: 17:29




[more=Technical info]
Input File: 01 死霊転生 Necromancer.mp3
Channels : 2
Sample Rate : 44100
Precision : 16-bit
Duration : 00:03:45.95 = 9964307 samples = 16946.1 CDDA sectors
File Size : 9.17M
Bit Rate : 325k
Sample Encoding: MPEG audio (layer I, II or III)
Comments :
Title=死霊転生 Necromancer
Artist=Evil
Album=Buried Alive
Tracknumber=1/5
Year=2024
Genre=Black Metal
Discnumber=1/1

[/more]

Register
(15) artscald, BHLHC, Carcharoth, deamon1488, desekrator, Evrom, Fryz, Grev, kefka, marilin, metaljosue, Piriaka_Power_Station, stumpheavyrock, Wail, wgs73,
May 25 2024, 17:09:09 Conqueror - Nuclear​.​Cult​.​Supremacy [live] (2022)


*Artist: Conqueror
*Album: Nuclear​.​Cult​.​Supremacy [live]
*Year: 2022
*Genre: Black/Death Metal
*Country: Canada
*Format: mp3@CBR320kbps
*Size: 76MB

Tracklist:
1.Intro 01:50
2.Infinite Majesty 05:10
3.War Cult Supremacy 04:00
4.Blood Hammer 05:18
5.Hammer of Antichrist 03:07
6.Kingdom Against Kingdom 02:46
7.Age of Decimation 03:59
8.Domitor Invictus 06:26
******************************
Total playing time: 32:36



[more=Extended info]Recorded on November 8th, 2014 in Berlin, Germany at Nuclear War Now! Fest IV.[/more]

[more=Technical info]
Input File: 05 Hammer of Antichrist.mp3
Channels : 2
Sample Rate : 44100
Precision : 16-bit
Duration : 00:03:08.04 = 8292652 samples = 14103.1 CDDA sectors
File Size : 7.70M
Bit Rate : 328k
Sample Encoding: MPEG audio (layer I, II or III)
Comments :
Title=Hammer of Antichrist
Artist=Conqueror
Album=Nuclear.Cult.Supremacy (Live in Berlin 2014)
Tracknumber=5/8
Year=2022
Genre=Black Metal
Discnumber=1/1

[/more]

Register
(10) artscald, Carcharoth, durandal, Fallen_Angel_of_Doom, Grev, Gylve, rebornflms95, Reverend, sacrut, XxNachtmahRxX,
May 25 2024, 16:23:55 Nuclearhammer - Xaos Tenawas - Demo MMXXIII [demo] (2023)


*Artist: Nuclearhammer
*Album: Xaos Tenawas - Demo MMXXIII [demo]
*Year: 2023
*Genre: Black/Death Metal
*Country: Canada
*Format: mp3@CBR320kbps
*Size: 63MB

Tracklist:
1.Majesty of Pestilential Imperium 12:11
2.Avatar Personification of the Earthly Spirit in Metaphysical Form 14:14
******************************
Total playing time: 26:25




[more=Technical info]
Input File: 01 Majesty of Pestilential Imperium.mp3
Channels : 2
Sample Rate : 44100
Precision : 16-bit
Duration : 00:12:11.11 = 32241775 samples = 54833 CDDA sectors
File Size : 29.5M
Bit Rate : 323k
Sample Encoding: MPEG audio (layer I, II or III)
Comments :
Title=Majesty of Pestilential Imperium
Artist=Nuclearhammer
Album=Xaos Tenawas - Demo MMXXIII
Tracknumber=1/2
Year=2023
Genre=Black Metal
Discnumber=1/1

[/more]

Register
(13) AlexSmith, artscald, Bzth, canadaspaceman, Evrom, Fallen_Angel_of_Doom, Fryz, goatkvlt, Grev, marilin, Piriaka_Power_Station, rominow, XxNachtmahRxX,
May 25 2024, 15:26:05 Impía Maleficencia - Tras Su Ejecuci​ó​n, El Perpetuo Martirio [ep] (2023)


*Artist: Impía Maleficencia
*Album: Tras Su Ejecuci​ó​n, El Perpetuo Martirio [ep]
*Year: 2023
*Genre: Black Metal
*Country: Argentina Chile Spain
*Format: mp3@CBR320kbps
*Size: 36MB

Tracklist:
1.Hasta Que Se Quiebren Sus Cuellos 03:39
2.Los Astados, Los Desterrados 03:33
3.Sea Lo Peor Que Os Suceda 03:10
4.En La Horca Del Verdugo 05:04
******************************
Total playing time: 15:26




[more=Extended info]Ahriman Dionysus - Bass
(Perverse Daemon, XI)
Goat Holocaustum - Guitars
(Black Angel, Black Candles, Blood of Perversion)
I.F.H. - Guitars
Conde Estruch - Vocals, Drums
(Black Angel, Black Candles, La Güestia, Trascendental)[/more]

[more=Technical info]
Input File: 03 Sea Lo Peor Que Os Suceda.mp3
Channels : 2
Sample Rate : 44100
Precision : 16-bit
Duration : 00:03:10.58 = 8404402 samples = 14293.2 CDDA sectors
File Size : 7.72M
Bit Rate : 324k
Sample Encoding: MPEG audio (layer I, II or III)
Comments :
Title=Sea Lo Peor Que Os Suceda
Artist=Impía Maleficencia
Album=Tras Su Ejecuci​ó​n, El Perpetuo Martirio
Tracknumber=3/4
Year=2023
Genre=Black Metal
Discnumber=1/1

[/more]

Register
(6) artscald, Carcharoth, Evrom, kim666, Piriaka_Power_Station, sacrut,
May 25 2024, 13:26:40 Illvilje - Promo 2024 [demo] (2024)
CBR320kbps

Register
(1) nero-1488,
May 25 2024, 02:49:04 Death Worship - Extermination Mass [demo] (2018)


*Artist: Death Worship
*Album: Extermination Mass [demo]
*Year: 2018
*Genre: Black/Death Metal
*Country: Canada
*Format: mp3@CBR320kbps
*Size: 43MB

Tracklist:
1.Abomination Storm 03:16
2.Evocation Chamber 02:30
3.Holocaust Altar 03:01
4.Superior Rising 02:54
5.Desolation Summoning 03:26
6.The Chaos Trance 04:14
******************************
Total playing time: 19:21





[more=Extended info]Demo version of the Extermination Mass recording.[/more]

[more=Technical info]
Input File: 02 Evocation Chamber.mp3
Channels : 2
Sample Rate : 44100
Precision : 16-bit
Duration : 00:02:30.50 = 6637138 samples = 11287.6 CDDA sectors
File Size : 6.09M
Bit Rate : 324k
Sample Encoding: MPEG audio (layer I, II or III)
Comments :
Title=Evocation Chamber
Artist=Death Worship
Album=Extermination Mass (Demo)
Tracknumber=2/6
Year=2018
Genre=Black Metal
Discnumber=1/1

[/more]

Register
(8) Ambercandle, artscald, Carcharoth, dermarsoran, durandal, Grev, sacrut, SilentNidhogg,
May 25 2024, 01:58:08 Acid Evil - Multidimensional Past (2019)


*Artist: Acid Evil
*Album: Multidimensional Past
*Year: 2019
*Genre: Thrash/Speed Metal
*Country: Ecuador
*Format: mp3@CBR320kbps
*Size: 90MB

Tracklist:
1.A Music To The Spheres 02:12
2.Multidimensional Past 05:51
3.Magnetismo 03:32
4.Invoking Under The Stars 04:37
5.Predators 04:20
6.Beyond The Cosmos 04:51
7.The Ascending Of The Nighthawk 06:24
8.Forgotten Into The Deep Eyes Of The Leoquina 06:22
******************************
Total playing time: 38:09




[more=Technical info]
Input File: 03 Magnetismo.mp3
Channels : 2
Sample Rate : 44100
Precision : 16-bit
Duration : 00:03:32.13 = 9354889 samples = 15909.7 CDDA sectors
File Size : 8.65M
Bit Rate : 326k
Sample Encoding: MPEG audio (layer I, II or III)
Comments :
Title=Magnetismo
Artist=Acid Evil
Album=Multidimensional Past
Tracknumber=3/8
Year=2019
Genre=Metal
Discnumber=1/1

[/more]

Register
(16) 747metaller, amiroo, artscald, Bloodline Christian, boby9052, Carcharoth, Dalboy, Evrom, Genuine Thrashiac, Marek, metala, sergsazan, stumpheavyrock, suicidalrampage, Wail, wgs73,
May 25 2024, 00:35:44 Illvilje - Promo 2024 [demo] (2024)


*Artist: Illvilje
*Album: Promo 2024 [demo]
*Year: 2024
*Genre: Black Metal
*Country: Norway
*Format: flac
*Size: 109MB

Tracklist:
1.Natt & Aske 05:09
2.Det Vinteren Tar 06:11
3.Vinterdvale 01:41
4.Der Nordavinden Danser 06:10
******************************
Total playing time: 19:11



[more=Technical info]
Input File: 01 Natt & Aske.flac
Channels : 2
Sample Rate : 44100
Precision : 16-bit
Duration : 00:05:09.30 = 13639944 samples = 23197.2 CDDA sectors
File Size : 32.3M
Bit Rate : 836k
Sample Encoding: 16-bit FLAC
Comments :
TITLE=Natt & Aske
ARTIST=ILLVILJE
ALBUM=Promo 2024
GENRE=Black Metal
ALBUMARTIST=ILLVILJE
DATE=2024
TRACKNUMBER=1

[/more]

Register
(10) Carcharoth, dermarsoran, Fryz, Grev, kim666, nemx, rammmirez, sacrut, thenecromancer, vasiljev_sergej,
May 24 2024, 22:01:07 Deathspell - Upheaval Of Ancient Tyrants [ep] (2024)


*Artist: Deathspell
*Album: Upheaval Of Ancient Tyrants [ep]
*Year: 2024
*Genre: Black Metal/Punk
*Country: United States
*Format: mp3@CBR320kbps
*Size: 36MB

Tracklist:
1.Bewitchment of the Light / Eyes Bleeding Death 05:39
2.Whiskey and Bloodlust 02:42
3.Upheaval of Ancient Tyrants 03:14
4.Guerra Eterna Bajo la Llama Negra 03:34
******************************
Total playing time: 15:09


Preview 2

[more=Technical info]
Input File: 01 Bewitchment of the Light - Eyes Bleeding Death.mp3
Channels : 2
Sample Rate : 44100
Precision : 16-bit
Duration : 00:05:39.12 = 14955060 samples = 25433.8 CDDA sectors
File Size : 13.8M
Bit Rate : 325k
Sample Encoding: MPEG audio (layer I, II or III)
Comments :
Title=Bewitchment of the Light / Eyes Bleeding Death
Artist=Deathspell
Album=Upheaval of Ancient Tyrants
Tracknumber=1/4
Year=2024
Genre=Metal
Discnumber=1/1

[/more]

Register
(10) Altkiller, artscald, Carcharoth, dermarsoran, Evrom, Grev, IncendiaryMight, kim666, marilin, nemx,
May 24 2024, 21:50:01 Nòtt - Ruinous Divinity [ep] (2024)


*Artist: Nòtt
*Album: Ruinous Divinity [ep]
*Year: 2024
*Genre: Black Metal
*Country: United States
*Format: mp3@CBR320kbps
*Size: 33MB

Tracklist:
1.My Lord Ov Lvcifer 04:33
2.Hades Hymnal 02:48
3.Ship in the Night 05:19
******************************
Total playing time: 12:40




[more=Technical info]
Input File: 01 My Lord Ov Lvcifer.mp3
Channels : 2
Sample Rate : 44100
Precision : 16-bit
Duration : 00:04:33.65 = 12068009 samples = 20523.8 CDDA sectors
File Size : 11.2M
Bit Rate : 326k
Sample Encoding: MPEG audio (layer I, II or III)
Comments :
Title=My Lord Ov Lvcifer
Artist=Nòtt
Album=Ruinous Divinity
Tracknumber=1/3
Year=2024
Genre=Black Metal
Discnumber=1/1

[/more]

Register
(16) artscald, BlackSwordMaster88, Carcharoth, cesar, dermarsoran, Evrom, Grev, HelenVaughan, kim666, mishasha, nemx, SilentNidhogg, stub888, vasiljev_sergej, vovenom, yuratroll,
May 24 2024, 21:27:57 Senntus - Herzlfresser [ep] (2024)


*Artist: Senntus
*Album: Herzlfresser [ep]
*Year: 2024
*Genre: Dark Metal
*Country: Austria
*Format: mp3@CBR320kbps
*Size: 50MB

Tracklist:
1.Herzlfresser 03:50
2.Im Frühling 04:45
3.Anna stirbt im Federloch 04:12
4.Kriegsknecht 05:19
5.Die Frau im Schatten 03:18
******************************
Total playing time: 21:24





[more=Technical info]
Input File: 02 Im Frühling.mp3
Channels : 2
Sample Rate : 44100
Precision : 16-bit
Duration : 00:04:45.88 = 12607132 samples = 21440.7 CDDA sectors
File Size : 11.5M
Bit Rate : 323k
Sample Encoding: MPEG audio (layer I, II or III)
Comments :
Title=Im Frühling
Artist=Senntus
Album=Herzlfresser
Tracknumber=2/5
Year=2024
Genre=Metal
Discnumber=1/1

[/more]

Register
(4) 747metaller, Altkiller, artscald, Carcharoth,
May 24 2024, 21:02:20 Vile Retribution - Frygten (2024)


*Artist: Vile Retribution
*Album: Frygten
*Year: 2024
*Genre: Black Metal
*Country: Denmark
*Format: mp3@CBR320kbps
*Size: 109MB

Tracklist:
1.Magtesløs 05:00
2.I Mørket 04:24
3.Anonyme Sjæle 06:01
4.Retfærdig 04:00
5.De Faldne 06:10
6.Angsten 02:34
7.Drastiske Træk 06:00
8.Ingen Illusioner 04:54
9.Krigens Aske 03:42
10.Visne Stille Ind 03:58
******************************
Total playing time: 46:43





[more=Technical info]
Input File: 02 I Mørket.mp3
Channels : 2
Sample Rate : 44100
Precision : 16-bit
Duration : 00:04:24.09 = 11646325 samples = 19806.7 CDDA sectors
File Size : 10.8M
Bit Rate : 326k
Sample Encoding: MPEG audio (layer I, II or III)
Comments :
Title=I Mørket
Artist=Vile Retribution
Album=Frygten
Tracknumber=2/10
Year=2024
Genre=Black Metal
Discnumber=1/1

[/more]

Register
(15) AlexSmith, Altkiller, artscald, cesar, deadpyhto, dermarsoran, Evrom, Grev, kefka, kim666, Marek, nemx, SilentNidhogg, vasiljev_sergej, Wail,
May 24 2024, 16:46:43 Through These Gates - In The Eyes Of The Prophet (2013)


*Artist: Through These Gates
*Album: In The Eyes Of The Prophet
*Year: 2013
*Genre: Black/Death Metal
*Country: United States
*Format: mp3@CBR320kbps
*Size: 92MB

Tracklist:
1.Distant Shadows Arise 02:44
2.Shallows End 03:49
3.Dreaming in Darkness 04:18
4.Led To Your Death 03:49
5.War 01:40
6.Legion 03:27
7.Demons of The Rising Sun 04:47
8.Into My Misery 05:00
9.Through These Gates, Pt. 1 01:35
10.My Blood As My Sorrow 04:10
11.Enslaved 03:53
******************************
Total playing time: 39:12






[more=Technical info]
Input File: 02 Shallows End.mp3
Channels : 2
Sample Rate : 44100
Precision : 16-bit
Duration : 00:03:49.08 = 10102560 samples = 17181.2 CDDA sectors
File Size : 9.26M
Bit Rate : 324k
Sample Encoding: MPEG audio (layer I, II or III)
Comments :
Title=Shallows End
Artist=Through These Gates
Album=In the Eyes of the Prophet
Tracknumber=2/11
Year=2013
Genre=Metal
Discnumber=1/1

[/more]

Register
(11) AlexSmith, artscald, Buregon, dermarsoran, john73, kim666, Marek, Olrak, Shadechaser, SilentNidhogg, Wail,
May 24 2024, 15:53:43 Through These Gates - The Majestic Rights To Passage (2024)


*Artist: Through These Gates
*Album: The Majestic Rights To Passage
*Year: 2024
*Genre: Symphonic Black/Death Metal
*Country: United States
*Format: mp3@CBR320kbps
*Size: 127MB

Tracklist:
1.Summoning Of Flame 01:25
2.Abaddons Revenge 04:28
3.My Greatest Fear 04:41
4.The Blessings Of Vengeance 06:03
5.Wake Of Existence 02:39
6.Eternally Damned Through The Path Of The Night 05:25
7.The Majestic Rights To Passage 05:51
8.Where The River Runs Deep 05:00
9.Pierced Through The Hands Of God 05:35
10.Burn My Salvation 05:32
11.Awaken The Ancient Heresy 05:13
12.An Ending Of All Things To Come 03:02
******************************
Total playing time: 54:54




Preview 4

[more=Technical info]
Input File: 02 Abaddons Revenge.mp3
Channels : 2
Sample Rate : 44100
Precision : 16-bit
Duration : 00:04:28.09 = 11822593 samples = 20106.5 CDDA sectors
File Size : 10.9M
Bit Rate : 324k
Sample Encoding: MPEG audio (layer I, II or III)
Comments :
Title=Abaddons Revenge
Artist=Through These Gates
Album=The Majestic Rights To Passage
Tracknumber=2/12
Year=2024
Genre=Metal
Discnumber=1/1

[/more]

Register
(16) AlexSmith, Altkiller, artscald, Buregon, cesar, Condehate, demonosz, dermarsoran, john73, kim666, metala, Olrak, sergsazan, Shadechaser, silentstorm, zhol,
May 23 2024, 17:01:06 Shaytan - Ancient Shadows [ep] (2017)


*Artist: Shaytan
*Album: Ancient Shadows [ep]
*Year: 2017
*Genre: Black Metal
*Country: Brazil
*Format: mp3@CBR320kbps
*Size: 46MB

Tracklist:
1.Ishtar 03:19
2.Lords of Hell 05:46
3.Funeral Soul 05:19
4.Dark Mistress of Death 05:10
******************************
Total playing time: 19:34





[more=Technical info]
Input File: 02 Lords of Hell.mp3
Channels : 2
Sample Rate : 44100
Precision : 16-bit
Duration : 00:05:46.46 = 15278798 samples = 25984.4 CDDA sectors
File Size : 14.0M
Bit Rate : 324k
Sample Encoding: MPEG audio (layer I, II or III)
Comments :
Title=Lords of Hell
Artist=Shaytan
Album=Ancient Shadows
Tracknumber=2/4
Year=2017
Genre=Black Metal
Discnumber=1/1

[/more]

Register
(7) artscald, Carcharoth, ErickLeoni, Evrom, Grev, kim666, vasiljev_sergej,
May 23 2024, 11:25:59 Saturnal Ascension - Eon Anti ​-​ Gnosis Cosmic (2020)


*Artist: Saturnal Ascension
*Album: Eon Anti ​-​ Gnosis Cosmic
*Year: 2020
*Genre: Black Metal
*Country: Mexico
*Format: mp3@CBR320kbps
*Size: 124MB

Tracklist:
1.Ciclo Eterno 03:06
2.Perversión Grigori 05:53
3.Odio Interno 03:38
4.Genocidio Holocausto Total 03:24
5.Eon Anti - Gnosis Cosmic 06:22
6.Solve et Coagula 03:24
7.Nigredo 11:43
8.Emanación de Sulfuro 05:50
9.Rubedo 09:54
******************************
Total playing time: 53:14




[more=Technical info]
Input File: 02 Perversion Grigori.mp3
Channels : 2
Sample Rate : 44100
Precision : 16-bit
Duration : 00:05:53.28 = 15579472 samples = 26495.7 CDDA sectors
File Size : 14.3M
Bit Rate : 324k
Sample Encoding: MPEG audio (layer I, II or III)
Comments :
Title=Perversion Grigori
Artist=Saturnal Ascension
Album=Eon Anti - Gnosis Cosmic
Tracknumber=2/9
Year=2020
Genre=Black Metal
Discnumber=1/1

[/more]

Register
(6) AlexSmith, artscald, Carcharoth, kim666, supremo, vasiljev_sergej,
May 23 2024, 00:35:36 Galactic Zombies - Requiem For Dead Gods [demo] (2024)


*Artist: Galactic Zombies
*Album: Requiem For Dead Gods [demo]
*Year: 2024
*Genre: Thrash Metal
*Country: United States
*Format: mp3@CBR320kbps
*Size: 63MB

Tracklist:
1. The Mad Arab 00:51
2. Lord of Decay 04:34
3. Shoggoth 05:12
4. King 04:24
5. Planetary Kaiju 03:30
6. Satan's Call 03:35
7. Book of the Dead 04:37
******************************
Total playing time: 26:43




[more=Technical info]
Input File: 02 Lord of Decay.mp3
Channels : 2
Sample Rate : 44100
Precision : 16-bit
Duration : 00:04:34.36 = 12099100 samples = 20576.7 CDDA sectors
File Size : 11.1M
Bit Rate : 324k
Sample Encoding: MPEG audio (layer I, II or III)
Comments :
Title=Lord of Decay
Artist=Galactic Zombies
Album=Requiem for Dead Gods
Tracknumber=2/7
Year=2024
Genre=Thrash Metal
Discnumber=1/1

[/more]

Register
(10) 747metaller, after21allD, artscald, Diflock, Evrom, gwar, hell_armageddon, marilin, metaljosue, stumpheavyrock,
May 22 2024, 23:49:38 Silent Millenia - Starlit Tapestry (2024)


*Artist: Silent Millenia
*Album: Starlit Tapestry
*Year: 2024
*Genre: Symphonic Black Metal
*Country: Finland
*Format: mp3@CBR320kbps
*Size: 101MB

Tracklist:
1.Starlight Millenia 06:11
2.Last Hunt In the Lunar Embrace 04:09
3.Starlit Tapestry Painted With Fire And Blood 10:26
4.Iron Thorns 06:30
5.Dominion of the Abhorrent 04:59
6.Drums of War...Echo In the Distance (Interlude) 01:28
7.Dawn of Great Eternity 07:33
8.Crumbling Empire (Outro) 02:08
******************************
Total playing time: 43:24



[more=Technical info]
Input File: 01 Starlight Millenia.mp3
Channels : 2
Sample Rate : 44100
Precision : 16-bit
Duration : 00:06:11.09 = 16365201 samples = 27832 CDDA sectors
File Size : 15.0M
Bit Rate : 323k
Sample Encoding: MPEG audio (layer I, II or III)
Comments :
Title=Starlight Millenia
Artist=Silent Millenia
Album=Starlit Tapestry
Tracknumber=1
Year=2024
Genre=Black Metal

[/more]

Register
(18) 747metaller, AlexSmith, Altkiller, artscald, Buregon, Carcharoth, cesar, demonosz, Evrom, kim666, legion01, nemx, Occultas, Radek, Shadechaser, supremo, vasiljev_sergej, zhol,
May 22 2024, 22:08:22 Gravislatro - Cognitiva Disonancia (2024)


*Artist: Gravislatro
*Album: Cognitiva Disonancia
*Year: 2024
*Genre: Black Metal
*Country: Spain
*Format: mp3@CBR320kbps
*Size: 107MB

Tracklist:
1.Argumentos de paja que Hielan mis Carcajadas de Locura 14:44
2.Drugos de la Indiferencia tras los Muros de la Ultraviolencia 17:07
3.El Incesante Ruido Blanco que Vomitan vuestras Gargantas 14:55
******************************
Total playing time: 46:46




[more=Technical info]
Input File: 01 Argumentos de paja que Hielan mis Carcajadas de Locura.mp3
Channels : 2
Sample Rate : 44100
Precision : 16-bit
Duration : 00:14:44.98 = 39027442 samples = 66373.2 CDDA sectors
File Size : 35.5M
Bit Rate : 321k
Sample Encoding: MPEG audio (layer I, II or III)
Comments :
Title=Argumentos de paja que Hielan mis Carcajadas de Locura
Artist=Gravislatro
Album=Cognitiva Disonancia
Tracknumber=1/3
Year=2024
Genre=Black Metal
Discnumber=1/1

[/more]

Register
(12) AlexSmith, Altkiller, artscald, Carcharoth, Evrom, kim666, mishasha, nemx, Sanctus, stub888, supremo, vasiljev_sergej,
May 22 2024, 20:04:44 Saturnal Ascension - Gichtel Lamen (2024)


*Artist: Saturnal Ascension
*Album: Gichtel Lamen
*Year: 2024
*Genre: Black Metal
*Country: Mexico
*Format: mp3@CBR320kbps
*Size: 74MB

Tracklist:
1.Sol Niger 04:43
2.V.I.T.R.I.O.L 06:18
3.Bellum 09:40
4.Ars Saturni 04:00
5.Gichtel Lamen 06:51
******************************
Total playing time: 31:32





[more=Extended info]Second official full-length album released by Black Saw Records.[/more]

[more=Technical info]
Input File: 01 Sol Niger.mp3
Channels : 2
Sample Rate : 44100
Precision : 16-bit
Duration : 00:04:43.97 = 12523033 samples = 21297.7 CDDA sectors
File Size : 11.6M
Bit Rate : 328k
Sample Encoding: MPEG audio (layer I, II or III)
Comments :
Title=Sol Niger
Artist=Saturnal Ascension
Album=Gichtel Lamen
Tracknumber=1/5
Year=2024
Genre=Black Metal
Discnumber=1/1

[/more]

Register
(10) AlexSmith, Altkiller, artscald, Carcharoth, cesar, Evrom, kim666, supremo, vasiljev_sergej, Zer0,
May 22 2024, 19:57:48 Melabstra - Egocentrismo (2024)


*Artist: Melabstra
*Album: Egocentrismo
*Year: 2024
*Genre: Symphonic Black Metal
*Country: Colombia
*Format: mp3@CBR320kbps
*Size: 115MB

Tracklist:
1.Almas Negras 03:42
2.La Voluntad de la Muerte 05:46
3.Blasfemia Hereje 05:00
4.Melodía Abstracta 05:33
5.Universo Infinito 07:19
6.Devastación Fatal 05:09
7.Trance Espiritual 05:59
8.Auspicios de Guerra 04:10
9.Cruzadas 03:52
10.Río del Mal 03:22
******************************
Total playing time: 49:52





[more=Extended info]FLAC-Rip[/more]

[more=Technical info]
Input File: 01 Almas Negras.mp3
Channels : 2
Sample Rate : 44100
Precision : 16-bit
Duration : 00:03:42.66 = 9819174 samples = 16699.3 CDDA sectors
File Size : 9.04M
Bit Rate : 325k
Sample Encoding: MPEG audio (layer I, II or III)
Comments :
Title=Almas Negras
Artist=Melabstra
Album=Egocentrismo
Tracknumber=1/10
Year=2024
Genre=Black Metal
Discnumber=1/1

[/more]

Register
(10) AlexSmith, Altkiller, artscald, cesar, Evrom, kim666, metala, Sanctus, supremo, vasiljev_sergej,

402 Pages V   1 2 3 > » 
- Lo-Fi Version Support form
Copyrights and abuse reports form
Time is now: 28th May 2024 - 18:17:43