Welcome Guest ( Log In | Register )

История благодарностей участнику smysl ::: Спасибо сказали: 69205 раз(а)
Дата поста: В теме: За сообщение: Спасибо сказали:
Jun 24 2020, 23:53:55 Oppressive Descent - Alchemy And War (2020)


*Artist: Oppressive Descent
*Album: Alchemy And War
*Year: 2020
*Genre: Black Metal
*Country: United States
*Format: mp3@CBR320kbps
*Size: 94MB

Tracklist:
1.Alchemy And War 07:39
2.Irradiant Bastions Of Endless Spite 08:25
3.Oppressive Descent 03:55
4.The Unfettered Gleam Of Lucifer's Wings 06:29
5.Unquiet On The Western Front 08:18
6.A Thousand Wounds Of Malcontent 06:20
******************************
Total playing time: 41:06




[more=Technical info]
Input File: 01 Alchemy and War.mp3
Channels : 2
Sample Rate : 44100
Precision : 16-bit
Duration : 00:07:39.97 = 20284501 samples = 34497.5 CDDA sectors
File Size : 18.6M
Bit Rate : 323k
Sample Encoding: MPEG audio (layer I, II or III)
Comments :
Title=Alchemy and War
Artist=Oppressive Descent
Album=Alchemy and War
Tracknumber=1
Year=2020
Genre=Black Metal

[/more]

Register
(35) 1968_janeart, AlexSmith, alikkon, atavist, Bzth, demonosz, El_Chibo, garmonbozia, gena, grimoir, Ildjarn, infiltrator, kim666, Lamby90, lestllk, Ludwig Hagen, multizwilling, nadin85, nemx, Occultas, Olethros, ProstoPuh, rabindranad, randumbum, rickzammuto, robertho777, SaintVitus, serjred, sethurius, SilentNidhogg, squall8fr, stub888, VALERY, varlam4, vasiljev_sergej,
Jun 24 2020, 17:45:04 Cursewielder - Arma Christi [demo] (2020)


*Artist: Cursewielder
*Album: Arma Christi [demo]
*Year: 2020
*Genre: Black Metal
*Country: Ireland
*Format: mp3@CBR320kbps
*Size: 43MB

Tracklist:
1.Arma Christi (Intro) 00:40
2.Orifice Mysticism 06:34
3.Hordes 05:56
4.Evulsion Specter 05:37
******************************
Total playing time: 18:47



[more=Technical info]
Input File: 01 Arma Christi (Intro).mp3
Channels : 2
Sample Rate : 44100
Precision : 16-bit
Duration : 00:00:40.08 = 1767396 samples = 3005.78 CDDA sectors
File Size : 1.67M
Bit Rate : 334k
Sample Encoding: MPEG audio (layer I, II or III)
Comments :
Title=Arma Christi (Intro)
Artist=Cursewielder
Album=Arma Christi
Tracknumber=1
Year=2020
Genre=Black Metal

[/more]

Register
(16) 1968_janeart, Bzth, Ildjarn, infiltrator, kim666, lestllk, Mortuusinfernus, Olethros, randumbum, robertho777, SilentNidhogg, Storky, stub888, VALERY, varlam4, vasiljev_sergej,
Jun 22 2020, 20:14:56 Capel Beulah - Capel Beulah (2020)


*Artist: Capel Beulah
*Album: Capel Beulah
*Year: 2020
*Genre: Raw Black Metal
*Country: United Kingdom
*Format: mp3@CBR320kbps
*Size: 94MB

Tracklist:
1.Symptoms of astral exteriorization 07:28
2.Sage of the Black cocoon 09:00
3.Reaffirm allegiance to the Devil 05:01
4.Black cocoon 06:36
5.By the Limbs of the Anti Christ 07:51
6.Under the Cloak 05:43
******************************
Total playing time: 41:39



[more=Technical info]
Input File: 01 Symptoms of astral exteriorization.mp3
Channels : 2
Sample Rate : 44100
Precision : 16-bit
Duration : 00:07:28.86 = 19794858 samples = 33664.7 CDDA sectors
File Size : 18.0M
Bit Rate : 321k
Sample Encoding: MPEG audio (layer I, II or III)
Comments :
Title=Symptoms of astral exteriorization
Artist=Capel Beulah
Album=Capel Beulah
Tracknumber=1
Year=2020
Genre=Black Metal

[/more]

Register
(20) 1968_janeart, Alexis The Best, AlexSmith, atavist, Bzth, craP_cillA, gena, grimoir, Ildjarn, infiltrator, kim666, Lamby90, Olethros, Ostinato, randumbum, SilentNidhogg, stub888, supremo, VALERY, varlam4,
Jun 22 2020, 19:04:01 Nightmares Betwixt - Bound By Oath And Loves Despair [demo] (2020)


*Artist: Nightmares Betwixt
*Album: Bound By Oath And Loves Despair [demo]
*Year: 2020
*Genre: Raw Black Metal
*Country: United States
*Format: mp3@CBR320kbps
*Size: 38MB

Tracklist:
1.Imperious Witchery 03:22
2.Divine Chambers Below 04:02
3.Loves Despair 03:05
4.Magickal Rites 02:17
5.Nightmares Betwixt 03:31
******************************
Total playing time: 16:17



[more=Technical info]
Input File: 01 Imperious Witchery.mp3
Channels : 2
Sample Rate : 44100
Precision : 16-bit
Duration : 00:03:22.41 = 8926325 samples = 15180.8 CDDA sectors
File Size : 8.22M
Bit Rate : 325k
Sample Encoding: MPEG audio (layer I, II or III)
Comments :
Title=Imperious Witchery
Artist=Nightmares Betwixt
Album=Bound By Oath And Loves Despair
Tracknumber=1
Year=2020
Genre=Black Metal

[/more]

Register
(14) 1968_janeart, grimoir, Hell_Is_Here, infiltrator, kim666, nemx, Olethros, randumbum, SilentNidhogg, stub888, VALERY, varlam4, vasiljev_sergej, Wail,
Jun 22 2020, 14:58:19 Μνήμα - Νεκρώσιμος Ακολουθία [demo] (2020)


*Artist: Μνήμα
*Album: Νεκρώσιμος Ακολουθία [demo]
*Year: 2020
*Genre: Raw Black Metal
*Country: Greece
*Format: mp3@CBR320kbps
*Size: 35MB

Tracklist:
1.Liturgy of Despair 01:51
2.Chalice of Spirits 10:10
3.Invocation 03:34
******************************
Total playing time: 15:35



[more=Technical info]
Input File: 03 Invocation.mp3
Channels : 2
Sample Rate : 44100
Precision : 16-bit
Duration : 00:03:34.09 = 9441281 samples = 16056.6 CDDA sectors
File Size : 8.65M
Bit Rate : 323k
Sample Encoding: MPEG audio (layer I, II or III)
Comments :
Title=Invocation
Artist=Μνήμα
Album=Νεκρώσιμος Ακολουθία (Demo)
Tracknumber=3
Year=2020
Genre=Black Metal

[/more]

Register
(17) 1968_janeart, Alexis The Best, gena, grimoir, Hell_Is_Here, infiltrator, kim666, Lamby90, Olethros, randumbum, SilentNidhogg, thenecromancer, VALERY, varlam4, vasiljev_sergej, Wail, Wolftribes,
Jun 19 2020, 03:16:01 Valac & Nihil Invocation - Far Below The Mortal Grasp [split] (2020)


*Artist: Valac & Nihil Invocation
*Album: Far Below The Mortal Grasp [split]
*Year: 2020
*Genre: Raw Black Metal | Raw Black Metal
*Country: United States | United States
*Format: mp3@CBR320kbps
*Size: 49MB

Tracklist:
Valac:
1.Four Blades(Intro) 01:08
2.Sinking Further into Dismay 04:42
3.Cursed Upon Us 05:18
Nihil Invocation:
4.Solitary Ember Fallen (Burning Light) 03:04
5.Plagued Weep Beyond the Peaks 02:54
6.Once Arose from Weary Trail 03:24
7.Silent Choir, Hollow Night... (Outro) 00:54
******************************
Total playing time: 21:24



[more=Technical info]
Input File: 04 Nihil Invocation - Solitary Ember Fallen (Burning Light).mp3
Channels : 2
Sample Rate : 44100
Precision : 16-bit
Duration : 00:03:04.96 = 8156736 samples = 13872 CDDA sectors
File Size : 7.62M
Bit Rate : 330k
Sample Encoding: MPEG audio (layer I, II or III)
Comments :
Title=Solitary Ember Fallen (Burning Light)
Artist=Nihil Invocation
Album=Valac​/​Nihil Invocation Split
Tracknumber=4
Year=2020
Genre=Black Metal

[/more]

Register
(18) 1968_janeart, Alexis The Best, Daale, gena, grimoir, Hell_Is_Here, Ildjarn, infiltrator, kim666, Lamby90, Lanceatum, randumbum, SilentNidhogg, stub888, VALERY, varlam4, vasiljev_sergej, vovenom,
Jun 19 2020, 01:56:42 Paimon - Paimon [ep] (2020)


*Artist: Paimon
*Album: Paimon [ep]
*Year: 2020
*Genre: Black Metal
*Country: Poland
*Format: mp3@CBR320kbps
*Size: 40MB

Tracklist:
1.Intro 01:13
2.I 04:08
3.II 03:57
4.III 04:04
5.IV 04:15
******************************
Total playing time: 17:37



[more=Technical info]
Input File: 02 I.mp3
Channels : 2
Sample Rate : 44100
Precision : 16-bit
Duration : 00:04:08.81 = 10972389 samples = 18660.5 CDDA sectors
File Size : 9.98M
Bit Rate : 321k
Sample Encoding: MPEG audio (layer I, II or III)
Comments :
Title=I
Artist=Paimon
Album=Paimon
Tracknumber=2
Year=2020
Genre=Black Metal

[/more]

Register
(18) 1968_janeart, Bzth, Hell_Is_Here, infiltrator, kim666, obituarydark, Olethros, randumbum, Razorbladeswaltz, robertho777, SilentNidhogg, supremo, thenecromancer, VALERY, varlam4, vasiljev_sergej, vovenom, Wail,
Jun 19 2020, 01:00:00 Retaliador - Progresso Carregado De Morte [ep] (2020)


*Artist: Retaliador
*Album: Progresso Carregado De Morte [ep]
*Year: 2020
*Genre: Thrash Metal
*Country: Brazil
*Format: mp3@CBR320kbps
*Size: 29MB

Tracklist:
1.Então O Que Você Vai Fazer 01:44
2.Progresso (Carregado de Morte) 00:58
3.Desunião e Discórdia 03:24
4.Violento Ataque do Inferno (Live) 03:14
5.Crianças de Satã (Live) 03:08
******************************
Total playing time: 12:28




[more=Technical info]
Input File: 01 Então O Que Você Vai Fazer.mp3
Channels : 2
Sample Rate : 44100
Precision : 16-bit
Duration : 00:01:44.92 = 4626796 samples = 7868.7 CDDA sectors
File Size : 4.44M
Bit Rate : 338k
Sample Encoding: MPEG audio (layer I, II or III)
Comments :
Title=Então O Que Você Vai Fazer
Artist=RETALIADOR
Album=Progresso Carregado de Morte
Tracknumber=1
Year=2020
Genre=Thrash Metal

[/more]

Register
(9) boby9052, canadaspaceman, FUDEDOR, infiltrator, Lukittaz, Olethros, sergsazan, stumpheavyrock, Wail,
Jun 19 2020, 00:09:31 Heresiarcas - Heretic Rituals [demo] (2020)


*Artist: Heresiarcas
*Album: Heretic Rituals [demo]
*Year: 2020
*Genre: Death Metal
*Country: Bolivia
*Format: mp3@CBR320kbps
*Size: 37MB

Tracklist:
1.Intro 00:43
2.Maldito y Mil Veces Maldito 03:11
3.Drinking Your Blood, Eating Your Flesh 03:42
4.La muerte será tu alivio 02:51
5.Heresiarcas 04:58
6.Outro 00:43
******************************
Total playing time: 16:08



[more=Technical info]
Input File: 02 Maldito y Mil Veces Maldito.mp3
Channels : 2
Sample Rate : 44100
Precision : 16-bit
Duration : 00:03:11.88 = 8462040 samples = 14391.2 CDDA sectors
File Size : 7.86M
Bit Rate : 328k
Sample Encoding: MPEG audio (layer I, II or III)
Comments :
Title=Maldito y Mil Veces Maldito
Artist=Heresiarcas
Album=Heretic Rituals (Demo)
Tracknumber=2
Year=2020
Genre=Death Metal

[/more]

Register
(9) Hell_Is_Here, infiltrator, killingod, Ludwig Hagen, Olethros, thenecromancer, VALERY, vyacheslav, Wail,
Jun 18 2020, 17:44:07 Sxuperion - Omniscient Pulse (2020)


*Artist: Sxuperion
*Album: Omniscient Pulse
*Year: 2020
*Genre: Black/Death Metal
*Country: United States
*Format: mp3@CBR320kbps
*Size: 80MB

Tracklist:
1.Owl 06:08
2.Death (Bussard Ramjet Malfunction) 05:09
3.Planet Crusher - Defeating the Holy Emperor 03:19
4.Presque-Vu 03:46
5.Omniscient Pulse 02:45
6.Betrothed Catacombs 02:50
7.A New Universe Awaits (Burning the Cloth) 02:48
8.Myopian Frequency Release 08:40
******************************
Total playing time: 35:25



[more=Technical info]
Input File: 01 Owl.mp3
Channels : 2
Sample Rate : 44100
Precision : 16-bit
Duration : 00:06:08.09 = 16232681 samples = 27606.6 CDDA sectors
File Size : 14.7M
Bit Rate : 320k
Sample Encoding: MPEG audio (layer I, II or III)
Comments :
Title=Owl
Artist=Sxuperion
Album=Omniscient Pulse
Tracknumber=1
Year=2020
Genre=Black/Death Metal

[/more]

Register
(23) alikkon, atavist, Bzth, Courbet, El_Chibo, fuoco, grimoir, Hell_Is_Here, infiltrator, killingod, metala, multizwilling, Occultas, Olethros, Pinhead666, randumbum, robertho777, Sanctus, Shadechaser, SilentNidhogg, Tino, VALERY, vasiljev_sergej,
Jun 18 2020, 16:33:49 Voivotus & Vintlechkeit - Voivotus/Vintlechkeit [split] (2020)


*Artist: Voivotus & Vintlechkeit
*Album: Voivotus/Vintlechkeit [split]
*Year: 2020
*Genre: Atmospheric Black Metal | Black Metal/Ambient
*Country: Russian Federation | Norway
*Format: mp3@CBR320kbps
*Size: 53MB

Tracklist:
Voivotus:
1.Sinister 04:36
2.Empyrean: Acolytes 06:24
Vintlechkeit:
3.Norgeskuggar 12:01
******************************
Total playing time: 23:01






[more=Technical info]
Input File: 01 Voivotus - Sinister.mp3
Channels : 2
Sample Rate : 44100
Precision : 16-bit
Duration : 00:04:36.55 = 12195855 samples = 20741.2 CDDA sectors
File Size : 11.2M
Bit Rate : 324k
Sample Encoding: MPEG audio (layer I, II or III)
Comments :
Title=Sinister
Artist=Voivotus
Album=Voivotus / Vintlechkeit (Split)
Tracknumber=1
Year=2020
Genre=Black Metal

[/more]

Register
(20) 1968_janeart, Daale, El_Chibo, grimoir, Ildjarn, infiltrator, kim666, Lamby90, Lanceatum, Lukittaz, nemx, randumbum, robertho777, senecazm, SilentNidhogg, Sjelekval, thenecromancer, VALERY, varlam4, vasiljev_sergej,
Jun 18 2020, 16:17:07 Vintlechkeit - Likene I Snøen​.​.​. [demo] (2020)


*Artist: Vintlechkeit
*Album: Likene I Snøen​.​.​. [demo]
*Year: 2020
*Genre: Black Metal/Ambient
*Country: Norway
*Format: mp3@CBR320kbps
*Size: 74MB

Tracklist:
1.Snø Dekker Likene... 12:16
2.Skjeletttrær... 08:38
3.Når jeg dør... 11:25
******************************
Total playing time: 32:19




[more=Technical info]
Input File: 01 Snø Dekker Likene....mp3
Channels : 2
Sample Rate : 44100
Precision : 16-bit
Duration : 00:12:16.62 = 32484854 samples = 55246.4 CDDA sectors
File Size : 29.6M
Bit Rate : 322k
Sample Encoding: MPEG audio (layer I, II or III)
Comments :
Title=Snø Dekker Likene...
Artist=Vintlechkeit
Album=Likene i snøen​.​.​. (demo)
Tracknumber=1
Year=2020
Genre=Black Metal

[/more]

Register
(22) 1968_janeart, Daale, DeamonRed, Der_Hexer, El_Chibo, grimoir, Ildjarn, infiltrator, kim666, kryptor, Lamby90, nemx, Olethros, randumbum, robertho777, scorn33, SilentNidhogg, stub888, thenecromancer, Tyrone, varlam4, vasiljev_sergej,
Jun 18 2020, 15:14:52 Joy - When I Die Of Madness (2020)


*Artist: Joy
*Album: When I Die Of Madness
*Year: 2020
*Genre: Atmospheric/Post-Black Metal
*Country: Australia
*Format: mp3@CBR320kbps
*Size: 103MB

Tracklist:
1.When i die you'll love me 14:57
2.I've gone mad 15:33
3.The dead don't dream 13:50
******************************
Total playing time: 44:20



[more=Technical info]
Input File: 01 When i die you\'ll love me.mp3
Channels : 2
Sample Rate : 44100
Precision : 16-bit
Duration : 00:14:57.12 = 39563124 samples = 67284.2 CDDA sectors
File Size : 36.0M
Bit Rate : 321k
Sample Encoding: MPEG audio (layer I, II or III)
Comments :
Title=When i die you'll love me
Artist=Joy
Album=When i die of madness
Tracknumber=1
Year=2020
Genre=Post-Black Metal

[/more]

Register
(15) 1968_janeart, Bloodn Lord, dulak, grimoir, HMHamster, igorzz, infiltrator, kim666, Olethros, randumbum, robertho777, senecazm, sergsazan, varlam4, vasiljev_sergej,
Jun 18 2020, 14:59:55 Níðstöng - Norðurríkið [demo] (2020)


*Artist: Níðstöng
*Album: Norðurríkið [demo]
*Year: 2020
*Genre: Raw Black Metal/Punk
*Country: Iceland
*Format: mp3@CBR320kbps
*Size: 49MB

Tracklist:
1.Úlfhéðnar 02:34
2.The Eternal Cycle 03:20
3.Dauðinn Hvíti 01:33
4.Thule 02:30
5.Emperors of the Glacial Realm 02:59
6.Móskarðshnjúkar 05:12
7.Heiðin 03:22
******************************
Total playing time: 21:30



[more=Extended info]Äkth - All instruments and vocals
(Äkth Gánahëth, Vresëbeth, Fimbulþul)[/more]

[more=Technical info]
Input File: 01 Úlfhéðnar.mp3
Channels : 2
Sample Rate : 44100
Precision : 16-bit
Duration : 00:02:34.55 = 6815743 samples = 11591.4 CDDA sectors
File Size : 6.28M
Bit Rate : 325k
Sample Encoding: MPEG audio (layer I, II or III)
Comments :
Title=Úlfhéðnar
Artist=Níðstöng
Album=Norðurríkið
Tracknumber=1
Year=2020
Genre=Raw Black Metal/Punk

[/more]

Register
(24) 1968_janeart, aleon, Alexis The Best, Boozer, cancer1974, Daale, dvlz, El_Chibo, grimoir, infiltrator, kim666, Lamby90, marilin, nemx, Olethros, randumbum, scorn33, stub888, Styx, Surt, thenecromancer, vasiljev_sergej, Vidder242, zhol,
Jun 18 2020, 14:09:17 Titaan - Itima (2020)


*Artist: Titaan
*Album: Itima
*Year: 2020
*Genre: Black Metal
*Country: Unknown
*Format: mp3@CBR320kbps
*Size: 107MB

Tracklist:
1.ITIMA 46:38
******************************
Total playing time: 46:38




[more=Technical info]
Input File: 01 ITIMA.mp3
Channels : 2
Sample Rate : 44100
Precision : 16-bit
Duration : 00:46:38.34 = 123406882 samples = 209876 CDDA sectors
File Size : 112M
Bit Rate : 320k
Sample Encoding: MPEG audio (layer I, II or III)
Comments :
Title=ITIMA
Artist=TITAAN
Album=ITIMA
Tracknumber=1
Year=2020
Genre=Black Metal

[/more]

Register
(20) 1968_janeart, atavist, El_Chibo, gena, infiltrator, kim666, lestllk, Mares, multizwilling, Occultas, Olethros, randumbum, robertho777, SilentNidhogg, stub888, VALERY, varlam4, vasiljev_sergej, Velmi, yuratroll,
Jun 18 2020, 13:06:08 Eva - Cmxcix (2020)


*Artist: Eva
*Album: Cmxcix
*Year: 2020
*Genre: Atmospheric Black Metal
*Country: Russian Federation
*Format: mp3@CBR320kbps
*Size: 78MB

Tracklist:
1.I 01:15
2.II 08:49
3.III 02:46
4.IV 04:37
5.V 07:36
6.VI 05:43
******************************
Total playing time: 30:46



[more=Technical info]
Input File: 02 II.mp3
Channels : 2
Sample Rate : 44100
Precision : 16-bit
Duration : 00:08:49.53 = 23352449 samples = 39715 CDDA sectors
File Size : 21.2M
Bit Rate : 321k
Sample Encoding: MPEG audio (layer I, II or III)
Comments :
Title=II
Artist=EVA
Album=CMXCIX
Tracknumber=2
Year=2020
Genre=Black Metal

[/more]

Register
(22) 1968_janeart, El_Chibo, grimoir, infiltrator, isvili, kim666, Lukittaz, metalboll, multizwilling, murian, oldvarg, Olethros, Ostinato, randumbum, robertho777, senecazm, Shadechaser, SilentNidhogg, VALERY, varlam4, vasiljev_sergej, дивин,
Jun 18 2020, 12:55:56 Forbidden Tomb - Demo I [demo] (2020)


*Artist: Forbidden Tomb
*Album: Demo I [demo]
*Year: 2020
*Genre: Raw Black Metal
*Country: Indonesia
*Format: mp3@CBR320kbps
*Size: 27MB

Tracklist:
1.Crypt I 02:22
2.Crypt II 03:46
3.Crypt III 04:56
4.Old Spirit 00:44
******************************
Total playing time: 11:48



[more=Technical info]
Input File: 01 Crypt I.mp3
Channels : 2
Sample Rate : 44100
Precision : 16-bit
Duration : 00:02:22.69 = 6292673 samples = 10701.8 CDDA sectors
File Size : 5.86M
Bit Rate : 329k
Sample Encoding: MPEG audio (layer I, II or III)
Comments :
Title=Crypt I
Artist=Forbidden Tomb
Album=Demo I
Tracknumber=1
Year=2020
Genre=Black Metal

[/more]

Register
(14) 1968_janeart, grimoir, heinz88, Hell_Is_Here, infiltrator, kim666, Ludwig Hagen, Olethros, randumbum, SilentNidhogg, thenecromancer, VALERY, varlam4, vasiljev_sergej,
Jun 18 2020, 00:47:33 Vexev - Abyssus Abyssum Invocat (2020)


*Artist: Vexev
*Album: Abyssus Abyssum Invocat
*Year: 2020
*Genre: Black Metal
*Country: Italy
*Format: mp3@CBR320kbps
*Size: 70MB

Tracklist:
1.I 02:02
2.II 06:01
3.III 06:57
4.IV 01:52
5.V 05:24
6.VI 08:26
******************************
Total playing time: 30:42



[more=Technical info]
Input File: 02 II.mp3
Channels : 2
Sample Rate : 44100
Precision : 16-bit
Duration : 00:06:01.32 = 15934300 samples = 27099.1 CDDA sectors
File Size : 14.5M
Bit Rate : 322k
Sample Encoding: MPEG audio (layer I, II or III)
Comments :
Title=II
Artist=VEXEV
Album=ABYSSUS ABYSSUM INVOCAT
Tracknumber=2
Year=2020
Genre=Black Metal

[/more]

Register
(17) atavist, El_Chibo, grimoir, Hell_Is_Here, infiltrator, kim666, multizwilling, obituarydark, Olethros, randumbum, robertho777, SilentNidhogg, stub888, VALERY, varlam4, vasiljev_sergej, vovenom,
Jun 18 2020, 00:35:24 Vide - Collection [compilation] (2020)


*Artist: Vide
*Album: Collection [compilation]
*Year: 2020
*Genre: Black Metal
*Country: United States
*Format: mp3@CBR320kbps
*Size: 69MB

Tracklist:
1.Darkness 05:10
2.This Hell 06:30
3.Abandon All hope 01:13
4.Submit To Me 06:05
5.Shadows 05:34
6.These Nightmares 04:34
7.It Just Is. 01:24
******************************
Total playing time: 30:30



[more=Technical info]
Input File: 01 A1 - Darkness.mp3
Channels : 2
Sample Rate : 44100
Precision : 16-bit
Duration : 00:05:10.25 = 13682025 samples = 23268.8 CDDA sectors
File Size : 12.5M
Bit Rate : 322k
Sample Encoding: MPEG audio (layer I, II or III)
Comments :
Title=A1 - Darkness
Artist=vide
Album=Collection
Tracknumber=1
Year=2020
Genre=Black Metal

[/more]

Register
(15) bobo66, El_Chibo, infiltrator, kim666, multizwilling, Olethros, randumbum, robertho777, SilentNidhogg, stub888, supremo, VALERY, varlam4, vasiljev_sergej, Wail,
Jun 17 2020, 21:36:05 Hinterkaifeck - Kak [demo] (2020)


*Artist: Hinterkaifeck
*Album: Kak [demo]
*Year: 2020
*Genre: Raw Black Metal
*Country: Australia
*Format: mp3@CBR320kbps
*Size: 42MB

Tracklist:
1.Incorrigible 04:26
2.Revenge of Oedipus 03:15
3.Subterrane 04:38
4.Kak 04:47
******************************
Total playing time: 17:06


Preview 2

[more=Technical info]
Input File: 01 Incorrigible.mp3
Channels : 2
Sample Rate : 44100
Precision : 16-bit
Duration : 00:04:26.57 = 11755781 samples = 19992.8 CDDA sectors
File Size : 10.9M
Bit Rate : 327k
Sample Encoding: MPEG audio (layer I, II or III)
Comments :
Title=Incorrigible
Artist=Hinterkaifeck
Album=Kak (Demo)
Tracknumber=1
Year=2020
Genre=Black Metal

[/more]

Register
(14) 1968_janeart, Alexis The Best, grimoir, infiltrator, kim666, Ludwig Hagen, Mortuusinfernus, Olethros, randumbum, SilentNidhogg, stub888, VALERY, varlam4, vasiljev_sergej,
Jun 17 2020, 16:59:05 Serpentis - Withered Flesh Arise [demo] (2020)


*Artist: Serpentis
*Album: Withered Flesh Arise [demo]
*Year: 2020
*Genre: Black Metal
*Country: United States
*Format: mp3@CBR320kbps
*Size: 46MB

Tracklist:
1.Walking Among the Corpses (intro) 01:47
2.Crypts of the Undead 04:53
3.Withered Flesh Arise 03:34
4.Awake, O Dead 05:59
5.Armata Mortilor (Denoument) 03:44
******************************
Total playing time: 19:57



[more=Technical info]
Input File: 02 Crypts of the Undead.mp3
Channels : 2
Sample Rate : 44100
Precision : 16-bit
Duration : 00:04:53.56 = 12945864 samples = 22016.8 CDDA sectors
File Size : 11.8M
Bit Rate : 323k
Sample Encoding: MPEG audio (layer I, II or III)
Comments :
Title=Crypts of the Undead
Artist=Serpentis
Album=Withered Flesh Arise
Tracknumber=2
Year=2020
Genre=Black Metal

[/more]

Register
(14) 1968_janeart, Ildjarn, infiltrator, kim666, obituarydark, Olethros, randumbum, robertho777, SilentNidhogg, stub888, thenecromancer, VALERY, vasiljev_sergej, Wail,
Jun 17 2020, 16:10:27 Throneum - Oh Death​.​.​. Oh Death​.​.​. Determinate, Preach And Lead Us Astray​.​.​. (2020)


*Artist: Throneum
*Album: Oh Death​.​.​. Oh Death​.​.​. Determinate, Preach And Lead Us Astray​.​.​.
*Year: 2020
*Genre: Black/Death Metal
*Country: Poland
*Format: mp3@CBR320kbps
*Size: 93MB

Tracklist:
1.Alpha:soulside-space-stream 15:13
2.Beta:AGLA-on-tetragrammaton 01:26
3.Gamma:agla-ON-tetragrammaton 01:26
4.Delta:self-appointed-grandeur 12:21
5.Epsilon:agla-on-TETRAGRAMMATON 01:20
6.Zeta:archangel-lucifer-god 08:53
******************************
Total playing time: 40:39




[more=Technical info]
Input File: 04 Delta-self-appointed-grandeur.mp3
Channels : 2
Sample Rate : 44100
Precision : 16-bit
Duration : 00:12:21.48 = 32699136 samples = 55610.8 CDDA sectors
File Size : 29.8M
Bit Rate : 321k
Sample Encoding: MPEG audio (layer I, II or III)
Comments :
Title=Delta:self-appointed-grandeur
Artist=Throneum
Album=Oh Death​.​.​. Oh Death​.​.​. Determinate, Preach And Lead Us Astray​.​.​.
Tracknumber=4
Year=2020
Genre=Black/Death Metal

[/more]

Register
(34) Ainar, AlexSmith, alikkon, atavist, Boozer, canadaspaceman, DarkHorde, El_Chibo, FUDEDOR, grimoir, Hell_Is_Here, infiltrator, killingod, Leolomb, maochen, Mares, mizantrophist, multizwilling, Olethros, Ostinato, Pinhead666, randumbum, rebornflms95, Reverend, SadistikSlayer, Shadechaser, SilentNidhogg, skeletron215, Tino, VALERY, vasiljev_sergej, Wail, wolverine, wtk.412,
Jun 16 2020, 22:47:00 Morbid Winds - The Ruin Of Forgotten Desolation [demo] (2020)


*Artist: Morbid Winds
*Album: The Ruin Of Forgotten Desolation [demo]
*Year: 2020
*Genre: Black Metal
*Country: Poland
*Format: mp3@CBR320kbps
*Size: 47MB

Tracklist:
1.Intro 01:54
2.Nocturnal Portal 03:12
3.Flesh Temples Annihilated 03:47
4.Into Eternity 05:05
5.Tomb of my Sanity 04:44
6.Outro 02:01
******************************
Total playing time: 20:43



[more=Technical info]
Input File: 02 Nocturnal Portal.mp3
Channels : 2
Sample Rate : 44100
Precision : 16-bit
Duration : 00:03:12.30 = 8480474 samples = 14422.6 CDDA sectors
File Size : 7.91M
Bit Rate : 329k
Sample Encoding: MPEG audio (layer I, II or III)
Comments :
Title=Nocturnal Portal
Artist=Morbid Winds
Album=The Ruin of Forgotten Desolation
Tracknumber=2
Year=2020
Genre=Black Metal

[/more]

Register
(20) 1968_janeart, Alexis The Best, Bzth, El_Chibo, garmonbozia, Ildjarn, infiltrator, Kazoth, kim666, Ludwig Hagen, Olethros, Ramcheg1981, randumbum, robertho777, SilentNidhogg, thenecromancer, VALERY, vasiljev_sergej, Wail, wolverine,
Jun 16 2020, 21:27:24 Sarcosium & Saccular - Carnal Ooze/Excrescence Odium [split] (2020)


*Artist: Sarcosium & Saccular
*Album: Carnal Ooze/Excrescence Odium [split]
*Year: 2020
*Genre: Death Metal | Death Metal
*Country: United States | United States
*Format: mp3@CBR320kbps
*Size: 63MB

Tracklist:
Sarcosium:
1.Disfigured Burial Mockery 03:04
2.A Sacrament to Bloodletting 03:02
3.Obscene Corporal Discharge 03:30
4.Septic Convulsions 02:48
5. Disintegration Complex 01:32
Saccular:
6.Lugubrious Murmur 00:35
7.Rancor of Parturition 02:11
8.Bodily Seepage 02:09
9....Expired and Forgotten 03:04
10.Miasmic Opprobrium 02:09
11.Blessings in Adulteration 02:55
******************************
Total playing time: 26:59





[more=Technical info]
Input File: 07 Saccular - Rancor of Parturition.mp3
Channels : 2
Sample Rate : 44100
Precision : 16-bit
Duration : 00:02:11.43 = 5796151 samples = 9857.4 CDDA sectors
File Size : 5.42M
Bit Rate : 330k
Sample Encoding: MPEG audio (layer I, II or III)
Comments :
Title=Rancor of Parturition
Artist=Saccular
Album=Carnal Ooze / Excrescence Odium
Tracknumber=7
Year=2020
Genre=Death Metal

[/more]

Register
(9) desekrator, grimoir, Hell_Is_Here, infiltrator, killingod, sacrut, VALERY, vyacheslav, Wail,
Jun 16 2020, 19:12:04 Thurthul - Heritage & Blood [ep] (2018)


*Artist: Thurthul
*Album: Heritage & Blood [ep]
*Year: 2018
*Genre: Pagan Black Metal
*Country: Poland
*Format: mp3@CBR320kbps
*Size: 55MB

Tracklist:
1.Heritage & Blood 04:43
2.Fatherland Calls 04:07
3.Victory or Death 05:33
4.Awakening The Forgotten Spirit 05:53
5.Kunnia, Armaggedon! (Goatmoon Cover) 03:05
******************************
Total playing time: 23:21





[more=Technical info]
Input File: 01 Heritage & Blood.mp3
Channels : 2
Sample Rate : 44100
Precision : 16-bit
Duration : 00:04:43.92 = 12520740 samples = 21293.8 CDDA sectors
File Size : 11.6M
Bit Rate : 327k
Sample Encoding: MPEG audio (layer I, II or III)
Comments :
Title=Heritage & Blood
Artist=Thurthul
Album=Heritage&Blood
Tracknumber=1
Year=2018
Genre=Black Metal

[/more]

Register
(15) grimoir, Ildjarn, infiltrator, kim666, Mares, Olethros, Orkkh, randumbum, SilentNidhogg, Slavas, VALERY, varlam4, vasiljev_sergej, vovenom, wolverine,

183 Pages V   1 2 3 > » 
- Lo-Fi Version Support form
Copyrights and abuse reports form
Time is now: 8th July 2020 - 08:50:44