Welcome Guest ( Log In | Register )

История благодарностей участнику smysl ::: Спасибо сказали: 86539 раз(а)
Дата поста: В теме: За сообщение: Спасибо сказали:
Yesterday, 00:32:42 Présages - Pleurs (2021)


*Artist: Présages
*Album: Pleurs
*Year: 2021
*Genre: Progressive Death/Doom Metal
*Country: Canada
*Format: mp3@CBR320kbps
*Size: 93MB

Tracklist:
1.Temps d'Épreuves 00:38
2.De l'Interactionnisme 05:09
3.Vision 06:16
4.Mépris 06:51
5.Observance 02:02
6.Simple Objet 04:13
7.Hiérophanie 05:09
8.Pleure 09:28
******************************
Total playing time: 39:46




[more=Technical info]
Input File: 02 De l\'Interactionnisme.mp3
Channels : 2
Sample Rate : 44100
Precision : 16-bit
Duration : 00:05:09.83 = 13663591 samples = 23237.4 CDDA sectors
File Size : 12.5M
Bit Rate : 322k
Sample Encoding: MPEG audio (layer I, II or III)
Comments :
Title=De l'Interactionnisme
Artist=Présages
Album=Pleurs
Tracknumber=2
Year=2021
Genre=Metal

[/more]

Register
(9) HMHamster, infiltrator, kimkayoung, Marek, metala, Sanctus, sergsazan, stumpheavyrock, VALERY,
May 7 2021, 18:06:27 Bocc - Santa Eulàlia [ep] (2021)


*Artist: Bocc
*Album: Santa Eulàlia [ep]
*Year: 2021
*Genre: Death/Doom Metal
*Country: Spain
*Format: mp3@CBR320kbps
*Size: 50MB

Tracklist:
1.La Culla 04:45
2.Santa Eulalia 05:36
3.L'Altar 03:39
4.Pels Camins De La Vesània 07:17
******************************
Total playing time: 21:17





[more=Technical info]
Input File: 01 La Culla.mp3
Channels : 2
Sample Rate : 44100
Precision : 16-bit
Duration : 00:04:45.09 = 12572601 samples = 21382 CDDA sectors
File Size : 11.6M
Bit Rate : 325k
Sample Encoding: MPEG audio (layer I, II or III)
Comments :
Title=La Culla
Artist=BOCC
Album=Santa Eulalia
Tracknumber=1
Year=2021
Genre=Death Metal

[/more]

Register
(8) AHBAnep, HMHamster, infiltrator, Sanctus, sergsazan, sludge666, stumpheavyrock, VALERY,
May 7 2021, 17:39:14 Zwiespalt - Ambivalenz (2020)


*Artist: Zwiespalt
*Album: Ambivalenz
*Year: 2020
*Genre: Black Metal
*Country: Germany
*Format: mp3@CBR320kbps
*Size: 59MB

Tracklist:
1. Stumpf 01:42
2. Schneid 03:04
3. Brandung 05:05
4. Wildnis 04:20
5. Gram 03:46
6. Niedergang 03:58
7. Wiederkehr 03:10
******************************
Total playing time: 25:05




[more=Technical info]
Input File: 01 stumpf.mp3
Channels : 2
Sample Rate : 44100
Precision : 16-bit
Duration : 00:01:42.59 = 4524263 samples = 7694.32 CDDA sectors
File Size : 4.24M
Bit Rate : 330k
Sample Encoding: MPEG audio (layer I, II or III)
Comments :
Title=stumpf
Artist=Zwiespalt
Album=Ambivalenz
Tracknumber=1
Year=2020
Genre=Black Metal

[/more]

Register
(11) atavist, craP_cillA, dermarsoran, infiltrator, kim666, Marek, rickzammuto, Rover, satanist666, SilentNidhogg, VALERY,
May 7 2021, 17:17:40 Natürgeist - Reinvigorated Terror [demo] (2021)


*Artist: Natürgeist
*Album: Reinvigorated Terror [demo]
*Year: 2021
*Genre: Black Metal
*Country: United States
*Format: mp3@CBR320kbps
*Size: 30MB

Tracklist:
1.Catatonic Stupor 05:50
2.Purgatorial Transmission of Acts Beyond Reason 06:47
******************************
Total playing time: 12:37




[more=Technical info]
Input File: 01 Catatonic Stupor.mp3
Channels : 2
Sample Rate : 44100
Precision : 16-bit
Duration : 00:05:50.74 = 15467722 samples = 26305.6 CDDA sectors
File Size : 14.1M
Bit Rate : 322k
Sample Encoding: MPEG audio (layer I, II or III)
Comments :
Title=Catatonic Stupor
Artist=Natürgeist
Album=Reinvigorated Terror
Tracknumber=1
Year=2021
Genre=Black Metal

[/more]

Register
(6) ent404, infiltrator, kim666, satanist666, SilentNidhogg, VALERY,
May 7 2021, 16:55:40 Zwiespalt - Distanz (2021)


*Artist: Zwiespalt
*Album: Distanz
*Year: 2021
*Genre: Black Metal
*Country: Germany
*Format: mp3@CBR320kbps
*Size: 53MB

Tracklist:
1.Firmament 02:57
2.Sturm 02:39
3.Nebel 03:45
4.Brand 02:17
5.Momentum 02:53
6.Rauschen 03:05
7.Zenit 02:19
8.Frost 03:11
******************************
Total playing time: 23:06





[more=Technical info]
Input File: 01 Firmament.mp3
Channels : 2
Sample Rate : 44100
Precision : 16-bit
Duration : 00:02:57.59 = 7831851 samples = 13319.5 CDDA sectors
File Size : 7.25M
Bit Rate : 327k
Sample Encoding: MPEG audio (layer I, II or III)
Comments :
Title=Firmament
Artist=Zwiespalt
Album=Distanz
Tracknumber=1
Year=2021
Genre=Black Metal

[/more]

Register
(10) atavist, caro, craP_cillA, infiltrator, kim666, rickzammuto, robertho777, Rover, satanist666, VALERY,
May 7 2021, 15:11:10 Awenden & Feminazgûl - Awenden/Feminazgûl [split] (2021)


*Artist: Awenden & Feminazgûl
*Album: Awenden/Feminazgûl [split]
*Year: 2021
*Genre: Atmospheric Black Metal | Atmospheric Black Metal
*Country: United States | United States
*Format: mp3@CBR320kbps
*Size: 73MB

Tracklist:
Awenden:
1.Sam Slater Lighting Candles 16:45
Feminazgûl:
2.Call Out Her Name When You're Lost 10:53
3.Windtime Wolftime 03:20
******************************
Total playing time: 30:58





[more=Technical info]
Input File: 01 Awenden - Sam Slater Lighting Candles.mp3
Channels : 2
Sample Rate : 44100
Precision : 16-bit
Duration : 00:16:46.11 = 44369539 samples = 75458.4 CDDA sectors
File Size : 40.5M
Bit Rate : 322k
Sample Encoding: MPEG audio (layer I, II or III)
Comments :
Title=Sam Slater Lighting Candles
Artist=Awenden
Album=Awenden​/​Feminazgul Split
Tracknumber=1
Year=2021
Genre=Black Metal

[/more]

Register
(8) aleon, infiltrator, kim666, Ostinato, robertho777, satanist666, SilentNidhogg, VALERY,
May 7 2021, 12:45:21 Funerealm - Funerealm [compilation] (2021)


*Artist: Funerealm
*Album: Funerealm [compilation]
*Year: 2021
*Genre: Death Metal
*Country: United States
*Format: mp3@CBR320kbps
*Size: 68MB

Tracklist:
1.Mind Waste 03:54
2.Grave New World 02:52
3.Hallucilepsy 03:40
4.Cryptic Cognition 04:13
5.Prophets of Genocide 05:05
6.Voices 03:36
7.Mirrors (Funerealm) 04:29
******************************
Total playing time: 27:49



[more=Technical info]
Input File: 04 Cryptic Cognition.mp3
Channels : 2
Sample Rate : 44100
Precision : 16-bit
Duration : 00:04:13.95 = 11199327 samples = 19046.5 CDDA sectors
File Size : 10.4M
Bit Rate : 326k
Sample Encoding: MPEG audio (layer I, II or III)
Comments :
Title=Cryptic Cognition
Artist=FUNEREALM
Album=FUNEREALM
Tracknumber=4
Year=2021
Genre=Death Metal

[/more]

Register
(3) caro, infiltrator, VALERY,
May 7 2021, 12:29:25 Funerelic - Demo '21 [demo] (2021)


*Artist: Funerelic
*Album: Demo '21 [demo]
*Year: 2021
*Genre: Death Metal
*Country: United States
*Format: mp3@CBR320kbps
*Size: 37MB

Tracklist:
1.Vile Regenesis 05:35
2.Evoking Putrescence 04:59
3.Dawning Chasm 05:05
******************************
Total playing time: 15:39



[more=Technical info]
Input File: 01 Vile Regenesis.mp3
Channels : 2
Sample Rate : 44100
Precision : 16-bit
Duration : 00:05:35.46 = 14793786 samples = 25159.5 CDDA sectors
File Size : 13.6M
Bit Rate : 323k
Sample Encoding: MPEG audio (layer I, II or III)
Comments :
Title=Vile Regenesis
Artist=FUNERELIC
Album=DEMO '21
Tracknumber=1
Year=2021
Genre=Death Metal

[/more]

Register
(3) caro, infiltrator, VALERY,
May 7 2021, 12:17:36 Anharat - Blood Sorcery [ep] (2021)


*Artist: Anharat
*Album: Blood Sorcery [ep]
*Year: 2021
*Genre: Death/Doom Metal
*Country: United States
*Format: mp3@CBR320kbps
*Size: 43MB

Tracklist:
1.Strigoi Mort 06:30
2.Of Witchcraft And Werewolvery 05:07
3.Blood Sorcery 05:44
******************************
Total playing time: 17:21



[more=Technical info]
Input File: 01 Strigoi Mort.mp3
Channels : 2
Sample Rate : 44100
Precision : 16-bit
Duration : 00:06:31.03 = 17244203 samples = 29326.9 CDDA sectors
File Size : 15.9M
Bit Rate : 325k
Sample Encoding: MPEG audio (layer I, II or III)
Comments :
Title=Strigoi Mort
Artist=ANHARAT
Album=BLOOD SORCERY
Tracknumber=1
Year=2021
Genre=Death/Doom Metal

[/more]

Register
(6) caro, infiltrator, Marek, sergsazan, sludge666, VALERY,
May 7 2021, 12:05:20 Mortuary Punishment - Brotherhood And Genocide [demo] (2021)


*Artist: Mortuary Punishment
*Album: Brotherhood And Genocide [demo]
*Year: 2021
*Genre: Death/Doom Metal
*Country: United States
*Format: mp3@CBR320kbps
*Size: 23MB

Tracklist:
1.Intro 01:56
2.Brotherhood 02:47
3.Genocide 02:24
4.Slavetraitors 02:00
******************************
Total playing time: 9:07




[more=Technical info]
Input File: 02 Brotherhood.mp3
Channels : 2
Sample Rate : 44100
Precision : 16-bit
Duration : 00:02:47.25 = 7375637 samples = 12543.6 CDDA sectors
File Size : 6.85M
Bit Rate : 328k
Sample Encoding: MPEG audio (layer I, II or III)
Comments :
Title=Brotherhood
Artist=MORTUARY PUNISHMENT
Album=BROTHERHOOD AND GENOCIDE
Tracknumber=2
Year=2021
Genre=Death/Doom Metal

[/more]

Register
(6) caro, infiltrator, sergsazan, sludge666, stumpheavyrock, VALERY,
May 7 2021, 10:23:45 Portent - Black Humours & Sour Chasms (2021)


*Artist: Portent
*Album: Black Humours & Sour Chasms
*Year: 2021
*Genre: Black Metal
*Country: United Kingdom
*Format: mp3@CBR320kbps
*Size: 87MB

Tracklist:
1.Circular Finality 02:51
2.A Stratagem 04:54
3.Pride of Impurity 05:36
4.Blood Crescent 04:37
5.Rivers of Lesions 06:15
6.Hypnos 05:40
7.Conspiracy of the Bereft 07:48
******************************
Total playing time: 37:41



[more=Technical info]
Input File: 01 Circular Finality.mp3
Channels : 2
Sample Rate : 44100
Precision : 16-bit
Duration : 00:02:51.61 = 7568045 samples = 12870.8 CDDA sectors
File Size : 7.00M
Bit Rate : 326k
Sample Encoding: MPEG audio (layer I, II or III)
Comments :
Title=Circular Finality
Artist=Portent
Album=Black Humours & Sour Chasms
Tracknumber=1
Year=2021
Genre=Black Metal

[/more]

Register
(11) atavist, caro, infiltrator, kim666, Marek, robertho777, Rover, Samogon, SilentNidhogg, undeadlich, VALERY,
May 7 2021, 06:30:30 Poisoned Speed - Quick And Dirty [compilation] (2021)


*Artist: Poisoned Speed
*Album: Quick And Dirty [compilation]
*Year: 2021
*Genre: Heavy/Speed Metal
*Country: Germany
*Format: mp3@CBR320kbps
*Size: 60MB

Tracklist:
1. Fistfights Under Neon Lights 03:02
2. Ale Jammer 03:00
3. Winner 02:04
4. Rebellion of Human Garbage 03:26
5. Crash and Burn 03:19
6. Poison Queen 02:55
7. Speed Will Succeed 03:32
8. Poisöned Speed 03:35
******************************
Total playing time: 24:53




[more=Technical info]
Input File: 01 Fistfights under neon lights.mp3
Channels : 2
Sample Rate : 44100
Precision : 16-bit
Duration : 00:03:02.30 = 8039210 samples = 13672.1 CDDA sectors
File Size : 7.41M
Bit Rate : 325k
Sample Encoding: MPEG audio (layer I, II or III)
Comments :
Title=Fistfights under neon lights
Artist=Poisoned Speed
Album=Quick and Dirty
Tracknumber=1
Year=2021
Genre=Heavy/Speed Metal

[/more]

Register
(10) after21allD, caro, gwar, HMHamster, infiltrator, Marek, metala, Rover, stumpheavyrock, vir2al,
May 6 2021, 23:34:38 Insómnia Pálida - O Frio Faz O Homem [demo] (2020)


*Artist: Insómnia Pálida
*Album: O Frio Faz O Homem [demo]
*Year: 2020
*Genre: Raw Black Metal
*Country: Portugal
*Format: mp3@CBR320kbps
*Size: 21MB

Tracklist:
1.Trova I
2.Trova II
******************************
Total playing time: 9:00



[more=Technical info]
Input File: Insomnia Pálida - O Frio faz o Homem - 01 Trova.mp3
Channels : 2
Sample Rate : 44100
Precision : 16-bit
Duration : 00:09:00.11 = 23819027 samples = 40508.5 CDDA sectors
File Size : 21.7M
Bit Rate : 321k
Sample Encoding: MPEG audio (layer I, II or III)
Comments :
Title=Trova
Artist=Insomnia Pálida
Album=O Frio faz o Homem
Tracknumber=1
Year=2020
Genre=Black Metal

[/more]

Register
(7) heinz88, infiltrator, kim666, Olethros, SilentNidhogg, VALERY, vasiljev_sergej,
May 6 2021, 23:27:51 Insómnia Pálida - Gritos De Dor No Profundo Inferno [demo] (2019)


*Artist: Insómnia Pálida
*Album: Gritos De Dor No Profundo Inferno [demo]
*Year: 2019
*Genre: Raw Black Metal
*Country: Portugal
*Format: mp3@CBR320kbps
*Size: 44MB

Tracklist:
1.Gritos de Dor 19:11
******************************
Total playing time: 19:11



[more=Technical info]
Input File: Insomnia Pálida - Gritos de Dor no Profundo Inferno - 01 Gritos de Dor.mp3
Channels : 2
Sample Rate : 44100
Precision : 16-bit
Duration : 00:19:11.28 = 50771580 samples = 86346.2 CDDA sectors
File Size : 46.1M
Bit Rate : 320k
Sample Encoding: MPEG audio (layer I, II or III)
Comments :
Title=Gritos de Dor
Artist=Insomnia Pálida
Album=Gritos de Dor no Profundo Inferno
Tracknumber=1
Year=2019
Genre=Black Metal

[/more]

Register
(6) infiltrator, kim666, Olethros, SilentNidhogg, VALERY, vasiljev_sergej,
May 6 2021, 21:34:54 Eichenwald - Kvlt [ep] (2020)


*Artist: Eichenwald
*Album: Kvlt [ep]
*Year: 2020
*Genre: Black Metal
*Country: United States
*Format: mp3@CBR320kbps
*Size: 40MB

Tracklist:
1.I 04:13
2.II 05:49
3.II 06:43
******************************
Total playing time: 16:45




[more=Technical info]
Input File: 01 I.mp3
Channels : 2
Sample Rate : 44100
Precision : 16-bit
Duration : 00:04:13.93 = 11198181 samples = 19044.5 CDDA sectors
File Size : 10.2M
Bit Rate : 323k
Sample Encoding: MPEG audio (layer I, II or III)
Comments :
Title=I
Artist=Eichenwald
Album=KVLT
Tracknumber=1
Year=2020
Genre=Black Metal

[/more]

Register
(7) infiltrator, kim666, Olethros, robertho777, SilentNidhogg, VALERY, vasiljev_sergej,
May 6 2021, 21:10:38 Grógaldr & Äkth Gánahëth - Grógaldr/Äkth Gánahëth [split] (2021)


*Artist: Grógaldr & Äkth Gánahëth
*Album: Grógaldr/Äkth Gánahëth [split]
*Year: 2021
*Genre: Raw Black Metal | Raw Black Metal/Ambient
*Country: United States | Iceland
*Format: mp3@CBR320kbps
*Size: 98MB

Tracklist:
Grógaldr:
1.Oblations to a Corrupted Throne (Part I - IV) 21:03
Äkth Gánahëth:
2.Summoning Rites II 02:08
3.Shadows Dance Under a Crimson Moon 04:12
4.The Hissing of Flames 04:36
5.Carving the Thorns 01:52
6.The Eternal Current 07:33
******************************
Total playing time: 41:24




[more=Technical info]
Input File: 01 Grógaldr - Oblations to a Corrupted Throne (Part I - IV).mp3
Channels : 2
Sample Rate : 44100
Precision : 16-bit
Duration : 00:21:03.64 = 55726612 samples = 94773.1 CDDA sectors
File Size : 50.9M
Bit Rate : 322k
Sample Encoding: MPEG audio (layer I, II or III)
Comments :
Title=Oblations to a Corrupted Throne (Part I - IV)
Artist=Grógaldr
Album=Grógaldr / Äkth Gánahëth
Tracknumber=1
Year=2021
Genre=Black Metal

[/more]

Register
(10) Alexis The Best, Boozer, caro, grimoir, infiltrator, kim666, Occultas, SilentNidhogg, VALERY, vasiljev_sergej,
May 6 2021, 11:18:57 Dargor - Descent Into Chaos [ep] (2021)


*Artist: Dargor
*Album: Descent Into Chaos [ep]
*Year: 2021
*Genre: Melodic Black Metal
*Country: Poland
*Format: mp3@CBR320kbps
*Size: 76MB

Tracklist:
1.Abysses 05:16
2.Bloodthirst 04:30
3.Awaken 03:37
4.The Wolfpack (Satyricon cover) 04:02
5.Hellfire 03:45
6.Decay 06:04
7.Crown (Samael cover) 04:06
******************************
Total playing time: 31:20





[more=Technical info]
Input File: 01 Abysses.mp3
Channels : 2
Sample Rate : 44100
Precision : 16-bit
Duration : 00:05:16.55 = 13959679 samples = 23741 CDDA sectors
File Size : 12.8M
Bit Rate : 323k
Sample Encoding: MPEG audio (layer I, II or III)
Comments :
Title=Abysses
Artist=Dargor
Album=Descent Into Chaos
Tracknumber=1
Year=2021
Genre=Melodic Black Metal

[/more]

Register
(13) caro, infiltrator, kim666, krotovich, Marek, Olethros, robertho777, sergsazan, Shadechaser, SilentNidhogg, VALERY, zhol, Сварог Барг,
May 6 2021, 01:24:55 North Black - Worldly Tears Over Eternal Loss (2021)


*Artist: North Black
*Album: Worldly Tears Over Eternal Loss
*Year: 2021
*Genre: Atmospheric Black Metal
*Country: Russian Federation
*Format: mp3@CBR320kbps
*Size: 111MB

Tracklist:
1. Sunset Prayer 06:39
2. The Outlines of the World Accept 05:08
3. The Rustle of Dead Trees 06:42
4. Wandering Branches 06:12
5. Worldly Tears over Eternal Loss 07:19
6. You Have to Believe You Have to Feel 07:34
7. I Am an Idol, I Am Enlightenment 08:15
******************************
Total playing time: 47:49



[more=Technical info]
Input File: 01 Sunset prayer.mp3
Channels : 2
Sample Rate : 44100
Precision : 16-bit
Duration : 00:06:39.33 = 17610585 samples = 29950 CDDA sectors
File Size : 16.2M
Bit Rate : 324k
Sample Encoding: MPEG audio (layer I, II or III)
Comments :
Title=Sunset prayer
Artist=North Black
Album=Worldly tears over eternal loss
Tracknumber=1
Year=2021
Genre=Black Metal

[/more]

Register
(17) aleon, caro, infiltrator, kim666, kimkayoung, Lucju, Lukittaz, metala, Olethros, robertho777, Rover, satanist666, Shadechaser, SilentNidhogg, thenecromancer, undeadlich, VALERY,
May 5 2021, 21:52:37 Chalice Ablaze - Rites Of Abhorrent Redemption [ep] (2021)


*Artist: Chalice Ablaze
*Album: Rites Of Abhorrent Redemption [ep]
*Year: 2021
*Genre: Raw Black Metal
*Country: Norway
*Format: mp3@CBR320kbps
*Size: 59MB

Tracklist:
1.III 06:43
2.IV 06:58
3.V 04:37
4.VI 07:06
******************************
Total playing time: 25:24



[more=Technical info]
Input File: 01 III.mp3
Channels : 2
Sample Rate : 44100
Precision : 16-bit
Duration : 00:06:43.36 = 17788000 samples = 30251.7 CDDA sectors
File Size : 16.2M
Bit Rate : 322k
Sample Encoding: MPEG audio (layer I, II or III)
Comments :
Title=III
Artist=Chalice Ablaze
Album=Rites of Abhorrent Redemption (EP)
Tracknumber=1
Year=2021
Genre=Black Metal

[/more]

Register
(11) Bzth, infiltrator, kim666, nemx, Occultas, Olethros, satanist666, SilentNidhogg, Sjelekval, stormhatt, VALERY,
May 5 2021, 19:18:08 Diregoat - Bleed The Lamb [ep] (2021)


*Artist: Diregoat
*Album: Bleed The Lamb [ep]
*Year: 2021
*Genre: Black/Death Metal
*Country: United States
*Format: mp3@CBR320kbps
*Size: 41MB

Tracklist:
1.Bleed The Lamb 02:06
2.Mutilation / Detachment 02:53
3.Diregoat 03:19
4.Invert Jesuit 03:36
5.The Flagellation 03:14
******************************
Total playing time: 15:08



[more=Technical info]
Input File: 01 Bleed The Lamb.mp3
Channels : 2
Sample Rate : 44100
Precision : 16-bit
Duration : 00:02:06.52 = 5579576 samples = 9489.07 CDDA sectors
File Size : 5.22M
Bit Rate : 330k
Sample Encoding: MPEG audio (layer I, II or III)
Comments :
Title=Bleed The Lamb
Artist=Diregoat
Album=Bleed The Lamb
Tracknumber=1
Year=2021
Genre=Black/Death Metal

[/more]

Register
(10) Bzth, caro, infiltrator, kim666, Olethros, Pinhead666, Shadechaser, SilentNidhogg, VALERY, wanderer73,
May 5 2021, 15:16:29 Saguzar - D​.​e​.​a​.​t​.​h. [demo] (2021)


*Artist: Saguzar
*Album: D​.​e​.​a​.​t​.​h. [demo]
*Year: 2021
*Genre: Raw Black Metal/Punk
*Country: Spain
*Format: mp3@CBR320kbps
*Size: 25MB

Tracklist:
1.Divulgating 01:26
2.Exorbitant 02:12
3.Aversion 00:57
4.Towards 01:36
5.Humanity 02:32
******************************
Total playing time: 8:43



[more=Technical info]
Input File: 01 Divulgating.mp3
Channels : 2
Sample Rate : 44100
Precision : 16-bit
Duration : 00:01:26.81 = 3828409 samples = 6510.9 CDDA sectors
File Size : 3.66M
Bit Rate : 337k
Sample Encoding: MPEG audio (layer I, II or III)
Comments :
Title=Divulgating
Artist=Saguzar
Album=D.E.A.T.H.
Tracknumber=1
Year=2021
Genre=Black Metal

[/more]

Register
(5) infiltrator, nemx, Olethros, SilentNidhogg, stormhatt,
May 5 2021, 14:21:40 Of His Work & Elegy - Demo I: The Primordial Spawn [demo] (2021)


*Artist: Of His Work & Elegy
*Album: Demo I: The Primordial Spawn [demo]
*Year: 2021
*Genre: Raw Black Metal
*Country: Unknown
*Format: mp3@CBR320kbps
*Size: 58MB

Tracklist:
1.I: The Zealot Star 11:58
2.II: The Raging Star 07:13
3.III: The Falling Star 06:13
******************************
Total playing time: 25:24




[more=Technical info]
Input File: 01 I -The Zealot Star.mp3
Channels : 2
Sample Rate : 44100
Precision : 16-bit
Duration : 00:11:58.54 = 31687614 samples = 53890.5 CDDA sectors
File Size : 28.8M
Bit Rate : 320k
Sample Encoding: MPEG audio (layer I, II or III)
Comments :
Title=I: The Zealot Star
Artist=Of His Work & Elegy
Album=Demo I: The Primordial Spawn
Tracknumber=1
Year=2021
Genre=Black Metal

[/more]

Register
(8) craP_cillA, infiltrator, nemx, Olethros, SilentNidhogg, stormhatt, undeadlich, VALERY,
May 5 2021, 13:02:44 Ancalagon - Specters In The Mist [demo] (2015)


*Artist: Ancalagon
*Album: Specters In The Mist [demo]
*Year: 2015
*Genre: Black Metal
*Country: United States
*Format: mp3@CBR320kbps
*Size: 48MB

Tracklist:
1.Beholding the Birth of Consciousness 01:30
2.Followers 05:31
3.Withered Heath 03:57
4.Lost Whispers 03:51
5.Archaic Rites 06:13
******************************
Total playing time: 21:02




[more=Technical info]
Input File: 02 Followers.mp3
Channels : 2
Sample Rate : 44100
Precision : 16-bit
Duration : 00:05:31.36 = 14612888 samples = 24851.9 CDDA sectors
File Size : 13.3M
Bit Rate : 322k
Sample Encoding: MPEG audio (layer I, II or III)
Comments :
Title=Followers
Artist=Ancalagon
Album=Specters in the Mist
Tracknumber=2
Year=2015
Genre=Black Metal

[/more]

Register
(9) caro, craP_cillA, infiltrator, Olethros, satanist666, SilentNidhogg, stormhatt, thenecromancer, Velmi,
May 5 2021, 10:54:26 Auld - .​.​.​of Petrichor And I [ep] (2021)


*Artist: Auld
*Album: .​.​.​of Petrichor And I [ep]
*Year: 2021
*Genre: Atmospheric Black Metal
*Country: Australia
*Format: mp3@CBR320kbps
*Size: 45MB

Tracklist:
1....of Petrichor and I 06:55
2.Am Fear Liath Mòr 06:50
3.Hollow Mews 05:12
******************************
Total playing time: 18:57




[more=Technical info]
Input File: 01 ...of Petrichor and I.mp3
Channels : 2
Sample Rate : 44100
Precision : 16-bit
Duration : 00:06:56.03 = 18346747 samples = 31202 CDDA sectors
File Size : 16.8M
Bit Rate : 323k
Sample Encoding: MPEG audio (layer I, II or III)
Comments :
Title=...of Petrichor and I
Artist=Auld
Album=.​.​.​of Petrichor and I
Tracknumber=1
Year=2021
Genre=Black Metal

[/more]

Register
(15) Aamiinaa, aleon, infiltrator, kimkayoung, Marek, Old Vyaine, Olethros, randumbum, satanist666, sergsazan, Shadechaser, SilentNidhogg, smes, VALERY, дивин,
May 5 2021, 09:32:31 Glass Coffin & Unrest - Glass Coffin​/​Unrest [split] (2021)


*Artist: Glass Coffin & Unrest
*Album: Glass Coffin​/​Unrest [split]
*Year: 2021
*Genre: Black Metal | Raw Black Metal
*Country: United States | United States
*Format: mp3@CBR320kbps
*Size: 76MB

Tracklist:
Glass Coffin:
1.Blood of the Night 01:29
2.Commander of Hell Storms 03:48
3.Order of the Wolf 01:39
4.One With Death 03:34
5.Swallowed by Dark Tides 03:29
6.Sickened by the Light of Christ 02:54
Unrest:
7.F.t.w. 09:35
8.E.w.s. 06:15
******************************
Total playing time: 32:43





[more=Technical info]
Input File: 02 Glass Coffin - Commander of Hell Storms.mp3
Channels : 2
Sample Rate : 44100
Precision : 16-bit
Duration : 00:03:48.20 = 10063400 samples = 17114.6 CDDA sectors
File Size : 9.29M
Bit Rate : 326k
Sample Encoding: MPEG audio (layer I, II or III)
Comments :
Title=Commander of Hell Storms
Artist=Glass Coffin
Album=Glass Coffin/Unrest Split
Tracknumber=2
Year=2021
Genre=Black Metal

[/more]

Register
(5) caro, infiltrator, satanist666, SilentNidhogg, VALERY,

222 Pages V   1 2 3 > » 
- Lo-Fi Version Support form
Copyrights and abuse reports form
Time is now: 9th May 2021 - 05:54:41