Welcome Guest ( Log In | Register )

История благодарностей участнику smysl ::: Спасибо сказали: 115393 раз(а)
Дата поста: В теме: За сообщение: Спасибо сказали:
Yesterday, 01:56:07 Altered Heresy - Black Hearts Of Misanthropic Benevolence [demo] (2020)


*Artist: Altered Heresy
*Album: Black Hearts Of Misanthropic Benevolence [demo]
*Year: 2020
*Genre: Raw Black Metal
*Country: Belgium
*Format: mp3@CBR320kbps
*Size: 38MB

Tracklist:
1.I 01:12
2.II 03:49
3.III 03:02
4.IV 03:21
5.V 03:31
******************************
Total playing time: 14:55




[more=Technical info]
Input File: 02 II.mp3
Channels : 2
Sample Rate : 44100
Precision : 16-bit
Duration : 00:03:49.24 = 10109484 samples = 17193 CDDA sectors
File Size : 9.37M
Bit Rate : 327k
Sample Encoding: MPEG audio (layer I, II or III)
Comments :
Title=II
Artist=Altered Heresy
Album=Black Hearts of Misanthropic Benevolence
Tracknumber=2
Year=2020
Genre=Black Metal

[/more]

Register
(2) artscald, vovenom,
Oct 2 2022, 18:46:54 Crossed Hearts - White Lies/Speedin' For Your Love [ep] (2022)


*Artist: Crossed Hearts
*Album: White Lies/Speedin' For Your Love [ep]
*Year: 2022
*Genre: Heavy Metal
*Country: United States
*Format: mp3@CBR320kbps
*Size: 18MB

Tracklist:
1.White Lies 04:12
2.Speedin' For Your Love 03:21
******************************
Total playing time: 7:33





[more=Technical info]
Input File: 01 White Lies.mp3
Channels : 2
Sample Rate : 44100
Precision : 16-bit
Duration : 00:04:12.83 = 11149803 samples = 18962.2 CDDA sectors
File Size : 10.2M
Bit Rate : 322k
Sample Encoding: MPEG audio (layer I, II or III)
Comments :
Title=White Lies
Artist=Crossed Hearts
Album=White Lies / Speedin' for Your Love
Tracknumber=1
Year=2022
Genre=Heavy Metal

[/more]

Register
(2) artscald, stumpheavyrock,
Oct 2 2022, 17:05:37 Inquiring Blood - Raping The Silence [ep] (2007)


*Artist: Inquiring Blood
*Album: Raping The Silence [ep]
*Year: 2007
*Genre: Death Metal
*Country: Germany
*Format: mp3@CBR320kbps
*Size: 49MB

Tracklist:
1.Cadaver Project 03:29
2.Kill With A Smile 02:43
3.Master Of Pain 03:38
4.I Am Your Enemy 04:02
5.Imaginary Silence 03:23
6.Raping Christ 03:45
******************************
Total playing time: 21:00





[more=Technical info]
Input File: 02 Kill With A Smile.mp3
Channels : 2
Sample Rate : 44100
Precision : 16-bit
Duration : 00:02:43.90 = 7228166 samples = 12292.8 CDDA sectors
File Size : 6.71M
Bit Rate : 328k
Sample Encoding: MPEG audio (layer I, II or III)
Comments :
Title=Kill With A Smile
Artist=Inquiring Blood
Album=Raping The Silence
Tracknumber=2
Year=2016
Genre=Death Metal

[/more]

Register
(3) artscald, GorAtheist, vyacheslav,
Oct 2 2022, 11:29:36 Nachts - Kein Morgen [ep] (2022)
FLAC

Register


Register
(3) Mencae77, stormhatt, varlam4,
Oct 2 2022, 00:39:05 Paragon Belial - Necrophobic Rituals (2017)


*Artist: Paragon Belial
*Album: Necrophobic Rituals
*Year: 2017
*Genre: Black/Death Metal
*Country: Germany
*Format: mp3@CBR320kbps
*Size: 89MB

Tracklist:
1.Perverted Homage in the trails of Satan 05:17
2.Demoniac Christian Holocaust 04:25
3.Day of Vengeance 04:09
4.Unholy impact of Evil 04:20
5.Necrophobic Rituals 04:36
6.Circle of the Satanic Breed 05:28
7.Verdelet 07:21
8.Witching Metal (Sodom Cover) 02:50
******************************
Total playing time: 38:26





[more=Technical info]
Input File: 02 Demoniac Christian Holocaust.mp3
Channels : 2
Sample Rate : 44100
Precision : 16-bit
Duration : 00:04:25.40 = 11703920 samples = 19904.6 CDDA sectors
File Size : 10.8M
Bit Rate : 324k
Sample Encoding: MPEG audio (layer I, II or III)
Comments :
Title=Demoniac Christian Holocaust
Artist=Paragon Belial
Album=Necrophobic Rituals
Tracknumber=2
Year=2017
Genre=Black Metal

[/more]

Register
(15) Alexis The Best, AlexSmith, Altkiller, artscald, cancer1974, Carcharoth, dermarsoran, kim666, Korpse, sacrut, skogtroll, stormhatt, stumpheavyrock, varlam4, Vidder242,
Oct 1 2022, 18:01:56 Apocalyptic Leaders & Rhodian - Old Sword And Forgotten Glory [split] (2022)


*Artist: Apocalyptic Leaders & Rhodian
*Album: Old Sword And Forgotten Glory [split]
*Year: 2022
*Genre: Black Metal | Dark Ambient
*Country: Greece | Greece
*Format: mp3@CBR320kbps
*Size: 54MB

Tracklist:
Apocalyptic Leaders:
1.Son Of The Wind, Daughter Of Fire 05:24
Rhodian:
2.The Knives That Opened My Woods 07:42
Apocalyptic Leaders:
3.Unjustly Killed In The Name Of Their Gods 05:31
Rhodian:
4.Shrouds In The River 05:01
******************************
Total playing time: 23:38





[more=Technical info]
Input File: 01 Apocalyptic Leaders - Son Of The Wind, Daughter Of Fire.mp3
Channels : 2
Sample Rate : 44100
Precision : 16-bit
Duration : 00:05:24.10 = 14292634 samples = 24307.2 CDDA sectors
File Size : 13.1M
Bit Rate : 324k
Sample Encoding: MPEG audio (layer I, II or III)
Comments :
Title=Son Of The Wind, Daughter Of Fire
Artist=Apocalyptic Leaders
Album=Old Sword And Forgotten Glory
Tracknumber=1
Year=2022
Genre=Other

[/more]

Register
(6) artscald, kim666, rammmirez, stormhatt, varlam4, vlad74,
Oct 1 2022, 17:13:28 Nachts - Kein Morgen [ep] (2022)


*Artist: Nachts
*Album: Kein Morgen [ep]
*Year: 2022
*Genre: Black Metal
*Country: Germany
*Format: mp3@CBR320kbps
*Size: 66MB

Tracklist:
1.Wenn Man In Rom Ist, Sollte Man Sterben 02:42
2.Kein Morgen 03:19
3.Im Schwarzen Moor 02:25
4.Untermieter 04:38
5.Über Nacht Ergraut 05:24
6.Wunsch Nach Waffen 03:52
7.Riss In Der Welt 02:51
******************************
Total playing time: 25:11






[more=Extended info]FLAC-Rip[/more]

[more=Technical info]
Input File: 01 Wenn man in Rom ist, sollte man sterben.mp3
Channels : 2
Sample Rate : 44100
Precision : 16-bit
Duration : 00:02:42.23 = 7154431 samples = 12167.4 CDDA sectors
File Size : 6.64M
Bit Rate : 327k
Sample Encoding: MPEG audio (layer I, II or III)
Comments :
Title=Wenn man in Rom ist, sollte man sterben
Artist=NACHTS
Album=KEIN MORGEN EP
Tracknumber=1
Year=2022
Genre=Black Metal

[/more]

Register
(9) AlexSmith, artscald, Carcharoth, kim666, Marek, Mencae77, robertho777, stormhatt, varlam4,
Oct 1 2022, 15:47:01 Rest In Torture - Demonic [demo] (2017)


*Artist: Rest In Torture
*Album: Demonic [demo]
*Year: 2017
*Genre: Black Metal
*Country: Germany
*Format: mp3@CBR320kbps
*Size: 57MB

Tracklist:
1.Mortis / Demonic 07:08
2.Walachian Black Dynasty 07:58
3.Nigrum in Candida 04:37
4.Des Todes Antrag 05:03
******************************
Total playing time: 24:46



[more=Technical info]
Input File: 02 Walachian Black Dynasty.mp3
Channels : 2
Sample Rate : 44100
Precision : 16-bit
Duration : 00:07:58.28 = 21092104 samples = 35870.9 CDDA sectors
File Size : 19.2M
Bit Rate : 322k
Sample Encoding: MPEG audio (layer I, II or III)
Comments :
Title=Walachian Black Dynasty
Artist=Rest In Torture
Album=Demonic
Tracknumber=2
Year=2017
Genre=Black Metal

[/more]

Register
(14) AlexSmith, AmberKitsune, artscald, Carcharoth, INDARKNESS, kim666, kimkayoung, luxxul, rickzammuto, satanist666, stormhatt, thenecromancer, varlam4, vovenom,
Oct 1 2022, 15:30:43 Goat Inferno - Demo 2011 [demo] (2011)


*Artist: Goat Inferno
*Album: Demo 2011 [demo]
*Year: 2011
*Genre: Black/Death Metal
*Country: Germany
*Format: mp3@CBR320kbps
*Size: 45MB

Tracklist:
1. Intro - The Goat Calls for War 00:53
2. Goat Inferno 03:07
3. Dawn of Satan 04:52
4. Perversor 04:31
5. Hail the Goat 03:18
6. Death Rides Out (Bestial Warlust cover) 02:34
******************************
Total playing time: 19:15




[more=Technical info]
Input File: 03 Dawn of Satan.mp3
Channels : 2
Sample Rate : 44100
Precision : 16-bit
Duration : 00:04:52.20 = 12885932 samples = 21914.9 CDDA sectors
File Size : 11.8M
Bit Rate : 322k
Sample Encoding: MPEG audio (layer I, II or III)
Comments :
Title=Dawn of Satan
Artist=Goat Inferno
Album=Demo 2011
Tracknumber=3
Year=2011
Genre=Black Metal

[/more]

Register
(7) artscald, Carcharoth, luxxul, sacrut, Sanctus, stormhatt, varlam4,
Sep 30 2022, 17:37:48 Razormaze - Spawnsong [ep] (2016)


*Artist: Razormaze
*Album: Spawnsong [ep]
*Year: 2016
*Genre: Thrash Metal
*Country: United States
*Format: mp3@CBR320kbps
*Size: 34MB

Tracklist:
1.Spawnsong 04:56
2.Litany 05:18
3.Rotten Altar 04:06
******************************
Total playing time: 14:20





[more=Technical info]
Input File: 02 Litany.mp3
Channels : 2
Sample Rate : 44100
Precision : 16-bit
Duration : 00:05:18.82 = 14059918 samples = 23911.4 CDDA sectors
File Size : 13.0M
Bit Rate : 325k
Sample Encoding: MPEG audio (layer I, II or III)
Comments :
Title=Litany
Artist=Razormaze
Album=Spawnsong
Tracknumber=2
Year=2016
Genre=Thrash Metal

[/more]

Register
(7) artscald, boby9052, chipsgott, Marek, sergsazan, stumpheavyrock, wgs73,
Sep 30 2022, 11:01:39 Methchrist & Self Harm - Methchrist/Self Harm [split] (2018)
FLAC

Register
(1) AHBAnep,
Sep 30 2022, 01:08:32 Methchrist - Nomadic War Machine [demo] (2017)


*Artist: Methchrist
*Album: Nomadic War Machine [demo]
*Year: 2017
*Genre: Black/Death Metal
*Country: New Zealand
*Format: mp3@CBR320kbps
*Size: 32MB

Tracklist:
1.Solar Anus 01:48
2.Face Fucked With A Knife 01:12
3.Switchblade Sodomy 00:54
4.Necrophallic Butchery 01:47
5.Conquer Through Blood 01:24
6.Virulent Eradication 01:00
7.Holy Desecration - Sacred Deprivation 01:21
8.Nomadic War Machine 03:13
******************************
Total playing time: 12:39




[more=Technical info]
Input File: 01 Solar Anus.mp3
Channels : 2
Sample Rate : 44100
Precision : 16-bit
Duration : 00:01:48.86 = 4800770 samples = 8164.57 CDDA sectors
File Size : 4.49M
Bit Rate : 330k
Sample Encoding: MPEG audio (layer I, II or III)
Comments :
Title=Solar Anus
Artist=METHCHRIST
Album=Nomadic War Machine
Tracknumber=1
Year=2017
Genre=Black/Death Metal

[/more]

Register
(3) artscald, stormhatt, VALERY,
Sep 30 2022, 01:02:03 Methchrist & Self Harm - Methchrist/Self Harm [split] (2018)


*Artist: Methchrist & Self Harm
*Album: Methchrist/Self Harm [split]
*Year: 2018
*Genre: Black/Death Metal | Black/Death Metal
*Country: New Zealand | Australia
*Format: mp3@CBR320kbps
*Size: 75MB

Tracklist:
Methchrist:
1.Barbaric War Invocation 01:53
2.Death Reign 02:31
3.Hammer of Superiority 03:04
4.Scum Recurrence 02:22
5.Sodomy of the Divine Rite 04:01
Self Harm:
6.Infinite Burning Kancer 03:39
7.No Mortal Fiend 06:43
8.Slaves (Warthreat cover) 07:00
******************************
Total playing time: 31:13




[more=Technical info]
Input File: 02 METHCHRIST - Death Reign.mp3
Channels : 2
Sample Rate : 44100
Precision : 16-bit
Duration : 00:02:31.57 = 6684413 samples = 11368 CDDA sectors
File Size : 6.30M
Bit Rate : 333k
Sample Encoding: MPEG audio (layer I, II or III)
Comments :
Title=Death Reign
Artist=METHCHRIST
Album=METHCHRIST / SELF HARM SPLIT
Tracknumber=2
Year=2018
Genre=Black/Death Metal

[/more]

Register
(4) artscald, stormhatt, supremo, VALERY,
Sep 30 2022, 00:49:13 Methchrist - Demo Mmxx [demo] (2021)


*Artist: Methchrist
*Album: Demo Mmxx [demo]
*Year: 2021
*Genre: Black/Death Metal
*Country: New Zealand
*Format: mp3@CBR320kbps
*Size: 16MB

Tracklist:
1.Miasmic Messiah 03:54
2.Vermin Shrines 02:52
******************************
Total playing time: 6:46




[more=Technical info]
Input File: 01 Miasmic Messiah.mp3
Channels : 2
Sample Rate : 44100
Precision : 16-bit
Duration : 00:03:54.10 = 10323766 samples = 17557.4 CDDA sectors
File Size : 9.47M
Bit Rate : 324k
Sample Encoding: MPEG audio (layer I, II or III)
Comments :
Title=Miasmic Messiah
Artist=METHCHRIST
Album=Methchrist Demo MMXX
Tracknumber=1
Year=2021
Genre=Black/Death Metal

[/more]

Register
(3) artscald, stormhatt, VALERY,
Sep 29 2022, 17:22:54 Cursed 13 - Into Ashes [ep] (2016)


*Artist: Cursed 13
*Album: Into Ashes [ep]
*Year: 2016
*Genre: Black Metal
*Country: Sweden
*Format: mp3@CBR320kbps
*Size: 20MB

Tracklist:
1.Into Ashes 04:32
2.Bleed for Me 03:56
******************************
Total playing time: 8:28



Deezer

[more=Technical info]
Input File: 02 Bleed for Me.mp3
Channels : 2
Sample Rate : 44100
Precision : 16-bit
Duration : 00:03:56.48 = 10428592 samples = 17735.7 CDDA sectors
File Size : 9.52M
Bit Rate : 322k
Sample Encoding: MPEG audio (layer I, II or III)
Comments :
Title=Bleed for Me
Artist=Cursed 13
Album=Into Ashes
Tracknumber=2
Year=2016
Genre=Black Metal

[/more]

Register
(7) artscald, Carcharoth, kim666, Marek, Sanctus, stormhatt, vov7609,
Sep 29 2022, 16:31:59 Obsequial Sceptre - Utterance Of Deathly Murmurs [demo] (2022)


*Artist: Obsequial Sceptre
*Album: Utterance Of Deathly Murmurs [demo]
*Year: 2022
*Genre: Black/Death Metal
*Country: Cyprus
*Format: mp3@CBR320kbps
*Size: 26MB

Tracklist:
1.Αιώνιος Πόλεμος στην Ορθοδοξία 01:36
2.Utterance Of Deathly Murmurs 02:25
3.Liberation Pyre 03:47
4.Messianic Messengers Impaled On The Spears Of Baphomatic Hatred 02:02
******************************
Total playing time: 9:50




[more=Technical info]
Input File: 02 Utterance Of Deathly Murmurs.mp3
Channels : 2
Sample Rate : 44100
Precision : 16-bit
Duration : 00:02:25.72 = 6426340 samples = 10929.1 CDDA sectors
File Size : 5.96M
Bit Rate : 327k
Sample Encoding: MPEG audio (layer I, II or III)
Comments :
Title=Utterance Of Deathly Murmurs
Artist=Obsequial Sceptre
Album=Utterance Of Deathly Murmurs
Tracknumber=2
Year=2022
Genre=Black/Death Metal

[/more]

Register
(5) artscald, Carcharoth, GorAtheist, stormhatt, VALERY,
Sep 29 2022, 15:26:00 Sekkusu - Slash The Pose [ep] (2018)


*Artist: Sekkusu
*Album: Slash The Pose [ep]
*Year: 2018
*Genre: Thrash Metal/Punk
*Country: United States
*Format: mp3@CBR320kbps
*Size: 26MB

Tracklist:
1.Final Nail 02:09
2.Drago 02:23
3.Peace Through Berserk Violence 01:34
4.M.orbid P.aranoid D.elusional S.ickness 02:28
5.Satan My Master (Bathory Cover) 01:58
******************************
Total playing time: 10:32



[more=Technical info]
Input File: 01 Final Nail.mp3
Channels : 2
Sample Rate : 44100
Precision : 16-bit
Duration : 00:02:09.76 = 5722416 samples = 9732 CDDA sectors
File Size : 5.34M
Bit Rate : 329k
Sample Encoding: MPEG audio (layer I, II or III)
Comments :
Title=Final Nail
Artist=Sekkusu
Album=Slash The Pose
Tracknumber=1
Year=2018
Genre=Thrash Metal

[/more]

Register
(9) artscald, boby9052, gwar, hell_armageddon, KNessJM, metaljosue, sergsazan, stumpheavyrock, wgs73,
Sep 29 2022, 14:59:27 Jail - Jail [demo] (2021)


*Artist: Jail
*Album: Jail [demo]
*Year: 2021
*Genre: Thrash Metal/Crossover/Punk
*Country: United States
*Format: mp3@CBR320kbps
*Size: 33MB

Tracklist:
1.Booze Womb 02:23
2.Grief Orgy 03:19
3.Masquerade 03:03
4.Skeleton Wardrobe 04:51
******************************
Total playing time: 13:36




[more=Technical info]
Input File: 01 Booze Womb.mp3
Channels : 2
Sample Rate : 44100
Precision : 16-bit
Duration : 00:02:24.05 = 6352605 samples = 10803.8 CDDA sectors
File Size : 5.92M
Bit Rate : 329k
Sample Encoding: MPEG audio (layer I, II or III)
Comments :
Title=Booze Womb
Artist=Jail
Album=Demo
Tracknumber=1
Year=2021
Genre=Thrash Metal

[/more]

Register
(5) artscald, gwar, hell_armageddon, stumpheavyrock, wgs73,
Sep 29 2022, 14:46:28 Pissed Regardless - Feed The Birds [ep] (2018)


*Artist: Pissed Regardless
*Album: Feed The Birds [ep]
*Year: 2018
*Genre: Thrash Metal/Hardcore/Crossover
*Country: United States
*Format: mp3@CBR320kbps
*Size: 25MB

Tracklist:
1.Empty 02:32
2.Feed the Birds 01:58
3.Lipstick on a Pig 02:20
4.No Reprieve 02:02
5.Trust No Pulse 01:15
******************************
Total playing time: 10:07





[more=Technical info]
Input File: 01 Empty.mp3
Channels : 2
Sample Rate : 44100
Precision : 16-bit
Duration : 00:02:32.23 = 6713211 samples = 11417 CDDA sectors
File Size : 6.28M
Bit Rate : 330k
Sample Encoding: MPEG audio (layer I, II or III)
Comments :
Title=Empty
Artist=Pissed Regardless
Album=Feed the Birds
Tracknumber=1
Year=2018
Genre=Thrash Metal

[/more]

Register
(7) artscald, boby9052, chipsgott, gwar, hell_armageddon, Marek, stumpheavyrock,
Sep 27 2022, 22:59:27 Morbid Blood Kult - War Spitting Gods [ep] (2021)


*Artist: Morbid Blood Kult
*Album: War Spitting Gods [ep]
*Year: 2021
*Genre: Black/Death Metal
*Country: Germany
*Format: mp3@CBR320kbps
*Size: 42MB

Tracklist:
1.Ginnungagap 03:05
2.Ah Puch 04:16
3.Alpha Goat 04:35
4.Vortex 06:00
******************************
Total playing time: 17:56




[more=Technical info]
Input File: 02 Ah Puch.mp3
Channels : 2
Sample Rate : 44100
Precision : 16-bit
Duration : 00:04:17.01 = 11334141 samples = 19275.8 CDDA sectors
File Size : 10.5M
Bit Rate : 328k
Sample Encoding: MPEG audio (layer I, II or III)
Comments :
Title=Ah Puch
Artist=Morbid Blood Kult
Album=War Spitting Gods
Tracknumber=2
Year=2022
Genre=Black/Death Metal

[/more]

Register
(8) artscald, Bzth, Carcharoth, dermarsoran, kim666, RUSP73, stormhatt, VALERY,
Sep 27 2022, 21:17:43 NHSH - Rasende Kraft (2012)


*Artist: NHSH
*Album: Rasende Kraft
*Year: 2012
*Genre: Black Metal
*Country: Germany
*Format: mp3@CBR320kbps
*Size: 112MB

Tracklist:
1.Rasende Kraft 04:18
2.Hinaus 05:48
3.Wanderers Heimkehr 06:50
4.Vereinsamt 04:27
5.Just Craving Is Mine 05:49
6.Black Blues 03:00
7.Frühlingsabend 04:21
8.Weh Spricht: Vergeh! 06:12
9.Surrealist (Bonus Track) 06:15
******************************
Total playing time: 47:00




[more=Technical info]
Input File: 01 Rasende Kraft.mp3
Channels : 2
Sample Rate : 44100
Precision : 16-bit
Duration : 00:04:18.34 = 11392882 samples = 19375.6 CDDA sectors
File Size : 10.4M
Bit Rate : 321k
Sample Encoding: MPEG audio (layer I, II or III)
Comments :
Title=Rasende Kraft
Artist=NHSH
Album=Rasende Kraft
Tracknumber=1
Year=2012
Genre=Black Metal

[/more]

Register
(10) AlexSmith, artscald, Carcharoth, kim666, Korpse, rickzammuto, SadistikSlayer, stormhatt, supremo, VALERY,
Sep 27 2022, 17:18:56 Inhuman Nature - Under The Boot [ep] (2022)


*Artist: Inhuman Nature
*Album: Under The Boot [ep]
*Year: 2022
*Genre: Thrash Metal/Crossover
*Country: United Kingdom
*Format: mp3@CBR320kbps
*Size: 28MB

Tracklist:
1.City Of The Dead 05:24
2.Under The Boot 03:11
3.Ride The Apocalypse 03:27
******************************
Total playing time: 12:02





[more=Technical info]
Input File: 02 Under the Boot.mp3
Channels : 2
Sample Rate : 44100
Precision : 16-bit
Duration : 00:03:11.78 = 8457410 samples = 14383.4 CDDA sectors
File Size : 7.80M
Bit Rate : 325k
Sample Encoding: MPEG audio (layer I, II or III)
Comments :
Title=Under the Boot
Artist=Inhuman Nature
Album=Under The Boot
Tracknumber=2
Year=2022
Genre=Thrash Metal

[/more]

Register
(5) artscald, boby9052, gwar, Marek, stumpheavyrock,
Sep 27 2022, 16:05:30 Winter Graves - In The Thralls Of The Arctic Snow [demo] (2022)


*Artist: Winter Graves
*Album: In The Thralls Of The Arctic Snow [demo]
*Year: 2022
*Genre: Raw Black Metal/Punk
*Country: Canada
*Format: mp3@CBR320kbps
*Size: 33MB

Tracklist:
1.Barren Fog 02:03
2.Corrupt Mortality 04:23
3.In the Thralls of the Arctic Snow 04:40
4.Dredge of Gloat 02:53
******************************
Total playing time: 13:59





[more=Technical info]
Input File: 02 Corrupt Mortality.mp3
Channels : 2
Sample Rate : 44100
Precision : 16-bit
Duration : 00:04:23.15 = 11604871 samples = 19736.2 CDDA sectors
File Size : 10.6M
Bit Rate : 323k
Sample Encoding: MPEG audio (layer I, II or III)
Comments :
Title=Corrupt Mortality
Artist=Winter Graves
Album=In the Thralls of the Arctic Snow
Tracknumber=2
Year=2022
Genre=Black Metal

[/more]

Register
(7) artscald, Carcharoth, Deathtractor, kim666, Orkkh, stormhatt, wgs73,
Sep 27 2022, 05:49:34 Alucard - Nocturne In The Moonlight [ep] (2022)


*Artist: Alucard
*Album: Nocturne In The Moonlight [ep]
*Year: 2022
*Genre: Black/Heavy Metal/Punk
*Country: Finland
*Format: mp3@CBR320kbps
*Size: 50MB

Tracklist:
1.Die for Their Sins 04:19
2.Gaze of Darkness 04:23
3.Battle of the Holy 03:54
4.Release... From the Thirst of Blood 03:07
5.嵐の夜のセレナーデ - Arashi no Yoru no Serenade (Shizuka Kudo cover) 05:07
******************************
Total playing time: 20:50




[more=Technical info]
Input File: 01 Die for Their Sins.mp3
Channels : 2
Sample Rate : 44100
Precision : 16-bit
Duration : 00:04:19.78 = 11456254 samples = 19483.4 CDDA sectors
File Size : 10.5M
Bit Rate : 325k
Sample Encoding: MPEG audio (layer I, II or III)
Comments :
Title=Die for Their Sins
Artist=Alucard
Album=Nocturne in the Moonlight
Tracknumber=1
Year=2022
Genre=Black Metal

[/more]

Register
(7) artscald, Carcharoth, csgmnk, scorpiothekiller, sergsazan, stormhatt, stumpheavyrock,
Sep 27 2022, 01:40:29 Agkistrodon - Cruzada MMXXII [compilation] (2022)


*Artist: Agkistrodon
*Album: Cruzada MMXXII [compilation]
*Year: 2022
*Genre: Melodic Black Metal
*Country: Mexico
*Format: mp3@CBR320kbps
*Size: 127MB

Tracklist:
1.Ratas 06:13
2.Creen Saber La Verdad 04:38
3.El Hombre Abstracto 03:07
4.Falsos Profetas 05:52
5.Inverted Cross (Ereshkigal cover) 05:22
6.Ciclotimia 04:11
7.Heterodoxia 06:06
8.Parásitos De La Modernidad 04:52
9.Como Un Río, Como Un Roble 06:36
10.Aradia 03:16
11.Thymos 05:10
******************************
Total playing time: 55:23




[more=Technical info]
Input File: 01 Ratas.mp3
Channels : 2
Sample Rate : 44100
Precision : 16-bit
Duration : 00:06:13.44 = 16468880 samples = 28008.3 CDDA sectors
File Size : 15.0M
Bit Rate : 321k
Sample Encoding: MPEG audio (layer I, II or III)
Comments :
Title=Ratas
Artist=Agkistrodon
Album=Cruzada MMXXII
Tracknumber=1
Year=2022
Genre=Black Metal

[/more]

Register
(7) artscald, kim666, kimkayoung, russ777, stormhatt, supremo, VALERY,

293 Pages V   1 2 3 > » 
- Lo-Fi Version Support form
Copyrights and abuse reports form
Time is now: 4th October 2022 - 08:12:24