Welcome Guest ( Log In | Register )

История благодарностей участнику smysl ::: Спасибо сказали: 103039 раз(а)
Дата поста: В теме: За сообщение: Спасибо сказали:
Yesterday, 20:26:07 Domini Inferi - In Nomine Domini Inferi - The Second Coming [compilation] (2019)
FLAC

Register
(1) Styx,
Yesterday, 18:12:23 Domini Inferi - In Nomine Domini Inferi - The Second Coming [compilation] (2019)


*Artist: Domini Inferi
*Album: In Nomine Domini Inferi - The Second Coming [compilation]
*Year: 2019
*Genre: Black Metal
*Country: Netherlands
*Format: mp3@CBR320kbps
*Size: 159MB

Tracklist:
1.Lot (Genesis 19 Revisited) 03:15
2.The Ineffable 03:20
3.The Abyss 05:01
4.Monolith of Lust 03:06
5.Torch of Black Illumination 04:42
6.Sacrilegious Offering 06:24
7.Deliver us from the Holy 01:50
8.Baptised in the Fires of Hell 03:33
9.De Profundis 03:57
10.Ongetiteld 01:56
11.In His Name... 00:41
12.Unholy Shit Baptism 01:25
13.Bestial Penetration of the Holy Virgin Mary 02:02
14....We Are 00:40
15.Domini Inferi (Part I) 00:58
16.Bitter Venom of Blackened Doom (End the Ways of Jesus) 03:16
17.Cult of Death 01:56
18.In Nomine Domini Inferi 01:30
19.Blood Harvest 02:36
20.Desecration Ritual 02:28
21.Veinen (VON cover) 02:25
22.Domini Inferi (Part II) 02:11
23.Shub-Niggurath Ye Black (The Black One Shall Come Forth) 09:28
******************************
Total playing time: 1:08:40





[more=Technical info]
Input File: 01 Lot (Genesis 19 Revisited).mp3
Channels : 2
Sample Rate : 44100
Precision : 16-bit
Duration : 00:03:15.78 = 8633678 samples = 14683.1 CDDA sectors
File Size : 7.93M
Bit Rate : 324k
Sample Encoding: MPEG audio (layer I, II or III)
Comments :
Title=Lot (Genesis 19 Revisited)
Artist=Domini Inferi
Album=In Nomine Domini Inferi - The Second Coming
Tracknumber=1
Year=2019
Genre=Black Metal

[/more]

Register
(2) Carcharoth, Taakeferd,
Yesterday, 17:45:52 Applewhite - Departures In The Name Of No One [demo] (2021)


*Artist: Applewhite
*Album: Departures In The Name Of No One [demo]
*Year: 2021
*Genre: Depressive Black Metal
*Country: New Zealand
*Format: mp3@CBR320kbps
*Size: 92MB

Tracklist:
1.At Eternity's End 07:00
2.Pinstriping 08:33
3.A History of Revenge 05:42
4.The City That Wants You Dead 03:38
5.The Fall From Adam 06:24
6.Here Lies Whom 07:07
******************************
Total playing time: 38:24



[more=Technical info]
Input File: 01 At Eternity\'s End.mp3
Channels : 2
Sample Rate : 44100
Precision : 16-bit
Duration : 00:07:00.78 = 18556398 samples = 31558.5 CDDA sectors
File Size : 16.9M
Bit Rate : 322k
Sample Encoding: MPEG audio (layer I, II or III)
Comments :
Title=At Eternity's End
Artist=Applewhite
Album=Departures In The Name Of No One
Tracknumber=1
Year=2021
Genre=Black Metal

[/more]

Register
(2) aleon, Taakeferd,
Yesterday, 13:56:22 Black Wound & Skullsceptre - Deterioration Of Light [split] (2021)
FLAC

Register
(1) Marek,
Yesterday, 13:53:49 Birkenmähr - Schläferthal [ep] (2021)
FLAC

Register
(1) nemx,
Yesterday, 12:22:11 Black Wound & Skullsceptre - Deterioration Of Light [split] (2021)


*Artist: Black Wound & Skullsceptre
*Album: Deterioration Of Light [split]
*Year: 2021
*Genre: Death/Doom Metal | Old School Death Metal
*Country: Sweden | Sweden
*Format: mp3@CBR320kbps
*Size: 37MB

Tracklist:
Black Wound:
1.Rusted Teeth 07:16

Skullsceptre:
2.Inferno From Beyond 04:30
3.Upon The Cross 03:36
******************************
Total playing time: 15:22



[more=Technical info]
Input File: 01. Black Wound - Rusted Teeth.mp3
Channels : 2
Sample Rate : 44100
Precision : 16-bit
Duration : 00:07:16.35 = 19243035 samples = 32726.2 CDDA sectors
File Size : 17.6M
Bit Rate : 322k
Sample Encoding: MPEG audio (layer I, II or III)
Comments :
Title=Rusted Teeth
Artist=Black Wound
Album=Deterioration of Light
Tracknumber=01
Year=2021
Genre=Death Metal
Discnumber=1

[/more]

Register
(4) lacrimoza, stumpheavyrock, Taakeferd, zhol,
Yesterday, 11:44:18 Summoning Beyond The Grave - Ancient Demise (2021)


*Artist: Summoning Beyond The Grave
*Album: Ancient Demise
*Year: 2021
*Genre: Blackened Death Metal
*Country: United States
*Format: flac
*Size: 189MB

Tracklist:
1.Ancient Demise 04:10
2.Abomination 04:01
3.Eternal Execution 04:33
4.Remnants of Plasma 03:58
5.Spread Your Wings 05:03
6.Spread Your Wings 2.0 04:05
7.The Fire Burns The Weak 03:57
******************************
Total playing time: 29:47





Register
(3) artscald, DarkHorde, Marek,
Oct 22 2021, 21:54:52 Birkenmähr - Schläferthal [ep] (2021)


*Artist: Birkenmähr
*Album: Schläferthal [ep]
*Year: 2021
*Genre: Raw Black Metal/Dungeon Synth
*Country: Germany
*Format: mp3@CBR320kbps
*Size: 35MB

Tracklist:
1.Candles In Windows 02:09
2.From Underneath The Oak He´ll Rise 03:07
3.Through Fog-Webbed Cornfields 02:08
4.Der Kopflose 03:17
5.Wytche´s Curse 03:29
******************************
Total playing time: 14:10




[more=Technical info]
Input File: 02 From Underneath The Oak He´ll Rise.mp3
Channels : 2
Sample Rate : 44100
Precision : 16-bit
Duration : 00:03:07.29 = 8259269 samples = 14046.4 CDDA sectors
File Size : 7.72M
Bit Rate : 330k
Sample Encoding: MPEG audio (layer I, II or III)
Comments :
Title=From Underneath The Oak He´ll Rise
Artist=Birkenmahr
Album=Schlaferthal
Tracknumber=2
Year=2021
Genre=Black Metal

[/more]

Register
(3) nemx, stormhatt, Taakeferd,
Oct 22 2021, 20:22:13 Stoermflood - Promo 1999 [demo] (1999)


*Artist: Stoermflood
*Album: Promo 1999 [demo]
*Year: 1999
*Genre: Pagan Black Metal
*Country: Germany
*Format: mp3@CBR320kbps
*Size: 22MB

Tracklist:
1. ... Op ‘E Jiske Fan De Fijan (Remastered) 09:23
******************************
Total playing time: 9:23



[more=Technical info]
Input File: STOERMFLOOD - Promo 1999 - 01 ... Op ‘E Jiske Fan De Fijan (Remastered).mp3
Channels : 2
Sample Rate : 44100
Precision : 16-bit
Duration : 00:09:23.42 = 24846690 samples = 42256.3 CDDA sectors
File Size : 22.7M
Bit Rate : 322k
Sample Encoding: MPEG audio (layer I, II or III)
Comments :
Title=... Op ‘E Jiske Fan De Fijan (Remastered)
Artist=STOERMFLOOD
Album=Promo 1999
Tracknumber=1
Year=2021
Genre=Black Metal

[/more]

Register
(4) Carcharoth, Marek, stormhatt, Taakeferd,
Oct 22 2021, 19:42:10 Schrecken - Sinistre Weisheiten [demo] (2021)


*Artist: Schrecken
*Album: Sinistre Weisheiten [demo]
*Year: 2021
*Genre: Atmospheric Black Metal
*Country: Germany
*Format: mp3@CBR320kbps
*Size: 59MB

Tracklist:
1.Meine Bastion - Ein Wind in der Kälte der Zeit 14:41
2.Ein Grimoire von sinistrer Weisheit 11:06
******************************
Total playing time: 25:47



[more=Extended info]Recorded during a gloomy winter in 2010.
Edited and mixed in 2021.
Irrwycht - All instruments, vocals (Grabunhold, Ypokosmos)[/more]

[more=Technical info]
Input File: 01 Meine Bastion - Ein Wind in der Kälte der Zeit.mp3
Channels : 2
Sample Rate : 44100
Precision : 16-bit
Duration : 00:14:41.61 = 38878825 samples = 66120.5 CDDA sectors
File Size : 35.4M
Bit Rate : 321k
Sample Encoding: MPEG audio (layer I, II or III)
Comments :
Title=Meine Bastion - Ein Wind in der Kälte der Zeit
Artist=Schrecken
Album=Sinistre Weisheiten
Tracknumber=1
Year=2021
Genre=Black Metal

[/more]

Register
(4) Carcharoth, fallen, stormhatt, Taakeferd,
Oct 22 2021, 19:09:03 Ruin Trajectory - Ruin Trajectory [demo] (2021)


*Artist: Ruin Trajectory
*Album: Ruin Trajectory [demo]
*Year: 2021
*Genre: Raw Black Metal/Punk
*Country: United Kingdom
*Format: mp3@CBR320kbps
*Size: 44MB

Tracklist:
1. Poor Law 04:30
2. Squalor & Filth 03:05
3. Old Iron 04:02
4. Rag & Bone 03:00
5. Yon Wen 04:36
******************************
Total playing time: 19:13




[more=Technical info]
Input File: 01 Poor Law.mp3
Channels : 2
Sample Rate : 44100
Precision : 16-bit
Duration : 00:04:30.23 = 11917055 samples = 20267.1 CDDA sectors
File Size : 10.9M
Bit Rate : 323k
Sample Encoding: MPEG audio (layer I, II or III)
Comments :
Title=Poor Law
Artist=Ruin Trajectory
Album=Demo
Tracknumber=1
Year=2021
Genre=Black Metal

[/more]

Register
(2) stormhatt, Taakeferd,
Oct 22 2021, 17:30:52 Labyrinthine Haze - Descending Into The Deep (2021)


*Artist: Labyrinthine Haze
*Album: Descending Into The Deep
*Year: 2021
*Genre: Atmospheric/Raw Black Metal
*Country: Sweden
*Format: mp3@CBR320kbps
*Size: 95MB

Tracklist:
1.Intro 01:37
2.Through The Haze Of The Fog 09:16
3.Wounds Of Great Battles 10:14
4.Poisoned Veins 11:08
5.Embraced By Darkness 07:12
6.Outro 01:34
******************************
Total playing time: 41:01



[more=Technical info]
Input File: 02 Through The Haze Of The Fog.mp3
Channels : 2
Sample Rate : 44100
Precision : 16-bit
Duration : 00:09:16.18 = 24527538 samples = 41713.5 CDDA sectors
File Size : 22.3M
Bit Rate : 321k
Sample Encoding: MPEG audio (layer I, II or III)
Comments :
Title=Through The Haze Of The Fog
Artist=Labyrinthine Haze
Album=Descending Into The Deep
Tracknumber=2
Year=2021
Genre=Black Metal

[/more]

Register
(7) AlexSmith, Carcharoth, deadterror, grimoir, stormhatt, Taakeferd, ZloY_GreY,
Oct 22 2021, 14:21:50 Vicissitude - MMXVII [demo] (2017)


*Artist: Vicissitude
*Album: MMXVII [demo]
*Year: 2017
*Genre: Black/Death Metal
*Country: New Zealand
*Format: flac
*Size: 86MB

Tracklist:
1.I 04:38
2.II 03:54
3.III 05:10
******************************
Total playing time: 13:42





Register
(2) Carcharoth, Marek,
Oct 22 2021, 13:46:26 Decimation Hammer - Nuclear Dawn [demo] (2018)
FLAC

Register
(1) Marek,
Oct 21 2021, 21:49:01 Impure - Worship Them [compilation] (2021)


*Artist: Impure
*Album: Worship Them [compilation]
*Year: 2021
*Genre: Black/Death Metal
*Country: United States
*Format: mp3@CBR320kbps
*Size: 72MB

Tracklist:
1.Damned In Eternity 02:48
2.Worship Them 03:29
3.Crush Of Mystical Satanism 02:03
4.Fight Til Death 05:05
5.The Carrion Feast 04:32
6.Into Cataclysm 02:55
7.Transfixed In Limbo 02:27
8.Apocryphal Chants (Of Unknown Tongue) 02:07
9.The Devil Sees My Dreams (Demo) 04:48
******************************
Total playing time: 30:14



[more=Technical info]
Input File: 01 Damned In Eternity.mp3
Channels : 2
Sample Rate : 44100
Precision : 16-bit
Duration : 00:02:48.74 = 7441302 samples = 12655.3 CDDA sectors
File Size : 6.89M
Bit Rate : 327k
Sample Encoding: MPEG audio (layer I, II or III)
Comments :
Title=Damned In Eternity
Artist=Impure
Album=Worship Them
Tracknumber=1
Year=2021
Genre=Black/Death Metal

[/more]

Register
(12) alikkon, artscald, dcatagua, Marek, pwoods, raattent, SadistikSlayer, sagratan, Taakeferd, Tino, Velmi, wanderer73,
Oct 21 2021, 21:13:59 Decimation Hammer - Nuclear Dawn [demo] (2018)


*Artist: Decimation Hammer
*Album: Nuclear Dawn [demo]
*Year: 2018
*Genre: Black/Death Metal
*Country: New Zealand Australia
*Format: mp3@CBR320kbps
*Size: 47MB

Tracklist:
1.Desolation (Intro) 04:03
2.Vituperation 04:44
3.Vehement Utterance 03:11
4.Nuclear Dawn 07:06
******************************
Total playing time: 19:04





[more=Technical info]
Input File: 02 Vituperation.mp3
Channels : 2
Sample Rate : 44100
Precision : 16-bit
Duration : 00:04:44.83 = 12561091 samples = 21362.4 CDDA sectors
File Size : 11.5M
Bit Rate : 322k
Sample Encoding: MPEG audio (layer I, II or III)
Comments :
Title=Vituperation
Artist=Decimation Hammer
Album=Nuclear Dawn
Tracknumber=2
Year=2018
Genre=Black/Death Metal

[/more]

Register
(6) artscald, Fenrirsson, GorAtheist, sacrut, Taakeferd, wanderer73,
Oct 21 2021, 20:25:42 Maniac Revenge - Tyrant´s Greed [ep] (2014)


*Artist: Maniac Revenge
*Album: Tyrant´s Greed [ep]
*Year: 2014
*Genre: Thrash Metal
*Country: Chile
*Format: mp3@CBR320kbps
*Size: 40MB

Tracklist:
1.Intro / Johnny Got His Gun 05:05
2.Tyrant´s Greed 04:04
3.Global Lunacy 03:57
4.Battalion of Thrash Metal 03:43
******************************
Total playing time: 16:49




[more=Technical info]
Input File: 01 Intro - Johnny Got His Gun.mp3
Channels : 2
Sample Rate : 44100
Precision : 16-bit
Duration : 00:05:05.63 = 13478107 samples = 22922 CDDA sectors
File Size : 12.5M
Bit Rate : 326k
Sample Encoding: MPEG audio (layer I, II or III)
Comments :
Title=Intro - Johnny Got His Gun
Artist=Maniac Revenge
Album=Tyrant´s Greed
Tracknumber=1
Year=2014
Genre=Thrash Metal

[/more]

Register
(7) boby9052, gwar, Marek, Reverend, sergsazan, stumpheavyrock, wgs73,
Oct 21 2021, 20:20:18 Maniac Revenge - Final Punishment [demo] (2010)


*Artist: Maniac Revenge
*Album: Final Punishment [demo]
*Year: 2010
*Genre: Thrash Metal
*Country: Chile
*Format: mp3@CBR320kbps
*Size: 52MB

Tracklist:
1.Elimination 05:31
2.Victim´s of Peace 03:37
3.Alien Invasion 03:33
4.Society 03:43
5.Strike of the Maniac 05:06
******************************
Total playing time: 21:30




[more=Technical info]
Input File: 01 Elimination.mp3
Channels : 2
Sample Rate : 44100
Precision : 16-bit
Duration : 00:05:31.52 = 14619812 samples = 24863.6 CDDA sectors
File Size : 13.5M
Bit Rate : 325k
Sample Encoding: MPEG audio (layer I, II or III)
Comments :
Title=Elimination
Artist=Maniac Revenge
Album=Final Punishment
Tracknumber=1
Year=2010
Genre=Thrash Metal

[/more]

Register
(7) gwar, Marek, Reverend, sergsazan, stumpheavyrock, thenecromancer, wgs73,
Oct 21 2021, 18:53:43 Devotion - Recollections Of Nowhere [compilation] (2020)


*Artist: Devotion
*Album: Recollections Of Nowhere [compilation]
*Year: 2020
*Genre: Black Metal
*Country: Chile
*Format: mp3@CBR320kbps
*Size: 88MB

Tracklist:
1.Rite of Sacrifice 02:58
2.Black Light Path 03:54
3.Gloom,Crows,Torches 04:38
4.Below the Fiery Coven 05:38
5.Wolves of Nowhere 03:43
6.Sageness 02:59
7.Periplus 03:58
8.9 09:43
******************************
Total playing time: 37:31




[more=Technical info]
Input File: 01 Rite of Sacrifice.mp3
Channels : 2
Sample Rate : 44100
Precision : 16-bit
Duration : 00:02:58.09 = 7853725 samples = 13356.7 CDDA sectors
File Size : 7.26M
Bit Rate : 326k
Sample Encoding: MPEG audio (layer I, II or III)
Comments :
Title=Rite of Sacrifice
Artist=Devotion
Album=Recollections of Nowhere
Tracknumber=1
Year=2020
Genre=Black Metal

[/more]

Register
(7) artscald, caro, dcatagua, kim666, Reverend, stormhatt, Taakeferd,
Oct 21 2021, 17:59:44 Athanator - La Pesada Cruz De La Muerte (2020)


*Artist: Athanator
*Album: La Pesada Cruz De La Muerte
*Year: 2020
*Genre: Thrash Metal
*Country: Colombia
*Format: mp3@VBR266kbps
*Size: 70MB

Tracklist:
1. Pesadilla Macabra 02:50
2. ¿Quién es el Anticristo? 03:13
3. La Pesada Cruz de la Muerte 03:00
4. Jardines Nucleares 04:11
5. Entes de Guerra 04:20
6. Pasaje al Infierno 05:07
7. Inquisición 02:45
8. Agonía 03:18
9. Naturaleza Muerta 05:05
10. Sacrilegio (Ultimatum cover) 02:26
******************************
Total playing time: 36:15




[more=Extended info]Released to celebrate Athanator's 30-years career, this album features re-recorded versions of the band's 10 first songs, originally included in their two demo tapes, «Gritos del Ennom» (1991) and «Involución» (1993).[/more]

[more=Technical info]
Input File: 01 Pesadilla Macabra.mp3
Channels : 2
Sample Rate : 44100
Precision : 16-bit
Duration : 00:02:50.19 = 7505247 samples = 12764 CDDA sectors
File Size : 5.85M
Bit Rate : 275k
Sample Encoding: MPEG audio (layer I, II or III)
Comments :
Title=Pesadilla Macabra
Artist=Athanator
Album=La Pesada Cruz De La Muerte
Tracknumber=1/10
Year=2020-00-00
Genre=Thrash Metal

[/more]

Register
(9) artscald, boby9052, caro, dcatagua, HMHamster, kauyumari, sergsazan, stumpheavyrock, wgs73,
Oct 21 2021, 17:08:37 Goatcraft - Spheres Below (2020)


*Artist: Goatcraft
*Album: Spheres Below
*Year: 2020
*Genre: Black/Death Metal
*Country: Slovakia
*Format: mp3@CBR320kbps
*Size: 107MB

Tracklist:
1.Nekromanteion 02:00
2.The Obsidian Halls 07:30
3.Kolossal Katastrophic Kollapse 07:00
4.Altered Resonance 00:55
5.Putrid Stench of Existence 05:38
6.Draconis Torquent 00:44
7.The Beast of Hell 03:57
8.Horrendous Light 07:48
9.Echoes from the Radiant Abyss 00:36
10.The Devil's Splendour 07:55
11.So Death Created Time 01:33
******************************
Total playing time: 45:36




[more=Technical info]
Input File: 02 The Obsidian Halls.mp3
Channels : 2
Sample Rate : 44100
Precision : 16-bit
Duration : 00:07:30.27 = 19857083 samples = 33770.5 CDDA sectors
File Size : 18.2M
Bit Rate : 323k
Sample Encoding: MPEG audio (layer I, II or III)
Comments :
Title=The Obsidian Halls
Artist=Goatcraft
Album=Spheres Below
Tracknumber=2
Year=2020
Genre=Black Metal

[/more]

Register
(7) AlexSmith, artscald, caro, Taakeferd, uk82grind, wanderer73, wtk.412,
Oct 21 2021, 15:35:54 Löanshark - The Gangland Tapes [compilation] (2021)


*Artist: Löanshark
*Album: The Gangland Tapes [compilation]
*Year: 2021
*Genre: Heavy Metal
*Country: Spain
*Format: mp3@CBR320kbps
*Size: 77MB

Tracklist:
1.Sinner Rider 04:14
2.Fast, Heavy, Loud 'N Proud 04:24
3.Turn It Louder 04:20
4.Black Leather Queen 03:36
5.Heavy Metal Addicts 04:00
6.Machine Gunner 04:17
7.Midnight Shooter 03:55
8.Red Light Blues 04:21
******************************
Total playing time: 33:07






[more=Extended info]Tracks 1,2 taken from the "Fast, Heavy, Loud 'N Proud" single.
Tracks 3,4,5,6 taken from "The Warning Sessions" EP
Tracks 7,8 taken from the "Midnight Shooter" single[/more]

[more=Technical info]
Input File: 01 Sinner Rider.mp3
Channels : 2
Sample Rate : 44100
Precision : 16-bit
Duration : 00:04:14.74 = 11233902 samples = 19105.3 CDDA sectors
File Size : 10.3M
Bit Rate : 324k
Sample Encoding: MPEG audio (layer I, II or III)
Comments :
Title=Sinner Rider
Artist=Löanshark
Album=The Gangland Tapes
Tracknumber=1/8
Year=2021
Genre=Heavy Metal

[/more]

Register
(7) caro, dcatagua, gwar, HMHamster, sergsazan, stumpheavyrock, Taakeferd,
Oct 21 2021, 13:35:31 Sinister - EPs [compilation] (2021)
FLAC

Register
(1) Marek,
Oct 20 2021, 19:37:47 Initiatic Tomb - Demo I [demo] (2021)


*Artist: Initiatic Tomb
*Album: Demo I [demo]
*Year: 2021
*Genre: Black Metal
*Country: United States
*Format: mp3@CBR320kbps
*Size: 47MB

Tracklist:
1.Rex Nemorensis 04:25
2.Corn Mother 03:44
3.Lityerses 05:19
4.The Mistletoe 04:32
5.Regicide 02:05
******************************
Total playing time: 20:05



[more=Technical info]
Input File: 01 Rex Nemorensis.mp3
Channels : 2
Sample Rate : 44100
Precision : 16-bit
Duration : 00:04:25.08 = 11690116 samples = 19881.1 CDDA sectors
File Size : 10.7M
Bit Rate : 324k
Sample Encoding: MPEG audio (layer I, II or III)
Comments :
Title=Rex Nemorensis
Artist=Initiatic Tomb
Album=Demo I
Tracknumber=1
Year=2021
Genre=Black Metal

[/more]

Register
(8) artscald, caro, Forest Silence, kim666, Marek, stormhatt, stub888, Taakeferd,
Oct 20 2021, 18:27:11 1789 - 1789 [ep] (2021)


*Artist: 1789
*Album: 1789 [ep]
*Year: 2021
*Genre: Black Metal
*Country: France United States
*Format: mp3@CBR320kbps
*Size: 49MB

Tracklist:
1.Le Souffle Court 02:05
2.Champ de Ruines 04:33
3.Aux Armes 05:09
4.Le Sang Gelé 07:02
5.Dernier Soupir 02:33
******************************
Total playing time: 21:22



[more=Technical info]
Input File: 02 Champ de Ruines.mp3
Channels : 2
Sample Rate : 44100
Precision : 16-bit
Duration : 00:04:33.68 = 12069156 samples = 20525.8 CDDA sectors
File Size : 11.0M
Bit Rate : 323k
Sample Encoding: MPEG audio (layer I, II or III)
Comments :
Title=Champ de Ruines
Artist=1789
Album=1789 EP
Tracknumber=2
Year=2021
Genre=Black Metal

[/more]

Register
(12) artscald, Carcharoth, caro, dermarsoran, grimoir, kim666, Kodel, Reverend, robertho777, stormhatt, Taakeferd, Vitald,

263 Pages V   1 2 3 > » 
- Lo-Fi Version Support form
Copyrights and abuse reports form
Time is now: 24th October 2021 - 07:28:13