Welcome Guest ( Log In | Register )

История благодарностей участнику smysl ::: Спасибо сказали: 123918 раз(а)
Дата поста: В теме: За сообщение: Спасибо сказали:
Yesterday, 18:46:35 Aullido Sepulkral - Exhumando Los Restos Del Bastardo [ep] (2017)


*Artist: Aullido Sepulkral
*Album: Exhumando Los Restos Del Bastardo [ep]
*Year: 2017
*Genre: Black/Death Metal
*Country: Colombia
*Format: mp3@CBR320kbps
*Size: 33MB

Tracklist:
1. Oscuro Adversario 03:06
2. Teófago 04:11
3. Extremaunción 01:55
4. Exhumando Los Restos Del Bastardo 02:37
5. Armagedón 02:26
******************************
Total playing time: 14:15





[more=Technical info]
Input File: 01 Oscuro Adversario.mp3
Channels : 2
Sample Rate : 44100
Precision : 16-bit
Duration : 00:03:05.69 = 8188973 samples = 13926.8 CDDA sectors
File Size : 7.57M
Bit Rate : 326k
Sample Encoding: MPEG audio (layer I, II or III)
Comments :
Title=Oscuro Adversario
Artist=Aullido Sepulkral
Album=Exhumando Los Restos Del Bastardo
Tracknumber=1
Year=2017
Genre=Black/Death Metal

[/more]

Register
(3) artscald, dermarsoran, vasiljev_sergej,
Yesterday, 16:13:07 Barbarie Medieval - Por Los Senderos De La Muerte (2017)


*Artist: Barbarie Medieval
*Album: Por Los Senderos De La Muerte
*Year: 2017
*Genre: Death Metal
*Country: Colombia
*Format: mp3@CBR320kbps
*Size: 121MB

Tracklist:
1.De Entre las Cenizas del Pasado 03:42
2.La Muerte Prevalece 04:40
3.Inferno 06:30
4.Lamento 02:06
5.Funeral Negro 07:11
6.Bajo el Mismo Cielo 03:49
7.Miseria Humana 04:30
8.Réquiem por Colombia 05:53
9.Arena, Barbarie y Sangre 04:23
10.Un Triste y Obscuro Poema 02:10
11.Corvux 03:13
12.Vida y Muerte 03:35
******************************
Total playing time: 51:42





[more=Technical info]
Input File: 01 De Entre las Cenizas del Pasado.mp3
Channels : 2
Sample Rate : 44100
Precision : 16-bit
Duration : 00:03:42.37 = 9806473 samples = 16677.7 CDDA sectors
File Size : 9.04M
Bit Rate : 325k
Sample Encoding: MPEG audio (layer I, II or III)
Comments :
Title=De Entre las Cenizas del Pasado
Artist=Barbarie Medieval
Album=Por los Senderos de la Muerte
Tracknumber=1
Year=2017
Genre=Death Metal

[/more]

Register
(3) artscald, jollo, VALERY,
Yesterday, 14:54:15 Nightmare - The Place Where I Belong [ep] (2020)


*Artist: Nightmare
*Album: The Place Where I Belong [ep]
*Year: 2020
*Genre: Heavy Metal
*Country: Colombia
*Format: mp3@CBR320kbps
*Size: 52MB

Tracklist:
1.The Place Where I Belong 03:55
2.Dancing With The Devil 04:59
3.Barbarians Of Evil 04:13
4.Inner Conflict (Live) 05:11
5.High Speed Venom (Live) 03:36
******************************
Total playing time: 21:54





[more=Technical info]
Input File: 01 The Place Where I Belong.mp3
Channels : 2
Sample Rate : 44100
Precision : 16-bit
Duration : 00:03:55.25 = 10374437 samples = 17643.6 CDDA sectors
File Size : 9.53M
Bit Rate : 324k
Sample Encoding: MPEG audio (layer I, II or III)
Comments :
Title=The Place Where I Belong
Artist=Nightmare
Album=The Place Where I Belong
Tracknumber=1
Year=2020
Genre=Heavy Metal

[/more]

Register
(4) artscald, Bloodline Christian, Marek, stumpheavyrock,
Yesterday, 14:46:51 Eshtadur - Oblivion [ep] (2015)


*Artist: Eshtadur
*Album: Oblivion [ep]
*Year: 2015
*Genre: Melodic Death Metal
*Country: Colombia
*Format: mp3@CBR320kbps
*Size: 47MB

Tracklist:
1. In a Trance with Darkness 05:25
2. Last Day of the Condor 03:13
3. Heavens to the Ground 03:35
4. The Currency of My Empire 03:22
5. The Rebellion 04:10
******************************
Total playing time: 19:45





[more=Technical info]
Input File: 01 In a Trance with Darkness.mp3
Channels : 2
Sample Rate : 44100
Precision : 16-bit
Duration : 00:05:25.27 = 14344451 samples = 24395.3 CDDA sectors
File Size : 13.1M
Bit Rate : 322k
Sample Encoding: MPEG audio (layer I, II or III)
Comments :
Title=In a Trance with Darkness
Artist=Eshtadur
Album=Oblivion
Tracknumber=1
Year=2016
Genre=Melodic Death Metal

[/more]

Register
(2) artscald, VALERY,
Yesterday, 14:36:24 Profecia - Epidemia [ep] (2015)


*Artist: Profecia
*Album: Epidemia [ep]
*Year: 2015
*Genre: Death Metal
*Country: Colombia
*Format: mp3@CBR320kbps
*Size: 41MB

Tracklist:
1.Epidemia 01:11
2.Odio Eterno 04:26
3.Guerra 03:15
4.Enigma 07:30
******************************
Total playing time: 16:22





[more=Technical info]
Input File: 02 Odio Eterno.mp3
Channels : 2
Sample Rate : 44100
Precision : 16-bit
Duration : 00:04:26.96 = 11773068 samples = 20022.2 CDDA sectors
File Size : 10.9M
Bit Rate : 325k
Sample Encoding: MPEG audio (layer I, II or III)
Comments :
Title=Odio Eterno
Artist=Profecia
Album=Epidemia
Tracknumber=2
Year=2015
Genre=Death Metal

[/more]

Register
(4) artscald, GorAtheist, tbocs, VALERY,
Feb 7 2023, 23:04:12 Moriturus - Symbole Czasów Minionych [best of/compilation] (2008)
CBR320kbps

Register



FLAC

Register
(1) Wilczygniew Strzygoń,
Feb 7 2023, 21:44:32 Prediction - Hell Strikes Back (2017)


*Artist: Prediction
*Album: Hell Strikes Back
*Year: 2017
*Genre: Black/Thrash Metal
*Country: Austria
*Format: mp3@CBR320kbps
*Size: 85MB

Tracklist:
1. The Rites of the Immortal 00:41
2. Hell Strikes Back 03:30
3. Unchain the Evil 03:52
4. Hellish Blasphemy 03:59
5. Lucifers Revenge 04:00
6. 66 Miles to Hell 03:43
7. The Executioner 03:25
8. Return of the Evil Metal 05:17
9. Whiskey in My Veins 04:10
10. Demonical Possession (live) 03:07
******************************
Total playing time: 35:44





[more=Technical info]
Input File: 02 Hell Strikes Back.mp3
Channels : 2
Sample Rate : 44100
Precision : 16-bit
Duration : 00:03:30.38 = 9277670 samples = 15778.4 CDDA sectors
File Size : 8.52M
Bit Rate : 324k
Sample Encoding: MPEG audio (layer I, II or III)
Comments :
Title=Hell Strikes Back
Artist=Prediction
Album=Hell Strikes Back
Tracknumber=2
Year=2017
Genre=Black Metal

[/more]

Register
(9) AlexSmith, boby9052, METALHUNTER, Reverend, scorpionmk, sergsazan, stumpheavyrock, vasiljev_sergej, wgs73,
Feb 7 2023, 21:37:55 Prediction - No Tombs For The Holy [single] (2018)


*Artist: Prediction
*Album: No Tombs For The Holy [single]
*Year: 2018
*Genre: Black/Thrash Metal
*Country: Austria
*Format: mp3@CBR320kbps
*Size: 23MB

Tracklist:
1. In Eternal Purgatory 01:27
2. No Tombs for the Holy 03:12
3. Fire, Flesh and Horns 04:31
******************************
Total playing time: 9:10





[more=Technical info]
Input File: 02 No Tombs For The Holy.mp3
Channels : 2
Sample Rate : 44100
Precision : 16-bit
Duration : 00:03:12.90 = 8506978 samples = 14467.6 CDDA sectors
File Size : 7.81M
Bit Rate : 324k
Sample Encoding: MPEG audio (layer I, II or III)
Comments :
Title=No Tombs For The Holy
Artist=Prediction
Album=No Tombs For The Holy
Tracknumber=2
Year=2018
Genre=Black Metal

[/more]

Register
(7) boby9052, METALHUNTER, Reverend, scorpionmk, sergsazan, stumpheavyrock, wgs73,
Feb 7 2023, 16:32:55 Tiil Sum - I Nie Ma Śmierci, I Sen Jest Tylko​.​.​. [ep] (2017)


*Artist: Tiil Sum
*Album: I Nie Ma Śmierci, I Sen Jest Tylko​.​.​. [ep]
*Year: 2017
*Genre: Atmospheric Black Metal
*Country: Poland
*Format: mp3@CBR320kbps
*Size: 41MB

Tracklist:
1.Gdziekolwiek pójdę 05:00
2.Wyprowadźcie mnie 03:29
3.Lecz oto żyjesz 08:38
******************************
Total playing time: 17:07





[more=Technical info]
Input File: 01 Gdziekolwiek pójdę.mp3
Channels : 2
Sample Rate : 44100
Precision : 16-bit
Duration : 00:05:00.17 = 13237321 samples = 22512.5 CDDA sectors
File Size : 12.1M
Bit Rate : 324k
Sample Encoding: MPEG audio (layer I, II or III)
Comments :
Title=Gdziekolwiek pójdę
Artist=Tiil Sum
Album=I nie ma śmierci, i sen jest tylko...
Tracknumber=1
Year=2017
Genre=Black Metal

[/more]

Register
(4) kim666, sergsazan, VALERY, vasiljev_sergej,
Feb 7 2023, 16:25:07 Ilhalung - Borte Er De [ep] (2020)


*Artist: Ilhalung
*Album: Borte Er De [ep]
*Year: 2020
*Genre: Melodic Black Metal
*Country: Norway
*Format: mp3@CBR320kbps
*Size: 38MB

Tracklist:
1.Borte Er De 09:13
2.Doktrine Av Synd Og Avlat 06:59
******************************
Total playing time: 16:12





[more=Technical info]
Input File: 01 Borte Er De.mp3
Channels : 2
Sample Rate : 44100
Precision : 16-bit
Duration : 00:09:13.73 = 24419273 samples = 41529.4 CDDA sectors
File Size : 22.3M
Bit Rate : 322k
Sample Encoding: MPEG audio (layer I, II or III)
Comments :
Title=Borte Er De
Artist=Ilhalung
Album=Borte Er De
Tracknumber=1
Year=2020
Genre=Black Metal

[/more]

Register
(12) aleon, Altkiller, Marek, megam, rickzammuto, SadistikSlayer, sergsazan, VALERY, vasiljev_sergej, witchfinder, yarrsuaa, zhol,
Feb 7 2023, 16:17:18 Internment - Demo MMXVIII [demo] (2018)


*Artist: Internment
*Album: Demo MMXVIII [demo]
*Year: 2018
*Genre: Black Metal
*Country: United States
*Format: mp3@CBR320kbps
*Size: 27MB

Tracklist:
1.Black Rites of Hidden Gates 06:53
2.The Shadow Realm 03:51
******************************
Total playing time: 10:44





[more=Technical info]
Input File: 01 Black Rites of Hidden Gates.mp3
Channels : 2
Sample Rate : 44100
Precision : 16-bit
Duration : 00:06:54.04 = 18259164 samples = 31053 CDDA sectors
File Size : 16.7M
Bit Rate : 322k
Sample Encoding: MPEG audio (layer I, II or III)
Comments :
Title=Black Rites of Hidden Gates
Artist=Internment
Album=Demo MMXVIII
Tracknumber=1
Year=2018
Genre=Black Metal

[/more]

Register
(2) kim666, vasiljev_sergej,
Feb 7 2023, 16:08:56 Multiple Personality - Song Unsung (2011)


*Artist: Multiple Personality
*Album: Song Unsung
*Year: 2011
*Genre: Black/Doom Metal
*Country: China
*Format: mp3@CBR320kbps
*Size: 99MB

Tracklist:
1. In D Major 05:32
2. The Last Curtain 04:35
3. Monochrome 04:54
4. Before the Rain 04:22
5. Time 04:30
6. Symptons of Flamboyance 03:52
7. Song Unsung 05:38
8. Illusion 04:38
9. Inherent Capability for Evil 05:10
******************************
Total playing time: 43:11



[more=Technical info]
Input File: 02 The Last Curtain.mp3
Channels : 2
Sample Rate : 44100
Precision : 16-bit
Duration : 00:04:35.14 = 12133674 samples = 20635.5 CDDA sectors
File Size : 11.1M
Bit Rate : 322k
Sample Encoding: MPEG audio (layer I, II or III)
Comments :
Title=The Last Curtain
Artist=MULTIPLE PERSONALITY
Album=Song Unsung
Tracknumber=2
Year=2011
Genre=Black Metal

[/more]

Register
(4) AlexSmith, metala, sergsazan, VALERY,
Feb 6 2023, 21:35:10 Chaos Century & Demonslaught 666 - Raven And The Slaughterer [split] (2021)


*Artist: Chaos Century & Demonslaught 666
*Album: Raven And The Slaughterer [split]
*Year: 2021
*Genre: Thrash Metal | Black/Speed Metal
*Country: Canada | China
*Format: mp3@CBR320kbps
*Size: 31MB

Tracklist:
Chaos Century:
1.Children of the Raven 04:23
2.Stay Clean (Motörhead cover) 02:31
Demonslaught 666:
3.Black Evil Steel 03:12
4.Total Mayhem (Hellripper cover) 03:08
******************************
Total playing time: 13:14






[more=Technical info]
Input File: 01 Chaos Century - Children of the Raven.mp3
Channels : 2
Sample Rate : 44100
Precision : 16-bit
Duration : 00:04:23.31 = 11611751 samples = 19747.9 CDDA sectors
File Size : 10.7M
Bit Rate : 324k
Sample Encoding: MPEG audio (layer I, II or III)
Comments :
Title=Children of the Raven
Artist=Chaos Century
Album=Raven And The Slaughterer
Tracknumber=1
Year=2021
Genre=Metal

[/more]

Register
(4) chipsgott, scorpionmk, stumpheavyrock, wgs73,
Feb 6 2023, 13:32:25 Oscuro Profano - Oscuro Profano [demo] (2015)


*Artist: Oscuro Profano
*Album: Oscuro Profano [demo]
*Year: 2015
*Genre: Atmospheric Black Metal
*Country: Chile
*Format: mp3@CBR320kbps
*Size: 75MB

Tracklist:
1. Etacarinae 01:56
2. Sombras de la manifestación 03:48
3. Oscuro profano 06:46
4. Devorador del perdido tiempo 05:55
5. Sirio 06:29
6. Conversión 07:05
******************************
Total playing time: 31:59




[more=Technical info]
Input File: 02 Sombras De La Manifestación.mp3
Channels : 2
Sample Rate : 44100
Precision : 16-bit
Duration : 00:03:47.93 = 10051889 samples = 17095 CDDA sectors
File Size : 9.24M
Bit Rate : 324k
Sample Encoding: MPEG audio (layer I, II or III)
Comments :
Title=Sombras De La Manifestación
Artist=Oscuro Profano
Album=Oscuro Profano
Tracknumber=2
Year=2015
Genre=Black Metal

[/more]

Register
(9) aleon, AlexSmith, Corpuscul, kim666, korovakaska, rickzammuto, thenecromancer, VALERY, witchfinder,
Feb 6 2023, 13:17:49 Unholy Craft - It Is The Time Of The Christian Fall [ep] (2020)


*Artist: Unholy Craft
*Album: It Is The Time Of The Christian Fall [ep]
*Year: 2020
*Genre: Black Metal
*Country: Costa Rica
*Format: mp3@CBR320kbps
*Size: 65MB

Tracklist:
1. Intro 02:09
2. War Is All We Need 05:27
3. Into the Night 06:15
4. Scarlet Robe of Cristian Blood 05:05
5. Unholy Craft 03:33
6. Humans Are a Total Plague 05:00
******************************
Total playing time: 27:29





[more=Technical info]
Input File: 02 War Is All We Need.mp3
Channels : 2
Sample Rate : 44100
Precision : 16-bit
Duration : 00:05:27.94 = 14461978 samples = 24595.2 CDDA sectors
File Size : 13.3M
Bit Rate : 325k
Sample Encoding: MPEG audio (layer I, II or III)
Comments :
Title=War Is All We Need
Artist=Unholy Craft
Album=It Is The Time Of The Christian Fall
Tracknumber=2
Year=2020
Genre=Black Metal

[/more]

Register
(4) AlexSmith, kim666, VALERY, vasiljev_sergej,
Feb 6 2023, 13:06:33 Fuego Eterno - Fuego Eterno [ep] (2020)


*Artist: Fuego Eterno
*Album: Fuego Eterno [ep]
*Year: 2020
*Genre: Black/Thrash Metal
*Country: Chile United States Brazil
*Format: mp3@CBR320kbps
*Size: 52MB

Tracklist:
1.Fuego Eterno 04:06
2.Horda 02:54
3.Enigma (Instrumental) 04:00
4.Premonición Ancestral 03:03
5.March Tenebris 03:47
******************************
Total playing time: 17:50




[more=Technical info]
Input File: 02 Horda.mp3
Channels : 2
Sample Rate : 44100
Precision : 16-bit
Duration : 00:02:54.56 = 7698228 samples = 13092.2 CDDA sectors
File Size : 7.09M
Bit Rate : 325k
Sample Encoding: MPEG audio (layer I, II or III)
Comments :
Title=Horda
Artist=Fuego Eterno
Album=EP MMXX
Tracknumber=2
Year=2020
Genre=Black/Thrash Metal

[/more]

Register
(7) boby9052, korovakaska, sergsazan, stumpheavyrock, vasiljev_sergej, wgs73, xariton,
Feb 6 2023, 12:55:11 Gangrel - Metal Hunters [demo] (2009)


*Artist: Gangrel
*Album: Metal Hunters [demo]
*Year: 2009
*Genre: Thrash Metal
*Country: Peru
*Format: mp3@CBR320kbps
*Size: 55MB

Tracklist:
1.Front Page Killer 04:24
2.The Screamer 04:00
3.Metal Hunters 03:15
4.Carnage 03:36
5.Gangrel 03:39
6.Bites from the Dead (Live) 05:03
******************************
Total playing time: 23:57




[more=Technical info]
Input File: 01 Front Page Killer.mp3
Channels : 2
Sample Rate : 44100
Precision : 16-bit
Duration : 00:04:24.72 = 11673976 samples = 19853.7 CDDA sectors
File Size : 10.7M
Bit Rate : 322k
Sample Encoding: MPEG audio (layer I, II or III)
Comments :
Title=Front Page Killer
Artist=Gangrel
Album=Metal Hunters
Tracknumber=1
Year=2009
Genre=Thrash Metal

[/more]

Register
(7) artscald, canadaspaceman, chipsgott, CORPSEMIXA, scorpionmk, stumpheavyrock, wgs73,
Feb 5 2023, 21:29:30 Syn - Wilk (2023)


*Artist: Syn
*Album: Wilk
*Year: 2023
*Genre: Black Metal
*Country: United States
*Format: mp3@CBR320kbps
*Size: 65MB

Tracklist:
1.Storm 02:55
2.Monocle 03:32
3.Demons Come 04:09
4.Litanies of the Fallen 05:29
5.Layers Void 05:18
6.Bellows 01:30
7.Wilk (Permafrost) 04:22
******************************
Total playing time: 27:15




[more=Technical info]
Input File: 01 Storm.mp3
Channels : 2
Sample Rate : 44100
Precision : 16-bit
Duration : 00:02:55.71 = 7748899 samples = 13178.4 CDDA sectors
File Size : 7.12M
Bit Rate : 324k
Sample Encoding: MPEG audio (layer I, II or III)
Comments :
Title=Storm
Artist=SYN
Album=Wilk
Tracknumber=1
Year=2023
Genre=Black Metal

[/more]

Register
(11) AlexSmith, alikkon, Altkiller, artscald, cesar, dermarsoran, envenomed2, kim666, nemx, VALERY, vasiljev_sergej,
Feb 5 2023, 14:59:49 Military Shadow - Violent Reign [ep] (2020)


*Artist: Military Shadow
*Album: Violent Reign [ep]
*Year: 2020
*Genre: Speed Metal/Punk
*Country: Japan
*Format: mp3@CBR320kbps
*Size: 46MB

Tracklist:
1.Shadow (of fallen soldiers) 03:08
2.Hounds Of Greed And Death 04:22
3.Dance With My Reaper 02:48
4.A Hundred Thousand Dead Again 02:20
5.Scars Of War 02:18
6.Violent Reign 03:52
******************************
Total playing time: 18:48





[more=Technical info]
Input File: 02 Hounds of Greed and Death.mp3
Channels : 2
Sample Rate : 44100
Precision : 16-bit
Duration : 00:04:24.51 = 11664759 samples = 19838 CDDA sectors
File Size : 10.8M
Bit Rate : 327k
Sample Encoding: MPEG audio (layer I, II or III)
Comments :
Title=Hounds of Greed and Death
Artist=Military Shadow
Album=Violent Reign
Tracknumber=2
Year=2020
Genre=Metalpunk

[/more]

Register
(12) AHBAnep, Asketto, Bloodline Christian, chipsgott, dermarsoran, Grev, Ignativs, Lord Of The Siths, sergsazan, stumpheavyrock, wgs73, zhol,
Feb 5 2023, 14:54:06 Military Shadow - Blood For Freedom (2020)


*Artist: Military Shadow
*Album: Blood For Freedom
*Year: 2020
*Genre: Speed Metal/Punk
*Country: Japan
*Format: mp3@CBR320kbps
*Size: 71MB

Tracklist:
1.Bloody Leather 05:38
2.Hellbastards 02:07
3.Deadly Rider 03:46
4.Agony From Inferno 03:39
5.Devil's Revenge 04:21
6.Wind Of Death 05:18
7.Nuclear 02:21
8.Freedom 02:43
******************************
Total playing time: 29:53





[more=Technical info]
Input File: 01 Bloody Leather.mp3
Channels : 2
Sample Rate : 44100
Precision : 16-bit
Duration : 00:05:38.52 = 14928556 samples = 25388.7 CDDA sectors
File Size : 13.7M
Bit Rate : 325k
Sample Encoding: MPEG audio (layer I, II or III)
Comments :
Title=Bloody Leather
Artist=Military Shadow
Album=Blood For Freedom
Tracknumber=1
Year=2020
Genre=Metalpunk

[/more]

Register
(14) AHBAnep, andersonj8, andreikun, Asketto, Bloodline Christian, chipsgott, Grev, Ignativs, kefka, Lord Of The Siths, sergsazan, stumpheavyrock, wgs73, zhol,
Feb 5 2023, 10:45:33 Arazubak - Betrayed By Devotion [demo] (2023)
FLAC

Register
(3) nemx, sacrut, Абигор,
Feb 5 2023, 10:22:54 Arazubak - Betrayed By Devotion [demo] (2023)


*Artist: Arazubak
*Album: Betrayed By Devotion [demo]
*Year: 2023
*Genre: Raw Black Metal
*Country: United States
*Format: mp3@CBR320kbps
*Size: 32MB

Tracklist:
1.Poisoned Heart 04:34
2.Yawning Entrance Into Black Serenity 07:27
3.El Testament d'Amèlia 01:28
******************************
Total playing time: 13:29



[more=Extended info]FLAC-Rip[/more]

[more=Technical info]
Input File: 03 El Testament d\'Amèlia.mp3
Channels : 2
Sample Rate : 44100
Precision : 16-bit
Duration : 00:01:28.07 = 3883711 samples = 6604.95 CDDA sectors
File Size : 3.64M
Bit Rate : 331k
Sample Encoding: MPEG audio (layer I, II or III)
Comments :
Title=El Testament d'Amèlia
Artist=Arazubak
Album=Betrayed by Devotion
Tracknumber=3
Year=2023
Genre=Black Metal

[/more]

Register
(10) artscald, dermarsoran, Grev, kim666, Lord Of The Siths, nemx, sacrut, stub888, VALERY, vasiljev_sergej,
Feb 4 2023, 18:22:56 Guldsjakal - Guldsjakal [ep] (2021)


*Artist: Guldsjakal
*Album: Guldsjakal [ep]
*Year: 2021
*Genre: Heavy Metal
*Country: Denmark
*Format: mp3@CBR320kbps
*Size: 38MB

Tracklist:
1.Ellevte Time 03:26
2.Den Definitive Rus 03:45
3.Benzin i Blodet 02:55
4.Kryb 03:03
5.Sommer 02:53
******************************
Total playing time: 16:02




[more=Technical info]
Input File: 01 Ellevete Time.mp3
Channels : 2
Sample Rate : 44100
Precision : 16-bit
Duration : 00:03:26.49 = 9106033 samples = 15486.5 CDDA sectors
File Size : 8.42M
Bit Rate : 326k
Sample Encoding: MPEG audio (layer I, II or III)
Comments :
Title=Ellevete Time
Artist=Guldsjakal
Album=Guldsjakal
Tracknumber=1
Year=2021
Genre=Heavy Metal

[/more]

Register
(7) artscald, Bloodline Christian, Grev, Lord Of The Siths, Marek, sergsazan, stumpheavyrock,
Feb 4 2023, 18:17:22 Guldsjakal - Guldsjakal [ep] (2020)


*Artist: Guldsjakal
*Album: Guldsjakal [ep]
*Year: 2020
*Genre: Heavy Metal
*Country: Denmark
*Format: mp3@CBR320kbps
*Size: 41MB

Tracklist:
1.Over Grænsen 01:56
2.Læderhals 02:09
3.Slik Flammer 03:07
4.Kom Med Mig 02:49
5.Sidste Stik 02:51
6.Destroy (Alucarda cover) 04:06
******************************
Total playing time: 16:58




[more=Technical info]
Input File: 01 Over Grænsen.mp3
Channels : 2
Sample Rate : 44100
Precision : 16-bit
Duration : 00:01:57.04 = 5161376 samples = 8777.85 CDDA sectors
File Size : 4.92M
Bit Rate : 336k
Sample Encoding: MPEG audio (layer I, II or III)
Comments :
Title=Over Grænsen
Artist=Guldsjakal
Album=Guldsjakal
Tracknumber=1
Year=2020
Genre=Heavy Metal

[/more]

Register
(5) artscald, Bloodline Christian, Grev, Lord Of The Siths, stumpheavyrock,
Feb 4 2023, 14:09:34 Navalum - In Feather ​​- ​​Gold And Machete [ep] (2022)


*Artist: Navalum
*Album: In Feather ​​- ​​Gold And Machete [ep]
*Year: 2022
*Genre: Black Metal
*Country: Indonesia
*Format: mp3@CBR320kbps
*Size: 57MB

Tracklist:
1.The Binding of Fragments 06:10
2.Celestial Spearfire 06:04
3.Of Deities Slain and Reborn 05:30
4.Past Forgotten World and Land Afar 05:45
******************************
Total playing time: 23:29





[more=Technical info]
Input File: 01 The Binding of Fragments.mp3
Channels : 2
Sample Rate : 44100
Precision : 16-bit
Duration : 00:06:10.83 = 16353647 samples = 27812.3 CDDA sectors
File Size : 15.0M
Bit Rate : 323k
Sample Encoding: MPEG audio (layer I, II or III)
Comments :
Title=The Binding of Fragments
Artist=Navalum
Album=In Feather​-​Gold And Machete
Tracknumber=1
Year=2022
Genre=Black Metal

[/more]

Register
(10) dermarsoran, Grev, Ignativs, kim666, Lord Of The Siths, murian, SilentNidhogg, VALERY, vasiljev_sergej, witchfinder,

317 Pages V   1 2 3 > » 
- Lo-Fi Version Support form
Copyrights and abuse reports form
Time is now: 9th February 2023 - 07:18:18