Welcome Guest ( Log In | Register )

История благодарностей участнику smysl ::: Спасибо сказали: 108128 раз(а)
Дата поста: В теме: За сообщение: Спасибо сказали:
May 24 2022, 19:28:19 Shadows - Into The Nightmare [ep] (2021)


*Artist: Shadows
*Album: Into The Nightmare [ep]
*Year: 2021
*Genre: Heavy Metal
*Country: Chile
*Format: mp3@CBR320kbps
*Size: 30MB

Tracklist:
1.The Ripper 03:24
2.Forgotten Rites 03:53
3.Dream Paralysis 01:21
4.Into the Nightmare 04:17
******************************
Total playing time: 12:55




[more=Technical info]
Input File: 01 The Ripper.mp3
Channels : 2
Sample Rate : 44100
Precision : 16-bit
Duration : 00:03:24.92 = 9036928 samples = 15368.9 CDDA sectors
File Size : 8.41M
Bit Rate : 328k
Sample Encoding: MPEG audio (layer I, II or III)
Comments :
Title=The Ripper
Artist=Shadows
Album=Into the Nightmare
Tracknumber=1
Year=2022
Genre=Heavy Metal

[/more]

Register
(9) after21allD, artscald, Bloodline Christian, BugEyes, Marek, Rover, sergsazan, stumpheavyrock, wgs73,
May 24 2022, 18:46:15 Raptore - Prisoner Of The Night [single] (2019)


*Artist: Raptore
*Album: Prisoner Of The Night [single]
*Year: 2019
*Genre: Heavy Metal
*Country: Argentina
*Format: mp3@CBR320kbps
*Size: 14MB

Tracklist:
1. Prisoner of the Night 03:37
2. Devil Ascends 02:20
******************************
Total playing time: 5:57





[more=Technical info]
Input File: 01 Prisoner Of The Night.mp3
Channels : 2
Sample Rate : 44100
Precision : 16-bit
Duration : 00:03:37.69 = 9600261 samples = 16327 CDDA sectors
File Size : 8.78M
Bit Rate : 323k
Sample Encoding: MPEG audio (layer I, II or III)
Comments :
Title=Prisoner Of The Night
Artist=Raptore
Album=Prisoner Of The Night
Tracknumber=1
Year=2019
Genre=Heavy Metal

[/more]

Register
(6) after21allD, artscald, Bloodline Christian, Rover, stumpheavyrock, wgs73,
May 24 2022, 18:38:19 Sabïre - Mistress Mistress [single] (2020)


*Artist: Sabïre
*Album: Mistress Mistress [single]
*Year: 2020
*Genre: Heavy Metal
*Country: Australia
*Format: mp3@CBR320kbps
*Size: 23MB

Tracklist:
1. Mistress Mistress 04:55
2. Life in the Fast Lane (Eagles cover) 04:57
******************************
Total playing time: 9:52



[more=Technical info]
Input File: 01 Mistress Mistress.mp3
Channels : 2
Sample Rate : 44100
Precision : 16-bit
Duration : 00:04:55.18 = 13017306 samples = 22138.3 CDDA sectors
File Size : 11.9M
Bit Rate : 322k
Sample Encoding: MPEG audio (layer I, II or III)
Comments :
Title=Mistress Mistress
Artist=Sabïre
Album=Mistress Mistress
Tracknumber=1
Year=2020
Genre=Heavy Metal

[/more]

Register
(6) after21allD, artscald, Bloodline Christian, Rover, stumpheavyrock, wgs73,
May 24 2022, 18:30:30 Em Ruínas - Furiosa [single] (2016)


*Artist: Em Ruínas
*Album: Furiosa [single]
*Year: 2016
*Genre: Speed/Thrash Metal
*Country: Brazil
*Format: mp3@CBR320kbps
*Size: 26MB

Tracklist:
1.Furiosa (The Warrior) 03:46
2.Let There Be Death (Onslaught cover) 06:50
******************************
Total playing time: 10:36




[more=Technical info]
Input File: 02 Let There Be Death (Onslaught cover).mp3
Channels : 2
Sample Rate : 44100
Precision : 16-bit
Duration : 00:06:50.93 = 18122101 samples = 30819.9 CDDA sectors
File Size : 16.6M
Bit Rate : 323k
Sample Encoding: MPEG audio (layer I, II or III)
Comments :
Title=Let There Be Death (Onslaught cover)
Artist=Em Ruínas
Album=Furiosa
Tracknumber=2
Year=2016
Genre=Speed Metal

[/more]

Register
(6) after21allD, artscald, boby9052, Dante_D, stumpheavyrock, wgs73,
May 24 2022, 15:35:24 Mustan Kuun Lapset - Ei Sävyjä Pimeässä (The Complete 90s Collection) [compilation] (2021)


*Artist: Mustan Kuun Lapset
*Album: Ei Sävyjä Pimeässä (The Complete 90s Collection) [compilation]
*Year: 2021
*Genre: Black Metal
*Country: Finland
*Format: mp3@CBR320kbps
*Size: 168MB

Tracklist:
1.Talven Kylmää Valoa 03:40
2.Taivas ja Maa 04:54
3....Kunnes Loppuu Yö 04:02
4.Isfri 01:45
5.Tuonela 05:19
6.The Dream about Dying Angel 05:33
7.I Shall Wither 04:12
8.Valkoiseen 04:06
9.Laulu Mustan Variksen 04:26
10.Viha 05:36
11.Maailmani Yössa Henkien 07:00
12.Veritanssi 04:32
13.Ei Sävyjä Pimeässä 04:49
14.Minä Olen Ensilumi 05:40
15.Kuka Palvoo Saatanaa 02:13
16.Lilith 05:08
******************************
Total playing time: 1:12:55




[more=Extended info]Tracks 1-3 - ...Kunnes Loppuu Yö (Demo 1996)
Tracks 4-8 - Varjomaa (Demo 1997)
Tracks 9-12 - Prologi (EP 1998)
Track 13-16 - Uusi suomalainen Black Metal Tulokas (Split with Azaghal 2000)[/more]

[more=Technical info]
Input File: 01 Talven Kylmää Valoa.mp3
Channels : 2
Sample Rate : 44100
Precision : 16-bit
Duration : 00:03:40.12 = 9707424 samples = 16509.2 CDDA sectors
File Size : 8.85M
Bit Rate : 322k
Sample Encoding: MPEG audio (layer I, II or III)
Comments :
Title=Talven Kylmää Valoa
Artist=Mustan Kuun Lapset
Album=Ei sävyjä pimeässä (The complete 90s collection)
Tracknumber=1
Year=2021
Genre=Black Metal

[/more]

Register
(11) artscald, Carcharoth, Farfarello, kim666, Reverend, robertho777, stormhatt, the_cleanser, VALERY, Veggr, Vidder242,
May 21 2022, 23:37:21 Kulto Maldito - Kulto A La Bestia (2008)
Kulto Maldito - Kulto A La Bestia (2008) CBR320kbps + scans

Register
(2) seal, varlam4,
May 21 2022, 20:18:46 Gog - Gog [ep] (2021)


*Artist: Gog
*Album: Gog [ep]
*Year: 2021
*Genre: Death Metal
*Country: United States
*Format: mp3@CBR320kbps
*Size: 44MB

Tracklist:
1.Thanaton III 02:58
2.Reduced To One Atom 04:00
3.Said Hunter In Tree 03:39
4.Skhul V 03:59
5.Chemical Boar 04:01
******************************
Total playing time: 18:37




[more=Technical info]
Input File: 01 Thanaton III.mp3
Channels : 2
Sample Rate : 44100
Precision : 16-bit
Duration : 00:02:58.25 = 7860649 samples = 13368.5 CDDA sectors
File Size : 7.25M
Bit Rate : 326k
Sample Encoding: MPEG audio (layer I, II or III)
Comments :
Title=Thanaton III
Artist=GOG
Album=GOG
Tracknumber=1
Year=2021
Genre=Death Metal

[/more]

Register
(9) artscald, caro, chipsgott, GorAtheist, Marek, Nascutmort, stumpheavyrock, VALERY, vyacheslav,
May 21 2022, 19:41:44 Abysmal Winds - Doom Prayer [demo] (2022)


*Artist: Abysmal Winds
*Album: Doom Prayer [demo]
*Year: 2022
*Genre: Death Metal
*Country: Sweden
*Format: mp3@CBR320kbps
*Size: 46MB

Tracklist:
1.Invocation (Intro) 01:31
2.Harvest 02:36
3.Spiritual Decadence 02:36
4.Oblivion 03:15
5.World Cadaver 03:15
6.Drink the Poison 03:13
7.Hollow 03:02
******************************
Total playing time: 19:28




[more=Technical info]
Input File: 02 Harvest.mp3
Channels : 2
Sample Rate : 44100
Precision : 16-bit
Duration : 00:02:36.67 = 6909059 samples = 11750.1 CDDA sectors
File Size : 6.37M
Bit Rate : 325k
Sample Encoding: MPEG audio (layer I, II or III)
Comments :
Title=Harvest
Artist=Abysmal Winds
Album=Doom Prayer
Tracknumber=2
Year=2022
Genre=Death Metal

[/more]

Register
(13) andreikun, artscald, BlazonStone, caro, CRUNCH, hell_armageddon, Marek, Nascutmort, nord6666, Storky, stumpheavyrock, thenecromancer, vitosdemon,
May 21 2022, 19:23:06 Deathscrum - Morbid Rugby [ep] (2020)


*Artist: Deathscrum
*Album: Morbid Rugby [ep]
*Year: 2020
*Genre: Black/Speed Metal
*Country: Israel
*Format: mp3@CBR320kbps
*Size: 35MB

Tracklist:
1. Kick Off 01:13
2. Scrum of Death 02:19
3. Six Nations Go to War 03:44
4. Rituals of Sakartvelo 02:50
5. Morbid Rugby 04:43
******************************
Total playing time: 14:49




[more=Technical info]
Input File: 02 Scrum of Death.mp3
Channels : 2
Sample Rate : 44100
Precision : 16-bit
Duration : 00:02:19.17 = 6137177 samples = 10437.4 CDDA sectors
File Size : 5.76M
Bit Rate : 331k
Sample Encoding: MPEG audio (layer I, II or III)
Comments :
Title=Scrum of Death
Artist=Deathscrum
Album=Morbid Rugby
Tracknumber=2
Year=2020
Genre=Black Metal

[/more]

Register
(8) artscald, Bloodline Christian, caro, dermarsoran, sergsazan, stormhatt, stumpheavyrock, wgs73,
May 21 2022, 18:58:10 Iron Overkill - Iron Overkill [ep] (2022)


*Artist: Iron Overkill
*Album: Iron Overkill [ep]
*Year: 2022
*Genre: Heavy/Speed Metal
*Country: Austria
*Format: mp3@CBR320kbps
*Size: 59MB

Tracklist:
1. Iron Overkill 04:55
2. Filthy Habits 03:56
3. Lucy Gets Her Thrills on Diamonds 04:31
4. Unholy Ruler of the Night 03:22
5. Water to Wine 04:41
6. White Seven Eighths Chinos 03:50
******************************
Total playing time: 25:15



[more=Technical info]
Input File: 01 Iron Overkill.mp3
Channels : 2
Sample Rate : 44100
Precision : 16-bit
Duration : 00:04:54.97 = 13008089 samples = 22122.6 CDDA sectors
File Size : 12.0M
Bit Rate : 324k
Sample Encoding: MPEG audio (layer I, II or III)
Comments :
Title=Iron Overkill
Artist=Iron Overkill
Album=Iron Overkill
Tracknumber=1
Year=2022
Genre=Speed Metal

[/more]

Register
(14) after21allD, artscald, Bloodline Christian, caro, chipsgott, gwar, kefka, Marek, Rover, sergsazan, stumpheavyrock, terrano2006, vir2al, wgs73,
May 21 2022, 18:52:14 Iron Overkill - Battlefield Rock 'n' Roll From Hell [ep] (2021)


*Artist: Iron Overkill
*Album: Battlefield Rock 'n' Roll From Hell [ep]
*Year: 2021
*Genre: Heavy/Speed Metal
*Country: Austria
*Format: mp3@CBR320kbps
*Size: 49MB

Tracklist:
1. Cherry Pie 03:18
2. Bomber Aircraft 03:19
3. Doomsday / The Taxi Driver 02:47
4. Lightning to Strike 03:50
5. The Tiger (No More Rises) 03:12
6. Riding Straight to Hell 04:39
******************************
Total playing time: 21:05



[more=Technical info]
Input File: 01 Cherry Pie.mp3
Channels : 2
Sample Rate : 44100
Precision : 16-bit
Duration : 00:03:18.23 = 8741987 samples = 14867.3 CDDA sectors
File Size : 7.99M
Bit Rate : 323k
Sample Encoding: MPEG audio (layer I, II or III)
Comments :
Title=Cherry Pie
Artist=Iron Overkill
Album=Battlefield Rock 'n' Roll from Hell
Tracknumber=1
Year=2021
Genre=Speed Metal

[/more]

Register
(11) artscald, Bloodline Christian, caro, chipsgott, gwar, Marek, metala, Rover, sergsazan, stumpheavyrock, wgs73,
May 21 2022, 01:18:11 Necromästery - Burial [ep] (2018)


*Artist: Necromästery
*Album: Burial [ep]
*Year: 2018
*Genre: Black/Thrash Metal
*Country: Poland
*Format: mp3@CBR320kbps
*Size: 54MB

Tracklist:
1. Burial Among the Trees 03:43
2. Animus Ardet (Out to the Light) 05:21
3. Specter of Evil 03:53
4. Tales of Agrippa 06:17
5. Necromancy at Midnight 03:59
******************************
Total playing time: 23:13




[more=Technical info]
Input File: 01 Burial Among the Trees.mp3
Channels : 2
Sample Rate : 44100
Precision : 16-bit
Duration : 00:03:43.60 = 9860628 samples = 16769.8 CDDA sectors
File Size : 8.99M
Bit Rate : 322k
Sample Encoding: MPEG audio (layer I, II or III)
Comments :
Title=Burial Among the Trees
Artist=Necromästery
Album=Burial
Tracknumber=1
Year=2018
Genre=Blackened Thrash Metal

[/more]

Register
(5) artscald, boby9052, caro, stormhatt, stumpheavyrock,
May 21 2022, 01:10:37 Necromästery - Forgotten Prophets [ep] (2019)


*Artist: Necromästery
*Album: Forgotten Prophets [ep]
*Year: 2019
*Genre: Black/Thrash Metal
*Country: Poland
*Format: mp3@CBR320kbps
*Size: 25MB

Tracklist:
1. Intro / Shadows 05:00
2. Forgotten Prophets 03:25
3. Alcoholic Rock 'n' Roll 02:10
******************************
Total playing time: 10:35




[more=Technical info]
Input File: 01 Intro & Shadows.mp3
Channels : 2
Sample Rate : 44100
Precision : 16-bit
Duration : 00:04:59.70 = 13216594 samples = 22477.2 CDDA sectors
File Size : 12.1M
Bit Rate : 324k
Sample Encoding: MPEG audio (layer I, II or III)
Comments :
Title=Intro & Shadows
Artist=Necromästery
Album=Forgotten Prophets
Tracknumber=1
Year=2019
Genre=Blackened Thrash Metal

[/more]

Register
(5) artscald, boby9052, caro, stormhatt, stumpheavyrock,
May 20 2022, 22:03:09 Lucifer's Hammer - Night Sacrifice [demo] (2013)


*Artist: Lucifer's Hammer
*Album: Night Sacrifice [demo]
*Year: 2013
*Genre: Heavy Metal
*Country: Chile
*Format: mp3@CBR320kbps
*Size: 34MB

Tracklist:
1. Wolf 04:15
2. Shadows 05:20
3. Night Sacrifice 04:54
******************************
Total playing time: 14:29




[more=Technical info]
Input File: 01 Wolf.mp3
Channels : 2
Sample Rate : 44100
Precision : 16-bit
Duration : 00:04:16.02 = 11290350 samples = 19201.3 CDDA sectors
File Size : 10.3M
Bit Rate : 322k
Sample Encoding: MPEG audio (layer I, II or III)
Comments :
Title=Wolf
Artist=Lucifer's Hammer
Album=Night Sacrifice (Demo MMXIII)
Tracknumber=1
Year=2014
Genre=Heavy Metal

[/more]

Register
(3) artscald, caro, stumpheavyrock,
May 20 2022, 19:54:09 Morbific - Promo '21 [demo] (2021)


*Artist: Morbific
*Album: Promo '21 [demo]
*Year: 2021
*Genre: Death Metal
*Country: Finland
*Format: mp3@CBR320kbps
*Size: 16MB

Tracklist:
1. Pathogenic Injection 03:47
2. The Head Harvest 02:58
******************************
Total playing time: 6:45




[more=Technical info]
Input File: 01 Pathogenic Injection.mp3
Channels : 2
Sample Rate : 44100
Precision : 16-bit
Duration : 00:03:47.65 = 10039189 samples = 17073.5 CDDA sectors
File Size : 9.25M
Bit Rate : 325k
Sample Encoding: MPEG audio (layer I, II or III)
Comments :
Title=Pathogenic Injection
Artist=Morbific
Album=Promo '21
Tracknumber=1
Year=2021
Genre=Death Metal

[/more]

Register
(6) artscald, caro, desekrator, Marek, Occultas, VALERY,
May 20 2022, 19:46:02 Earthly Form - Screaming Winds [ep] (2021)


*Artist: Earthly Form
*Album: Screaming Winds [ep]
*Year: 2021
*Genre: Black Metal
*Country: Finland
*Format: mp3@CBR256kbps
*Size: 40MB

Tracklist:
1. Prologue 02:30
2. Screaming Winds (Life Force) 04:10
3. Prophecy Fulfilled 04:10
4. Forgotten Language of the Instincts 06:15
5. Blessed Desolation 04:46
******************************
Total playing time: 21:51




[more=Technical info]
Input File: 02 Screaming Winds (Life Force).mp3
Channels : 2
Sample Rate : 44100
Precision : 16-bit
Duration : 00:04:10.92 = 11065616 samples = 18819.1 CDDA sectors
File Size : 8.03M
Bit Rate : 256k
Sample Encoding: MPEG audio (layer I, II or III)
Comments :
Title=Screaming Winds (Life Force)
Artist=Earthly Form
Album=Screaming Winds
Tracknumber=2
Year=2021
Genre=Black Metal

[/more]

Register
(7) Altkiller, artscald, caro, kim666, Storky, stormhatt, VALERY,
May 19 2022, 20:18:41 Draugsang - Nordlands Trompet [ep] (2019)


*Artist: Draugsang
*Album: Nordlands Trompet [ep]
*Year: 2019
*Genre: Black Metal
*Country: Norway
*Format: mp3@CBR320kbps
*Size: 43MB

Tracklist:
1. Liv & Død 04:19
2. Nordlands Trompet 06:20
3. Sørvest & Blod 07:51
******************************
Total playing time: 18:30


Preview 2
Preview 3

[more=Technical info]
Input File: 01 Liv & Død.mp3
Channels : 2
Sample Rate : 44100
Precision : 16-bit
Duration : 00:04:19.15 = 11428603 samples = 19436.4 CDDA sectors
File Size : 10.5M
Bit Rate : 323k
Sample Encoding: MPEG audio (layer I, II or III)
Comments :
Title=Liv & Død
Artist=Draugsang
Album=Nordlands Trompet
Tracknumber=1
Year=2019
Genre=Black Metal

[/more]

Register
(11) aleon, Altkiller, artscald, Carcharoth, caro, Hell_Is_Here, kim666, Marek, SileniusLegard, stormhatt, VALERY,
Apr 22 2022, 09:55:39 Cult Of Catharsis & Opus Forgotten - Lord Of The Gallows/Unleash The Fury [split] (2004)
CBR320kbps

Register
(2) thenecromancer, wreak,
Apr 10 2022, 23:03:09 Beyond Melancholy - That Emptiness That Will Never Be Filled Again... [ep] (2022)


*Artist: Beyond Melancholy
*Album: That Emptiness That Will Never Be Filled Again... [ep]
*Year: 2022
*Genre: Depressive Black Metal
*Country: Italy
*Format: mp3@CBR320kbps
*Size: 38MB

Tracklist:
1. That Emptiness That Will Never Be Filled Again.​.​. (Pt.1) 08:21
2. That Emptiness That Will Never Be Filled Again.​.​. (Pt.2) 08:08
******************************
Total playing time: 16:29



[more=Technical info]
Input File: 01 That Emptiness That Will Never Be Filled Again .​.​. Pt. 1.mp3
Channels : 2
Sample Rate : 44100
Precision : 16-bit
Duration : 00:08:21.43 = 22112843 samples = 37606.9 CDDA sectors
File Size : 20.2M
Bit Rate : 322k
Sample Encoding: MPEG audio (layer I, II or III)
Comments :
Title=That Emptiness That Will Never Be Filled Again .​.​. Pt. 1
Artist=Beyond Melancholy
Album=That Emptiness That Will Never Be Filled Again .​.​.
Tracknumber=1
Year=2022
Genre=DSBM

[/more]

Register
(15) aleon, artscald, caro, Dante_D, kim666, libertine, obituarydark, Olethros, Razorbladeswaltz, SilentNidhogg, stormhatt, VALERY, varlam4, vlad74, wreak,
Apr 10 2022, 22:47:08 Derelenismo Occulere & Hellgoat - Derelenismo Occulere/Hellgoat [split] (2022)


*Artist: Derelenismo Occulere & Hellgoat
*Album: Derelenismo Occulere/Hellgoat [split]
*Year: 2022
*Genre: Black Metal | Raw Black Metal
*Country: Ecuador | Sweden
*Format: mp3@CBR320kbps
*Size: 55MB

Tracklist:
Derelenismo Occulere:
1.Regis Nigri Elatio Per Ignem Aethereum Ducens Ad Mortem Inexorabilem 10:33
HellGoat:
2.Medans Du Kvävs I Ditt Egna Blod 04:12
3.Hora lll 03:00
4.Inte Ens Döden Ska Ge Dig Frid 02:29
5.Rest In Piss 03:09
******************************
Total playing time: 23:23





[more=Technical info]
Input File: 01 Derelenismo Occulere - Regis Nigri Elatio Per Ignem Aethereum Ducens Ad Mortem Inexorabilem.mp3
Channels : 2
Sample Rate : 44100
Precision : 16-bit
Duration : 00:10:33.64 = 27943436 samples = 47522.9 CDDA sectors
File Size : 25.5M
Bit Rate : 322k
Sample Encoding: MPEG audio (layer I, II or III)
Comments :
Title=Regis Nigri Elatio Per Ignem Aethereum Ducens Ad Mortem Inexorabilem
Artist=Derelenismo Occulere
Album=Derelenismo Occulere / Hellgoat
Tracknumber=1
Year=2022
Genre=Black Metal

[/more]

Register
(16) artscald, caro, Hell_Is_Here, Ildjarn, INDARKNESS, kim666, Lanceatum, nemx, SilentNidhogg, stormhatt, Styx, supremo, VALERY, varlam4, Wail, wreak,
Apr 10 2022, 22:30:24 Doden Grotte - Demo MMXIII [demo] (2013)


*Artist: Doden Grotte
*Album: Demo MMXIII [demo]
*Year: 2013
*Genre: Black Metal
*Country: Russian Federation
*Format: mp3@CBR320kbps
*Size: 46MB

Tracklist:
1.In Nomine Lucefer (Part I) 06:05
2.Love Through Sadism 05:32
3.Doden Grotte 04:42
4.Angel Of Sodomy (Archgoat cover) 03:16
******************************
Total playing time: 19:35





[more=Technical info]
Input File: 01 In Nomine Lucefer (Part I).mp3
Channels : 2
Sample Rate : 44100
Precision : 16-bit
Duration : 00:06:05.61 = 16123269 samples = 27420.5 CDDA sectors
File Size : 14.8M
Bit Rate : 323k
Sample Encoding: MPEG audio (layer I, II or III)
Comments :
Title=In Nomine Lucefer (Part I)
Artist=Doden Grotte
Album=Demo MMXIII
Tracknumber=1
Year=2013
Genre=Black Metal

[/more]

Register
(11) artscald, caro, kim666, Occultas, Olethros, SilentNidhogg, stormhatt, VALERY, varlam4, Wail, wreak,
Apr 10 2022, 22:22:14 Nimostor - Nimostor [ep] (2022)


*Artist: Nimostor
*Album: Nimostor [ep]
*Year: 2022
*Genre: Black Metal
*Country: Russian Federation
*Format: mp3@CBR320kbps
*Size: 63MB

Tracklist:
1.Начало 01:52
2.Кровью 04:58
3.Буря 04:34
4.Царство дождя 05:18
5.По морям 04:09
6.Лёд и пепел 06:28
******************************
Total playing time: 27:19



[more=Technical info]
Input File: 02 Кровью.mp3
Channels : 2
Sample Rate : 44100
Precision : 16-bit
Duration : 00:04:59.04 = 13187796 samples = 22428.2 CDDA sectors
File Size : 12.1M
Bit Rate : 323k
Sample Encoding: MPEG audio (layer I, II or III)
Comments :
Title=Кровью
Artist=NIMOSTOR
Album=Nimostor
Tracknumber=2
Year=2022
Genre=Black Metal

[/more]

Register
(13) Altkiller, artscald, caro, kim666, Mencae77, metaljosue, Olethros, robertho777, SilentNidhogg, stormhatt, VALERY, varlam4, wreak,
Apr 10 2022, 22:13:13 Goatmaster - The Ones God Left Behind [ep] (2017)


*Artist: Goatmaster
*Album: The Ones God Left Behind [ep]
*Year: 2017
*Genre: Heavy/Speed Metal
*Country: Indonesia
*Format: mp3@CBR320kbps
*Size: 43MB

Tracklist:
1.Satan Arise 03:58
2.From The Depths Of Hell 04:57
3.Heaven's Falling Down 03:48
4.The Oath (Mercyful Fate cover) 05:37
******************************
Total playing time: 18:20




[more=Technical info]
Input File: 01 Satan Arise.mp3
Channels : 2
Sample Rate : 44100
Precision : 16-bit
Duration : 00:03:58.80 = 10531124 samples = 17910.1 CDDA sectors
File Size : 9.79M
Bit Rate : 328k
Sample Encoding: MPEG audio (layer I, II or III)
Comments :
Title=Satan Arise
Artist=Goatmaster
Album=The Ones God Left Behind
Tracknumber=1
Year=2017
Genre=Heavy Metal

[/more]

Register
(12) after21allD, artscald, Bloodline Christian, caro, Mogozoz, Olethros, sergsazan, stumpheavyrock, varlam4, Wail, wgs73, wreak,
Apr 10 2022, 03:09:34 Hæresis - To Drown​.​.​. [ep] (2020)


*Artist: Hæresis
*Album: To Drown​.​.​. [ep]
*Year: 2020
*Genre: Post-Black Metal
*Country: Germany
*Format: mp3@CBR320kbps
*Size: 59MB

Tracklist:
1. I. In the Wake... 13:53
2. II. ...Of Stygian Nights 10:09
******************************
Total playing time: 24:02




[more=Technical info]
Input File: 01 I. In the wake....mp3
Channels : 2
Sample Rate : 44100
Precision : 16-bit
Duration : 00:13:53.54 = 36759026 samples = 62515.4 CDDA sectors
File Size : 33.4M
Bit Rate : 321k
Sample Encoding: MPEG audio (layer I, II or III)
Comments :
Title=I. In the wake...
Artist=Hæresis
Album=To Drown...
Tracknumber=1
Year=2020
Genre=Black Metal

[/more]

Register
(13) artscald, caro, Dante_D, fang, kim666, Mencae77, Olethros, SilentNidhogg, sludge666, stormhatt, Taakeferd, varlam4, wreak,
Apr 10 2022, 02:17:05 Kratt & Hæresis - Z 3/1 2 [split] (2021)


*Artist: Kratt & Hæresis
*Album: Z 3/1 2 [split]
*Year: 2021
*Genre: Post-Black Metal | Post-Black Metal
*Country: Germany | Germany
*Format: mp3@CBR320kbps
*Size: 48MB

Tracklist:
Kratt:
1.Wiederkehr 08:59
Hæresis:
2.The Eroding Self 11:40
******************************
Total playing time: 20:39






[more=Technical info]
Input File: 01 KRATT - Wiederkehr.mp3
Channels : 2
Sample Rate : 44100
Precision : 16-bit
Duration : 00:08:59.28 = 23782160 samples = 40445.9 CDDA sectors
File Size : 21.7M
Bit Rate : 322k
Sample Encoding: MPEG audio (layer I, II or III)
Comments :
Title=Wiederkehr
Artist=Kratt
Album=Z 3 / 1 2
Tracknumber=1
Year=2021
Genre=Black Metal

[/more]

Register
(14) artscald, Carcharoth, caro, Dante_D, fang, kim666, murian, robertho777, SilentNidhogg, stormhatt, Taakeferd, Tyrone, varlam4, wreak,

272 Pages V   1 2 3 > » 
- Lo-Fi Version Support form
Copyrights and abuse reports form
Time is now: 28th May 2022 - 08:45:18