Welcome Guest ( Log In | Register )

История благодарностей участнику smysl ::: Спасибо сказали: 93601 раз(а)
Дата поста: В теме: За сообщение: Спасибо сказали:
Yesterday, 17:59:20 Morte - Entes Ominosos [demo] (2020)


*Artist: Morte
*Album: Entes Ominosos [demo]
*Year: 2020
*Genre: Death/Doom Metal
*Country: Argentina
*Format: mp3@CBR320kbps
*Size: 26MB

Tracklist:
1.Entes Ominosos 06:35
2.Antítesis De La Creación 04:43
******************************
Total playing time: 11:18





[more=Technical info]
Input File: 01 Entes Ominosos.mp3
Channels : 2
Sample Rate : 44100
Precision : 16-bit
Duration : 00:06:35.83 = 17456191 samples = 29687.4 CDDA sectors
File Size : 15.9M
Bit Rate : 322k
Sample Encoding: MPEG audio (layer I, II or III)
Comments :
Title=Entes Ominosos
Artist=Morte
Album=Entes Ominosos
Tracknumber=1
Year=2020
Genre=Death Metal

[/more]

Register
(7) caro, infiltrator, Olethros, sergsazan, Taakeferd, thenecromancer, VALERY,
Yesterday, 10:49:50 Apex Decay - Ceremony Of Sickness [demo] (2021)


*Artist: Apex Decay
*Album: Ceremony Of Sickness [demo]
*Year: 2021
*Genre: Death/Black Metal
*Country: United States
*Format: mp3@CBR320kbps
*Size: 21MB

Tracklist:
1.Beyond Cruelty 02:08
2.Dysphoria 01:06
3.Ceremony of Sickness 03:19
4.Breathing Charred Remains 02:12
******************************
Total playing time: 8:45



[more=Technical info]
Input File: 01 Beyond Cruelty.mp3
Channels : 2
Sample Rate : 44100
Precision : 16-bit
Duration : 00:02:08.92 = 5685548 samples = 9669.3 CDDA sectors
File Size : 5.26M
Bit Rate : 326k
Sample Encoding: MPEG audio (layer I, II or III)
Comments :
Title=Beyond Cruelty
Artist=Apex Decay
Album=Ceremony of Sickness
Tracknumber=1
Year=2021
Genre=Death/Black Metal

[/more]

Register
(7) caro, craP_cillA, infiltrator, Olethros, sludge666, Taakeferd, VALERY,
Jul 26 2021, 18:22:07 Sickle Of Dust - Where The Sun Glare Danced (2021)


*Artist: Sickle Of Dust
*Album: Where The Sun Glare Danced
*Year: 2021
*Genre: Epic/Atmospheric Black Metal
*Country: Russian Federation
*Format: mp3@CBR320kbps
*Size: 95MB

Tracklist:
1.Where the Sun Glare Danced 09:09
2.Dead Leaves Falling 08:19
3.In Ancient Ruins and Endless Dreams 08:34
4.The Truth That Must Remain Unseen 06:31
5.After the Fall 08:08
******************************
Total playing time: 40:41




[more=Technical info]
Input File: 01 Where the Sun Glare Danced.mp3
Channels : 2
Sample Rate : 44100
Precision : 16-bit
Duration : 00:09:10.12 = 24260292 samples = 41259 CDDA sectors
File Size : 22.1M
Bit Rate : 321k
Sample Encoding: MPEG audio (layer I, II or III)
Comments :
Title=Where the Sun Glare Danced
Artist=Sickle of Dust
Album=Where the Sun Glare Danced
Tracknumber=1
Year=2021
Genre=Black Metal

[/more]

Register
(19) Aamiinaa, AlexSmith, caro, dan22, djsema4, GorAtheist, HMHamster, infiltrator, kim666, Korpse, Lucifer, Old Vyaine, Olethros, Olrak, supremo, VALERY, vasiljev_sergej, witchfinder, Сварог Барг,
Jul 26 2021, 16:01:17 Hatecrime - Apotheosis Of The Beast [demo] (2021)


*Artist: Hatecrime
*Album: Apotheosis Of The Beast [demo]
*Year: 2021
*Genre: Blackened Death Metal
*Country: Russian Federation
*Format: mp3@CBR320kbps
*Size: 25MB

Tracklist:
1.Satan In Me 05:09
2.Apotheosis Of The Beast 05:45
******************************
Total playing time: 10:54




[more=Technical info]
Input File: 01 Satan In Me.mp3
Channels : 2
Sample Rate : 44100
Precision : 16-bit
Duration : 00:05:09.88 = 13665884 samples = 23241.3 CDDA sectors
File Size : 12.4M
Bit Rate : 321k
Sample Encoding: MPEG audio (layer I, II or III)
Comments :
Title=Satan In Me
Artist=HateCrime
Album=Apotheosis Of The Beast
Tracknumber=1
Year=2021
Genre=Death Metal

[/more]

Register
(6) caro, infiltrator, Olethros, Taakeferd, VALERY, wanderer73,
Jul 26 2021, 12:24:59 Obsessör & Hellhunt - The Night Is On Fire/Reaper's Funeral [split] (2014)


*Artist: Obsessör & Hellhunt
*Album: The Night Is On Fire/Reaper's Funeral [split]
*Year: 2014
*Genre: Black/Thrash Metal | Black/Thrash Metal
*Country: Germany | Germany
*Format: mp3@CBR320kbps
*Size: 26MB

Tracklist:
Obsessör:
1.The Night is on Fire 03:33
Hellhunt:
2.Intro 00:46
3.Reaper's Funeral 04:20
******************************
Total playing time: 8:39





[more=Technical info]
Input File: 01 Obsessör - The Night is on Fire.mp3
Channels : 2
Sample Rate : 44100
Precision : 16-bit
Duration : 00:03:33.96 = 9435504 samples = 16046.8 CDDA sectors
File Size : 8.62M
Bit Rate : 322k
Sample Encoding: MPEG audio (layer I, II or III)
Comments :
Title=The Night is on Fire
Artist=Obsessör
Album=The Night is on Fire/Reaper’s Funeral
Tracknumber=1
Year=2014
Genre=Black/Thrash Metal

[/more]

Register
(6) caro, craP_cillA, infiltrator, stumpheavyrock, Taakeferd, vasiljev_sergej,
Jul 25 2021, 22:23:55 Aphotic Spectre - Væneration (2021)


*Artist: Aphotic Spectre
*Album: Væneration
*Year: 2021
*Genre: Funeral Doom Metal
*Country: Brazil
*Format: mp3@CBR320kbps
*Size: 110MB

Tracklist:
1.Torn Asunder 09:27
2.Hunter (Interlude I) 02:22
3.Ascended 09:27
4.Obnoxious 09:11
5.Adept (Interlude II) 02:42
6.Unrelieved 10:07
7.Harbinger (Outro) 04:40
******************************
Total playing time: 47:56




[more=Technical info]
Input File: 01 Torn Asunder.mp3
Channels : 2
Sample Rate : 44100
Precision : 16-bit
Duration : 00:09:27.34 = 25019474 samples = 42550.1 CDDA sectors
File Size : 22.8M
Bit Rate : 321k
Sample Encoding: MPEG audio (layer I, II or III)
Comments :
Title=Torn Asunder
Artist=Aphotic Spectre
Album=Væneration
Tracknumber=1
Year=2021
Genre=Metal

[/more]

Register
(15) AlexSmith, andreikun, caro, grimoir, HMHamster, infiltrator, infozahist, LEGION69, Mencae77, metala, Olethros, sergsazan, supremo, VALERY, vyacheslav,
Jul 25 2021, 18:51:01 Terribilis - Terribilis/Грянет Суть [compilation] (2017)


*Artist: Terribilis
*Album: Terribilis/Грянет Суть [compilation]
*Year: 2017
*Genre: Black Metal
*Country: Russian Federation
*Format: mp3@CBR320kbps
*Size: 111MB

Tracklist:
1. Мерзость богова... 05:39
2. На заклание к чёрту! 04:44
3. Дары 03:05
4. Глубинный червь 04:48
5. Стань ядом 06:24
6. Монолог над могилой 05:26
7. Грянет суть 05:16
8. Мой зеркальный гость 04:06
9. Моё царство, мой трон 05:34
10. Чтобы потухли глаза... 02:54
******************************
Total playing time: 47:56



[more=Technical info]
Input File: 01 Мерзость богова....mp3
Channels : 2
Sample Rate : 44100
Precision : 16-bit
Duration : 00:05:37.99 = 14905535 samples = 25349.5 CDDA sectors
File Size : 13.8M
Bit Rate : 326k
Sample Encoding: MPEG audio (layer I, II or III)
Comments :
Title=Мерзость богова...
Artist=Terribilis
Album=Terribilis / Грянет Суть
Tracknumber=1
Year=2017
Genre=Black Metal

[/more]

Register
(8) caro, infiltrator, kim666, Olethros, supremo, Taakeferd, VALERY, vasiljev_sergej,
Jul 25 2021, 13:57:06 Serpentrance - Akra Tapeinosis (2021)


*Artist: Serpentrance
*Album: Akra Tapeinosis
*Year: 2021
*Genre: Black/Death/Doom Metal
*Country: Russian Federation
*Format: mp3@CBR320kbps
*Size: 99MB

Tracklist:
1.Vomit & Myrrh 07:34
2.Cloathed in Abomination 07:38
3.The Tarnished Shrines of God 07:14
4.Underneath Babylon 11:35
5.The Black Dawn of Sophia 09:10
******************************
Total playing time: 43:11




[more=Technical info]
Input File: 01 Vomit & Myrrh.mp3
Channels : 2
Sample Rate : 44100
Precision : 16-bit
Duration : 00:07:34.59 = 20047199 samples = 34093.9 CDDA sectors
File Size : 18.3M
Bit Rate : 322k
Sample Encoding: MPEG audio (layer I, II or III)
Comments :
Title=Vomit & Myrrh
Artist=SERPENTRANCE
Album=Akra Tapeinosis
Tracknumber=1
Year=2021
Genre=Black/Death Metal

[/more]

Register
(17) Ainar, AlexSmith, Bzth, caro, deadterror, grimoir, Infidel, infiltrator, lacrimoza, metala, Occultas, Olethros, supremo, Taakeferd, VALERY, vasiljev_sergej, wtk.412,
Jul 24 2021, 19:36:22 Necrovomit - Devotion To Death [compilation] (2020)


*Artist: Necrovomit
*Album: Devotion To Death [compilation]
*Year: 2020
*Genre: Black/Thrash Metal
*Country: Peru
*Format: mp3@CBR320kbps
*Size: 82MB

Tracklist:
1.Crushfuck Invocation 04:24
2.Inherited Torment 02:56
3.Mercenary Cremation 03:25
4.Sabbat Ritual 02:10
5.Funeral To The Death Soldiers 03:16
6.Baphomet Revenge 01:49
7.Crushfuck Invocation 04:30
8.Mercernary Cremation 03:26
9.Temple Of Wisdom 03:27
10.Warcommand Holocaust 05:07
******************************
Total playing time: 34:30




[more=Extended info]Tracks 1-2 taken from "Devotion to Death" EP, 2017.
Tracks 3-6 taken from "Demo II" 2016.
Tracks 7-10 taken from "Temple of Wisdom" Demo, 2016.[/more]

[more=Technical info]
Input File: 01 Crushfuck Invocation.mp3
Channels : 2
Sample Rate : 44100
Precision : 16-bit
Duration : 00:04:24.30 = 11655542 samples = 19822.4 CDDA sectors
File Size : 10.8M
Bit Rate : 328k
Sample Encoding: MPEG audio (layer I, II or III)
Comments :
Title=Crushfuck Invocation
Artist=NECROVOMIT
Album=Devotion To Death
Tracknumber=1
Year=2020
Genre=Metal

[/more]

Register
(14) caro, infiltrator, Olethros, Pinhead666, Reverend, stumpheavyrock, supremo, Taakeferd, thenecromancer, uk82grind, varlam4, vasiljev_sergej, wanderer73, wgs73,
Jul 24 2021, 19:01:33 Sanctuaire - Spectre De Mondes Passés (2021)


*Artist: Sanctuaire
*Album: Spectre De Mondes Passés
*Year: 2021
*Genre: Atmospheric Black Metal
*Country: Canada
*Format: mp3@CBR320kbps
*Size: 94MB

Tracklist:
1.Les runes ont parlés 00:45
2.Spectre de Mondes Passés 04:02
3.Le Sang et la Sève 08:02
4.La Crue Mystique 07:21
5.Triskelion 02:35
6.Sidhgard, triomphale! 07:59
7.Le Chevalier au Coeur Glacé 05:28
8.Lumière du Nord 03:19
******************************
Total playing time: 39:31



[more=Technical info]
Input File: 02 Spectre de Mondes Passés.mp3
Channels : 2
Sample Rate : 44100
Precision : 16-bit
Duration : 00:04:02.88 = 10710876 samples = 18215.8 CDDA sectors
File Size : 9.92M
Bit Rate : 327k
Sample Encoding: MPEG audio (layer I, II or III)
Comments :
Title=Spectre de Mondes Passés
Artist=Sanctuaire
Album=Spectre de Mondes Passés
Tracknumber=2
Year=2021
Genre=Black Metal

[/more]

Register
(33) aleon, AlexSmith, Bzth, caro, dan22, durandal, El_Chibo, gnosiis, infiltrator, kim666, Kodel, Korpse, LEGION69, metala, Moonshtook, murian, nemx, nord6666, nsmetalhead, Olethros, rammmirez, sabr, sergsazan, stub888, supremo, Taakeferd, TeamatSE, thenecromancer, VALERY, varlam4, vasiljev_sergej, Velmi, vovenom,
Jul 24 2021, 18:33:54 Hands Of Doom - Cahuideath [demo] (2020)


*Artist: Hands Of Doom
*Album: Cahuideath [demo]
*Year: 2020
*Genre: Thrash/Black Metal
*Country: Peru
*Format: mp3@CBR320kbps
*Size: 64MB

Tracklist:
1.Hands Of Doom 08:18
2.Attila The Hun 06:56
3.Raw War 04:56
4.Cahuideath 06:49
******************************
Total playing time: 26:59




[more=Extended info]Unreleased demo advance from 2010.[/more]

[more=Technical info]
Input File: 01 Hands Of Doom.mp3
Channels : 2
Sample Rate : 44100
Precision : 16-bit
Duration : 00:08:18.34 = 21976882 samples = 37375.6 CDDA sectors
File Size : 20.1M
Bit Rate : 323k
Sample Encoding: MPEG audio (layer I, II or III)
Comments :
Title=Hands Of Doom
Artist=HANDS OF DOOM
Album=Cahuideath
Tracknumber=1
Year=2020
Genre=Metal

[/more]

Register
(8) caro, infiltrator, Olethros, stumpheavyrock, Taakeferd, thenecromancer, vasiljev_sergej, wgs73,
Jul 24 2021, 18:13:41 Constrictor - Condenado [demo] (2017)


*Artist: Constrictor
*Album: Condenado [demo]
*Year: 2017
*Genre: Death/Thrash Metal
*Country: Peru
*Format: mp3@CBR320kbps
*Size: 63MB

Tracklist:
1.Peste 05:14
2.Asesino 04:02
3.Vicios Eternos 02:55
4.Días de Muerte 03:00
5.Condenado 03:08
6.Vísceras (Bonus track) 04:35
7.Superstición (Live bonus track) 03:48
******************************
Total playing time: 26:42




[more=Technical info]
Input File: 01 Peste.mp3
Channels : 2
Sample Rate : 44100
Precision : 16-bit
Duration : 00:05:14.85 = 13884797 samples = 23613.6 CDDA sectors
File Size : 12.7M
Bit Rate : 323k
Sample Encoding: MPEG audio (layer I, II or III)
Comments :
Title=Peste
Artist=CONSTRICTOR
Album=Condenado
Tracknumber=1
Year=2021
Genre=Metal

[/more]

Register
(8) caro, infiltrator, nord6666, Olethros, stumpheavyrock, Taakeferd, wanderer73, wgs73,
Jul 24 2021, 16:21:20 Sombre Figures - Streams Of Decay (2021)


*Artist: Sombre Figures
*Album: Streams Of Decay
*Year: 2021
*Genre: Black Metal
*Country: Finland
*Format: mp3@CBR320kbps
*Size: 68MB

Tracklist:
1.Broken Bones 03:39
2.Grandmother of Death 03:38
3.Forest 04:30
4.Ancient Ride 04:30
5.Great Realm 05:05
6.Blooming Corpses 02:09
7.Streams 05:47
******************************
Total playing time: 29:18



[more=Technical info]
Input File: 01 Broken Bones.mp3
Channels : 2
Sample Rate : 44100
Precision : 16-bit
Duration : 00:03:39.57 = 9683213 samples = 16468 CDDA sectors
File Size : 8.84M
Bit Rate : 322k
Sample Encoding: MPEG audio (layer I, II or III)
Comments :
Title=Broken Bones
Artist=Sombre Figures
Album=Streams of Decay
Tracknumber=1
Year=2021
Genre=Black Metal

[/more]

Register
(20) AlexSmith, caro, dan22, Ildjarn, infiltrator, kim666, Korpse, NachtWulf, Olethros, Pinhead666, Skog1349, smes, stub888, supremo, Taakeferd, VALERY, varlam4, vasiljev_sergej, Witchmaster, yarrsuaa,
Jul 24 2021, 14:09:51 Kryptan - Kryptan [ep] (2021)


*Artist: Kryptan
*Album: Kryptan [ep]
*Year: 2021
*Genre: Black Metal
*Country: Sweden
*Format: mp3@CBR320kbps
*Size: 50MB

Tracklist:
1.A Giant Leap For Whoredom 04:44
2.Bedårande Barn 06:32
3.Blessed Be The Glue 05:09
4.Burn The Priest 05:05
******************************
Total playing time: 21:30




[more=Technical info]
Input File: 01 A Giant Leap For Whoredom.mp3
Channels : 2
Sample Rate : 44100
Precision : 16-bit
Duration : 00:04:44.60 = 12550684 samples = 21344.7 CDDA sectors
File Size : 11.5M
Bit Rate : 324k
Sample Encoding: MPEG audio (layer I, II or III)
Comments :
Title=A Giant Leap For Whoredom
Artist=Kryptan
Album=Kryptan
Tracknumber=1
Year=2021
Genre=Black Metal

[/more]

Register
(18) Bzth, caro, cesar, GorAtheist, Ildjarn, infiltrator, kim666, lynx777, Marek, metamfer, NachtWulf, Olethros, stub888, Taakeferd, VALERY, vasiljev_sergej, vov7609, vovenom,
Jul 24 2021, 13:28:46 Indre Mørke - Hymnes Misanthropiques, Ode À La Noirceur [ep] (2021)


*Artist: Indre Mørke
*Album: Hymnes Misanthropiques, Ode À La Noirceur [ep]
*Year: 2021
*Genre: Raw Black Metal
*Country: International
*Format: mp3@CBR320kbps
*Size: 41MB

Tracklist:
1.Sombre Noirceur 01:50
2.Pénombre 03:11
3.Flammes Purificatrices (Ft Brahz) 04:00
4.Ténèbres intérieures 03:05
5.Errance en Enfer (Ft Martyr) 03:44
6.Envol Mélancolique vers la Lune 03:42
******************************
Total playing time: 19:32



[more=Technical info]
Input File: 01 Sombre Noirceur.mp3
Channels : 2
Sample Rate : 44100
Precision : 16-bit
Duration : 00:01:50.93 = 4891793 samples = 8319.38 CDDA sectors
File Size : 4.49M
Bit Rate : 324k
Sample Encoding: MPEG audio (layer I, II or III)
Comments :
Title=Sombre Noirceur
Artist=Indre Mørke
Album=Hymnes Misanthropiques, Ode à la Noirceur (EP)
Tracknumber=1
Year=2021
Genre=Black Metal

[/more]

Register
(9) caro, infiltrator, kim666, nemx, Olethros, Taakeferd, VALERY, vasiljev_sergej, Vitald,
Jul 24 2021, 12:54:44 Dark Desires - The Mighty Dark And Frozen Mountains [ep] (2021)


*Artist: Dark Desires
*Album: The Mighty Dark And Frozen Mountains [ep]
*Year: 2021
*Genre: Black Metal
*Country: Brazil
*Format: mp3@CBR320kbps
*Size: 48MB

Tracklist:
1.Frozen Mountains 03:24
2.The Dimension Where I Am Dead 05:44
3.When All Birds Have Died 04:35
4.The Darkest Lies Comes from Rotting Mouths 03:16
5.Wolves War 03:56
******************************
Total playing time: 20:55



[more=Technical info]
Input File: 01 Frozen Mountains.mp3
Channels : 2
Sample Rate : 44100
Precision : 16-bit
Duration : 00:03:24.66 = 9025374 samples = 15349.3 CDDA sectors
File Size : 8.25M
Bit Rate : 323k
Sample Encoding: MPEG audio (layer I, II or III)
Comments :
Title=Frozen Mountains
Artist=Dark Desires
Album=The Mighty Dark and Frozen Mountains
Tracknumber=1
Year=2021
Genre=Black Metal

[/more]

Register
(10) caro, Ildjarn, infiltrator, kim666, Olethros, Taakeferd, VALERY, vasiljev_sergej, vovenom, yarrsuaa,
Jul 24 2021, 11:54:29 Xerión - Lamento Luminescente [ep] (2021)


*Artist: Xerión
*Album: Lamento Luminescente [ep]
*Year: 2021
*Genre: Black Metal
*Country: Spain
*Format: mp3@CBR320kbps
*Size: 41MB

Tracklist:
1.Nom sempre floresce em maio... 01:41
2.Onde as impassíveis pedras 04:52
3.E nembargantes, floresce... 01:18
4.A espiral da incerteza 05:28
5.Lamento luminescente 04:07
******************************
Total playing time: 17:26




[more=Technical info]
Input File: 02 Onde as impassíveis pedras.mp3
Channels : 2
Sample Rate : 44100
Precision : 16-bit
Duration : 00:04:52.62 = 12904366 samples = 21946.2 CDDA sectors
File Size : 11.8M
Bit Rate : 324k
Sample Encoding: MPEG audio (layer I, II or III)
Comments :
Title=Onde as impassíveis pedras
Artist=Xerión
Album=Lamento luminescente
Tracknumber=2
Year=2021
Genre=Black Metal

[/more]

Register
(15) caro, Druidir, El_Chibo, igore2911, Ildjarn, infiltrator, kaldun_85, kauyumari, kim666, Olethros, Reverend, Taakeferd, VALERY, vasiljev_sergej, Velmi,
Jul 24 2021, 02:02:15 Belial's Throne - Pavor Nocturnus [ep] (2020)


*Artist: Belial's Throne
*Album: Pavor Nocturnus [ep]
*Year: 2020
*Genre: Black Metal
*Country: Ireland
*Format: mp3@CBR320kbps
*Size: 48MB

Tracklist:
1.Pavor Nocturnus 03:42
2.Breathe 05:39
3.Cold Void 05:04
4.Whispers Hidden in the Dark 05:00
******************************
Total playing time: 19:25





[more=Extended info]Re-mixed and re-mastered with new drum line in 2021.[/more]

[more=Technical info]
Input File: 01 Pavor Nocturnus.mp3
Channels : 2
Sample Rate : 44100
Precision : 16-bit
Duration : 00:03:42.47 = 9811103 samples = 16685.5 CDDA sectors
File Size : 9.10M
Bit Rate : 327k
Sample Encoding: MPEG audio (layer I, II or III)
Comments :
Title=Pavor Nocturnus
Artist=Belial's Throne
Album=Pavor Nocturnus
Tracknumber=1
Year=2021
Genre=Metal

[/more]

Register
(10) caro, craP_cillA, El_Chibo, infiltrator, kim666, Olethros, stub888, Taakeferd, VALERY, vasiljev_sergej,
Jul 24 2021, 01:41:52 Fusilator - Victory Of The Wolf Brigade [demo] (2019)


*Artist: Fusilator
*Album: Victory Of The Wolf Brigade [demo]
*Year: 2019
*Genre: Black/Speed Metal
*Country: Colombia
*Format: mp3@CBR320kbps
*Size: 69MB

Tracklist:
1.Hail Pagan Lord 05:38
2.The Pentagrams Return 04:57
3.Witching Rock N´ Roll 04:40
4.Walpurgisnacht 05:18
5.Morbid Metal (Bonus track) 03:58
6.Alcoholic Rites (Bonus track) 03:28
******************************
Total playing time: 27:59





[more=Technical info]
Input File: 01 Hail Pagan Lord.mp3
Channels : 2
Sample Rate : 44100
Precision : 16-bit
Duration : 00:05:38.44 = 14925116 samples = 25382.9 CDDA sectors
File Size : 13.7M
Bit Rate : 324k
Sample Encoding: MPEG audio (layer I, II or III)
Comments :
Title=Hail Pagan Lord
Artist=FUSILATOR
Album=Victory Of The Wolf Brigade
Tracknumber=1
Year=2021
Genre=Metal

[/more]

Register
(8) caro, infiltrator, nord6666, Olethros, stumpheavyrock, Taakeferd, VALERY, wgs73,
Jul 24 2021, 01:29:01 Megatherion - Ira De La Bestia (Lex Talionis) [demo] (2016)


*Artist: Megatherion
*Album: Ira De La Bestia (Lex Talionis) [demo]
*Year: 2016
*Genre: Black/Death Metal
*Country: Peru
*Format: mp3@CBR320kbps
*Size: 62MB

Tracklist:
1. Intro / Ira de la Bestia (Lex Talionis) 03:44
2. Culto Eterno 03:44
3. War After Storm... No Place for Peace 03:39
4. The Black Vomit (A Tribute to Sarcófago) 02:04
5. Apostasía 02:16
6. Demoniac Troops of Terror 04:14
7. Christ's Death (Sarcófago cover) 03:38
8. Sex, Drinks & Metal (Sarcófago cover) 03:19
******************************
Total playing time: 26:38




[more=Extended info]Track 1 recorded at La Octava (Arequipa) on February 2016
Track 2 taked from a Live session on November 2015
Tracks 3 & 4 recorded from a rehearsal on October 2015
Bonus tracks:
Tracks 5-6 taken from "Demoniac Troops of Terror" Single, 2019.
Track 7 taken from "Merciless Slaughter" Demo, 2015.
Track 8 taken from "Demoniac Rebellion" Split, 2020.[/more]

[more=Technical info]
Input File: 01 Intro + Ira de la Bestia (Lex Talionis).mp3
Channels : 2
Sample Rate : 44100
Precision : 16-bit
Duration : 00:03:46.78 = 10001174 samples = 17008.8 CDDA sectors
File Size : 9.21M
Bit Rate : 325k
Sample Encoding: MPEG audio (layer I, II or III)
Comments :
Title=Intro + Ira de la Bestia (Lex Talionis)
Artist=MEGATHERION
Album="Ira de la Bestia (Lex Talionis + Demoniac Troops Of Doom"
Tracknumber=1
Year=2021
Genre=Metal

[/more]

Register
(8) caro, infiltrator, nord6666, Olethros, Taakeferd, VALERY, vasiljev_sergej, wanderer73,
Jul 24 2021, 01:12:17 Pagapu - Wanka Total Death [ep] (2021)


*Artist: Pagapu
*Album: Wanka Total Death [ep]
*Year: 2021
*Genre: Pagan Black/Death Metal
*Country: Peru
*Format: mp3@CBR320kbps
*Size: 125MB

Tracklist:
1.Pleasure Of Death 03:57
2.Raza Demencial 03:00
3.Blood Enemy 04:31
4.Winds Of War 05:33
5.A mi Muerte 06:52
6.Tormenta 05:56
7.Días de Ira 04:29
8.Wanka Attack 06:02
9.Hate And War 04:58
10.Final Day 04:41
11.Possession 03:30
******************************
Total playing time: 53:29



[more=Extended info]Tracks 1-5 - EP Wanka Total Death.
Tracks 6-7 taken from "Arte, Magia y Sangre" demo (2003).
Tracks 8-9 taken from "War" demo (2005).
Tracks 10-11 taken from "Death Possession Armageddon" unreleased demo/rehearsal.[/more]

[more=Technical info]
Input File: 01 Pleasure Of Death.mp3
Channels : 2
Sample Rate : 44100
Precision : 16-bit
Duration : 00:03:57.26 = 10463166 samples = 17794.5 CDDA sectors
File Size : 9.65M
Bit Rate : 325k
Sample Encoding: MPEG audio (layer I, II or III)
Comments :
Title=Pleasure Of Death
Artist=PAGAPU
Album=Wanka Total Death
Tracknumber=1
Year=2021
Genre=Metal

[/more]

Register
(8) caro, GorAtheist, infiltrator, NSGM, Olethros, Taakeferd, VALERY, wanderer73,
Jul 24 2021, 00:55:31 Desalmatvs - Manifestvm (2019)


*Artist: Desalmatvs
*Album: Manifestvm
*Year: 2019
*Genre: Black Metal
*Country: Colombia
*Format: mp3@CBR320kbps
*Size: 92MB

Tracklist:
1.Invocacion del Desalmado 02:22
2.La llama Inmortal 04:15
3.Terrible Versículo Oscuro 04:27
4.La cima del Abismo 03:46
5.Holokauztion 03:50
6.ManifestvM 05:01
7.Bajo el Aro de la Noche Eterna 04:14
8.Tormenta Infernal 05:05
9.Outro 02:27
10.La Cima del Abismo (Live bonus track) 03:45
******************************
Total playing time: 39:12





[more=Technical info]
Input File: 02 La llama Inmortal.mp3
Channels : 2
Sample Rate : 44100
Precision : 16-bit
Duration : 00:04:15.86 = 11283426 samples = 19189.5 CDDA sectors
File Size : 10.4M
Bit Rate : 324k
Sample Encoding: MPEG audio (layer I, II or III)
Comments :
Title=La llama Inmortal
Artist=DESALMATVS
Album=Manifestvm
Tracknumber=2
Year=2021
Genre=Metal

[/more]

Register
(10) AlexSmith, caro, Ildjarn, infiltrator, kim666, Olethros, supremo, Taakeferd, VALERY, vasiljev_sergej,
Jul 23 2021, 19:43:53 Azatoth - Ruins Of Humanity [demo] (2021)


*Artist: Azatoth
*Album: Ruins Of Humanity [demo]
*Year: 2021
*Genre: Death Metal
*Country: Finland
*Format: mp3@CBR320kbps
*Size: 53MB

Tracklist:
1.Incised Wounds 04:15
2.Depravity 04:05
3.Lost In The Dark 03:53
4.Rotten Soul 06:08
5.Ruins Of Humanity 04:51
******************************
Total playing time: 23:12



[more=Technical info]
Input File: 01 Incised Wounds.mp3
Channels : 2
Sample Rate : 44100
Precision : 16-bit
Duration : 00:04:15.68 = 11275356 samples = 19175.8 CDDA sectors
File Size : 10.3M
Bit Rate : 322k
Sample Encoding: MPEG audio (layer I, II or III)
Comments :
Title=Incised Wounds
Artist=Azatoth
Album=Ruins Of Humanity (Demo)
Tracknumber=1
Year=2021
Genre=Death Metal

[/more]

Register
(5) caro, infiltrator, Olethros, Taakeferd, vyacheslav,
Jul 23 2021, 18:45:09 Underdark - Plainsong/With Bruised And Bloodied Feet [single] (2020)


*Artist: Underdark
*Album: Plainsong/With Bruised And Bloodied Feet [single]
*Year: 2020
*Genre: Post-Black Metal
*Country: United Kingdom
*Format: mp3@CBR320kbps
*Size: 35MB

Tracklist:
1.Plainsong (The Cure cover) 05:25
2.With Bruised & Bloodied Feet 06:25
******************************
Total playing time: 11:50






[more=Technical info]
Input File: 01 Plainsong (The Cure).mp3
Channels : 2
Sample Rate : 44100
Precision : 16-bit
Duration : 00:05:25.27 = 14344451 samples = 24395.3 CDDA sectors
File Size : 13.1M
Bit Rate : 323k
Sample Encoding: MPEG audio (layer I, II or III)
Comments :
Title=Plainsong (The Cure)
Artist=Underdark
Album=Plainsong/With Bruised & Bloodied Feet
Tracknumber=1
Year=2020
Genre=Post-Black Metal

[/more]

Register
(5) caro, infiltrator, Olethros, Taakeferd, vasiljev_sergej,
Jul 23 2021, 16:21:44 Galvanizer - Prying Sight Of Imperception (2021)


*Artist: Galvanizer
*Album: Prying Sight Of Imperception
*Year: 2021
*Genre: Death Metal/Grindcore
*Country: Finland
*Format: mp3@CBR320kbps
*Size: 74MB

Tracklist:
1.The Sanguine Legacy (Intro) 00:51
2.Servants Of The Scourge 03:45
3.The Inexorable 03:05
4.Blaze From Within 01:55
5.Chthonic Profanation 04:38
6.Ground Above 02:11
7.Dia De Muertos 02:31
8.The Ever-Crescent 03:03
9.Grotesque Devotion 03:15
10.Of Flesh Unknown 05:36
******************************
Total playing time: 30:50




[more=Technical info]
Input File: 02 Servants Of The Scourge.mp3
Channels : 2
Sample Rate : 44100
Precision : 16-bit
Duration : 00:03:45.84 = 9959720 samples = 16938.3 CDDA sectors
File Size : 9.25M
Bit Rate : 328k
Sample Encoding: MPEG audio (layer I, II or III)
Comments :
Title=Servants Of The Scourge
Artist=Galvanizer
Album=Prying Sight Of Imperception
Tracknumber=2
Year=2021
Genre=Death Metal

[/more]

Register
(19) alikkon, Ambercandle, andreikun, caro, ForzaMinardi1977, grimoir, infiltrator, jollo, kauyumari, madera, Olethros, Pinhead666, SaintVitus, supremo, Taakeferd, THROWER666, troll_swamp, vyacheslav, WX419,

240 Pages V   1 2 3 > » 
- Lo-Fi Version Support form
Copyrights and abuse reports form
Time is now: 28th July 2021 - 18:30:56