Welcome Guest ( Log In | Register )

История благодарностей участнику murian ::: Спасибо сказали: 1600 раз(а)
Дата поста: В теме: За сообщение: Спасибо сказали:
Apr 20 2021, 21:09:47 Adalwolf - Christenfeind (2019)


*Artist: Adalwolf
*Album: Christenfeind
*Year: 2019
*Genre: Black Metal
*Country: Germany
*Format: mp3@CBR320kbps
*Size: 129MB

Tracklist:
1. Dies Irae 05:22
2. Ihr seid die Seuche, ... 07:15
3. Gequälte Kinder Gottes (Paedophilia Erotica) 09:53
4. Misanthropie 07:35
5. Christenfeind 08:07
6. Virus Christ 06:52
7. Ausklang 03:16
8. Misanthrope (Demo version) 05:21
9. Nacht Des Untergangs (Demo version) 03:10
******************************
Total playing time: 56:51



[more=Technical info]
Input File: Dies Irae.mp3
Channels : 2
Sample Rate : 44100
Precision : 16-bit
Duration : 00:05:21.88 = 14194688 samples = 24140.6 CDDA sectors
File Size : 13.0M
Bit Rate : 322k
Sample Encoding: MPEG audio (layer I, II or III)
Comments :
Title=Dies Irae
Artist=Adalwolf
Album=Christenfeind
Tracknumber=1
Year=2019
Genre=Black Metal

[/more]

Register
(28) aleon, Alexandr_1987, AlexSmith, atavist, caro, Constantinus I, craP_cillA, infiltrator, Kaotik, kim666, Marek, Mencae77, Olethros, randumbum, rickzammuto, rimfrost, satanist666, SilentNidhogg, smysl, stub888, SyncestrA, tim47, toly1917, VALERY, varlam4, vasiljev_sergej, Vitald, Wail,
Apr 10 2021, 22:48:01 Sphere - La Symphonie Des Sphères (2018)


*Artist: Sphere
*Album: La Symphonie Des Sphères
*Year: 2018
*Genre: Atmospheric Black Metal
*Country: France
*Format: mp3@CBR320kbps
*Size: 160MB

Tracklist:
1. Prélude 06:27
2. La symphonie Des Sphères 18:19
3. Echos D'un Astre Mourant 12:30
4. Les Vents Stellaires 16:55
5. Eruption 14:16
6. Postlude 05:57
******************************
Total playing time: 1:14:24



[more=Technical info]
Input File: 02 - La symphonie des sphères.mp3
Channels : 2
Sample Rate : 44100
Precision : 16-bit
Duration : 00:18:26.12 = 48779672 samples = 82958.6 CDDA sectors
File Size : 44.6M
Bit Rate : 322k
Sample Encoding: MPEG audio (layer I, II or III)
Comments :
Title=La Symphonie Des Sphères
Artist=Sphere
Album=La Symphonie Des Sphères
Tracknumber=2
Year=2016
Genre=Atmospheric Black Metal

[/more]

Register
(29) AlexSmith, Buregon, Constantinus I, El_Chibo, Ildjarn, infiltrator, kim666, kimkayoung, Kodel, M8R8K, Marek, oden44, Olethros, pahail, randumbum, robertho777, sabr, satanist666, sergsazan, Shadechaser, SilentNidhogg, simonalacacarisa, smes, smysl, Storky, thenecromancer, VALERY, varlam4, vasiljev_sergej,
Mar 22 2021, 22:30:10 Cross Desecration - Rites Of Intoxication [ep] (2020)
facessspalm.png
(2) infiltrator, WOLAND,
Mar 22 2021, 22:23:46 Roraima - Wr (2021)
facessspalm.png
(1) WOLAND,
Mar 11 2021, 16:21:57 The Penitent - All Shall Fail Us (2020)


*Artist: The Penitent
*Album: All Shall Fail Us
*Year: 2020
*Genre: Depressive Black Metal
*Country: Belgium
*Format: mp3@VBR316kbps
*Size: 153MB

Tracklist:
1. Part I 13:58
2. Part II 13:11
3. Part III 09:57
4. Part IV 12:16
5. Part V 05:46
6. Part VI 11:15
******************************
Total playing time: 1:06:23



[more=Technical info]
Input File: The Penitent - All shall fail us - 01 Part I.mp3
Channels : 2
Sample Rate : 44100
Precision : 16-bit
Duration : 00:13:58.79 = 36990683 samples = 62909.3 CDDA sectors
File Size : 31.5M
Bit Rate : 301k
Sample Encoding: MPEG audio (layer I, II or III)
Comments :
Title=Part I
Artist=The Penitent
Album=All Shall Fail Us
Tracknumber=1
Year=2020
Genre=Depressive Black Metal

[/more]

Register
(16) aleon, AlexSmith, HMHamster, infiltrator, kim666, Olethros, randumbum, satanist666, SilentNidhogg, squall8fr, stub888, Tyrone, VALERY, varlam4, vasiljev_sergej, Victim of fate,
Feb 16 2021, 19:52:10 Déhà - Contrasts Ii (2020)


*Artist: Déhà
*Album: Contrasts II
*Year: 2020
*Genre: Atmospheric Black Metal
*Country: Belgium
*Format: mp3@VBR273kbps
*Size: 122MB

Tracklist:
1. Hole 20:45
2. Maddening 20:20
3. Bliss 10:12
4. This Dreadful Emptiness (Austere Cover) 10:01
******************************
Total playing time: 1:01:18



[more=Technical info]
Input File: Déhà - Contrasts II - 02 Maddening.mp3
Channels : 2
Sample Rate : 44100
Precision : 16-bit
Duration : 00:20:20.21 = 53811041 samples = 91515.4 CDDA sectors
File Size : 42.2M
Bit Rate : 277k
Sample Encoding: MPEG audio (layer I, II or III)
Comments :
Title=Maddening
Artist=Déhà
Album=Contrasts II
Tracknumber=2
Year=2020

[/more]

Register
(16) AlexSmith, blacky66, Femto, gena, infiltrator, kim666, KKK1488, Korpse, Krosis, Marek, Olethros, satanist666, sergsazan, smes, vasiljev_sergej, Vitald,
Feb 10 2021, 12:13:07 Goat - Promo 2020 [demo] (2020)
original band name and song titles, unique riffs
(2) infiltrator, Occultas,
Feb 2 2021, 21:21:00 Command & Vothana - Der Sonnenmensch/Đôi Cánh Của Sự Giận Du (The Wings Of Fury) [split] (2020)


*Artist: Command & Vothana
*Album: Der Sonnenmensch/Đôi Cánh Của Sự Giận Du (The Wings Of Fury) [split]
*Year: 2020
*Genre: Raw Black Metal/Punk | Black Metal
*Country: Brazil | United States
*Format: mp3@CBR320kbps
*Size: 32MB

Tracklist:
Side A
1. Command - Conqueror's Blood 03:41
2. Command - Der Sonnenmensch 02:57
Side B
3. Vothana - Đôi Cánh Của Sự Giận Du (The Wings of Fury) 06:48
******************************
Total playing time: 13:26

[more=Technical info]
Input File: 01. Command - Conqueror\'s Blood.mp3
Channels : 2
Sample Rate : 44100
Precision : 16-bit
Duration : 00:03:40.20 = 9710864 samples = 16515.1 CDDA sectors
File Size : 9.20M
Bit Rate : 334k
Sample Encoding: MPEG audio (layer I, II or III)
Comments :
Title=Conqueror's Blood
Artist=Command
Album=Der Sonnenmensch / Đôi Cánh Của Sự Giận Du (The Wings Of Fury)
Tracknumber=1
Year=2020
Genre=Black Metal

[/more]

Register
(23) acerbus, Antichrist, ChaosArcana, DrStan, grimmstone, Ildjarn, infiltrator, kim666, Lanceatum, mondlicht, Moonshtook, randumbum, Rosen, SilentNidhogg, Taakeferd, thenecromancer, the_cleanser, VALERY, varlam4, vasiljev_sergej, Vidder242, wreak, Авел,
Feb 1 2021, 23:55:32 Wallride Of Death - Воскрешение [ep] (2020)
Lyrical themes:
Anti-religion, Occultism, Skateboarding


facessspalm.png
(3) infiltrator, nsk2008, thenecromancer,
Feb 1 2021, 23:51:19 Ātesh - Rāh-E Sāhi-Ye Sar-Zamin-E Abadi-Ye Jāvīdān [ep] (2020)


*Artist: Ātesh
*Album: Rāh-E Sāhi-Ye Sar-Zamin-E Abadi-Ye Jāvīdān [ep]
*Year: 2020
*Genre: Raw Black Metal
*Country: Unknown
*Format: mp3@CBR192kbps
*Size: 49MB

Tracklist:
1. Intro 01:52
2. Vāresān-e Khun-e Šāhan-šāhi 07:43
3. Šokuh-e Arteš-e Ṭalā'i 07:41
4. Rāh-pejmā'i-ye Jāvīdān 08:13
5. Qodrat-e Zolm 08:11
6. Outro 00:39
******************************
Total playing time: 34:19

[more=Technical info]
Input File: 03 Šokuh-e Arteš-e Ṭalā\'i.mp3
Channels : 2
Sample Rate : 44100
Precision : 16-bit
Duration : 00:07:40.99 = 20329791 samples = 34574.5 CDDA sectors
File Size : 11.6M
Bit Rate : 201k
Sample Encoding: MPEG audio (layer I, II or III)
Comments :
Title=Šokuh-e Arteš-e Ṭalā'i
Artist=Ātesh
Album=Rāh-e Sāhi-ye Sar-zamin-e Abadi-ye Jāvīdān
Tracknumber=3
Year=2020
Genre=Black Metal
Discnumber=1/1

[/more]

Register
(17) grimoir, infiltrator, kim666, Marshall, Olethros, Ostinato, rammmirez, randumbum, Rosen, SilentNidhogg, Taakeferd, thenecromancer, VALERY, varlam4, vasiljev_sergej, Vidder242, wreak,
Feb 1 2021, 23:41:00 Ignis Gehenna - Rites Of Transvaluation (2020)


*Artist: Ignis Gehenna
*Album: Rites Of Transvaluation
*Year: 2020
*Genre: Black Metal
*Country: Australia
*Format: mp3@CBR128kbps
*Size: 35MB

Tracklist:
1. Sulphur Pit 10:20
2. Threshold 12:39
3. Numenos Fyrphos 04:25
4. Rites of Transvaluation 10:02
******************************
Total playing time: 37:26



Register
(10) Bzth, infiltrator, kim666, nikolay81, Occultas, Olethros, Rosen, thenecromancer, vasiljev_sergej, yuratroll,
Feb 1 2021, 23:35:49 Vothana - Huyết Thống Nhiễm Độc/Điều Tồi Tệ Nhất Vẫn Chưa Đến [ep] (2020)


*Artist: Vothana
*Album: Huyết Thống Nhiễm Độc/Điều Tồi Tệ Nhất Vẫn Chưa Đến [ep]
*Year: 2020
*Genre: Black Metal
*Country: Vietnam
*Format: mp3@CBR320kbps
*Size: 46MB

Tracklist:
1. Huyết Thống Nhiễm Độc 11:40
2. Điều Tồi Tệ Nhất Vẫn Chưa Đến 09:18
******************************
Total playing time: 20:58

[more=Technical info]
Input File: 02. Điều Tồi Tệ Nhất Vẫn Chưa Đến.mp3
Channels : 2
Sample Rate : 44100
Precision : 16-bit
Duration : 00:09:18.04 = 24609344 samples = 41852.6 CDDA sectors
File Size : 22.4M
Bit Rate : 321k
Sample Encoding: MPEG audio (layer I, II or III)
Comments :
Title=Điều Tồi Tệ Nhất Vẫn Chưa Đến
Artist=Vothana
Album=Huyết Thống Nhiễm Độc / Điều Tồi Tệ Nhất Vẫn Chưa Đến
Tracknumber=2
Year=2020
Genre=Black Metal

[/more]

Register
(21) acerbus, ChaosArcana, Cramloth, Ildjarn, infiltrator, kim666, Olethros, Pinhead666, rammmirez, randumbum, Rosen, satanist666, SilentNidhogg, Taakeferd, thenecromancer, the_cleanser, VALERY, varlam4, vasiljev_sergej, wreak, Авел,
Dec 30 2020, 15:45:32 Disparaître - Demo 2 [demo] (2020)


*Artist: Disparaître
*Album: Demo 2 [demo]
*Year: 2020
*Genre: Atmospheric Black Metal
*Country: France
*Format: mp3@CBR320kbps
*Size: 46MB

Tracklist:
1. Hiver 07:46
2. Plus la nuit est sombre 06:20
3. Un lit de neige 05:28
******************************
Total playing time: 19:34



[more=Technical info]
Input File: Disparaître - Demo 2 (2020) - 01 Hiver.mp3
Channels : 2
Sample Rate : 44100
Precision : 16-bit
Duration : 00:07:46.15 = 20557391 samples = 34961.5 CDDA sectors
File Size : 18.8M
Bit Rate : 322k
Sample Encoding: MPEG audio (layer I, II or III)
Comments :
Title=Hiver
Artist=Disparaître
Album=Demo 2
Tracknumber=1
Year=2020
Genre=Atmospheric Black Metal

[/more]

Register
(9) infiltrator, killingod, kim666, Olethros, Rosen, satanist666, thenecromancer, varg-38ru, vasiljev_sergej,
Oct 1 2020, 20:56:40 Château Noir - Troubadours Of Pestilence (2020)
I need a full weekend to listen to this
(2) infiltrator, SaintVitus,
Sep 13 2020, 02:03:29 Leegte - Abandon [ep] (2019)


*Artist: Leegte
*Album: Abandon [ep]
*Year: 2019
*Genre: Atmospheric Black Metal
*Country: Belgium
*Format: mp3@VBR275kbps
*Size: 50MB

Tracklist:
1. Forsaken To The Ire 07:22
2. Woe Unto Him 07:48
3. Deny Me Your Tears 09:41
******************************
Total playing time: 24:51



[more=Technical info]
Input File: Leegte - Abandon - 01 I - Forsaken To The Ire.mp3
Channels : 2
Sample Rate : 44100
Precision : 16-bit
Duration : 00:07:22.33 = 19506797 samples = 33174.8 CDDA sectors
File Size : 15.4M
Bit Rate : 279k
Sample Encoding: MPEG audio (layer I, II or III)
Comments :
Title=I - Forsaken To The Ire
Artist=Leegte
Album=Abandon
Tracknumber=1
Year=2019
Genre=Atmospheric Black Metal

[/more]

Register
(20) 1968_janeart, blacky66, El_Chibo, infiltrator, kim666, Occultas, Olethros, Ostinato, randumbum, robertho777, Rosen, satanist666, sergsazan, SilentNidhogg, sludge666, Storky, Tyrone, VALERY, vasiljev_sergej, wreak,
Aug 1 2020, 00:23:38 Katalepsy - Terra Mortuus Est (2020)
death metal you can dance on
(2) babanguida, infiltrator,
Jun 3 2020, 18:02:07 Blood Stronghold - Heritage In Ancient Shadows [ep] (2019)


*Artist: Blood Stronghold
*Album: Heritage In Ancient Shadows [ep]
*Year: 2019
*Genre: Atmospheric Black Metal
*Country: Australia
*Format: mp3@CBR320kbps
*Size: 89MB

Tracklist:
1. Heritage in Ancient Shadows 08:20
2. Luperkalia (Ritual of Lutyj Zvier') 05:42
3. No Dawn Will Rise 02:55
4. The Stone Depths of Emptiness 07:21
5. Beneath Twilight Wings (part II) 04:39
6. Alone Walkyng (Hades cover) 10:09
******************************
Total playing time: 39:06



[more=Technical info]
Input File: 04. the stone depths of emptiness.mp3
Channels : 2
Sample Rate : 44100
Precision : 16-bit
Duration : 00:07:24.06 = 19582914 samples = 33304.3 CDDA sectors
File Size : 17.9M
Bit Rate : 322k
Sample Encoding: MPEG audio (layer I, II or III)
Comments :
Title=The Stone Depths Of Emptiness
Artist=Blood Stronghold
Album=Heritage In Ancient Shadows
Tracknumber=4
Year=2019
Genre=Atmospheric Black Metal

[/more]

Register
(47) 1968_janeart, aleon, Antichrist, Boozer, Bzth, cesar, Daale, djsema4, Druidir, El_Chibo, ent404, Fryz, gav-gafi, gena, grimoir, Ildjarn, infiltrator, kim666, kranger, lestllk, Moonshtook, multizwilling, nemx, nsk2008, oldvarg, Olethros, Ostinato, rammmirez, randumbum, rimfrost, robertho777, Rosen, SaintVitus, satanist666, senecazm, sergsazan, SilentNidhogg, thenecromancer, VALERY, varlam4, vasiljev_sergej, vovenom, Wail, wreak, ZA670, Абигор, Авел,
May 20 2020, 23:06:11 Skravl - En Higen Mod Tilintetgørelsen [ep] (2020)


*Artist: Skravl
*Album: En Higen Mod Tilintetgørelsen [ep]
*Year: 2020
*Genre: Black Metal
*Country: Denmark
*Format: mp3@CBR320kbps
*Size: 47MB

Tracklist:
1. Untitled 05:22
2. Untitled 05:44
3. Untitled 03:28
4. Untitled 05:52
******************************
Total playing time: 20:26



[more=Technical info]
Input File: 01 Untitled.mp3
Channels : 2
Sample Rate : 44100
Precision : 16-bit
Duration : 00:05:22.97 = 14243065 samples = 24222.9 CDDA sectors
File Size : 13.0M
Bit Rate : 322k
Sample Encoding: MPEG audio (layer I, II or III)
Comments :
Title=Untitled
Artist=Skravl
Album=En Higen Mod Tilintetgørelsen
Tracknumber=1
Year=2020
Genre=Black Metal

[/more]

Register
(29) 1968_janeart, Bzth, Daale, elsunga, Hell_Is_Here, Ildjarn, kim666, lestllk, Mares, Maximvs, multizwilling, obituarydark, Olethros, rammmirez, randumbum, rickzammuto, robertho777, Rosen, satanist666, Shagarth21, SilentNidhogg, squall8fr, stub888, VALERY, Vardlokkur, varlam4, vasiljev_sergej, vovenom, ZA670,
May 12 2020, 04:59:00 Effroi - Cryptic Prophecies [demo] (2019)


*Artist: Effroi
*Album: Cryptic Prophecies [demo]
*Year: 2019
*Genre: Black Metal
*Country: Belgium
*Format: mp3@CBR320kbps
*Size: 34MB

Tracklist:
1. Introduction 00:14
2. Impurity 04:47
3. Master of Shadows 04:14
4. Realm of the Eternal Dark 05:23
******************************
Total playing time: 14:38

[more=Technical info]
Input File: 2.mp3
Channels : 2
Sample Rate : 44100
Precision : 16-bit
Duration : 00:05:00.01 = 13230265 samples = 22500.5 CDDA sectors
File Size : 12.1M
Bit Rate : 322k
Sample Encoding: MPEG audio (layer I, II or III)
Comments :
Title=Impurity
Artist=Effroi
Album=Cryptic Prophecies
Tracknumber=2
Genre=Black Metal

[/more]

Register
(13) 1968_janeart, dermarsoran, Ildjarn, infiltrator, Keystone14, kim666, Olethros, Rosen, satanist666, stub888, thenecromancer, varlam4, vasiljev_sergej,
Oct 24 2019, 03:13:31 Havohej - Table Of Uncreation (2019)
worst release of 2019 so far
(1) Old Vyaine,
Sep 22 2019, 22:31:28 Hajduk - Кръв [ep] (2020)
impressive debut
(2) dermarsoran, rickzammuto,
Mar 19 2019, 20:24:08 Kalmen - Funeral Seas (2018)


*Artist: Kalmen
*Album: Funeral Seas
*Year: 2018
*Genre: Black/Doom Metal
*Country: Germany
*Format: mp3@CBR320kbps
*Size: 117MB

Tracklist:
1. Spectral 10:06
2. Thieving Sky 06:38
3. Portal 05:53
4. Uninfinite Black 03:45
5. Swansong 07:07
6. Arcane Heresies 09:12
7. Searenade 08:22
******************************
Total playing time: 51:03



[more=Technical info]
Input File: Kalmen - Funeral Seas - 01 Spectral.mp3
Channels : 2
Sample Rate : 44100
Precision : 16-bit
Duration : 00:10:06.13 = 26730157 samples = 45459.5 CDDA sectors
File Size : 24.4M
Bit Rate : 322k
Sample Encoding: MPEG audio (layer I, II or III)
Comments :
Title=Spectral
Artist=Kalmen
Album=Funeral Seas
Tracknumber=1
Year=2018
Genre=Black/Doom Metal

[/more]

Register
(23) 1968_janeart, ahp, artscald, Bolitho, Olethros, Ostinato, plagueofflies, robertho777, Rosen, satanist666, sergsazan, Shadechaser, SilentNidhogg, stub888, SyncestrA, TeamatSE, Tino, tormoz, varg-38ru, Winterkalte, wreak, Xron, yuratroll,
Jan 19 2019, 16:45:53 Terror Noxpheratur - Blood Beast (2018)
pure crap
(1) ent404,
Jan 17 2019, 16:12:17 Infernal Darkness - Into Infernal Darkness... (2018)
already competing for the 'worst release of the year' prize
(1) squall8fr,
Sep 1 2017, 00:03:06 All My Sins - Lunar/Solar [ep] (2017)
Surprisingly good.
(1) LazarShadow,

5 Pages V   1 2 3 > » 
- Lo-Fi Version Support form
Copyrights and abuse reports form
Time is now: 15th May 2021 - 16:09:46