Welcome Guest ( Log In | Register )

История благодарностей участнику isvili ::: Спасибо сказали: 1473 раз(а)
Дата поста: В теме: За сообщение: Спасибо сказали:
May 15 2021, 15:48:26 Wreche - All My Dreams Came True (2021)
Я бы сказал что это больше experimental-psychedelic black metal
(2) infiltrator, Occultas,
May 5 2021, 06:44:33 Clandestine Blaze - Secrets Of Laceration (2021)
[youtube]D3nR-K73yjY[/youtube]
(2) infiltrator, Original_ZED,
May 3 2021, 14:46:13 Banshee - Schattenreich (2021)
[youtube]Es85FGQjYDg[/youtube]
(3) atavist, infiltrator, rominow,
May 1 2021, 16:47:13 Sheogorath - Lunacy Gone Astray (2021)
Какого то особого мелодизма я тут не услышал.
https://sheogorath.at/discography/
(2) infiltrator, Old Vyaine,
Apr 29 2021, 19:03:23 Aeon Of Eternal - The Wanderer (2021)
ЦИТАТА(GRAF @ Apr 29 2021, 15:07:09) *
Но суть одна: слушать результат попросту невозможно.

Очень интересный альбом, достаточно профессиональная музыка воплотившая в себе стройную смесь из ряда пограничных жанров. В основном это Atmospheric Death Metal с вкраплениями black, doom и gothic metal, и все это приправлено отличными красивыми мелодиями и акустикой.
(5) Aamiinaa, Bloodn Lord, eternald, infiltrator, jayjaujay,
Apr 29 2021, 17:53:01 Elffor - Condemned To Wander (2021)
ЦИТАТА(igore2911 @ Apr 29 2021, 19:10:25) *
Этот как-то не очень, современный звук слишком.

Да ну нафиг, тут наоборот наверное самый сырой звук из его последних 3-4 альбомов.
(1) FlammenTod666,
Apr 29 2021, 10:00:40 Spectral Wound - A Diabolic Thirst (2021)
ЦИТАТА(sacrut @ Apr 21 2021, 19:57:46) *
nothing really interesting[2]
I had more impressions from the previous release, can't listen to the new one no more

it's because you are not real canadian bye.gif
(1) suseka,
Apr 25 2021, 23:18:34 Fenris Vrede - Viking (2021)
[youtube]a04Zv3bj1GE[/youtube]
(1) Old Vyaine,
Apr 25 2021, 22:38:32 Bastard Of Loran - Beckoning The Red Moon (2020)
ЦИТАТА(judaz @ Apr 23 2021, 15:17:06) *
Фанатам Bloodborne посвящается.

Кто такие эти мифические Bloodborne и их "фанаты", для меня осталось загадкой bye.gif
(2) AHBAnep, smysl,
Apr 25 2021, 16:40:12 Eternity - To Become The Great Beast (2019)
ЦИТАТА(Borderline1991 @ Dec 8 2020, 09:18:15) *

Благодарность тебе за твою работу. Нужное дело делаешь 9.gif
(1) Borderline1991,
Apr 22 2021, 07:40:13 Fovitron - Altar Of Whispers (2020)
ЦИТАТА(Borderline1991 @ Dec 8 2020, 09:20:44) *

Одна микро мечта уже сбылась и все благодаря тебе 9.gif
(1) Borderline1991,
Apr 21 2021, 17:25:25 Skeptikon - Inner Eschaton (2021)
[youtube]_Lzs5vpGukw[/youtube]
(2) atavist, lldma,
Apr 19 2021, 13:59:02 Spectral Wound - A Diabolic Thirst (2021)
ЦИТАТА(Sangreal @ Apr 17 2021, 19:55:29) *
Порожняк.

Буууугагага!!! Ты хоть альбом то послушал или только на бэндкампе потыкал?
Отличная музыка, с определенной долей мелодичности, этим альбомом они даже переплюнули предыдущее свое творение.
(2) rimfrost, suseka,
Apr 15 2021, 14:27:59 Shamael - Melancholie Der Engel (2021)
ЦИТАТА(GRAF @ Apr 15 2021, 14:19:11) *
ибо у итальянцев с Funeral Doom Metal туго.
А как на счет таких итальянских групп играющих подобную музыку?
Arcana Coelestia
In Lacrimaes et Dolor
Urna
Consummatum Est
Plateau Sigma
Void of Silence
Fuoco Fatuo
Scent of Darkness
Trails of Sorrow
Enthroned Darkness
(5) Bloodn Lord, cesar, infiltrator, Messian, rominow,
Apr 14 2021, 21:30:22 Nebelhorn - Utgard [ep] (2004)


*Artist: Nebelhorn
*Album: Utgard [ep]
*Year: 2004
*Genre: Viking Metal
*Country: Germany
*Format: mp3@CBR320kbps
*Size: 46MB

Tracklist:
1. Nordwärts 02:12
2. Midgard 03:34
3. Utgard 04:00
4. Asgard 03:45
5. Wintersfest 03:14
******************************
Total playing time: 16:45



[more=Extended info]Рип с собственного диска.[/more]

[more=Technical info]
Input File: 02. Midgard.mp3
Channels : 2
Sample Rate : 44100
Precision : 16-bit
Duration : 00:03:33.56 = 9418084 samples = 16017.1 CDDA sectors
File Size : 8.65M
Bit Rate : 324k
Sample Encoding: MPEG audio (layer I, II or III)
Comments :
Title=Midgard
Artist=Nebelhorn
Album=Utgard
Tracknumber=2
Year=2004
Genre=Viking Black Metal

[/more]

Register
(11) Cartman223, chipsgott, infiltrator, Marek, Olethros, randumbum, RUDACHUR, satanist666, sergsazan, thenecromancer, varlam4,
Apr 12 2021, 07:21:24 Kirottu - Deity Embers (2021)
И действительно, затягивающий альбом, если начал слушать то остановиться уже не хочется.
(3) infiltrator, ingram, nsk2008,
Apr 4 2021, 09:51:02 Grand Celestial Nightmare - Forbidden Knowledge And Ancient Wisdom (2021)
Необычный, но в то же самое время прикольный bm, с налетом экспериментала и прогрессива.
(1) Occultas,
Apr 2 2021, 12:05:33 Vånda - Covenant Of Death (2021)
Не без трэша обошлось
[youtube]VEmbDcCtebk[/youtube]
(1) mondlicht,
Apr 1 2021, 21:40:24 Bloodshed Walhalla - Second Chapter (2021)
ЦИТАТА(Olrak @ Apr 1 2021, 20:05:46) *
Мне кажется смесь Falkenbach с Moonsorrow! 1488.gif

Не-а, этот чувак изначально под Bathory косил, по тому что он фанат Куортона, я его все альбомы слушал, достаточно хорошо знаю его творчество.
Даже диск один есть Он постоянно на всех трибьютах Bathory присутствует.
У него даже есть альбом где все песни это кавера Bathory

По этому и говорю что тут произошли некие изменения по сравнению с предыдущими альбомами.
(1) Lucifer,
Apr 1 2021, 09:58:20 Sempiternal Opprobrium - Veil Of Anti​-​existence (2021)
ЦИТАТА(Shadechaser @ Apr 1 2021, 10:49:09) *

Так он твинкарь На плаху сатану, голову сечь!!! 1488.gif
(1) Shadechaser,
Apr 1 2021, 09:45:52 Dioivo - Iii [ep] (2021)
В сожалению как такового Melodic Black Metal тут как бы и не наблюдается.
Это какой не до RAC с неким влиянием thrash metal и вкраплениями black metal и галисийского фолка.
(2) infiltrator, Сварог Барг,
Mar 29 2021, 22:30:02 Here And Beyond - Souls Of The Suffering (2021)
ЦИТАТА(Aectan @ Mar 27 2021, 14:38:38) *
Так себе. Вроде и неплохо сделано, но цепляющих мест почти нет (первое в 4-й песне).

А мне понравился практически весь, может окромя первой песни. Даже лося себе скачал.
(1) krotovich,
Mar 29 2021, 22:14:19 Mourning Dawn - Dead End Euphoria (2021)
ЦИТАТА(NecroDeath @ Mar 29 2021, 09:51:23) *
Вы читали, что я написал? АЛЬБОМ. Не переиздание, не новые треки, не EP. АЛЬБОМ!!!
Я фанат этой группы и слежу за их творчеством, альбомами и новостями о ней.
Откуда только вы лезете, умники доморощенные

Странный "недофанат или перефанат" 1488.gif , по твоему я сам это придумал что ли?
Альбом The Dead Years это официальный четвертый полноформатный альбом в дискографии группы, и это не переиздание.
Откуда только вы лезете, умники доморощенные, хотя и так понятно откуда. 12.gif
(1) valfok,
Mar 26 2021, 08:58:57 The Stone - Kosturnice (2021)
[youtube]GbBw3vLBfGM[/youtube]
(2) atavist, infiltrator,
Mar 24 2021, 10:13:24 Baalberith - Manhunt (2021)
Что бы пшек не играл, на выходе все равно "Бегемото-Вейдер" получается.
(2) infiltrator, RUSP73,

31 Pages V   1 2 3 > » 
- Lo-Fi Version Support form
Copyrights and abuse reports form
Time is now: 18th May 2021 - 14:52:45