Welcome Guest ( Log In | Register )

История благодарностей участнику isvili ::: Спасибо сказали: 1068 раз(а)
Дата поста: В теме: За сообщение: Спасибо сказали:
Aug 13 2020, 08:20:56 Scent Of Darkness - Insanitude (2020)


*Artist: Scent Of Darkness
*Album: Insanitude
*Year: 2020
*Genre: Funeral Doom/Death/Black Metal
*Country: Italy
*Format: mp3@CBR320kbps
*Size: 70MB

Tracklist:
01. Reborn 05:45
02. Trust Issues 07:41
03. Crowded Solitude 06:26
04. Whispers From Nowhere 10:04
******************************
Total playing time: 29:56



[more=Extended info]Не EP, полноформат (Full-length)
https://www.metal-archives.com/albums/Scent_of_Darkness/Insanitude/857114[/more]

[more=Technical info]
Input File: 01. Reborn.mp3
Channels : 2
Sample Rate : 44100
Precision : 16-bit
Duration : 00:05:45.83 = 15251015 samples = 25937.1 CDDA sectors
File Size : 13.9M
Bit Rate : 321k
Sample Encoding: MPEG audio (layer I, II or III)
Comments :
Title=Reborn
Artist=Scent Of Darkness
Album=Insanitude
Tracknumber=1
Year=2020
Genre=Funeral Doom/Death Metal

[/more]

Register
(12) AlexSmith, Bloodn Lord, infiltrator, krotovich, metala, Olethros, Rosen, Sanctus, sergsazan, serjred, supremo, VALERY,
Aug 5 2020, 15:56:46 Onslaught - Generation Antichrist (2020)
О-о-о!!! Диды воевали 19.gif
(2) infiltrator, kessler,
Aug 1 2020, 12:27:50 Starblind - Black Bubbling Ooze (2020)
почти как Iron Maiden 25.gif
(1) smes,
Aug 1 2020, 10:40:29 Super Satan - Menetekel (2020)
DC comics представляет! Скоро на экранах "Supergirl and Superman против SUPER SATAN!"
(2) infiltrator, metala,
Aug 1 2020, 10:34:33 Brotthogg - The Die Is Cast (2020)
Это зачетные чуваки, прошлый полноформат просто на ура.
(1) Samaritianin,
Aug 1 2020, 10:30:38 Molde Volhal - Into The Cave Of Ordeals... [ep] (2020)


*Artist: Molde Volhal
*Album: Into The Cave Of Ordeals... [ep]
*Year: 2020
*Genre: Melodic Black Metal
*Country: Norway
*Format: mp3@CBR192kbps
*Size: 40MB

Tracklist:
01. Into the Cave of Ordeals... 07:00
02. Beyond the Red Horizons of a Thousand Battles 05:51
03. Through Everlasting Halls (Triumphant Return to The Keep of Moldé Volhal) 05:57
04. In the Land Where Frozen Rivers Meet.. 02:46
05. Moldé Volhal 06:31
******************************
Total playing time: 28:05



[more=Extended info]Обязателен к ознакомлению для всех поклонников стиля Melodic Black Metal[/more]

[more=Technical info]
Input File: 02. Beyond The Red Horizons of a Thousand Battles.mp3
Channels : 2
Sample Rate : 44100
Precision : 16-bit
Duration : 00:05:51.62 = 15506442 samples = 26371.5 CDDA sectors
File Size : 8.63M
Bit Rate : 196k
Sample Encoding: MPEG audio (layer I, II or III)
Comments :
Title=Beyond The Red Horizons of a Thousand Battles
Artist=Molde Volhal
Album=Into the Cave of Ordeals​.​.​
Year=2020
Genre=Black Metal

[/more]

Register
(21) 1968_janeart, ahp, Andrew, djsema4, infiltrator, kim666, Olethros, Olguard, Olrak, orgondnor, Ostinato, randumbum, robertho777, Rosen, satanist666, sergsazan, SilentNidhogg, Sjelekval, VALERY, zargonath, zhol,
Jul 28 2020, 10:19:33 Felgrave - A Waning Light (2020)
ЦИТАТА(GRAF @ Jul 27 2020, 17:31:22) *
Пока тупое примитивное "молотилово" по кастрюлям не начинается - вполне не плохо.

Kastrulian Death/Doom Metal??? 1488.gif
(5) infiltrator, ingram, Samaritianin, scorn33, woldemort,
Jul 22 2020, 14:15:04 Apathetic - Infurnose (2020)
ЦИТАТА(6666666 @ Jul 22 2020, 15:32:49) *
Ну так не бурчи.

Бурчу так сильно что аж кричу
На мокрый носик нажать хочу 1488.gif bye.gif
(4) Bloodn Lord, infiltrator, skidnik, vosmidesijatye,
Jul 19 2020, 07:19:00 Havukruunu - Uinuos Syömein Sota (2020)
ЦИТАТА(Old Vyaine @ Jul 18 2020, 23:41:40) *
Финны жгут в этом году.

Так финны уже лет как 25 жгут 25.gif
(2) infiltrator, rimfrost,
Jul 12 2020, 14:23:07 Moon - Saturn Exerzitium [demo] (2020)
Не funeral doom, atmospheric black metal
(1) Occultas,
Jul 10 2020, 17:10:14 Manipulated Slaves - Past In The Black Flame (2020)
Третьесортное музло

[youtube]tXgKJPHSLwI[/youtube]
(2) DenisKov, MMMMM,
Jul 10 2020, 16:09:44 Bipolar Disorder - Agony Of Melancholy (2020)
ЦИТАТА(GRAF @ Jul 8 2020, 06:10:27) *
Просто, какая-то самодеятельность. Это даже не школьники оккупировавшие соседский подвал.

Тут не все так плохо, как описано. bye.gif
(1) cesar,
Jul 10 2020, 15:45:27 Aegrus - The Devil's Works MMVI​-​MMXIII [compilation] (2020)
Вот такой рассклад:
1-4 "Unholy Invocations" (Demo 2006)
5-8 "Faith Crushing Retribution" (Demo 2009)
9-12 "Luciferian Engravings" (EP_2011)
13-15 "Ritual" (Demo_2013)
(1) andivi,
Jun 28 2020, 14:34:08 Sinira - The Everlorn (2020)
Чувак прожженный фанат Dissection, по этому и музыка у него такая 15.gif
Полный клон Dissection, что само по себе в принципе уже достаточно интересно 20.gif
(3) Bloodn Lord, infernallord, infiltrator,
Jun 26 2020, 12:54:55 Acherontas - Psychic Death - The Shattering Of Perceptions (2020)
Хорошая вещь в их стиле, все узнаваемо.
(1) sabr,
Jun 26 2020, 12:51:53 Fellwarden - Wreathed In Mourncloud (2020)
По моему очень слабый релиз.
(1) Der_Hexer,
Jun 24 2020, 16:52:24 Leprophiliac - Necrosis (2020)
Отличная олдскульщина
(1) DarkHorde,
Jun 20 2020, 16:37:17 Carrion Vael - God Killer (2020)
ЦИТАТА(DenisKov @ Jun 19 2020, 08:15:30) *
Не осилил до конца, очень однообразно и скучно.
Так тут всего 33 минуты, да и музыка вполне достойная.
(1) Samaritianin,
Jun 20 2020, 16:01:53 The Rite - Liturgy Of The Black (2020)
Точнее будет сказать Death/Black/Doom Metal
(1) Occultas,
Jun 20 2020, 14:40:04 Vinland Ghost - Empire Without End (2020)
Думал очередной америкосовский отстой, а оказалась очень годная музыка. 20.gif
(1) Storky,
Jun 16 2020, 16:02:04 Beyond Deth - Accept Your Fate (2020)
Я бы сказал что это больше похоже на смесь олдскульного death metal, mdm и трэша, поскольку блэка ту и в помине нет.
А вообще альбом ломовой. 20.gif
(4) Andrew, infiltrator, Metalass, Samaritianin,
Jun 16 2020, 14:44:42 Firelink - Firelink (2020)
Больше на Progressive Death/Black Metal какой то смахивает, чем на Melodic Black Metal
(4) DenisKov, infiltrator, kranger, Metalass,
Jun 16 2020, 14:30:34 Хмарь - Мгла (2020)
Хмырь: 1. Мрачный, нелюдимый человек. 2. Опустившийся, забитый человек (обычно о пьянице). 3) Постоянно слушающий Wolves in the Throne Room
(1) Nattfodd,
Jun 1 2020, 16:50:58 Horrorgraphy - Dramma Per Musica (2020)
ЦИТАТА(JPV @ May 31 2020, 16:02:24) *
А по моему великолепно. Уникально, и ни на что не похоже.

Похоже, но все равно охрененное музло. pray.gif


ЦИТАТА(GRAF @ May 30 2020, 19:06:12) *
А женский вокал вообще не вписывается в общую концепцию.

А по моему очень вписывается, причем сопрано очень хорошее.
(1) paganheart,
May 25 2020, 08:54:05 Aume - Fulgor Renegrido (2020)
Не плохой атмосферный альбом, даже немного эпический, местами на Summoning смахивает.
(1) Surt,

24 Pages V   1 2 3 > » 
- Lo-Fi Version Support form
Copyrights and abuse reports form
Time is now: 15th August 2020 - 02:41:00