Welcome Guest ( Log In | Register )

Объявления

* gmail.com упорно продолжает считать почту с нас "unsolicited" и отбивает в том числе и письма активации, поэтому просьба использовать альтернативные почтовые ящики.
------------
* gmail.com continues reject all mail from us as "unsolicited" (activation mails too) therefore please use alternate mail servers.
История благодарностей участнику akym ::: Спасибо сказали: 1178 раз(а)
Дата поста: В теме: За сообщение: Спасибо сказали:
Feb 15 2024, 09:48:19 System Of A Down - Hypnotize (2005)
FLAC (24-96)

Register
(1) coldandterrible,
Feb 15 2024, 09:43:22 System Of A Down - Mezmerize (2005)
FLAC (24-96)
Register
(1) coldandterrible,
Feb 15 2024, 09:41:24 System Of A Down - Steal This Album! (2002)
FLAC (24-96)

Register
(2) coldandterrible, Occultas,
Feb 15 2024, 09:39:17 System Of A Down - Toxicity (2001)
FLAC (24-96)

Register
(2) coldandterrible, Occultas,
Feb 15 2024, 09:36:37 System Of A Down - System Of A Down (1998)
FLAC (24-96)

Register
(2) coldandterrible, Occultas,
Nov 2 2022, 12:05:48 Spitfire - Spitfire [ep] (2014)
Register


metaler.gif metaler.gif metaler.gif
(1) Bloodline Christian,
Dec 21 2021, 13:30:27 Archaize - In Dusk We Trust (2021)


*Artist: Archaize
*Album: In Dusk We Trust
*Year: 2021
*Genre: Groove/Thrash/Death Metal
*Country: Australia
*Format: mp3@CBR320kbps
*Size: 107MB

Tracklist:
1. Blood Guardians 04:57
2. Death Elemental 05:15
3. I Am Your God 04:16
4. Final Conflict 05:19
5. Mechanical Shift 05:19
6. Incorrect Opinion 05:19
7. Enemy Within 04:59
8. Ghosts in the Blood 05:45
9. The End 06:32
******************************
Total playing time: 47:41



[more=Technical info]
Input File: 02 - Death Elemental.mp3
Channels : 2
Sample Rate : 44100
Precision : 16-bit
Duration : 00:05:15.48 = 13912448 samples = 23660.6 CDDA sectors
File Size : 12.6M
Bit Rate : 320k
Sample Encoding: MPEG audio (layer I, II or III)
Comments :
Title=Death Elemental
Artist=Archaize
Album=In Dusk We Trust
Tracknumber=2
Year=2021
Genre=Thrash/Death Metal

[/more]

Register
(14) artscald, boby9052, caro, cesar, chipsgott, JPV, Marek, metala, METALHUNTER, Olethros, stumpheavyrock, supremo, varlam4, wreak,
Aug 14 2021, 08:44:59 The Ransack - Bloodline (2011)
Register
(2) wreak, Yamanov,
Aug 14 2021, 08:44:01 The Ransack - Vortex (2009)
Register
(3) MadCarrot, wreak, Yamanov,
Aug 14 2021, 08:43:04 The Ransack - Azrael (2007)
Register
(2) wreak, Yamanov,
Aug 14 2021, 08:41:52 The Ransack - Necropolis [ep] (2005)
Register
(1) wreak,
Aug 14 2021, 08:38:48 The Ransack - Decadence (2018)


*Artist: The Ransack
*Album: Decadence
*Year: 2018
*Genre: Melodic Death Metal
*Country: Portugal
*Format: mp3@CBR320kbps
*Size: 104MB

Tracklist:
01 - Return Of The King
02 - Outcast
03 - Jigsaw
04 - Hang Them All
05 - Caliginous
06 - Versus
07 - Mother Fucker
08 - Rebels Manifesto
09 - X'Treme's
10 - Extinction
11 - Solitary
******************************
Total playing time: 42:54



[more=Extended info]Jay Bass
See also: ex-Noctum, ex-Revolution Within
Zeus Drums
See also: ex-Beyond Life, ex-Imortalis
Loki Guitars
See also: ex-Revolution Within, ex-Coldfear
Shore Vocals, Guitars (lead)
See also: ex-Beyond Life, ex-Demon Dagger, ex-Noctum[/more]

[more=Technical info]
Input File: 10 - Extinction.mp3
Channels : 2
Sample Rate : 44100
Precision : 16-bit
Duration : 00:04:49.27 = 12756851 samples = 21695.3 CDDA sectors
File Size : 11.9M
Bit Rate : 330k
Sample Encoding: MPEG audio (layer I, II or III)
Comments :
Title=Extinction
Artist=The Ransack
Album=Decadence
Tracknumber=10/11
Year=2018
Genre=Melodic Death Metal

[/more]

Register
(12) AHBAnep, BugEyes, caro, Marek, Mogozoz, Olethros, talismanFS, VALERY, wreak, Yamanov, zhol, Сварог Барг,
Aug 7 2021, 08:34:18 Suffocated - Your Body Is The Hardest Metal (2017)
Register
MP3@320
(3) Vovannn, wreak, Xtohar,
Aug 7 2021, 08:33:35 Suffocated - Perilous Journey (2015)
Register
MP3@320
(4) METALHUNTER, oldvarg, Vovannn, Xtohar,
Aug 7 2021, 08:32:52 Suffocated - World Of Confusion (2010)
Register
MP3@320
(4) METALHUNTER, stumpheavyrock, wreak, Xtohar,
Aug 7 2021, 08:31:46 Suffocated - Dead Wind Rising (2006)
Register
MP3@320
(5) christhrash, METALHUNTER, Vovannn, wreak, Xtohar,
Aug 7 2021, 08:26:16 Suffocated - Infinity (2020)


*Artist: Suffocated
*Album: Infinity
*Year: 2020
*Genre: Melodic Death/Thrash Metal
*Country: China
*Format: mp3@CBR320kbps
*Size: 105MB

Tracklist:
1. Intro
2. Jam Jin Han
3. Atlantis
4. Returned
5. Giant Whale
6. Under Dawn
7. Jam Jin Han (Instrumental)
8. Atlantis (Instrumental)
9. Giant Whale (Instrumental)
10. Under Dawn (Instrumental)
******************************
Total playing time: 47:12

[more=Technical info]
Input File: 01 - Intro.mp3
Channels : 2
Sample Rate : 44100
Precision : 16-bit
Duration : 00:01:59.73 = 5280225 samples = 8979.97 CDDA sectors
File Size : 5.11M
Bit Rate : 341k
Sample Encoding: MPEG audio (layer I, II or III)
Comments :
Title=Intro
Artist=Suffocated
Album=Infinity
Tracknumber=01/10
Year=2020
Genre=Melodic Death/Thrash Metal

[/more]

Register
(25) after21allD, boby9052, BugEyes, caro, chipsgott, chon, Elfrey, Lukittaz, Marek, METALHUNTER, metaljosue, Mogozoz, oldvarg, Olethros, postal67, sergsazan, stumpheavyrock, supremo, Taakeferd, terron, VALERY, Vovannn, vyacheslav, wanderer73, wreak,
Feb 21 2020, 08:44:40 Demons & Wizards - III (2020)
FLAC 488mb
Register
(5) BandR75, infiltrator, Olethros, Rudolfo_Metal, SAPOGi,
Jul 3 2017, 07:51:58 Soul Massacre - Purgatory System (2017)
metaler.gif metaler.gif metaler.gif

Register
(15) avkruchinin, Buregon, DarkHorde, Deadmick, djsema4, Hell_Is_Here, infiltrator, jollo, METALHUNTER, Mist13Signifier, Phlebotomized, Razorbladeswaltz, StoneTemple, VALERY, vyacheslav,
Jun 9 2017, 08:11:58 Suicidal Causticity - The Human Touch (2017)
metaler.gif
(1) defamer666,
Feb 9 2014, 10:24:55 Darkside - Evolution (1998)
Перезалил 256kbps 73mb

Register


5.gif 5.gif 5.gif
(4) dermarsoran, kim666, SyncestrA, wreak,
Aug 20 2013, 16:13:08 Collapse - Arms And The Covenant (2013)
красотища!!! metaler.gif
(1) slack,
Dec 12 2012, 12:27:13 Lamb Of God - Resolution (2012)
CD-Rip mp3@320 ; Lame3.93 ; +Covers ; 143 MB


[more=Спектр][/more]


Register
(5) burn235, crackedbrain, ElfinQueen, mimoladoff, wreak,
Oct 31 2012, 10:00:16 Evocation - Illusions Of Grandeur (2012)
CD-RIP , LAME 3.93.1 mp3@320 ; 98.9Mb ; Продолжительность 42:06

[more=Спектр]

[/more]

Register
(13) AHBAnep, Ash_1980, BRUTAL06, chon, CRUNCH, Hell_Is_Here, metaljan, Nonconformist, samokot, sperminator, tranquillit, zhol, Дерсу Узала,
Jul 27 2012, 11:31:12 Fourth Dimension - За Гранью [ep] (2006)


*Artist: Fourth Dimension
*Album: За Гранью [ep]
*Year: 2006
*Genre: Deathcore/Metalcore
*Country: Russian Federation
*Format: mp3@CBR320kbps
*Size: 45MB

Tracklist:
1. За Гранью
2. Помнить (Live)
3. Тот, Кто (Live)
4. Inner Beast
5. For All
******************************
Total playing time: 19:46

[more=Extended info]


Input File: 01 - За Гранью.mp3
Channels : 2
Sample Rate : 44100
Precision : 16-bit
Duration : 00:03:56.69 = 10438205 samples = 17752 CDDA sectors
File Size : 9.49M
Bit Rate : 321k
Sample Encoding: MPEG audio (layer I, II or III)
Comments :
Title=За Гранью
Artist=Fourth Dimension
Album=За Гранью
Tracknumber=01
Year=2006
Genre=Deathcore

[/more]

Register
(2) artscald, varlam4,

9 Pages V   1 2 3 > » 
- Lo-Fi Version Support form
Copyrights and abuse reports form
Time is now: 13th July 2024 - 03:46:31