Welcome Guest ( Log In | Register )

История благодарностей участнику Nordavind ::: Спасибо сказали: 325 раз(а)
Дата поста: В теме: За сообщение: Спасибо сказали:
Jun 30 2022, 08:10:54 Black Eden - Cradle Of Fright (2022)
Я бы даже сказал Dark metal. Хороший альбом, мрачный, напоминает утяжеленный 69 Eyes
(1) Kitalter,
Mar 21 2022, 15:59:38 Кметъ - Солнце, Ладога И Киев (2022)
Лютая дичь вперемешку с речитативом. Чуть не стошнило.
(1) Chasm,
Mar 16 2022, 08:24:29 Chimera - Gloria Mortis (2022)
Где тут хэви то? Натуральный Death. Жесткий, техничный, с элементами прогрессива.
(1) piwimetal,
Feb 24 2022, 12:41:21 Grailknights - Muscle Bound For Glory (2022)
Жуткая дичь и клоунада. Без MDM.
(1) satanist666,
Jan 28 2022, 11:14:28 Serious Black - Vengeance Is Mine (2022)
Что то в какой-то gay-metal скатились.
(1) Shadechaser,
Dec 7 2021, 10:49:31 Blind Guardian - Deliver Us From Evil [ep] (2021)
Странно, что нет комментариев. А как по мне, так скукота, кончилась группа.
(1) MeatWolf,
Jul 2 2021, 14:16:50 Die Apokalyptischen Reiter - The Divine Horsemen (2021)
Как была смешная говногруппа, так и осталась.
(2) infiltrator, Radwind,
Jul 2 2021, 14:14:38 Burning Darkness - Dödens Makt (2021)
https://www.youtube.com/watch?v=Wr89H99pXTk
Это просто жесть
(1) artscald,
Jun 4 2021, 09:28:48 Kárpátia - Csatazaj (2021)
Да где там Metal то? Фолк Рок. Зачем дезинформировать?
(2) AlexHellhammer1602, infiltrator,
Apr 19 2021, 13:54:20 Thyrfing - Döp Dem I El [studio clip] (2021)
Отличная телега, Jens красавчик.
(1) Thiarnan,
Apr 13 2021, 11:18:38 Massen - Contraesthetic (2021)
Отличный альбом.
(1) nsk2008,
Jan 19 2021, 10:25:55 Sufosia - Connection Failed (2021)
В начале превью было норм, но вокал сразу убил thrash в стиле. И получился да, очень простенький, третьесортный хэви.
(1) Andrew,
Jan 11 2021, 07:25:11 Aztlan - Legión Mexica (2021)
QUOTE(Сварог Барг @ Jan 10 2021, 11:28:43) *
Какофония.

Ага, просто адская. В плохом смысле этого слова.
(1) Metalass,
Aug 11 2020, 11:46:49 Enslaved - Jettegryta [studio clip] (2020)
Странную музыка стали Enslaved играть..... Сложная для восприятия.
(1) Typhoid,
Jul 30 2020, 10:33:26 Night In Gales - Dawnlight Garden (2020)
QUOTE(sadmannn @ Jul 23 2020, 23:53:31) *
ну, как и 20 лет назад им сказать было нечего, собственно, и теперь..не нашлось, ни музыки, ни слов

Ага, как играли в 2000 второсортную тягомотину, так и продолжают, ничего не изменилось.
(1) Deze,
Jul 14 2020, 13:26:40 Samael - Transcendence [single] (2020)
QUOTE(Alexis The Best @ Jul 13 2020, 18:40:11) *
как говорят, на вкус и цвет фломастеры разные )))

то же самое было у меня с альбомом Ceremony of Opposites - он полностью изменил моё представление о тяжёлом металле и о блэке тоже (хотя тут уже больше дарк-метал)
Worship Him - как бы интересный альбом, но не более чем
для меня вершина их творчества - в 94-м!

6666666, bang.gif

Такая же фигня.
(1) Alexis The Best,
May 19 2020, 09:47:43 Natural Spirit - Під Серпом Часу (2020)
Намного хуже даже предыдущего (Цена Свободы 2011), что уж говорить про Ситу Росу.
(2) infiltrator, Сварог Барг,
Nov 30 2018, 10:00:34 A Canorous Quintet - The Only Pure Hate MMXVIII (2018)
@320
Register
(20) AHBAnep, AvantKitty, avather, dimmannius, infiltrator, Jester, kimkayoung, Ludwig Hagen, Metalass, MMMMM, Mogozoz, oldthrashman, Olethros, PainMiseryDeath, pirata, Reverend, rickzammuto, samokot, smes, Zenial,
Nov 29 2018, 16:37:27 A Canorous Quintet - The Only Pure Hate MMXVIII (2018)
QUOTE(Daale @ Nov 29 2018, 20:12:50) *
avather, Ну тут новый трек. Плюс, материал перезаписан.

Ага.

"This year the album “The only pure hate” has it’s 20th birthday.
For this celebration the album has been re-recorded. But not only due to the anniversary, but also because of the poor sound quality on the original recording. For that reason we think that the songs deserves a new chance.
The release will include a previously unreleased track called “The plague that haunts me” which was meant to be included on the original recording but was dropped at that time."
(1) JantoHadez,
Nov 29 2018, 13:31:42 A Canorous Quintet - The Only Pure Hate MMXVIII (2018)


*Artist: A Canorous Quintet
*Album: The Only Pure Hate MMXVIII
*Year: 2018
*Genre: Melodic Death Metal
*Country: Sweden
*Format: mp3@CBR320kbps
*Size: 108MB

Tracklist:
1. Self Deceiver (The Purest of Hate) 03:08
2. Embryo of Lies 03:52
3. Red 04:30
4. The Void 04:14
5. Everbleed 02:42
6. The Complete Emptiness 05:55
7. Retaliation 04:22
8. Realm of Rain (Crystal Part 1) 03:39
9. The Storm (Crystal Part 2) 02:43
10. Land of the Lost (Crystal Part 3) 05:37
11. The Plague That Haunts Me 03:47
******************************
Total playing time: 44:29

[more=Extended info]Linus Pettersson Bass
Linus Nirbrant Guitars
Fredrik Andersson Drums
Mårten Hansen Vocals
Peter Nxz Nagy Guitars[/more]

[more=Technical info]
Input File: 01 Selfdeceiver (The Purest of Hate).mp3
Channels : 2
Sample Rate : 44100
Precision : 16-bit
Duration : 00:03:08.67 = 8320171 samples = 14150 CDDA sectors
File Size : 8.13M
Bit Rate : 345k
Sample Encoding: MPEG audio (layer I, II or III)
Comments :
Title=Selfdeceiver (The Purest of Hate)
Artist=A Canorous Quintet
Album=The Only Pure Hate - MMXVIII-
Tracknumber=1/11
Year=2018
Genre=Metal
Discnumber=1/1

[/more]

Register
(30) artscald, BERZERK, canadaspaceman, crestfallen999, Daale, DenisKov, dimpa, gwynnbleid, Hell_Is_Here, Indamage, infiltrator, ironyserg, JantoHadez, Korpse, Metalass, MMMMM, Orphan, Ostinato, Paradayz, ripper33, Rosen, Samogon, satanist666, Thunderbird, Typhoid, VALERY, varlam4, wreak, xska, zhol,
May 30 2017, 13:11:54 Orden Ogan - Gunmen [studio clip] (2017)
А вот нормальный бы обменник? Этот заблокирован.
И да, песня отличная, жду альбом.
(1) Foneg,
Dec 26 2016, 09:17:19 Varang Nord - Call Of Battle [ep] (2016)
Fuflo
(1) Смусмумбрик,
Dec 15 2016, 15:34:46 Asylum - Into The Web (1992)


*Artist: Asylum
*Album: Into The Web
*Year: 1992
*Genre: Gothic Rock
*Country: Germany
*Format: mp3@CBR320kbps
*Size: 105MB

Tracklist:
1. Into The Web
2. Breed
3. Roses On Devotion
4. Sole Survivor
5. Spectrum
6. Brainchild
7. Gods
8. White Rider
9. Enemy
10. Desolation
******************************
Total playing time: 45:50



[more=Technical info]
Input File: 01 - Into The Web.mp3
Channels : 2
Sample Rate : 44100
Precision : 16-bit
Duration : 00:04:30.03 = 11908323 samples = 20252.2 CDDA sectors
File Size : 10.8M
Bit Rate : 321k
Sample Encoding: MPEG audio (layer I, II or III)
Comments :
Title=Into The Web
Artist=Asylum
Album=Into The Web
Tracknumber=1
Genre=Industrial

[/more]

Register
(6) Buregon, Cartman223, metala, satyro1980, v.v.m, Velkaarn,
Dec 6 2016, 13:03:18 Изморозь - Язь (2016)
Как обычно очень слабенький альбом. Такого класса, как "Избушка..." похоже уже не сделать. Жаль.
(2) Aresson, infiltrator,
Dec 2 2016, 13:31:20 Сруб - Ересь (2016)
Какая же хрень
(1) Aresson,

5 Pages V   1 2 3 > » 
- Lo-Fi Version Support form
Copyrights and abuse reports form
Time is now: 7th July 2022 - 10:55:49